<?xml version="1.0" standalone="no"?>
<!DOCTYPE svg PUBLIC "-//W3C//DTD SVG 1.1//EN" "http://www.w3.org/Graphics/SVG/1.1/DTD/svg11.dtd" >
<svg xmlns="http://www.w3.org/2000/svg">
<metadata></metadata>
<defs>
<font id="distefanosansblack" horiz-adv-x="1042" >
<font-face units-per-em="2048" ascent="1536" descent="-512" />
<missing-glyph horiz-adv-x="409" />
<glyph unicode="&#xfb00;" horiz-adv-x="1189" d="M16 690v271l80 16v31q0 197 106.5 295t305.5 98q23 0 45 -1t35 -3l47 -301q-27 8 -62 8q-41 0 -65.5 -19.5t-24.5 -58.5q0 -18 4 -35q2 -8 7 -14h145v31q0 197 106.5 295t305.5 98q23 0 49 -1t39 -3l47 -301q-16 4 -34.5 6t-35.5 2q-41 0 -65.5 -19.5t-24.5 -58.5 q0 -18 4 -35q2 -8 6 -14h148v-287h-160v-690h-412l19 178v512h-150v-690h-411l18 178v512h-72z" />
<glyph unicode="&#xfb01;" horiz-adv-x="1103" d="M16 690v271l80 16v22q0 207 111.5 304.5t327.5 97.5q8 0 18 -1t20 -1q10 -2 21 -2l29 -191l194 197l242 -240l-189 -186h154v-977h-418l19 178l8 512h-152v-690h-418l25 176v514h-72zM483 1018q0 -12 4 -29q2 -8 5 -12h278l-119 117q-12 4 -30.5 8t-34.5 4 q-43 0 -73 -22.5t-30 -65.5z" />
<glyph unicode="&#xfb02;" horiz-adv-x="1101" d="M16 688v273l80 16v35q0 119 38 194.5t107.5 118.5t167 59.5t218.5 16.5q39 0 95 -3t113.5 -8.5t108.5 -11.5t80 -12v-1366h-418l19 178l10 924q-4 2 -20.5 4t-34.5 2q-45 0 -71 -24.5t-26 -63.5q0 -12 4 -29q2 -8 5 -14h88v-289h-99v-688h-418l25 168v520h-72z" />
<glyph unicode="&#xfb03;" horiz-adv-x="1652" d="M16 690v271l80 16v31q0 197 106.5 295t305.5 98q23 0 45 -1t35 -3l47 -301q-27 8 -62 8q-41 0 -65.5 -19.5t-24.5 -58.5q0 -18 4 -35q2 -8 7 -14h145v31q0 197 106.5 295t305.5 98q23 0 49 -1t39 -3l28 -187l189 193l241 -240l-192 -186h162v-977h-412l19 176v514h-150 v-690h-412l19 178v512h-150v-690h-411l18 178v512h-72zM1026 1026q0 -18 4 -35q2 -8 6 -14h271l-121 121v-2q-16 4 -34.5 6t-35.5 2q-41 0 -65.5 -19.5t-24.5 -58.5z" />
<glyph unicode="&#xfb04;" horiz-adv-x="1652" d="M16 690v271l80 16v31q0 197 106.5 295t305.5 98q23 0 45 -1t35 -3l47 -301q-27 8 -62 8q-41 0 -65.5 -19.5t-24.5 -58.5q0 -18 4 -35q2 -8 7 -14h143v35q0 119 38 194.5t107.5 118.5t167 59.5t217.5 16.5q39 0 96.5 -3t118 -8.5t112.5 -11.5t81 -12v-1366h-418l19 178 l10 924q-4 2 -25.5 4t-40.5 2q-45 0 -70.5 -24.5t-25.5 -63.5q0 -12 4 -29q2 -8 4 -14h88v-289h-98v-688h-418l25 168v520h-72v2h-76v-690h-411l18 178v512h-72z" />
<glyph horiz-adv-x="0" />
<glyph unicode="&#xd;" horiz-adv-x="409" />
<glyph unicode=" "  horiz-adv-x="409" />
<glyph unicode="&#x09;" horiz-adv-x="409" />
<glyph unicode="&#xa0;" horiz-adv-x="409" />
<glyph unicode="!" horiz-adv-x="524" d="M72 150q0 80 54 130t146 50q86 0 132.5 -46t46.5 -126q0 -78 -52.5 -127t-138.5 -49q-92 0 -140 45t-48 123zM98 397v899h412l-80 -899h-332z" />
<glyph unicode="&#x22;" horiz-adv-x="632" d="M41 731v459h240v-459h-240zM352 731v459h240v-459h-240z" />
<glyph unicode="#" d="M29 240v225h178l41 215h-180v227h223l53 283h246l-53 -283h88l53 283h244l-54 -283h144v-227h-187l-39 -215h183v-225h-226l-45 -240h-245l45 240h-88l-45 -240h-246l45 240h-135zM453 465h88l39 215h-86z" />
<glyph unicode="$" d="M92 25l70 286q47 -16 119.5 -29.5t144.5 -13.5q117 0 117 51q0 27 -39 44.5t-98 37.5t-116 46t-100 63t-68.5 89t-25.5 128q0 150 95.5 239t252.5 119v211h203v-194q111 -2 187.5 -17.5t119.5 -25.5l-71 -281q-49 18 -107.5 29.5t-130.5 11.5q-47 0 -81 -11t-34 -44 q0 -31 45.5 -48.5t104.5 -39.5q55 -20 108.5 -45t95.5 -62t67.5 -90t25.5 -127q0 -150 -89 -231.5t-241 -116.5v-217h-203v195h-22q-102 0 -187 13t-143 30z" />
<glyph unicode="%" horiz-adv-x="1107" d="M14 895q0 63 16.5 119.5t50.5 97.5t85 64.5t121 23.5t118 -23.5t78.5 -64.5t44 -97.5t13.5 -119.5q0 -66 -17.5 -123t-51.5 -98t-85 -64.5t-121 -23.5t-118 23.5t-77.5 64.5t-43 98t-13.5 123zM111 0l696 1190h188l-696 -1190h-188zM229 895q0 -68 5.5 -110t37.5 -42 q35 0 45.5 42t10.5 110t-6.5 107.5t-40.5 39.5q-33 0 -42.5 -39.5t-9.5 -107.5zM567 301q0 63 16.5 119.5t50.5 97.5t85 64.5t121 23.5t118 -23.5t78.5 -64.5t44 -97t13.5 -120q0 -66 -17.5 -123t-51.5 -98t-85 -64.5t-121 -23.5t-118 23.5t-77.5 64.5t-43 98t-13.5 123z M782 301q0 -68 5.5 -109.5t37.5 -41.5q35 0 45.5 41.5t10.5 109.5t-6.5 108t-40.5 40q-33 0 -42.5 -40t-9.5 -108z" />
<glyph unicode="&#x26;" horiz-adv-x="1370" d="M18 371q0 94 41 173t113 138q-35 41 -55.5 95t-20.5 104q0 76 30 137t85 103t132 64.5t171 22.5q72 0 135.5 -13t111.5 -42t79.5 -72t38.5 -104h338l178 14l-54 -291h-190q-4 -72 -16.5 -154.5t-32.5 -139.5q51 -23 113.5 -46.5t119.5 -44.5l-57 -333q-39 8 -86 23 t-96 33.5t-96.5 40t-84.5 40.5q-74 -63 -176 -100t-235 -37q-104 0 -192.5 26.5t-154 75.5t-102.5 122t-37 165zM389 367q0 -41 31 -67t72 -26q29 0 47 7.5t34 21.5q-33 20 -77.5 53t-87.5 74q-18 -23 -19 -63zM487 846q0 -33 20.5 -65.5t55.5 -63.5q16 29 25.5 61.5 t9.5 59.5q0 63 -57 63q-23 0 -38.5 -15.5t-15.5 -39.5zM584 700q43 -35 91 -66.5t89 -53.5q6 18 11 55t5 65h-196z" />
<glyph unicode="'" horiz-adv-x="327" d="M41 731v459h246v-459h-246z" />
<glyph unicode="(" horiz-adv-x="448" d="M37 492q0 92 16.5 188t45 188.5t68.5 176t87 151.5l176 -117q-61 -100 -105 -249.5t-44 -337.5t44 -341t105 -251l-180 -113q-47 68 -87 152t-67.5 176t-43 188t-15.5 189z" />
<glyph unicode=")" horiz-adv-x="448" d="M18 -100q61 98 105.5 250.5t44.5 341.5q0 188 -44 337.5t-106 249.5l177 117q47 -68 87 -151.5t68.5 -176t45 -188.5t16.5 -188t-15.5 -188.5t-43 -188.5t-67.5 -176t-87 -152z" />
<glyph unicode="*" horiz-adv-x="743" d="M23 860l180 47l-176 56l127 217l129 -119l-47 172h274l-41 -170l127 117l125 -224l-172 -47l172 -49l-129 -221l-123 113l41 -162h-274l47 164l-129 -111z" />
<glyph unicode="+" d="M100 463v229h299v305h244v-305h297v-229h-297v-299h-244v299h-299z" />
<glyph unicode="," horiz-adv-x="442" d="M31 143q0 84 55 135.5t141 51.5t134.5 -44t48.5 -130q0 -59 -22.5 -104.5t-53.5 -90.5l-86 -125l-142 17l37 149q-18 6 -38.5 15.5t-37 25.5t-26.5 41t-10 59z" />
<glyph unicode="-" horiz-adv-x="626" d="M37 377v231h553v-231h-553z" />
<glyph unicode="." horiz-adv-x="442" d="M31 150q0 80 54 130t146 50q86 0 132.5 -46t46.5 -126q0 -78 -52.5 -127t-138.5 -49q-92 0 -140 45t-48 123z" />
<glyph unicode="/" horiz-adv-x="665" d="M2 0l401 1190h261l-400 -1190h-262z" />
<glyph unicode="0" d="M14 586q0 129 31 242.5t95.5 197.5t163.5 133t237 49q137 0 230 -46t150.5 -126t81 -190.5t23.5 -239.5q0 -133 -30.5 -246.5t-95 -197.5t-165 -132t-237.5 -48t-230.5 45t-150 124.5t-80 190.5t-23.5 244zM424 586q0 -68 2 -121t10 -90t26.5 -56.5t51.5 -19.5t53.5 22.5 t31.5 63.5t15 97.5t4 123.5q0 68 -1 121t-9 89t-26.5 55.5t-51.5 19.5q-66 0 -86 -85t-20 -220z" />
<glyph unicode="1" d="M61 983q92 12 191.5 66.5t165.5 140.5h373l-29 -871h235v-319h-934v319h281l21 447l-11 2l-37 -57q-14 -10 -38.5 -20.5t-52 -19.5t-56.5 -16.5t-51 -11.5z" />
<glyph unicode="2" d="M23 829l69 336q14 4 47 11.5t77 14.5t97.5 12t108.5 5q111 0 208 -23.5t170.5 -74.5t115.5 -129t42 -188q0 -131 -69.5 -241t-241.5 -220l4 -15h170l180 19v-336h-960v297q168 98 268.5 166.5t154.5 119t71.5 89.5t17.5 78q0 68 -59.5 100.5t-147.5 32.5 q-70 0 -148.5 -12.5t-174.5 -41.5z" />
<glyph unicode="3" d="M41 348q25 -8 63.5 -16t87 -14.5t101.5 -10.5t108 -4q68 0 116 17.5t48 60.5q0 47 -49 66.5t-123 19.5h-174v268h178q72 0 116 15.5t44 62.5q0 41 -44 61.5t-122 20.5q-98 0 -184 -16.5t-156 -34.5l66 332q59 12 136 22t193 10q104 0 198.5 -19.5t167.5 -61.5t115 -108.5 t42 -160.5q0 -86 -39 -147.5t-111 -98.5v-10q29 -14 57.5 -36.5t52 -53.5t38 -72t14.5 -92q0 -102 -48 -173t-127 -114t-179.5 -61t-204.5 -18q-39 0 -83 1t-88 4t-85 8t-72 15z" />
<glyph unicode="4" d="M20 170v324l381 696h492v-723h113v-297h-115v-170h-391v170h-480zM344 477l2 -10h170v262l14 59q-2 0 -5 2.5t-7 2.5l-127 -285z" />
<glyph unicode="5" d="M41 344q12 -2 49 -9t88 -14.5t109.5 -13.5t113.5 -6q98 0 140.5 23.5t42.5 66.5q0 57 -77 83t-253 26h-123v690h805v-342l-182 20h-219v-92q104 -10 189 -37.5t145.5 -75t93 -114t32.5 -156.5q0 -109 -44 -186.5t-117.5 -127.5t-172 -73.5t-206.5 -23.5q-106 0 -197.5 9 t-165.5 29z" />
<glyph unicode="6" d="M29 561q0 135 31.5 254t103.5 206t188.5 137t286.5 50q96 0 171 -14t124 -27l51 -323q-59 14 -137 28.5t-154 14.5q-111 0 -168 -31t-73 -108h32q109 0 206 -15.5t171 -56.5t117 -110.5t43 -178.5q0 -92 -35 -168t-98.5 -128t-153.5 -80.5t-200 -28.5q-141 0 -237.5 46 t-157 125.5t-86 185t-25.5 222.5zM434 475q0 -84 23.5 -130t89.5 -46q37 0 59.5 25.5t22.5 62.5q0 31 -15.5 48.5t-40 26.5t-54.5 11t-60 2h-25z" />
<glyph unicode="7" d="M43 846v344h952v-340q-104 -90 -167.5 -204t-96.5 -229.5t-43 -222t-10 -178.5v-16h-416v16q0 244 73 457t197 361l64 24l-2 12h-373z" />
<glyph unicode="8" d="M16 315q0 82 48.5 152t119.5 117v10q-51 37 -95 98.5t-44 153.5t43 160.5t113.5 112.5t161 66.5t182.5 22.5q88 0 172 -17t149.5 -55t105.5 -101.5t40 -155.5q0 -82 -42 -146.5t-102 -105.5v-11q27 -18 53.5 -43.5t47 -58.5t34 -73t13.5 -87q0 -96 -44 -165.5 t-118 -115.5t-169 -68.5t-198 -22.5q-92 0 -177 16t-150.5 55t-104.5 102.5t-39 159.5zM365 367q0 -41 34.5 -58.5t85.5 -17.5q43 0 85 19.5t42 56.5q0 61 -118 92l-29 6q-43 -16 -71.5 -43t-28.5 -55zM434 844q0 -33 34 -54.5t91 -37.5l21 -4q35 14 59.5 37.5t24.5 52.5 q0 39 -31 58t-84 19q-41 0 -78 -18t-37 -53z" />
<glyph unicode="9" d="M14 803q0 92 35 168t98.5 128t153.5 80.5t201 28.5q141 0 237.5 -46t156.5 -126t86 -185.5t26 -221.5q0 -135 -32 -254t-103.5 -206t-188.5 -137t-287 -50q-96 0 -170.5 14t-124.5 27l-51 323q59 -14 137 -28.5t154 -14.5q111 0 168 31t74 108h-33q-109 0 -206 15.5 t-171 56.5t-117 110.5t-43 178.5zM408 803q0 -31 15 -48.5t39.5 -26.5t54.5 -11t61 -2h24q0 84 -23.5 130t-89.5 46q-37 0 -59 -25.5t-22 -62.5z" />
<glyph unicode=":" horiz-adv-x="442" d="M31 150q0 80 54 130t146 50q86 0 132.5 -46t46.5 -126q0 -78 -52.5 -127t-138.5 -49q-92 0 -140 45t-48 123zM31 815q0 80 54 130t146 50q86 0 132.5 -46t46.5 -126q0 -78 -52.5 -127t-138.5 -49q-92 0 -140 45t-48 123z" />
<glyph unicode=";" horiz-adv-x="442" d="M31 143q0 84 55 135.5t141 51.5t134.5 -44t48.5 -130q0 -59 -22.5 -104.5t-53.5 -90.5l-86 -125l-142 17l37 149q-18 6 -38.5 15.5t-37 25.5t-26.5 41t-10 59zM31 815q0 80 54 130t146 50q86 0 132.5 -46t46.5 -126q0 -78 -52.5 -127t-138.5 -49q-92 0 -140 45t-48 123z " />
<glyph unicode="&#x3c;" d="M72 600l712 502l121 -180l-459 -322l463 -326l-129 -180z" />
<glyph unicode="=" d="M100 299v231h840v-231h-840zM100 629v231h840v-231h-840z" />
<glyph unicode="&#x3e;" d="M133 274l463 326l-459 322l121 180l713 -502l-709 -506z" />
<glyph unicode="?" horiz-adv-x="880" d="M20 963l50 317q39 10 111.5 22.5t164.5 12.5q106 0 200.5 -24.5t164 -75t110.5 -127t41 -181.5q0 -72 -26.5 -136t-73.5 -116.5t-110.5 -89.5t-139.5 -55l-10 -111h-326v291q117 10 197 55.5t80 126.5q0 66 -45.5 97.5t-135.5 38.5q-68 0 -130 -11.5t-122 -33.5zM150 150 q0 80 54 130t146 50q86 0 132 -46t46 -126q0 -78 -52 -127t-138 -49q-92 0 -140 45t-48 123z" />
<glyph unicode="@" horiz-adv-x="1218" d="M16 334q0 131 43 252t125 211t202 144t273 54q131 0 231.5 -42t170 -113.5t105.5 -168t36 -202.5q0 -96 -27.5 -182t-85 -149.5t-145.5 -100.5t-211 -37l-22 82h-9q-14 -29 -57 -55.5t-100 -26.5q-55 0 -98.5 27.5t-72 71.5t-43 100.5t-14.5 111.5q0 182 94.5 283.5 t276.5 101.5q76 0 116 -5t68 -9l-12 -133v-258l12 -64q23 10 42.5 34t33 55.5t20.5 67.5t7 73q0 330 -322 329q-98 0 -172.5 -34.5t-126 -95t-77 -144.5t-25.5 -182q0 -205 100.5 -316.5t294.5 -111.5q131 0 227.5 34.5t167.5 73.5v-223q-74 -37 -180 -63.5t-229 -26.5 q-156 0 -271.5 48t-192.5 133t-115 202t-38 254zM557 330q0 -53 9 -86t28 -33q29 0 41 34t12 122v143h-8q-39 0 -60.5 -52t-21.5 -128z" />
<glyph unicode="A" horiz-adv-x="1220" d="M2 0l322 1296h665l225 -1296h-483v176l-6 53h-209l-37 -229h-477zM555 532h145l-53 406l-6 84h-10l-10 -84z" />
<glyph unicode="B" horiz-adv-x="1200" d="M82 0l18 201v1095h605q98 0 180 -20.5t141 -63.5t93 -109.5t34 -160.5q0 -104 -50 -173t-112 -91v-10q76 -35 130.5 -109t54.5 -199q0 -168 -110 -264t-327 -96h-657zM539 782h98q41 0 61.5 29t20.5 61q0 41 -23.5 69t-66.5 28h-90v-187zM541 332h88q47 0 73.5 24.5 t26.5 71.5t-30.5 71.5t-71.5 24.5h-86v-192z" />
<glyph unicode="C" horiz-adv-x="1083" d="M16 629q0 156 45 282.5t130 217t209 138.5t282 48q135 0 225 -21.5t144 -38.5l-97 -350q-29 18 -78 33.5t-108 15.5q-129 0 -204 -86t-75 -223q0 -139 68 -217t193 -78q84 0 151.5 35t116.5 88l65 -373q-63 -41 -169.5 -79.5t-266.5 -38.5q-139 0 -255 44t-199.5 127 t-130 202.5t-46.5 273.5z" />
<glyph unicode="D" horiz-adv-x="1245" d="M82 0l20 197v1099h441q344 0 515 -155.5t171 -501.5q0 -328 -161 -483.5t-505 -155.5h-481zM553 354h18q57 0 96.5 15.5t63 49.5t32.5 88t9 134q0 164 -41 232.5t-158 68.5h-20v-588z" />
<glyph unicode="E" horiz-adv-x="1077" d="M82 0l18 201v1095h942v-354h-491v-141h446v-314h-444v-151h496v-336h-967z" />
<glyph unicode="F" horiz-adv-x="1017" d="M82 0l18 201v1095h897v-354h-448v-168h418v-313h-416v-461h-469z" />
<glyph unicode="G" horiz-adv-x="1210" d="M16 606q0 162 44 293t131.5 223t218.5 142.5t303 50.5q113 0 217 -16.5t192 -38.5l-88 -345q-51 18 -114.5 35t-147.5 17q-172 0 -237.5 -88t-65.5 -261q0 -68 9 -123t29.5 -94t54.5 -60.5t85 -21.5q35 0 53.5 4.5t32.5 8.5v149h-135v289h530v-690q-86 -29 -216 -63.5 t-291 -34.5q-303 0 -454 160.5t-151 463.5z" />
<glyph unicode="H" horiz-adv-x="1255" d="M82 0l16 201v1095h453v-460h154v460h469l-17 -200v-1096h-452v492h-154v-492h-469z" />
<glyph unicode="I" horiz-adv-x="632" d="M82 0l18 201v1095h451v-1296h-469z" />
<glyph unicode="J" horiz-adv-x="792" d="M-20 356q57 -12 110 -12q78 0 122 33t44 110v474l-231 28v307h694l-17 -200v-619q0 -260 -160.5 -376.5t-457.5 -116.5q-20 0 -39.5 2t-26.5 4z" />
<glyph unicode="K" horiz-adv-x="1198" d="M82 0l20 201v1095h447v-450h12l8 72l121 378h496l-250 -573l256 -723h-490l-124 408h-11l-18 -39v-369h-467z" />
<glyph unicode="L" horiz-adv-x="890" d="M82 0l20 201v1095h445v-942h332v-354h-797z" />
<glyph unicode="M" horiz-adv-x="1720" d="M59 0l25 201l55 1095h643l76 -800v-72h14v72l89 800h667l-14 -200l18 -1096h-436v942h-14v-55l-158 -887h-330l-135 883v61h-12l-19 -944h-469z" />
<glyph unicode="N" horiz-adv-x="1290" d="M82 0l18 201v1095h490l231 -776h10l-10 78l-71 698h458l-22 -200v-1096h-488l-219 778h-12l12 -78l60 -700h-457z" />
<glyph unicode="O" horiz-adv-x="1251" d="M16 637q0 154 42 278.5t124 214t203 137.5t277 48q160 0 269 -43t177 -126t97.5 -206t29.5 -283q0 -322 -155.5 -498.5t-481.5 -176.5q-160 0 -270.5 42t-179 124.5t-100.5 205.5t-32 283zM502 635q0 -53 2 -107.5t12 -97.5t34.5 -69.5t67.5 -26.5q49 0 78 29.5 t43.5 75.5t18.5 103.5t4 112.5q0 51 -2 104.5t-12.5 95.5t-35 68.5t-67.5 26.5q-47 0 -75.5 -28.5t-44 -73.5t-19.5 -101.5t-4 -111.5z" />
<glyph unicode="P" horiz-adv-x="1159" d="M82 0l16 201v1095h584q106 0 191 -32.5t144.5 -93t92.5 -145.5t33 -191q0 -104 -33 -187.5t-93.5 -140.5t-146.5 -87t-192 -30h-131v-389h-465zM530 729h58q53 0 82.5 28.5t29.5 78.5q0 51 -29.5 80.5t-82.5 29.5h-58v-217z" />
<glyph unicode="Q" horiz-adv-x="1251" d="M16 633q0 336 158 509t479 173q166 0 277.5 -43t179.5 -126t96.5 -206t28.5 -283q0 -135 -21.5 -235t-64.5 -175t-110.5 -128t-159.5 -92l-5 -13l138 -247h-453l-88 225q-129 16 -217 66.5t-140.5 132t-75 192.5t-22.5 250zM492 641q0 -53 2 -107.5t13 -97.5t35.5 -69.5 t69.5 -26.5q51 0 80 29.5t44.5 76t19.5 103.5t4 113q0 51 -2 104t-13.5 95t-36 68.5t-69.5 26.5q-49 0 -79 -28.5t-45 -73.5t-19 -101.5t-4 -111.5z" />
<glyph unicode="R" horiz-adv-x="1214" d="M82 0l16 201v1095h604q98 0 181.5 -22.5t142.5 -68.5t92 -117.5t33 -172.5q0 -109 -52 -190.5t-147 -110.5v-8q68 -20 100.5 -66t51.5 -141l82 -399h-453l-41 358q-10 68 -36.5 95.5t-82.5 27.5h-22v-481h-469zM541 748h67q49 0 78 28.5t29 79.5q0 49 -29 77t-78 28h-67 v-213z" />
<glyph unicode="S" horiz-adv-x="1060" d="M31 31l84 340q8 -4 36.5 -13.5t72.5 -18.5t98.5 -17.5t111.5 -8.5q59 0 96 15.5t37 54.5q0 35 -36.5 56.5t-114.5 49.5q-57 20 -123 50t-122 74t-95 106.5t-43 150.5q0 117 42 201t117.5 138.5t178 80t223.5 25.5q113 0 212 -12.5t200 -40.5l-78 -332q-59 23 -143.5 40 t-163.5 17q-135 0 -136 -76q0 -33 48.5 -56.5t117.5 -49.5q68 -25 135.5 -55.5t122 -74.5t88 -107.5t33.5 -153.5q0 -121 -49 -204t-132 -133t-193.5 -72.5t-231.5 -22.5q-98 0 -198.5 12t-194.5 37z" />
<glyph unicode="T" horiz-adv-x="950" d="M10 942v354h930v-354h-246v-942h-469l19 201l14 741h-248z" />
<glyph unicode="U" horiz-adv-x="1210" d="M63 1296h472v-833q0 -55 14 -84t59 -29q47 0 64.5 28t17.5 85v633l-20 200h467v-829q0 -250 -140.5 -367.5t-402.5 -117.5t-387 115.5t-125 365.5v633z" />
<glyph unicode="V" horiz-adv-x="1200" d="M6 1296h494l84 -856v-88h14q0 33 1 51.5t1 26.5t2 10l88 656v200h504l-285 -1296h-641z" />
<glyph unicode="W" horiz-adv-x="1826" d="M20 1296h474l59 -942h14v88l74 654v200h530l74 -854v-88h15l59 742v200h487l-217 -1296h-588l-77 821l-4 92h-15l-6 -92l-106 -821h-584z" />
<glyph unicode="X" horiz-adv-x="1208" d="M6 0l221 686l-200 610h495l72 -374l6 -78h12l4 78l37 174l25 200h524l-219 -610l213 -686h-500l-82 403l-4 60h-12l-4 -60l-37 -202l-16 -201h-535z" />
<glyph unicode="Y" horiz-adv-x="1140" d="M6 1296h469l70 -436l4 -82h10l8 82l47 240l21 196h500l-355 -870v-426h-461v426z" />
<glyph unicode="Z" horiz-adv-x="1075" d="M31 0v395l481 535l51 20l-4 13h-510v333h981v-395l-463 -526l-59 -23l4 -12h317l215 22v-362h-1013z" />
<glyph unicode="[" horiz-adv-x="493" d="M76 -211v1401h397v-221h-156v-961h156v-219h-397z" />
<glyph unicode="\" horiz-adv-x="665" d="M2 1190h246l416 -1190h-250z" />
<glyph unicode="]" horiz-adv-x="493" d="M20 8h160v961h-160v221h398v-1401h-398v219z" />
<glyph unicode="^" d="M16 369l502 692l506 -688l-182 -133l-324 452l-317 -448z" />
<glyph unicode="_" horiz-adv-x="1128" d="M0 -127h1128v-231h-1128v231z" />
<glyph unicode="`" horiz-adv-x="1034" d="M221 1169l88 238l506 -199l-104 -114z" />
<glyph unicode="a" horiz-adv-x="1028" d="M25 276q0 86 34.5 147.5t97 101.5t148.5 60.5t189 26.5h61q0 59 -41 79t-125 22q-53 0 -103 -5.5t-93 -12.5t-75 -14t-50 -11l63 295q76 12 156 21t190 9q119 0 207 -22.5t146.5 -73.5t88 -135t29.5 -209v-352l19 -203h-293l-43 102h-13q-47 -51 -118.5 -85.5 t-175.5 -34.5q-129 0 -214 74.5t-85 219.5zM397 324q0 -33 19.5 -52.5t52.5 -19.5q51 0 71.5 41t22.5 100v43q-78 0 -122 -26.5t-44 -85.5z" />
<glyph unicode="b" horiz-adv-x="1048" d="M61 10l19 187v1185h401v-436h15q14 10 63 29.5t115 19.5q86 0 152.5 -31.5t112.5 -88t69.5 -136.5t23.5 -174q0 -119 -30.5 -224t-103.5 -185t-191.5 -127t-294.5 -47q-33 0 -76 2t-91 5t-95.5 8t-88.5 13zM463 381q0 -19 2 -37q0 -23 2 -45h18q41 0 68 18.5t43 48 t23.5 68.5t7.5 80q0 82 -16.5 124t-57.5 42q-33 0 -51.5 -25.5t-26.5 -64.5t-10 -87t-2 -91v-31z" />
<glyph unicode="c" horiz-adv-x="872" d="M16 473q0 121 38 218t108.5 165t172 103.5t226.5 35.5q70 0 154 -11t143 -28l-67 -307q-27 14 -70 26.5t-88 12.5q-92 0 -150.5 -51t-58.5 -141t51 -143.5t137 -53.5q59 0 114.5 24.5t92.5 59.5l53 -311q-18 -10 -48.5 -25.5t-73.5 -30t-99.5 -24.5t-126.5 -10 q-117 0 -211 34.5t-160.5 98t-101.5 154.5t-35 204z" />
<glyph unicode="d" horiz-adv-x="1034" d="M16 430q0 121 32 224.5t96.5 179t165 118.5t239.5 43h24v387h400l-17 -204v-1178h-272l-33 100h-12q-53 -61 -119.5 -89.5t-144.5 -28.5q-92 0 -160 33.5t-112 93t-65.5 141.5t-21.5 180zM420 469q0 -78 16.5 -125t57.5 -47q33 0 50 24.5t26.5 62.5t11.5 86t2 97 q0 27 -1 47.5t-1 34.5q-2 16 -2 29h-13q-41 0 -68.5 -17.5t-45 -46t-25.5 -66.5t-8 -79z" />
<glyph unicode="e" horiz-adv-x="1001" d="M16 477q0 111 34 205t98.5 163.5t161 109.5t220.5 40q127 0 213 -41t138.5 -111.5t74 -165.5t21.5 -206v-29.5t-2 -44.5h-543q6 -74 59.5 -101.5t157.5 -27.5q78 0 160 12.5t139 26.5l-59 -289q-45 -10 -135 -23t-191 -13q-274 0 -410.5 127t-136.5 368zM418 590h203 l8 14q0 51 -21.5 86t-72.5 35q-49 0 -81 -38t-36 -97z" />
<glyph unicode="f" horiz-adv-x="638" d="M16 690v271l80 16v31q0 197 106.5 295t305.5 98q23 0 45 -1t35 -3l47 -301q-27 8 -62 8q-41 0 -65.5 -19.5t-24.5 -58.5q0 -18 4 -35q2 -8 7 -14h106v-287h-119v-690h-411l18 178v512h-72z" />
<glyph unicode="g" horiz-adv-x="1040" d="M20 571q0 221 144.5 322.5t408.5 101.5q129 0 243 -9t212 -19v-273l-88 -8v-12q18 -23 31.5 -63t13.5 -83q0 -113 -80 -184.5t-215 -95.5v-12l107 -43q106 -43 165.5 -101.5t59.5 -150.5q0 -82 -45 -139.5t-119 -92.5t-166 -51t-186 -16q-96 0 -183 15t-154 48t-106.5 84 t-39.5 123q0 102 69.5 164.5t200.5 103.5v74q-121 27 -197 102.5t-76 214.5zM373 -8q0 -51 42 -67.5t99 -16.5q59 0 96 19.5t37 52.5q0 18 -15.5 35.5t-62.5 33.5l-149 49q-12 -16 -29.5 -43.5t-17.5 -62.5zM418 575q0 -70 17.5 -93t64.5 -23t72.5 23.5t25.5 92.5 q0 70 -19.5 97.5t-66.5 27.5t-70.5 -27.5t-23.5 -97.5z" />
<glyph unicode="h" horiz-adv-x="1058" d="M78 0v1382h422l-21 -196v-287h13q27 35 91 66.5t140 31.5q143 0 208.5 -85t65.5 -230v-682h-405v631q0 20 -11.5 34.5t-35.5 14.5q-63 0 -64 -125v-555h-403z" />
<glyph unicode="i" horiz-adv-x="561" d="M31 1155l250 252l256 -252l-183 -178h127v-977h-420l19 176v801h127z" />
<glyph unicode="j" horiz-adv-x="593" d="M-37 -49q27 -6 53 -6q53 0 75 27.5t22 80.5v621l-93 16v287h203l-176 178l250 252l256 -252l-182 -178h166l-21 -180v-742q0 -217 -97 -317t-323 -100q-6 0 -18 1t-25.5 2t-25 3t-15.5 2z" />
<glyph unicode="k" d="M61 0l19 178v1204h399v-710l13 -2l12 61l94 246h432l-217 -367l223 -610h-430l-104 322h-10l-13 -27v-295h-418z" />
<glyph unicode="l" horiz-adv-x="559" d="M61 0l19 178v1204h401v-1382h-420z" />
<glyph unicode="m" horiz-adv-x="1579" d="M61 977h301l44 -103h12q41 47 106.5 84t169.5 37q84 0 145.5 -29.5t98.5 -91.5h12q39 47 109.5 84t163.5 37q152 0 219 -80.5t67 -232.5v-682h-405v635q0 20 -13.5 32.5t-33.5 12.5q-41 0 -52.5 -36t-11.5 -77v-567h-401v635q0 20 -13.5 32.5t-33.5 12.5q-41 0 -52.5 -31 t-11.5 -82v-567h-403v788z" />
<glyph unicode="n" horiz-adv-x="1067" d="M61 977h301l44 -103h12q45 47 113.5 84t179.5 37q147 0 216.5 -80.5t69.5 -232.5v-682h-405v633q0 20 -12.5 33.5t-32.5 13.5q-41 0 -53.5 -35t-12.5 -96v-549h-403v782z" />
<glyph unicode="o" horiz-adv-x="1026" d="M16 479q0 113 33 208t98.5 164t160.5 106.5t222 37.5t217.5 -34.5t148.5 -99t86 -157t28 -204.5q0 -113 -35 -208t-101.5 -164t-165 -107.5t-223.5 -38.5q-127 0 -216 35.5t-145 100t-82 156.5t-26 205zM424 489q0 -41 2 -76.5t10 -63t23.5 -43t44.5 -15.5q63 0 81.5 54 t18.5 144q0 82 -13 138.5t-71 56.5q-33 0 -51 -16.5t-28.5 -43t-13.5 -62.5t-3 -73z" />
<glyph unicode="p" horiz-adv-x="1050" d="M61 -340l19 182v1135h287l43 -103h12q106 121 260 121q90 0 156.5 -33.5t109.5 -92t64.5 -140.5t21.5 -176q0 -121 -33.5 -222.5t-101.5 -175t-171 -114.5t-241 -41h-10v-340h-416zM467 361.5q0 -19.5 2 -33.5q0 -16 2 -29h12q41 0 69 17.5t45 46t25.5 66.5t8.5 79 q0 78 -16.5 125t-57.5 47q-33 0 -50.5 -24.5t-26.5 -62.5t-11 -86t-2 -97v-48.5z" />
<glyph unicode="q" horiz-adv-x="1048" d="M16 412q0 119 31 224t102.5 185t191.5 127t296 47q33 0 75 -1t89 -3t95 -5t91 -9l-18 -186v-1131h-402v375h-12q-20 -16 -68.5 -34.5t-111.5 -18.5q-86 0 -152.5 31.5t-113 88t-70 135t-23.5 175.5zM422 463q0 -82 16.5 -124t57.5 -42q33 0 51 25.5t26.5 64.5t10.5 87 t2 91q0 10 -1 29.5t-1 38.5q-2 23 -2 45h-19q-41 0 -67.5 -18.5t-43 -48t-23.5 -68.5t-7 -80z" />
<glyph unicode="r" horiz-adv-x="733" d="M61 977h293l35 -121h12q47 66 113 102.5t178 36.5l35 -325q-16 4 -31.5 6t-31.5 2q-104 0 -141.5 -59.5t-37.5 -163.5v-455h-403v786z" />
<glyph unicode="s" horiz-adv-x="888" d="M20 33l66 280q14 -6 46 -15t69 -17.5t76.5 -14.5t72.5 -6q57 0 87 11.5t30 39.5q0 25 -18.5 38t-63.5 30q-61 20 -123.5 43.5t-113 58.5t-82 83t-31.5 118q0 92 42 152.5t110.5 96.5t153.5 50t171 14q98 0 180 -13t154 -30l-64 -254q-12 4 -37.5 10.5t-56.5 11.5t-65.5 9 t-65.5 4q-49 0 -80 -13t-31 -46q0 -35 58 -56q70 -23 135.5 -47t116.5 -59t81.5 -85t30.5 -124q0 -86 -40 -147.5t-105.5 -99.5t-152.5 -56t-181 -18q-104 0 -201.5 14t-167.5 37z" />
<glyph unicode="t" horiz-adv-x="641" d="M20 690v275l82 12l39 215l346 104v-319h119v-287h-117v-315q0 -92 84 -92q18 0 33 3t31 9l-51 -301q-6 -2 -22.5 -4t-35 -4t-37 -3t-28.5 -1q-98 0 -170 19t-118 64.5t-68.5 120t-22.5 187.5v317h-64z" />
<glyph unicode="u" horiz-adv-x="1058" d="M70 297v680h405v-627q0 -53 47 -53q41 0 52.5 29.5t11.5 91.5v559h393v-793l18 -184h-303l-32 102h-13q-45 -51 -114.5 -85.5t-180.5 -34.5q-147 0 -215.5 81.5t-68.5 233.5z" />
<glyph unicode="v" horiz-adv-x="1028" d="M6 977h432l60 -592v-68h10l59 453v207h455l-246 -977h-543z" />
<glyph unicode="w" horiz-adv-x="1601" d="M16 977h420l51 -701h11v74l69 447v180h459l70 -627v-74h10l53 521v180h426l-176 -977h-541l-55 608v72h-12l-4 -72l-70 -608h-541z" />
<glyph unicode="x" horiz-adv-x="1040" d="M16 0l168 516l-168 461h430l56 -277l6 -65h10l6 65l25 93l31 184h444l-180 -463l178 -514h-430l-68 293l-8 67h-10l-4 -67l-31 -121l-10 -172h-445z" />
<glyph unicode="y" horiz-adv-x="1011" d="M6 977h424l86 -561h12v73l39 312v176h439l-283 -959q-61 -209 -206.5 -291.5t-369.5 -82.5q-18 0 -40.5 1t-40.5 3l-43 303q23 -4 45 -6t53 -2q72 0 119 26.5t55 85.5l6 43z" />
<glyph unicode="z" horiz-adv-x="919" d="M31 0v307l430 389l49 19l-2 10h-463v252h832v-320l-392 -372l-51 -21l4 -10h262l189 29v-283h-858z" />
<glyph unicode="{" horiz-adv-x="493" d="M-29 485v9l68 79q25 29 31 50.5t6 54.5v274q0 131 53 184.5t186 53.5h158v-221h-111q-29 0 -37 -6.5t-8 -36.5v-301q0 -35 -7 -55.5t-36 -55.5l-20 -25l20 -26q29 -35 36 -54.5t7 -54.5v-301q0 -31 8.5 -38t36.5 -7h111v-219h-158q-133 0 -186 53.5t-53 184.5v274 q0 29 -6.5 52.5t-30.5 52.5z" />
<glyph unicode="|" horiz-adv-x="391" d="M74 -264v1454h243v-1454h-243z" />
<glyph unicode="}" horiz-adv-x="493" d="M20 8h111q29 0 37 7.5t8 37.5v301q0 35 7 54.5t36 54.5l21 26l-21 25q-29 35 -36 55.5t-7 55.5v301q0 31 -8 37t-37 6h-111v221h158q133 0 186.5 -53.5t53.5 -184.5v-274q0 -33 6 -54.5t31 -50.5l67 -79v-9l-67 -79q-25 -29 -31 -50.5t-6 -54.5v-274q0 -131 -53.5 -184.5 t-186.5 -53.5h-158v219z" />
<glyph unicode="~" d="M100 434v238q29 23 93.5 46t148.5 23q41 0 87 -12t94 -27.5t94.5 -27.5t87.5 -12q84 0 145 30.5t90 50.5v-239q-29 -23 -93.5 -46.5t-148.5 -23.5q-41 0 -87 12.5t-93 26.5t-94 26.5t-88 12.5q-82 0 -144.5 -28.5t-91.5 -49.5z" />
<glyph unicode="&#xa1;" horiz-adv-x="524" d="M14 -319l80 899h332v-899h-412zM74 819q0 78 52 127t138 49q92 0 140.5 -45t48.5 -123q0 -80 -54.5 -130t-146.5 -50q-86 0 -132 46t-46 126z" />
<glyph unicode="&#xa2;" d="M53 522q0 115 32 209t89 166t139 119t183 69v211h202v-194q98 -4 169 -19.5t112 -25.5l-74 -328q-25 12 -57 21q-29 8 -66 14t-77 6q-57 0 -100.5 -18.5t-73 -51t-44 -74.5t-14.5 -87q0 -106 59.5 -167t165.5 -61q78 0 143.5 32t100.5 75l57 -332q-47 -33 -123.5 -60.5 t-177.5 -37.5v-201h-202v201q-94 12 -175 49t-140.5 102.5t-93.5 160.5t-34 222z" />
<glyph unicode="&#xa3;" d="M8 436l27 197h143v57q0 111 35 189.5t98.5 128t154.5 72t206 22.5q31 0 82 -5t103 -11.5t96 -14.5t63 -14l-70 -289q-47 8 -103.5 13t-107.5 5q-68 0 -106.5 -30.5t-38.5 -98.5v-24h344l-27 -197h-317v-117h235l179 17v-336h-963l20 281l117 28v127h-170z" />
<glyph unicode="&#xa4;" d="M51 883l174 174l131 -133q82 41 172 41t172 -41l129 131l164 -164l-129 -129q47 -82 47 -180q0 -90 -41 -172l129 -127l-174 -172l-129 129q-76 -39 -168 -39q-49 0 -94 11t-86 32l-133 -129l-162 161l135 134q-20 41 -31.5 83t-11.5 89q0 90 41 168zM377 582 q0 -63 44 -107.5t107 -44.5t108.5 44t45.5 108q0 63 -45 107t-109 44q-63 0 -107 -44t-44 -107z" />
<glyph unicode="&#xa5;" d="M10 1083h424l74 -319l4 -68h10l8 68l39 154l15 165h446l-127 -303h113l-27 -196h-168l-33 -80h228l-27 -197h-262v-307h-416v307h-282l26 197h195l-33 80h-188l26 196h80z" />
<glyph unicode="&#xa6;" horiz-adv-x="391" d="M74 -264v612h243v-612h-243zM74 580v610h243v-610h-243z" />
<glyph unicode="&#xa7;" horiz-adv-x="798" d="M31 520q0 66 30.5 127.5t71.5 102.5q-20 29 -34.5 68.5t-14.5 90.5q0 74 35 130.5t91 94t130 56t152 18.5q92 0 149 -10t104 -22l-59 -201q-33 10 -76 17t-94 7q-55 0 -104.5 -19t-49.5 -67q0 -39 31 -62.5t96 -57.5q68 -35 119 -68t87 -70t54.5 -83t18.5 -109 q0 -66 -30.5 -128.5t-69.5 -103.5q20 -29 33.5 -67.5t13.5 -89.5q0 -74 -34 -130.5t-89 -94t-129 -57t-154 -19.5q-92 0 -150.5 9t-105.5 23l56 203q16 -4 70 -15t114 -11q53 0 98 20.5t45 67.5q0 35 -27.5 58.5t-89.5 55.5q-68 35 -121 68t-89.5 71.5t-57 86t-20.5 110.5z M295 530q0 -41 44 -70.5t99 -58.5l41 -22q12 16 18.5 31.5t6.5 38.5q0 41 -40 69.5t-97 56.5l-48 25q-16 -16 -20 -32.5t-4 -37.5z" />
<glyph unicode="&#xa8;" horiz-adv-x="1034" d="M244 1100v286h227v-286h-227zM567 1100v286h226v-286h-226z" />
<glyph unicode="&#xa9;" horiz-adv-x="1083" d="M55 901q0 104 38 195.5t103.5 159t154 106.5t190.5 39q100 0 189 -39t154.5 -106.5t104.5 -158.5t39 -196q0 -104 -39 -194.5t-104.5 -158t-154.5 -106.5t-189 -39q-102 0 -190.5 39t-154 106.5t-103.5 158t-38 194.5zM154 901q0 -84 30.5 -155.5t82.5 -126t123 -85 t151 -30.5t150.5 30.5t123.5 85t84 126t31 155.5q0 82 -31 154.5t-84 126t-123.5 85t-150.5 31.5t-151 -31.5t-123 -85t-82.5 -126t-30.5 -154.5zM285 885q0 139 80.5 215t216.5 76q57 0 95 -8.5t56 -14.5l-41 -168q-14 6 -33.5 12.5t-52.5 6.5q-51 0 -80.5 -33t-29.5 -80 q0 -53 28.5 -82t79.5 -29q35 0 63.5 16.5t45.5 41.5l30 -172q-29 -20 -77 -36t-113 -16q-53 0 -102.5 17.5t-86 51.5t-58 84t-21.5 118z" />
<glyph unicode="&#xaa;" horiz-adv-x="618" d="M23 766q0 104 80.5 152.5t205.5 52.5l37 2q0 35 -24.5 46t-75.5 13q-66 0 -120 -10t-77 -16l39 180q47 8 95 13t116 5q143 0 216 -58.5t73 -209.5v-215l10 -125h-178l-27 63h-8q-29 -31 -72 -52t-108 -21q-78 0 -130 45t-52 135zM252 797q0 -18 13.5 -28.5t29.5 -10.5 q31 0 42 24.5t11 61.5v20q-96 0 -96 -67z" />
<glyph unicode="&#xab;" horiz-adv-x="1089" d="M14 553l451 485l180 -172l-301 -313l303 -315l-184 -170zM438 553l451 485l180 -172l-301 -313l303 -315l-184 -170z" />
<glyph unicode="&#xac;" d="M80 629v231h858v-561h-244v330h-614z" />
<glyph unicode="&#xad;" horiz-adv-x="626" d="M37 377v231h553v-231h-553z" />
<glyph unicode="&#xae;" horiz-adv-x="1083" d="M55 901q0 104 38 195.5t103.5 159t154 106.5t190.5 39q100 0 189 -39t154.5 -106.5t104.5 -158.5t39 -196q0 -104 -39 -194.5t-104.5 -158t-154.5 -106.5t-189 -39q-102 0 -190.5 39t-154 106.5t-103.5 158t-38 194.5zM154 901q0 -84 30.5 -155.5t82.5 -126t123 -85 t151 -30.5t150.5 30.5t123.5 85t84 126t31 155.5q0 82 -31 154.5t-84 126t-123.5 85t-150.5 31.5t-151 -31.5t-123 -85t-82.5 -126t-30.5 -154.5zM311 627l6 92v448h293q82 0 134.5 -35.5t52.5 -119.5q0 -47 -21.5 -81t-62.5 -46v-8q29 -10 40 -23.5t19 -52.5l35 -174h-207 l-20 151q-6 47 -41 47h-17v-198h-211zM520 936h25q45 0 45 47q0 43 -45 43h-25v-90z" />
<glyph unicode="&#xaf;" horiz-adv-x="1034" d="M190 1126v224h656v-224h-656z" />
<glyph unicode="&#xb0;" horiz-adv-x="616" d="M23 930q0 123 75.5 198.5t212.5 75.5q145 0 214 -75.5t69 -198.5q0 -127 -75 -200t-222 -73q-141 0 -207.5 75t-66.5 198zM131 426l174 178l182 -178l-182 -170zM236 930q0 -41 11 -78t54 -37q49 0 62.5 34t13.5 81q0 43 -10.5 81t-55.5 38q-49 0 -62 -38t-13 -81z" />
<glyph unicode="&#xb1;" d="M119 0v231h803v-231h-803zM119 567v230h278v274h246v-274h277v-230h-277v-274h-246v274h-278z" />
<glyph unicode="&#xb2;" horiz-adv-x="561" d="M16 997l39 187q20 4 66.5 11t109.5 7q55 0 106.5 -13t92.5 -39t65.5 -66t24.5 -93q0 -66 -38 -116t-126 -97l4 -8h86l101 10v-186h-522v164q92 45 146 76.5t82 55t36 41t8 34.5q0 33 -32 47t-79 14q-55 0 -100 -10t-70 -19z" />
<glyph unicode="&#xb3;" horiz-adv-x="555" d="M23 778q20 -6 74.5 -16t121.5 -10q39 0 63.5 9t24.5 32q0 27 -25.5 32.5t-68.5 5.5h-94v115h96q41 0 65.5 9.5t24.5 35.5q0 23 -24.5 32t-67.5 9q-49 0 -99.5 -7t-84.5 -17l32 174q35 8 83.5 13t97.5 5q55 0 107 -8t92 -28.5t63.5 -53.5t23.5 -84q0 -41 -22.5 -74.5 t-59.5 -52.5v-8q27 -8 58 -38t31 -85t-27 -91t-70 -57.5t-98 -29.5t-113 -8q-102 0 -174 22z" />
<glyph unicode="&#xb4;" horiz-adv-x="1034" d="M223 1208l506 199l88 -238l-489 -75z" />
<glyph unicode="&#xb5;" horiz-adv-x="1069" d="M61 -342l19 207v1112h405v-629q0 -51 45 -51q41 0 53.5 28.5t12.5 90.5v561h393v-784l19 -193h-293l-35 102h-12q-23 -47 -71 -71.5t-114 -34.5v-338h-422z" />
<glyph unicode="&#xb6;" horiz-adv-x="1011" d="M16 750q0 88 31 160.5t90.5 124.5t143.5 82t192 30h522v-209l-90 -18v-1278h-250v1273h-88v-1273h-260l23 176v600q-78 0 -136.5 24.5t-98.5 69.5t-59.5 105.5t-19.5 132.5z" />
<glyph unicode="&#xb7;" horiz-adv-x="442" d="M31 573q0 80 54 130.5t146 50.5q86 0 132.5 -46t46.5 -126q0 -78 -52.5 -127t-138.5 -49q-92 0 -140 45t-48 122z" />
<glyph unicode="&#xb8;" horiz-adv-x="1034" d="M313 -338l29 135q20 -4 45 -6t45 -2q29 0 50.5 6t21.5 27q0 16 -18.5 24.5t-43.5 8.5q-20 0 -43.5 -3.5t-29.5 -5.5l30 154h174v-45q68 0 108 -43t40 -102q0 -80 -62.5 -124t-166.5 -44q-74 0 -118 8t-61 12z" />
<glyph unicode="&#xb9;" horiz-adv-x="522" d="M23 1075q49 8 102 37t88 76h201l-11 -418h105v-174h-467v174h137l8 184l-6 4l-22 -32q-16 -10 -47 -20.5t-56 -14.5z" />
<glyph unicode="&#xba;" horiz-adv-x="628" d="M12 889q0 137 80 225t234 88t222 -82t68 -219q0 -139 -82.5 -227t-236.5 -88t-219.5 82t-65.5 221zM260 895q0 -49 7 -85t42 -36q39 0 50.5 34t11.5 87q0 49 -8.5 84t-43.5 35q-41 0 -50 -36t-9 -83z" />
<glyph unicode="&#xbb;" horiz-adv-x="1089" d="M18 238l304 315l-302 313l181 172l450 -485l-448 -485zM442 238l303 315l-301 313l181 172l450 -485l-450 -485z" />
<glyph unicode="&#xbc;" horiz-adv-x="1261" d="M23 1075q49 8 102 37t88 76h201l-11 -418h105v-174h-467v174h137l8 184l-6 4l-22 -32q-16 -10 -47 -20.5t-56 -14.5zM193 0l696 1190h188l-696 -1190h-188zM702 94v166l201 334h285v-338h61v-162h-61v-94h-217v94h-269zM870 258l4 -6l29 4h74v143l4 35h-10l-6 -33 l-68 -122z" />
<glyph unicode="&#xbd;" horiz-adv-x="1265" d="M23 1075q49 8 102 37t88 76h201l-11 -418h105v-174h-467v174h137l8 184l-6 4l-22 -32q-16 -10 -47 -20.5t-56 -14.5zM193 0l696 1190h188l-696 -1190h-188zM721 403l39 187q20 4 66 11t110 7q55 0 106.5 -13t92.5 -39t65.5 -65.5t24.5 -93.5q0 -66 -38 -116t-126 -97 l4 -8h86l100 10v-186h-522v164q92 45 146.5 76.5t82 55t35.5 41t8 34.5q0 33 -31.5 47t-78.5 14q-55 0 -100.5 -10t-69.5 -19z" />
<glyph unicode="&#xbe;" horiz-adv-x="1179" d="M23 778q20 -4 74.5 -15t121.5 -11q39 0 63.5 9t24.5 32q0 27 -25.5 32.5t-68.5 5.5h-94v115h96q41 0 65.5 9.5t24.5 35.5q0 23 -24.5 32t-67.5 9q-49 0 -99.5 -7t-84.5 -17l32 174q35 8 83.5 13t97.5 5q55 0 107 -8t92 -28.5t63.5 -53.5t23.5 -84q0 -41 -22.5 -74.5 t-59.5 -52.5v-8q27 -8 58 -38t31 -85t-27 -91t-70 -57.5t-98 -29.5t-113 -8q-102 0 -174 22zM166 0l696 1190h189l-697 -1190h-188zM621 94v166l200 334h285v-338h61v-162h-61v-94h-217v94h-268zM788 258l5 -6l28 4h74v143l4 35h-10l-6 -33l-68 -122z" />
<glyph unicode="&#xbf;" horiz-adv-x="880" d="M18 70q0 72 27 136t74 116.5t110.5 89.5t139.5 55l10 111h326v-291q-117 -10 -197 -55.5t-80 -127.5q0 -66 45 -100.5t135 -34.5q68 0 130.5 11.5t121.5 33.5l-49 -317q-39 -10 -111.5 -22.5t-164.5 -12.5q-106 0 -200.5 24.5t-164.5 75t-111 127t-41 181.5zM352 819 q0 78 52.5 127t138.5 49q92 0 140 -45t48 -123q0 -80 -54 -130t-147 -50q-86 0 -132 46t-46 126z" />
<glyph unicode="&#xc0;" horiz-adv-x="1220" d="M2 0l322 1296h665l225 -1296h-483v176l-6 53h-209l-37 -229h-477zM356 1450l88 238l506 -199l-104 -115zM555 532h145l-53 406l-6 84h-10l-10 -84z" />
<glyph unicode="&#xc1;" horiz-adv-x="1220" d="M2 0l322 1296h665l225 -1296h-483v176l-6 53h-209l-37 -229h-477zM330 1489l506 199l88 -238l-490 -76zM555 532h145l-53 406l-6 84h-10l-10 -84z" />
<glyph unicode="&#xc2;" horiz-adv-x="1220" d="M2 0l322 1296h665l225 -1296h-483v176l-6 53h-209l-37 -229h-477zM297 1466l260 183q18 14 41 19t39 5q18 0 41.5 -5t44.5 -19l258 -183l-102 -112l-242 73l-242 -73zM555 532h145l-53 406l-6 84h-10l-10 -84z" />
<glyph unicode="&#xc3;" horiz-adv-x="1220" d="M2 0l322 1296h665l225 -1296h-483v176l-6 53h-209l-37 -229h-477zM297 1393l33 200q23 12 73 32t138 20q25 0 59.5 -5.5t71.5 -11.5t73.5 -11t65.5 -5q86 0 135 12t72 23l-31 -201q-23 -12 -74 -31.5t-135 -19.5q-25 0 -60.5 5t-73.5 11t-75 11t-65 5q-86 0 -134 -13 t-73 -21zM555 532h145l-53 406l-6 84h-10l-10 -84z" />
<glyph unicode="&#xc4;" horiz-adv-x="1220" d="M2 0l322 1296h665l225 -1296h-483v176l-6 53h-209l-37 -229h-477zM369 1380v287h227v-287h-227zM555 532h145l-53 406l-6 84h-10l-10 -84zM692 1380v287h226v-287h-226z" />
<glyph unicode="&#xc5;" horiz-adv-x="1220" d="M2 0l322 1296h665l225 -1296h-483v176l-6 53h-209l-37 -229h-477zM408 1509q0 78 62 134.5t185 56.5q127 0 186.5 -52t59.5 -130t-63.5 -130.5t-190.5 -52.5q-123 0 -181 51.5t-58 122.5zM555 532h145l-53 406l-6 84h-10l-10 -84zM614 1513q0 -10 5.5 -25t29.5 -15 q29 0 36 15t7 25q0 14 -5 32t-34 18q-25 0 -32 -18t-7 -32z" />
<glyph unicode="&#xc6;" horiz-adv-x="1677" d="M0 0l309 1296h1229l31 -354h-459l10 -141h426l25 -314h-426l12 -151h475l31 -336h-936l14 176l-2 33h-227l-37 -209h-475zM571 551h146l-29 389h-51z" />
<glyph unicode="&#xc7;" horiz-adv-x="1083" d="M16 629q0 156 45 282.5t130 217t209 138.5t282 48q135 0 225 -21.5t144 -38.5l-97 -350q-29 18 -78 33.5t-108 15.5q-129 0 -204 -86t-75 -223q0 -139 68 -217t193 -78q84 0 151.5 35t116.5 88l65 -373q-59 -39 -153 -74.5t-234 -41.5v-29q68 0 108 -43t40 -102 q0 -80 -62.5 -124t-167.5 -44q-74 0 -117.5 8t-60.5 12l29 135q20 -4 45 -6t45 -2q29 0 50.5 6t21.5 27q0 16 -18.5 24.5t-43.5 8.5q-20 0 -43.5 -3.5t-29.5 -5.5l28 146q-113 18 -206 69.5t-158.5 132t-102.5 190.5t-37 245z" />
<glyph unicode="&#xc8;" horiz-adv-x="1077" d="M82 0l18 201v1095h942v-354h-491v-141h446v-314h-444v-151h496v-336h-967zM283 1450l88 238l506 -199l-105 -115z" />
<glyph unicode="&#xc9;" horiz-adv-x="1077" d="M82 0l18 201v1095h942v-354h-491v-141h446v-314h-444v-151h496v-336h-967zM297 1489l506 199l88 -238l-490 -76z" />
<glyph unicode="&#xca;" horiz-adv-x="1077" d="M82 0l18 201v1095h942v-354h-491v-141h446v-314h-444v-151h496v-336h-967zM238 1466l260 183q18 14 40.5 19t39.5 5q18 0 41.5 -5t44.5 -19l258 -183l-103 -112l-241 73l-242 -73z" />
<glyph unicode="&#xcb;" horiz-adv-x="1077" d="M82 0l18 201v1095h942v-354h-491v-141h446v-314h-444v-151h496v-336h-967zM311 1380v287h228v-287h-228zM635 1380v287h225v-287h-225z" />
<glyph unicode="&#xcc;" horiz-adv-x="632" d="M37 1450l88 238l506 -199l-105 -115zM82 0l18 201v1095h451v-1296h-469z" />
<glyph unicode="&#xcd;" horiz-adv-x="632" d="M25 1489l505 199l88 -238l-489 -76zM82 0l18 201v1095h451v-1296h-469z" />
<glyph unicode="&#xce;" horiz-adv-x="632" d="M-18 1466l260 183q18 14 40.5 19t39.5 5q18 0 41.5 -5t44.5 -19l258 -183l-103 -112l-241 73l-242 -73zM82 0l18 201v1095h451v-1296h-469z" />
<glyph unicode="&#xcf;" horiz-adv-x="632" d="M55 1380v287h228v-287h-228zM82 0l18 201v1095h451v-1296h-469zM379 1380v287h225v-287h-225z" />
<glyph unicode="&#xd0;" horiz-adv-x="1245" d="M-14 674l120 24v598h437q332 0 509 -161.5t177 -495.5q0 -315 -167 -477t-499 -162h-475l18 201v260l-73 -15zM553 354h14q59 0 98.5 15.5t63 49.5t33.5 90t10 140q0 82 -9 137.5t-32.5 89t-61.5 49t-96 17.5h-20v-151l94 20l49 -225l-143 -31v-201z" />
<glyph unicode="&#xd1;" horiz-adv-x="1290" d="M82 0l18 201v1095h490l231 -776h10l-10 78l-71 698h458l-22 -200v-1096h-488l-219 778h-12l12 -78l60 -700h-457zM301 1393l33 200q23 12 73 32t138 20q25 0 59.5 -5.5t71.5 -11.5t73.5 -11t65.5 -5q86 0 135 12t72 23l-31 -201q-23 -12 -74 -31.5t-135 -19.5 q-25 0 -60.5 5t-73.5 11t-74.5 11t-65.5 5q-86 0 -134 -13t-73 -21z" />
<glyph unicode="&#xd2;" horiz-adv-x="1251" d="M16 637q0 154 42 278.5t124 214t203 137.5t277 48q160 0 269 -43t177 -126t97.5 -206t29.5 -283q0 -322 -155.5 -498.5t-481.5 -176.5q-160 0 -270.5 42t-179 124.5t-100.5 205.5t-32 283zM344 1450l88 238l506 -199l-104 -115zM502 635q0 -53 2 -107.5t12 -97.5 t34.5 -69.5t67.5 -26.5q49 0 78 29.5t43.5 75.5t18.5 103.5t4 112.5q0 51 -2 104.5t-12.5 95.5t-35 68.5t-67.5 26.5q-47 0 -75.5 -28.5t-44 -73.5t-19.5 -101.5t-4 -111.5z" />
<glyph unicode="&#xd3;" horiz-adv-x="1251" d="M16 637q0 154 42 278.5t124 214t203 137.5t277 48q160 0 269 -43t177 -126t97.5 -206t29.5 -283q0 -322 -155.5 -498.5t-481.5 -176.5q-160 0 -270.5 42t-179 124.5t-100.5 205.5t-32 283zM340 1489l506 199l88 -238l-490 -76zM502 635q0 -53 2 -107.5t12 -97.5 t34.5 -69.5t67.5 -26.5q49 0 78 29.5t43.5 75.5t18.5 103.5t4 112.5q0 51 -2 104.5t-12.5 95.5t-35 68.5t-67.5 26.5q-47 0 -75.5 -28.5t-44 -73.5t-19.5 -101.5t-4 -111.5z" />
<glyph unicode="&#xd4;" horiz-adv-x="1251" d="M16 637q0 154 42 278.5t124 214t203 137.5t277 48q160 0 269 -43t177 -126t97.5 -206t29.5 -283q0 -322 -155.5 -498.5t-481.5 -176.5q-160 0 -270.5 42t-179 124.5t-100.5 205.5t-32 283zM293 1466l260 183q18 14 40.5 19t39.5 5q18 0 41.5 -5t44.5 -19l258 -183 l-103 -112l-241 73l-242 -73zM502 635q0 -53 2 -107.5t12 -97.5t34.5 -69.5t67.5 -26.5q49 0 78 29.5t43.5 75.5t18.5 103.5t4 112.5q0 51 -2 104.5t-12.5 95.5t-35 68.5t-67.5 26.5q-47 0 -75.5 -28.5t-44 -73.5t-19.5 -101.5t-4 -111.5z" />
<glyph unicode="&#xd5;" horiz-adv-x="1251" d="M16 637q0 154 42 278.5t124 214t203 137.5t277 48q160 0 269 -43t177 -126t97.5 -206t29.5 -283q0 -322 -155.5 -498.5t-481.5 -176.5q-160 0 -270.5 42t-179 124.5t-100.5 205.5t-32 283zM272 1393l33 200q23 12 73 32t138 20q25 0 59.5 -5.5t71.5 -11.5t74 -11t65 -5 q86 0 135.5 12t71.5 23l-30 -201q-23 -12 -74 -31.5t-135 -19.5q-25 0 -61 5t-73.5 11t-74.5 11t-66 5q-86 0 -134 -13t-73 -21zM502 635q0 -53 2 -107.5t12 -97.5t34.5 -69.5t67.5 -26.5q49 0 78 29.5t43.5 75.5t18.5 103.5t4 112.5q0 51 -2 104.5t-12.5 95.5t-35 68.5 t-67.5 26.5q-47 0 -75.5 -28.5t-44 -73.5t-19.5 -101.5t-4 -111.5z" />
<glyph unicode="&#xd6;" horiz-adv-x="1251" d="M16 637q0 154 42 278.5t124 214t203 137.5t277 48q160 0 269 -43t177 -126t97.5 -206t29.5 -283q0 -322 -155.5 -498.5t-481.5 -176.5q-160 0 -270.5 42t-179 124.5t-100.5 205.5t-32 283zM360 1380v287h228v-287h-228zM502 635q0 -53 2 -107.5t12 -97.5t34.5 -69.5 t67.5 -26.5q49 0 78 29.5t43.5 75.5t18.5 103.5t4 112.5q0 51 -2 104.5t-12.5 95.5t-35 68.5t-67.5 26.5q-47 0 -75.5 -28.5t-44 -73.5t-19.5 -101.5t-4 -111.5zM684 1380v287h225v-287h-225z" />
<glyph unicode="&#xd7;" d="M115 340l239 240l-239 237l174 174l239 -239l236 239l164 -164l-238 -237l240 -240l-174 -172l-240 238l-240 -238z" />
<glyph unicode="&#xd8;" horiz-adv-x="1251" d="M16 637q0 154 42 278.5t124 214t203 137.5t277 48q74 0 137 -10.5t116 -28.5l52 84h145l-84 -139q111 -78 159 -219.5t48 -344.5q0 -322 -155.5 -498.5t-481.5 -176.5q-166 0 -285 47l-65 -111h-146l105 174q-102 80 -146.5 216t-44.5 329zM502 584l205 344 q-23 23 -62 22q-47 0 -75.5 -28.5t-44 -73.5t-19.5 -101.5t-4 -111.5v-51zM530 389q27 -55 88 -55q49 0 78 29.5t43.5 75.5t18.5 103.5t4 112.5v58.5t-2 58.5z" />
<glyph unicode="&#xd9;" horiz-adv-x="1210" d="M63 1296h472v-833q0 -55 14 -84t59 -29q47 0 64.5 28t17.5 85v633l-20 200h467v-829q0 -250 -140.5 -367.5t-402.5 -117.5t-387 115.5t-125 365.5v633zM317 1450l89 238l505 -199l-104 -115z" />
<glyph unicode="&#xda;" horiz-adv-x="1210" d="M63 1296h472v-833q0 -55 14 -84t59 -29q47 0 64.5 28t17.5 85v633l-20 200h467v-829q0 -250 -140.5 -367.5t-402.5 -117.5t-387 115.5t-125 365.5v633zM324 1489l505 199l89 -238l-490 -76z" />
<glyph unicode="&#xdb;" horiz-adv-x="1210" d="M63 1296h472v-833q0 -55 14 -84t59 -29q47 0 64.5 28t17.5 85v633l-20 200h467v-829q0 -250 -140.5 -367.5t-402.5 -117.5t-387 115.5t-125 365.5v633zM270 1466l260 183q18 14 41 19t39 5q18 0 42 -5t44 -19l258 -183l-102 -112l-242 73l-241 -73z" />
<glyph unicode="&#xdc;" horiz-adv-x="1210" d="M63 1296h472v-833q0 -55 14 -84t59 -29q47 0 64.5 28t17.5 85v633l-20 200h467v-829q0 -250 -140.5 -367.5t-402.5 -117.5t-387 115.5t-125 365.5v633zM336 1380v287h227v-287h-227zM659 1380v287h226v-287h-226z" />
<glyph unicode="&#xdd;" horiz-adv-x="1140" d="M6 1296h469l70 -436l4 -82h10l8 82l47 240l21 196h500l-355 -870v-426h-461v426zM287 1489l506 199l88 -238l-490 -76z" />
<glyph unicode="&#xde;" horiz-adv-x="1159" d="M82 0l18 201v1095h445v-145h137q106 0 191 -33t144.5 -94t92.5 -147t33 -191q0 -211 -126 -326.5t-339 -115.5h-133v-244h-463zM539 584h47q49 0 75.5 28.5t26.5 77.5q0 51 -26.5 81t-75.5 30h-47v-217z" />
<glyph unicode="&#xdf;" horiz-adv-x="1161" d="M16 690v268l76 19v8q0 102 35 181t98.5 132.5t150.5 80t191 26.5q92 0 178 -21.5t152 -66.5t105.5 -112.5t39.5 -160.5q0 -74 -24.5 -129t-56.5 -96l-33 -41v-10l37 -37q35 -35 67.5 -72.5t57 -82t40 -94.5t15.5 -107q0 -94 -33 -168t-90 -124t-137 -75.5t-174 -25.5 q-12 0 -36 1t-50.5 4t-52 6t-44.5 7l52 303q20 -4 45 -4q51 0 78.5 30.5t27.5 73.5q0 55 -33.5 94.5t-91.5 104.5q-29 35 -51.5 74t-22.5 80q0 23 4.5 41t12.5 37.5t22.5 43t34.5 58.5q16 27 25.5 49.5t9.5 46.5q0 29 -17.5 49.5t-52.5 20.5q-47 0 -68.5 -35t-21.5 -86v-981 h-415l18 178v512h-68z" />
<glyph unicode="&#xe0;" horiz-adv-x="1028" d="M25 276q0 86 34.5 147.5t97 101.5t148.5 60.5t189 26.5h61q0 59 -41 79t-125 22q-53 0 -103 -5.5t-93 -12.5t-75 -14t-50 -11l63 295q76 12 156 21t190 9q119 0 207 -22.5t146.5 -73.5t88 -135t29.5 -209v-352l19 -203h-293l-43 102h-13q-47 -51 -118.5 -85.5 t-175.5 -34.5q-129 0 -214 74.5t-85 219.5zM225 1169l88 238l506 -199l-104 -114zM397 324q0 -33 19.5 -52.5t52.5 -19.5q51 0 71.5 41t22.5 100v43q-78 0 -122 -26.5t-44 -85.5z" />
<glyph unicode="&#xe1;" horiz-adv-x="1028" d="M25 276q0 86 34.5 147.5t97 101.5t148.5 60.5t189 26.5h61q0 59 -41 79t-125 22q-53 0 -103 -5.5t-93 -12.5t-75 -14t-50 -11l63 295q76 12 156 21t190 9q119 0 207 -22.5t146.5 -73.5t88 -135t29.5 -209v-352l19 -203h-293l-43 102h-13q-47 -51 -118.5 -85.5 t-175.5 -34.5q-129 0 -214 74.5t-85 219.5zM221 1208l506 199l88 -238l-489 -75zM397 324q0 -33 19.5 -52.5t52.5 -19.5q51 0 71.5 41t22.5 100v43q-78 0 -122 -26.5t-44 -85.5z" />
<glyph unicode="&#xe2;" horiz-adv-x="1028" d="M25 276q0 86 34.5 147.5t97 101.5t148.5 60.5t189 26.5h61q0 59 -41 79t-125 22q-53 0 -103 -5.5t-93 -12.5t-75 -14t-50 -11l63 295q76 12 156 21t190 9q119 0 207 -22.5t146.5 -73.5t88 -135t29.5 -209v-352l19 -203h-293l-43 102h-13q-47 -51 -118.5 -85.5 t-175.5 -34.5q-129 0 -214 74.5t-85 219.5zM168 1198l260 182q18 14 41 19.5t39 5.5q18 0 41.5 -5t44.5 -20l258 -182l-102 -113l-242 74l-242 -74zM397 324q0 -33 19.5 -52.5t52.5 -19.5q51 0 71.5 41t22.5 100v43q-78 0 -122 -26.5t-44 -85.5z" />
<glyph unicode="&#xe3;" horiz-adv-x="1028" d="M25 276q0 86 34.5 147.5t97 101.5t148.5 60.5t189 26.5h61q0 59 -41 79t-125 22q-53 0 -103 -5.5t-93 -12.5t-75 -14t-50 -11l63 295q76 12 156 21t190 9q119 0 207 -22.5t146.5 -73.5t88 -135t29.5 -209v-352l19 -203h-293l-43 102h-13q-47 -51 -118.5 -85.5 t-175.5 -34.5q-129 0 -214 74.5t-85 219.5zM154 1112l32 201q23 12 73 31.5t138 19.5q25 0 60 -5t71.5 -11.5t73.5 -11.5t66 -5q86 0 135 12.5t71 22.5l-30 -201q-23 -12 -74 -31.5t-135 -19.5q-25 0 -60.5 5t-73.5 11.5t-75 11.5t-66 5q-86 0 -134 -13.5t-72 -21.5z M397 324q0 -33 19.5 -52.5t52.5 -19.5q51 0 71.5 41t22.5 100v43q-78 0 -122 -26.5t-44 -85.5z" />
<glyph unicode="&#xe4;" horiz-adv-x="1028" d="M25 276q0 86 34.5 147.5t97 101.5t148.5 60.5t189 26.5h61q0 59 -41 79t-125 22q-53 0 -103 -5.5t-93 -12.5t-75 -14t-50 -11l63 295q76 12 156 21t190 9q119 0 207 -22.5t146.5 -73.5t88 -135t29.5 -209v-352l19 -203h-293l-43 102h-13q-47 -51 -118.5 -85.5 t-175.5 -34.5q-129 0 -214 74.5t-85 219.5zM236 1112v287h227v-287h-227zM397 324q0 -33 19.5 -52.5t52.5 -19.5q51 0 71.5 41t22.5 100v43q-78 0 -122 -26.5t-44 -85.5zM559 1112v287h225v-287h-225z" />
<glyph unicode="&#xe5;" horiz-adv-x="1028" d="M25 276q0 86 34.5 147.5t97 101.5t148.5 60.5t189 26.5h61q0 59 -41 79t-125 22q-53 0 -103 -5.5t-93 -12.5t-75 -14t-50 -11l63 295q76 12 156 21t190 9q119 0 207 -22.5t146.5 -73.5t88 -135t29.5 -209v-352l19 -203h-293l-43 102h-13q-47 -51 -118.5 -85.5 t-175.5 -34.5q-129 0 -214 74.5t-85 219.5zM283 1229q0 78 62.5 134t184.5 56q127 0 186.5 -52t59.5 -130t-63.5 -130t-190.5 -52q-123 0 -181 51t-58 123zM397 324q0 -33 19.5 -52.5t52.5 -19.5q51 0 71.5 41t22.5 100v43q-78 0 -122 -26.5t-44 -85.5zM489 1233 q0 -10 5.5 -25.5t29.5 -15.5q29 0 36 15.5t7 25.5q0 14 -5 31.5t-34 17.5q-25 0 -32 -17.5t-7 -31.5z" />
<glyph unicode="&#xe6;" horiz-adv-x="1490" d="M25 276q0 86 34.5 147.5t97 101.5t148.5 60.5t189 26.5h61q0 59 -41 80t-125 21q-53 0 -103 -5.5t-93 -12.5t-75 -14t-50 -11l67 291q78 14 155 24t187 10q174 0 283 -65h16q53 31 114.5 48t129.5 17q127 0 213 -41t138 -111.5t73.5 -165.5t21.5 -206v-29.5t-2 -44.5 h-538q6 -74 57 -101.5t156 -27.5q78 0 159.5 12.5t139.5 26.5l-72 -289q-45 -10 -129 -23t-184 -13q-133 0 -226.5 30.5t-158.5 89.5h-13q-55 -55 -130.5 -87.5t-180.5 -32.5q-145 0 -232 74.5t-87 219.5zM397 324q0 -33 19.5 -52.5t52.5 -19.5q51 0 71.5 41t22.5 100v43 q-78 0 -122 -26.5t-44 -85.5zM909 590h203l8 14q0 51 -21.5 86t-72.5 35q-49 0 -81 -38t-36 -97z" />
<glyph unicode="&#xe7;" horiz-adv-x="872" d="M16 473q0 121 38 218t108.5 165t172 103.5t226.5 35.5q70 0 154 -11t143 -28l-67 -307q-27 14 -70 26.5t-88 12.5q-92 0 -150.5 -51t-58.5 -141t51 -143.5t137 -53.5q59 0 114.5 24.5t92.5 59.5l53 -311q-18 -10 -45.5 -24.5t-66.5 -28t-89 -23.5t-112 -12v-29 q68 0 108 -43t40 -102q0 -80 -62.5 -124t-167.5 -44q-74 0 -118 8t-60 12l29 135q20 -4 44.5 -6t45.5 -2q29 0 50 6t21 27q0 16 -18 24.5t-43 8.5q-20 0 -44 -3.5t-30 -5.5l29 150q-174 37 -270.5 161t-96.5 316z" />
<glyph unicode="&#xe8;" horiz-adv-x="1001" d="M16 477q0 111 34 205t98.5 163.5t161 109.5t220.5 40q127 0 213 -41t138.5 -111.5t74 -165.5t21.5 -206v-29.5t-2 -44.5h-543q6 -74 59.5 -101.5t157.5 -27.5q78 0 160 12.5t139 26.5l-59 -289q-45 -10 -135 -23t-191 -13q-274 0 -410.5 127t-136.5 368zM244 1169l88 238 l506 -199l-105 -114zM418 590h203l8 14q0 51 -21.5 86t-72.5 35q-49 0 -81 -38t-36 -97z" />
<glyph unicode="&#xe9;" horiz-adv-x="1001" d="M16 477q0 111 34 205t98.5 163.5t161 109.5t220.5 40q127 0 213 -41t138.5 -111.5t74 -165.5t21.5 -206v-29.5t-2 -44.5h-543q6 -74 59.5 -101.5t157.5 -27.5q78 0 160 12.5t139 26.5l-59 -289q-45 -10 -135 -23t-191 -13q-274 0 -410.5 127t-136.5 368zM250 1208 l506 199l88 -238l-490 -75zM418 590h203l8 14q0 51 -21.5 86t-72.5 35q-49 0 -81 -38t-36 -97z" />
<glyph unicode="&#xea;" horiz-adv-x="1001" d="M16 477q0 111 34 205t98.5 163.5t161 109.5t220.5 40q127 0 213 -41t138.5 -111.5t74 -165.5t21.5 -206v-29.5t-2 -44.5h-543q6 -74 59.5 -101.5t157.5 -27.5q78 0 160 12.5t139 26.5l-59 -289q-45 -10 -135 -23t-191 -13q-274 0 -410.5 127t-136.5 368zM184 1198 l260 182q18 14 41 19.5t39 5.5q18 0 42 -5t44 -20l258 -182l-102 -113l-242 74l-241 -74zM418 590h203l8 14q0 51 -21.5 86t-72.5 35q-49 0 -81 -38t-36 -97z" />
<glyph unicode="&#xeb;" horiz-adv-x="1001" d="M16 477q0 111 34 205t98.5 163.5t161 109.5t220.5 40q127 0 213 -41t138.5 -111.5t74 -165.5t21.5 -206v-29.5t-2 -44.5h-543q6 -74 59.5 -101.5t157.5 -27.5q78 0 160 12.5t139 26.5l-59 -289q-45 -10 -135 -23t-191 -13q-274 0 -410.5 127t-136.5 368zM256 1112v287 h227v-287h-227zM418 590h203l8 14q0 51 -21.5 86t-72.5 35q-49 0 -81 -38t-36 -97zM580 1112v287h225v-287h-225z" />
<glyph unicode="&#xec;" horiz-adv-x="561" d="M-23 1169l89 238l505 -199l-104 -114zM63 0l19 176v801h401v-977h-420z" />
<glyph unicode="&#xed;" horiz-adv-x="561" d="M-29 1208l506 199l88 -238l-489 -75zM63 0l19 176v801h401v-977h-420z" />
<glyph unicode="&#xee;" horiz-adv-x="561" d="M-74 1200l260 182q18 14 41 19.5t39 5.5q18 0 42 -5t44 -20l258 -182l-102 -113l-242 74l-241 -74zM61 0l19 176v801h401v-977h-420z" />
<glyph unicode="&#xef;" horiz-adv-x="561" d="M0 1112v287h227v-287h-227zM63 0l19 176v801h401v-977h-420zM324 1112v287h225v-287h-225z" />
<glyph unicode="&#xf0;" horiz-adv-x="1024" d="M16 446q0 98 28 177t75 136.5t109.5 92.5t133.5 45l17 2l53 -20l4 10l-63 86l-187 -39l-49 227l101 21l-82 133l424 90l79 -135l179 39l47 -228l-105 -22q51 -92 97.5 -173t72.5 -145q20 -51 39 -122.5t19 -165.5q0 -233 -140.5 -353t-392.5 -120q-121 0 -208 34.5 t-142 97t-82 147.5t-27 185zM418 446q0 -63 18.5 -107t69.5 -44q33 0 53.5 13.5t30.5 35t14 48t4 54.5q0 23 -2 49.5t-10 48t-24.5 36t-47.5 14.5q-68 0 -87 -43.5t-19 -104.5z" />
<glyph unicode="&#xf1;" horiz-adv-x="1067" d="M61 977h301l44 -103h12q45 47 113.5 84t179.5 37q147 0 216.5 -80.5t69.5 -232.5v-682h-405v633q0 20 -12.5 33.5t-32.5 13.5q-41 0 -53.5 -35t-12.5 -96v-549h-403v782zM174 1112l33 201q23 12 73 31.5t138 19.5q25 0 59.5 -5t71.5 -11.5t73.5 -11.5t65.5 -5 q86 0 135 12.5t72 22.5l-31 -201q-23 -12 -74 -31.5t-135 -19.5q-25 0 -60.5 5t-73.5 11.5t-74.5 11.5t-65.5 5q-86 0 -134 -13.5t-73 -21.5z" />
<glyph unicode="&#xf2;" horiz-adv-x="1026" d="M16 479q0 113 33 208t98.5 164t160.5 106.5t222 37.5t217.5 -34.5t148.5 -99t86 -157t28 -204.5q0 -113 -35 -208t-101.5 -164t-165 -107.5t-223.5 -38.5q-127 0 -216 35.5t-145 100t-82 156.5t-26 205zM223 1169l88 238l506 -199l-104 -114zM424 489q0 -41 2 -76.5 t10 -63t23.5 -43t44.5 -15.5q63 0 81.5 54t18.5 144q0 82 -13 138.5t-71 56.5q-33 0 -51 -16.5t-28.5 -43t-13.5 -62.5t-3 -73z" />
<glyph unicode="&#xf3;" horiz-adv-x="1026" d="M16 479q0 113 33 208t98.5 164t160.5 106.5t222 37.5t217.5 -34.5t148.5 -99t86 -157t28 -204.5q0 -113 -35 -208t-101.5 -164t-165 -107.5t-223.5 -38.5q-127 0 -216 35.5t-145 100t-82 156.5t-26 205zM225 1208l506 199l88 -238l-489 -75zM424 489q0 -41 2 -76.5 t10 -63t23.5 -43t44.5 -15.5q63 0 81.5 54t18.5 144q0 82 -13 138.5t-71 56.5q-33 0 -51 -16.5t-28.5 -43t-13.5 -62.5t-3 -73z" />
<glyph unicode="&#xf4;" horiz-adv-x="1026" d="M16 479q0 113 33 208t98.5 164t160.5 106.5t222 37.5t217.5 -34.5t148.5 -99t86 -157t28 -204.5q0 -113 -35 -208t-101.5 -164t-165 -107.5t-223.5 -38.5q-127 0 -216 35.5t-145 100t-82 156.5t-26 205zM174 1196l260 182q18 14 41 19.5t39 5.5q18 0 42 -5t44 -20 l258 -182l-102 -113l-242 74l-242 -74zM424 489q0 -41 2 -76.5t10 -63t23.5 -43t44.5 -15.5q63 0 81.5 54t18.5 144q0 82 -13 138.5t-71 56.5q-33 0 -51 -16.5t-28.5 -43t-13.5 -62.5t-3 -73z" />
<glyph unicode="&#xf5;" horiz-adv-x="1026" d="M16 479q0 113 33 208t98.5 164t160.5 106.5t222 37.5t217.5 -34.5t148.5 -99t86 -157t28 -204.5q0 -113 -35 -208t-101.5 -164t-165 -107.5t-223.5 -38.5q-127 0 -216 35.5t-145 100t-82 156.5t-26 205zM152 1112l32 201q23 12 73 31.5t138 19.5q25 0 59.5 -5t71.5 -11.5 t74 -11.5t66 -5q86 0 135 12.5t71 22.5l-30 -201q-23 -12 -74 -31.5t-135 -19.5q-25 0 -60.5 5t-73.5 11.5t-75 11.5t-66 5q-86 0 -134 -13.5t-72 -21.5zM424 489q0 -41 2 -76.5t10 -63t23.5 -43t44.5 -15.5q63 0 81.5 54t18.5 144q0 82 -13 138.5t-71 56.5q-33 0 -51 -16.5 t-28.5 -43t-13.5 -62.5t-3 -73z" />
<glyph unicode="&#xf6;" horiz-adv-x="1026" d="M16 479q0 113 33 208t98.5 164t160.5 106.5t222 37.5t217.5 -34.5t148.5 -99t86 -157t28 -204.5q0 -113 -35 -208t-101.5 -164t-165 -107.5t-223.5 -38.5q-127 0 -216 35.5t-145 100t-82 156.5t-26 205zM244 1112v287h227v-287h-227zM424 489q0 -41 2 -76.5t10 -63 t23.5 -43t44.5 -15.5q63 0 81.5 54t18.5 144q0 82 -13 138.5t-71 56.5q-33 0 -51 -16.5t-28.5 -43t-13.5 -62.5t-3 -73zM567 1112v287h226v-287h-226z" />
<glyph unicode="&#xf7;" d="M102 461v231h838v-231h-838zM332 236q0 80 54 130t146 50q86 0 132.5 -46t46.5 -126q0 -78 -52.5 -127t-138.5 -49q-92 0 -140 45t-48 123zM332 901q0 80 54 130t146 50q86 0 132.5 -46t46.5 -126q0 -78 -52.5 -127t-138.5 -49q-92 0 -140 45t-48 123z" />
<glyph unicode="&#xf8;" horiz-adv-x="1026" d="M16 479q0 113 33 208t98.5 164t160.5 106.5t222 37.5q61 0 113.5 -8t97.5 -24l62 104h102l-84 -143q98 -61 143.5 -170t45.5 -254q0 -113 -35 -208t-101.5 -164t-165 -107.5t-223.5 -38.5q-117 0 -202 30l-62 -104h-102l84 141q-98 61 -142.5 172t-44.5 258zM424 426 l143 242q-20 16 -47 16q-33 0 -51 -16.5t-28.5 -43t-13.5 -62.5t-3 -73v-63zM457 307q20 -16 47 -16q63 0 81.5 54t18.5 144v32t-2 32z" />
<glyph unicode="&#xf9;" horiz-adv-x="1058" d="M70 297v680h405v-627q0 -53 47 -53q41 0 52.5 29.5t11.5 91.5v559h393v-793l18 -184h-303l-32 102h-13q-45 -51 -114.5 -85.5t-180.5 -34.5q-147 0 -215.5 81.5t-68.5 233.5zM238 1169l88 238l505 -199l-104 -114z" />
<glyph unicode="&#xfa;" horiz-adv-x="1058" d="M70 297v680h405v-627q0 -53 47 -53q41 0 52.5 29.5t11.5 91.5v559h393v-793l18 -184h-303l-32 102h-13q-45 -51 -114.5 -85.5t-180.5 -34.5q-147 0 -215.5 81.5t-68.5 233.5zM229 1208l506 199l88 -238l-489 -75z" />
<glyph unicode="&#xfb;" horiz-adv-x="1058" d="M70 297v680h405v-627q0 -53 47 -53q41 0 52.5 29.5t11.5 91.5v559h393v-793l18 -184h-303l-32 102h-13q-45 -51 -114.5 -85.5t-180.5 -34.5q-147 0 -215.5 81.5t-68.5 233.5zM182 1194l260 182q18 14 41 19.5t39 5.5q18 0 42 -5t44 -20l258 -182l-102 -113l-242 74 l-241 -74z" />
<glyph unicode="&#xfc;" horiz-adv-x="1058" d="M70 297v680h405v-627q0 -53 47 -53q41 0 52.5 29.5t11.5 91.5v559h393v-793l18 -184h-303l-32 102h-13q-45 -51 -114.5 -85.5t-180.5 -34.5q-147 0 -215.5 81.5t-68.5 233.5zM260 1112v287h227v-287h-227zM584 1112v287h225v-287h-225z" />
<glyph unicode="&#xfd;" horiz-adv-x="1011" d="M6 977h424l86 -561h12v73l39 312v176h439l-283 -959q-61 -209 -206.5 -291.5t-369.5 -82.5q-18 0 -40.5 1t-40.5 3l-43 303q23 -4 45 -6t53 -2q72 0 119 26.5t55 85.5l6 43zM215 1208l506 199l88 -238l-490 -75z" />
<glyph unicode="&#xfe;" horiz-adv-x="1050" d="M61 -340l19 182v1542h399v-444l8 -4q39 27 89.5 44t105.5 17q90 0 156.5 -33.5t109.5 -93t64.5 -141.5t21.5 -176q0 -121 -33.5 -222.5t-101.5 -175t-171 -114.5t-241 -41h-10v-340h-416zM467 361.5q0 -19.5 2 -33.5q0 -16 2 -29h12q41 0 69 17.5t45 46t25.5 66.5t8.5 79 q0 78 -16.5 125t-57.5 47q-33 0 -50.5 -24.5t-26.5 -62.5t-11 -86t-2 -97v-48.5z" />
<glyph unicode="&#xff;" horiz-adv-x="1011" d="M6 977h424l86 -561h12v73l39 312v176h439l-283 -959q-61 -209 -206.5 -291.5t-369.5 -82.5q-18 0 -40.5 1t-40.5 3l-43 303q23 -4 45 -6t53 -2q72 0 119 26.5t55 85.5l6 43zM240 1112v287h227v-287h-227zM563 1112v287h225v-287h-225z" />
<glyph unicode="&#x152;" horiz-adv-x="1667" d="M16 633q0 156 41 278.5t121 208.5t200 131t277 45h973v-354h-487v-141h448v-314h-446v-151h495v-336h-1048q-154 0 -262.5 42t-178 123t-101.5 198.5t-32 269.5zM485 639q0 -68 5.5 -122t20.5 -91t44 -57.5t76 -20.5h67v602h-26q-59 0 -95 -24.5t-56.5 -67.5t-28 -99.5 t-7.5 -119.5z" />
<glyph unicode="&#x153;" horiz-adv-x="1533" d="M16 479q0 113 33 208t98.5 164t160.5 106.5t222 37.5q92 0 155 -20.5t110 -56.5h12q49 37 111.5 57t144.5 20q127 0 213 -41t138 -111.5t73.5 -165.5t21.5 -206v-29.5t-2 -44.5h-538q6 -74 57 -101.5t156 -27.5q78 0 159.5 12.5t139.5 26.5l-72 -289q-45 -10 -118.5 -23 t-174.5 -13q-117 0 -193.5 23.5t-134.5 68.5h-10q-53 -45 -123.5 -68.5t-169.5 -23.5q-127 0 -216 35.5t-145 100t-82 157t-26 204.5zM424 489q0 -41 2 -76.5t10 -63t23.5 -43t44.5 -15.5q63 0 81.5 54t18.5 144q0 82 -13 138.5t-71 56.5q-33 0 -51 -16.5t-28.5 -43 t-13.5 -62.5t-3 -73zM950 590h203l8 14q0 51 -21.5 86t-72.5 35q-49 0 -81 -38t-36 -97z" />
<glyph unicode="&#x178;" horiz-adv-x="1140" d="M6 1296h469l70 -436l4 -82h10l8 82l47 240l21 196h500l-355 -870v-426h-461v426zM301 1380v287h227v-287h-227zM625 1380v287h225v-287h-225z" />
<glyph unicode="&#x2c6;" horiz-adv-x="1034" d="M176 1186l260 182q18 14 41 19.5t39 5.5q18 0 42 -5.5t44 -19.5l258 -182l-102 -113l-242 74l-242 -74z" />
<glyph unicode="&#x2dc;" horiz-adv-x="1034" d="M158 1112l32 201q23 12 73 31.5t138 19.5q25 0 60 -5t71.5 -11.5t73.5 -11.5t66 -5q86 0 135 12.5t72 22.5l-31 -201q-23 -12 -74 -31.5t-135 -19.5q-25 0 -60.5 5t-73.5 11.5t-75 11.5t-65 5q-86 0 -134.5 -13.5t-72.5 -21.5z" />
<glyph unicode="&#x2000;" horiz-adv-x="850" />
<glyph unicode="&#x2001;" horiz-adv-x="1700" />
<glyph unicode="&#x2002;" horiz-adv-x="850" />
<glyph unicode="&#x2003;" horiz-adv-x="1700" />
<glyph unicode="&#x2004;" horiz-adv-x="566" />
<glyph unicode="&#x2005;" horiz-adv-x="425" />
<glyph unicode="&#x2006;" horiz-adv-x="283" />
<glyph unicode="&#x2007;" horiz-adv-x="283" />
<glyph unicode="&#x2008;" horiz-adv-x="212" />
<glyph unicode="&#x2009;" horiz-adv-x="340" />
<glyph unicode="&#x200a;" horiz-adv-x="94" />
<glyph unicode="&#x2010;" horiz-adv-x="626" d="M37 377v231h553v-231h-553z" />
<glyph unicode="&#x2011;" horiz-adv-x="626" d="M37 377v231h553v-231h-553z" />
<glyph unicode="&#x2012;" horiz-adv-x="626" d="M37 377v231h553v-231h-553z" />
<glyph unicode="&#x2013;" horiz-adv-x="1024" d="M0 381v231h1024v-231h-1024z" />
<glyph unicode="&#x2014;" horiz-adv-x="2048" d="M0 381v231h2048v-231h-2048z" />
<glyph unicode="&#x2018;" horiz-adv-x="442" d="M31 1090q0 59 22.5 104t52.5 90l87 125l141 -16l-37 -150q39 -12 76 -42t37 -99q0 -84 -55.5 -135.5t-141.5 -51.5t-134 44.5t-48 130.5z" />
<glyph unicode="&#x2019;" horiz-adv-x="442" d="M31 1124q0 84 55 135.5t141 51.5t134.5 -44t48.5 -130q0 -59 -22.5 -104.5t-53.5 -90.5l-86 -125l-142 17l37 149q-18 6 -38.5 15.5t-37 25.5t-26.5 41t-10 59z" />
<glyph unicode="&#x201a;" horiz-adv-x="442" d="M31 143q0 84 55 135.5t141 51.5t134.5 -44t48.5 -130q0 -59 -22.5 -104.5t-53.5 -90.5l-86 -125l-142 17l37 149q-18 6 -38.5 15.5t-37 25.5t-26.5 41t-10 59z" />
<glyph unicode="&#x201c;" horiz-adv-x="884" d="M31 1090q0 59 22.5 104t52.5 90l87 125l141 -16l-37 -150q39 -12 76 -42t37 -99q0 -84 -55.5 -135.5t-141.5 -51.5t-134 44.5t-48 130.5zM473 1090q0 59 22.5 104t53.5 90l86 125l141 -16l-37 -150q39 -12 76 -42t37 -99q0 -84 -55.5 -135.5t-141.5 -51.5t-134 44.5 t-48 130.5z" />
<glyph unicode="&#x201d;" horiz-adv-x="884" d="M31 1104q0 84 55 135t141 51t134.5 -44t48.5 -130q0 -59 -22.5 -104t-53.5 -90l-86 -125l-142 16l37 150q-18 6 -38.5 15t-37 25.5t-26.5 41t-10 59.5zM473 1104q0 84 55.5 135t141.5 51t134 -44t48 -130q0 -59 -22.5 -104t-53.5 -90l-86 -125l-141 16l37 150 q-18 6 -39 15t-37 25.5t-26.5 41t-10.5 59.5z" />
<glyph unicode="&#x201e;" horiz-adv-x="884" d="M31 143q0 84 55 135.5t141 51.5t134.5 -44t48.5 -130q0 -59 -22.5 -104.5t-53.5 -90.5l-86 -125l-142 17l37 149q-18 6 -38.5 15.5t-37 25.5t-26.5 41t-10 59zM473 143q0 84 55.5 135.5t141.5 51.5t134 -44t48 -130q0 -59 -22.5 -104.5t-53.5 -90.5l-86 -125l-141 17 l37 149q-18 6 -39 15.5t-37 25.5t-26.5 41t-10.5 59z" />
<glyph unicode="&#x2022;" horiz-adv-x="557" d="M31 563q0 104 70.5 169t187.5 65q115 0 175 -59.5t60 -166.5q0 -104 -68.5 -166.5t-179.5 -62.5q-119 0 -182 58.5t-63 162.5z" />
<glyph unicode="&#x2026;" horiz-adv-x="1325" d="M31 150q0 80 54 130t146 50q86 0 132.5 -46t46.5 -126q0 -78 -52.5 -127t-138.5 -49q-92 0 -140 45t-48 123zM471 150q0 80 54.5 130t146.5 50q86 0 132 -46t46 -126q0 -78 -52.5 -127t-138.5 -49q-92 0 -140 45t-48 123zM913 150q0 80 54.5 130t146.5 50q86 0 132 -46 t46 -126q0 -78 -52 -127t-138 -49q-92 0 -140.5 45t-48.5 123z" />
<glyph unicode="&#x202f;" horiz-adv-x="340" />
<glyph unicode="&#x2039;" horiz-adv-x="665" d="M14 553l451 485l180 -172l-301 -313l303 -315l-184 -170z" />
<glyph unicode="&#x203a;" horiz-adv-x="665" d="M18 238l304 315l-302 313l181 172l450 -485l-448 -485z" />
<glyph unicode="&#x2044;" horiz-adv-x="301" d="M-205 0l586 1190h186l-583 -1190h-189z" />
<glyph unicode="&#x205f;" horiz-adv-x="425" />
<glyph unicode="&#x2070;" horiz-adv-x="595" d="M20 891q0 141 70 225t213 84t207.5 -79t64.5 -220t-75.5 -227t-218.5 -86t-202 81t-59 222zM244 893q0 -51 7 -91t44 -40q35 0 45 42t10 93q0 53 -7 90t-42 37q-37 0 -47 -39t-10 -92z" />
<glyph unicode="&#x2074;" horiz-adv-x="571" d="M12 690v166l201 334h285v-338h61v-162h-61v-94h-217v94h-269zM180 854l4 -6l29 4h74v143l4 35h-10l-7 -33l-67 -123z" />
<glyph unicode="&#x2075;" horiz-adv-x="536" d="M14 784q25 -8 54 -14q25 -4 56.5 -8t65.5 -4q100 0 101 49q0 25 -39 40t-137 15h-68v328h426v-186l-100 12h-117v-35q47 -2 93 -13.5t83 -34t60.5 -57t23.5 -85.5q0 -57 -25.5 -97.5t-68.5 -65t-97.5 -34.5t-111.5 -10q-51 0 -90 5t-74 15z" />
<glyph unicode="&#x2076;" horiz-adv-x="583" d="M20 885q0 141 78 228t250 87q43 0 85 -5t65 -11l34 -170q-29 6 -64.5 12t-82.5 6q-119 0 -131 -69h18q63 0 116.5 -8.5t92.5 -29t60.5 -55t21.5 -88.5q0 -88 -71.5 -142t-194.5 -54q-143 0 -210 85t-67 214zM242 854q0 -47 12 -76.5t47 -29.5q23 0 36 12t13 33 q0 35 -29.5 48t-64.5 13h-14z" />
<glyph unicode="&#x2077;" horiz-adv-x="522" d="M12 1004v186h498v-172q-55 -45 -88 -100.5t-50.5 -111.5t-22.5 -109.5t-5 -92.5v-8h-229v8q0 51 11 106.5t30.5 107.5t48 98.5t63.5 82.5l37 13l-4 6h-192z" />
<glyph unicode="&#x2078;" horiz-adv-x="583" d="M18 752q0 43 25 77.5t66 55.5v8q-29 16 -53.5 47t-24.5 76q0 49 23.5 85t61.5 58.5t85 32.5t94 10q51 0 99 -9t86 -28.5t60.5 -52.5t22.5 -80t-23.5 -74.5t-54.5 -44.5v-8q29 -16 54.5 -49t25.5 -78q0 -49 -23.5 -85t-62.5 -59.5t-89 -34.5t-103 -11t-101.5 8t-85.5 26.5 t-59.5 50.5t-22.5 79zM209 791q0 -23 19.5 -33t47.5 -10q29 0 48.5 10t19.5 30q0 18 -18.5 28.5t-51.5 19.5l-18 4q-47 -14 -47 -49zM246 1012q0 -16 22.5 -27.5t55.5 -19.5l10 -2q16 6 27.5 18t11.5 29q0 23 -19.5 31t-44.5 8q-23 0 -43 -8.5t-20 -28.5z" />
<glyph unicode="&#x2079;" horiz-adv-x="583" d="M20 1004q0 88 72 142t195 54q143 0 209.5 -85t66.5 -214q0 -141 -77.5 -228t-249.5 -87q-43 0 -85 5t-65 11l-35 170q29 -6 65 -12t83 -6q119 0 131 69h-19q-63 0 -116.5 8.5t-92.5 29t-60.5 55t-21.5 88.5zM233 993q0 -35 30 -48t65 -13h14q0 47 -12.5 76.5t-46.5 29.5 q-23 0 -36.5 -12t-13.5 -33z" />
<glyph unicode="&#x207d;" horiz-adv-x="292" d="M37 905q0 113 37 228.5t96 199.5l104 -71q-37 -59 -63.5 -150.5t-26.5 -206.5q0 -113 27 -205t63 -151l-108 -70q-29 41 -52.5 92.5t-41 106.5t-26.5 113.5t-9 113.5z" />
<glyph unicode="&#x207e;" horiz-adv-x="292" d="M18 549q37 59 64 151.5t27 204.5q0 115 -27 206t-64 151l105 71q59 -84 96 -199.5t37 -228.5q0 -55 -9 -113.5t-26.5 -113.5t-41 -106.5t-52.5 -92.5z" />
<glyph unicode="&#x207f;" horiz-adv-x="659" d="M49 1190h182l27 -62h8q29 29 70 51.5t108 22.5q88 0 131 -49t43 -141v-416h-247v385q0 29 -27 29q-23 0 -31 -21.5t-8 -58.5v-334h-246v475z" />
<glyph unicode="&#x20ac;" d="M14 326l45 178h70v20v27.5t2 28.5h-117l45 178h105q57 164 197.5 254t355.5 90q104 0 171.5 -16.5t108.5 -26.5l-59 -256q-35 10 -71 15t-70 5q-76 0 -123 -17.5t-80 -47.5h278l-45 -178h-303v-43l2 -33h346l-45 -178h-245q29 -29 69.5 -46.5t112.5 -17.5q47 0 97 13.5 t91 39.5l56 -254q-47 -27 -129 -53t-209 -26q-180 0 -318.5 87t-193.5 257h-144z" />
<glyph unicode="&#x2122;" horiz-adv-x="1060" d="M14 1249v154h658l28 -270v-37h9l2 37l41 270h268l-10 -90l6 -457h-193l25 346l4 27h-8l-74 -373h-137l-51 371h-9l5 -25v-346h-199l12 92l17 301h-101v-391h-186l6 92v299h-113z" />
<glyph unicode="&#x2153;" horiz-adv-x="1261" d="M23 1075q49 8 102 37t88 76h201l-11 -418h105v-174h-467v174h137l8 184l-6 4l-22 -32q-16 -10 -47 -20.5t-56 -14.5zM193 0l696 1190h188l-696 -1190h-188zM729 188q18 -4 73.5 -15t123.5 -11q39 0 63.5 9t24.5 32q0 27 -25.5 33t-68.5 6h-95v114h97q41 0 65.5 9.5 t24.5 35.5q0 23 -24.5 32t-67.5 9q-49 0 -99.5 -7t-85.5 -17l33 174q35 8 83 13t97 5q55 0 107.5 -8t92.5 -28.5t63.5 -53.5t23.5 -84q0 -41 -22.5 -74.5t-59.5 -52.5v-8q27 -8 57.5 -38t30.5 -85t-26.5 -91t-69.5 -57.5t-98.5 -29.5t-112.5 -8q-102 0 -174 22z" />
<glyph unicode="&#x2154;" horiz-adv-x="1312" d="M16 997l39 187q20 4 66.5 11t109.5 7q55 0 106.5 -13t92.5 -39t65.5 -66t24.5 -93q0 -66 -38 -116t-126 -97l4 -8h86l101 10v-186h-522v164q92 45 146 76.5t82 55t36 41t8 34.5q0 33 -32 47t-79 14q-55 0 -100 -10t-70 -19zM240 0l696 1190h188l-696 -1190h-188zM780 188 q18 -4 73.5 -15t123.5 -11q39 0 63.5 9t24.5 32q0 27 -25.5 33t-68.5 6h-94v114h96q41 0 65.5 9.5t24.5 35.5q0 23 -24.5 32t-67.5 9q-49 0 -99.5 -7t-85.5 -17l33 174q35 8 83 13t97 5q55 0 107.5 -8t92.5 -28.5t63.5 -53.5t23.5 -84q0 -41 -22.5 -74.5t-59.5 -52.5v-8 q27 -8 57.5 -38t30.5 -85t-26.5 -91t-69.5 -57.5t-98.5 -29.5t-112.5 -8q-102 0 -174 22z" />
<glyph unicode="&#x215b;" horiz-adv-x="1269" d="M23 1075q49 8 102 37t88 76h201l-11 -418h105v-174h-467v174h137l8 184l-6 4l-22 -32q-16 -10 -47 -20.5t-56 -14.5zM193 0l696 1192h188l-696 -1192h-188zM705 156q0 43 24.5 77.5t65.5 55.5v8q-29 16 -53.5 47t-24.5 76q0 49 23.5 85t61.5 58.5t85 32.5t94 10 q51 0 99 -9t86 -28.5t60.5 -52.5t22.5 -80t-23.5 -74.5t-54.5 -44.5v-8q29 -16 54.5 -49t25.5 -78q0 -49 -23.5 -85t-62.5 -59.5t-89 -34.5t-103 -11t-101.5 8t-85 26.5t-59 50.5t-22.5 79zM895 195q0 -23 19.5 -33t48.5 -10t48 10t19 31q0 18 -18.5 28t-50.5 19l-19 4 q-47 -14 -47 -49zM932 416q0 -16 22.5 -27.5t55.5 -19.5l10 -2q16 6 27.5 18t11.5 29q0 23 -19.5 31t-44.5 8q-23 0 -43 -8.5t-20 -28.5z" />
<glyph unicode="&#x215c;" horiz-adv-x="1241" d="M23 778q20 -4 74.5 -15t121.5 -11q39 0 63.5 9t24.5 32q0 27 -25.5 32.5t-68.5 5.5h-94v115h96q41 0 65.5 9.5t24.5 35.5q0 23 -24.5 32t-67.5 9q-49 0 -99.5 -7t-84.5 -17l32 174q35 8 83.5 13t97.5 5q55 0 107 -8t92 -28.5t63.5 -53.5t23.5 -84q0 -41 -22.5 -74.5 t-59.5 -52.5v-8q27 -8 58 -38t31 -85t-27 -91t-70 -57.5t-98 -29.5t-113 -8q-102 0 -174 22zM166 0l696 1190h189l-697 -1190h-188zM676 156q0 43 24.5 77.5t65.5 55.5v8q-29 16 -53.5 47t-24.5 76q0 49 23.5 85t61.5 58.5t85 32.5t94 10q51 0 99.5 -9t86.5 -28.5 t60.5 -52.5t22.5 -80t-23.5 -74.5t-54.5 -44.5v-8q29 -16 54.5 -49t25.5 -78q0 -49 -23.5 -85t-62.5 -59.5t-89.5 -34.5t-103.5 -11t-101 8t-85 26.5t-59.5 50.5t-22.5 79zM866 195q0 -23 19.5 -33t48.5 -10t48 10t19 31q0 18 -18 28t-51 19l-19 4q-47 -14 -47 -49zM903 416 q0 -16 22.5 -27.5t55.5 -19.5l10 -2q16 6 27.5 18t11.5 29q0 23 -19.5 31t-43.5 8q-23 0 -43.5 -8.5t-20.5 -28.5z" />
<glyph unicode="&#x215d;" horiz-adv-x="1224" d="M14 784q25 -8 54 -14q25 -4 56.5 -8t65.5 -4q100 0 101 49q0 25 -39 40t-137 15h-68v328h426v-186l-100 12h-117v-35q47 -2 93 -13.5t83 -34t60.5 -57t23.5 -85.5q0 -57 -25.5 -97.5t-68.5 -65t-97.5 -34.5t-111.5 -10q-51 0 -90 5t-74 15zM150 0l696 1190h188 l-696 -1190h-188zM659 156q0 43 25 77.5t66 55.5v8q-29 16 -53.5 47t-24.5 76q0 49 23.5 85t61.5 58.5t85 32.5t94 10q51 0 99 -9t86 -28.5t60.5 -52.5t22.5 -80t-23.5 -74.5t-54.5 -44.5v-8q29 -16 54.5 -49t25.5 -78q0 -49 -23.5 -85t-62.5 -59.5t-89 -34.5t-103 -11 t-101.5 8t-85 26.5t-59.5 50.5t-23 79zM850 195q0 -23 19.5 -33t48.5 -10t48 10t19 31q0 18 -18.5 28t-51.5 19l-18 4q-47 -14 -47 -49zM887 416q0 -16 22.5 -27.5t55.5 -19.5l10 -2q16 6 27.5 18t11.5 29q0 23 -19.5 31t-44.5 8q-23 0 -43 -8.5t-20 -28.5z" />
<glyph unicode="&#x215e;" horiz-adv-x="1173" d="M14 1004v186h498v-172q-55 -45 -88 -100.5t-50.5 -111.5t-22.5 -109.5t-5 -92.5v-8h-229v8q0 51 11 106.5t30.5 107.5t48.5 98.5t63 82.5l37 13l-4 6h-192zM80 0l694 1192h189l-697 -1192h-186zM608 156q0 43 24.5 77.5t65.5 55.5v8q-29 16 -53 47t-24 76q0 49 23.5 85 t61 58.5t85 32.5t94.5 10q51 0 99 -9t86 -28.5t60.5 -52.5t22.5 -80t-23.5 -74.5t-54.5 -44.5v-8q29 -16 54.5 -49t25.5 -78q0 -49 -23.5 -85t-62.5 -59.5t-89 -34.5t-103 -11t-101.5 8t-85.5 26.5t-59.5 50.5t-22.5 79zM799 195q0 -23 19.5 -33t47.5 -10q29 0 48.5 10 t19.5 31q0 18 -18.5 28t-51.5 19l-18 4q-47 -14 -47 -49zM836 416q0 -16 22.5 -27.5t54.5 -19.5l11 -2q16 6 27.5 18t11.5 29q0 23 -19.5 31t-44.5 8q-23 0 -43 -8.5t-20 -28.5z" />
<glyph unicode="&#x2160;" horiz-adv-x="620" d="M0 0v88h94l8 98v809h-102v88h621v-88h-103v-907h103v-88h-621z" />
<glyph unicode="&#x2164;" horiz-adv-x="1153" d="M0 0v88h252l-193 907h-59v88h1157v-88h-70l-196 -907h266v-88h-1157zM492 995l73 -626l4 -74h11l4 74l63 528v98h-155z" />
<glyph unicode="&#x2169;" horiz-adv-x="1122" d="M-4 0v88h33l221 467l-201 440h-53v88h1130v-88h-59l-199 -440l222 -467h36v-88h-1130zM485 88h154l-66 201l-8 51h-10l-6 -51l-43 -121zM485 995l60 -209l10 -63h10l8 63l35 125l13 84h-136z" />
<glyph unicode="&#x216c;" horiz-adv-x="843" d="M0 0v88h94l8 98v809h-102v88h844v-88h-326v-678h273v-229h53v-88h-844z" />
<glyph unicode="&#x216d;" horiz-adv-x="1007" d="M0 0v88h233q-92 55 -149 163.5t-57 272.5q0 166 62.5 284t166.5 187h-256v88h1012v-88h-92l-62 -272q-31 18 -68.5 33.5t-103.5 15.5q-104 0 -172 -59.5t-68 -175.5q0 -98 58.5 -162t163.5 -64q143 0 219 115l78 -338h47v-88h-1012z" />
<glyph unicode="&#x216e;" horiz-adv-x="1212" d="M0 0v88h139l8 98v809h-147v86h1212v-88h-258q102 -66 156.5 -178.5t54.5 -275.5q0 -324 -202 -453h249v-86h-1212zM563 307h10q47 0 80 11.5t53.5 37t29.5 69.5t9 112t-9 113.5t-28.5 73.5t-52 39t-82.5 11h-10v-467z" />
<glyph unicode="&#x216f;" horiz-adv-x="1554" d="M-4 0v88h43l16 98l54 809h-113v88h1563v-88h-105l-6 -98l53 -809h58v-88h-1563zM457 88h155l-114 596l-9 53h-10zM694 995l76 -487l4 -59h10v59l74 487h-164zM942 88h154l-21 647h-10l-6 -47z" />
<glyph unicode="&#x25fc;" horiz-adv-x="972" d="M0 0v973h973v-973h-973z" />
<glyph horiz-adv-x="2205" d="M16 649q0 150 42 272.5t123 210t198 135.5t268 48q127 0 219 -20.5t144 -39.5l-97 -350q-29 18 -70.5 33.5t-94.5 15.5q-70 0 -119 -22.5t-81 -62.5t-46.5 -93t-14.5 -114q0 -166 85 -242t257 -76q137 0 250 33v919h428v-460h154v460h463l-19 -200v-1096h-444v492h-154 v-410q-176 -35 -354 -67.5t-385 -32.5q-168 0 -306 36.5t-237.5 116.5t-154 207t-54.5 307z" />
<glyph horiz-adv-x="2050" d="M16 649q0 150 42 272.5t123 210t198 135.5t268 48q127 0 219 -20.5t144 -39.5l-97 -350q-29 18 -70.5 33.5t-94.5 15.5q-70 0 -119 -22.5t-81 -62.5t-46.5 -93t-14.5 -114q0 -166 85 -242t257 -76q68 0 124.5 10.5t115.5 26.5v1001h416l-15 -174v-309h13q27 35 91 66.5 t140 31.5q143 0 209 -85t66 -230v-682h-406v635q0 45 -45 45q-41 0 -53 -33t-12 -92v-481q-84 -18 -165 -34.5t-167 -29t-177.5 -20.5t-195.5 -8q-168 0 -306 36.5t-237.5 116.5t-154 207t-54.5 307z" />
<glyph horiz-adv-x="1882" d="M16 475q0 119 34 215t100.5 164t166 104.5t230.5 36.5q41 0 85 -4t84 -11t72.5 -15.5t49.5 -14.5l-80 -307q-23 14 -58.5 29.5t-89.5 15.5q-53 0 -89 -17.5t-57.5 -45t-30.5 -61.5t-9 -66q0 -98 56.5 -150.5t172.5 -52.5q27 0 62 2t69.5 5t65.5 8t51 12v1060h418 l-16 -170v-313h12q27 35 90 66.5t139 31.5q143 0 210 -85t67 -230v-682h-406v635q0 45 -47 45q-41 0 -52 -35t-11 -96v-483q-127 -27 -308.5 -55.5t-388.5 -28.5q-125 0 -233.5 27.5t-188.5 88t-125 153.5t-45 224z" />
<glyph horiz-adv-x="2134" d="M16 649q0 150 42 272.5t123 210t198 135.5t268 48q127 0 219 -20.5t144 -39.5l-97 -350q-29 18 -70.5 33.5t-94.5 15.5q-70 0 -119 -22.5t-81 -62.5t-46.5 -93t-14.5 -114q0 -166 85 -242t257 -76q68 0 124.5 6t115.5 23v710h416v-403h137v403h430l-14 -188v-895h-416 v412h-137v-336q-166 -35 -338 -64.5t-379 -29.5q-168 0 -306 36.5t-237.5 116.5t-154 207t-54.5 307z" />
<glyph horiz-adv-x="1992" d="M16 532q0 135 40 241t114 178.5t180.5 111.5t239.5 39q115 0 180.5 -16.5t108.5 -26.5l-82 -336q-33 16 -70 26.5t-88 10.5q-102 0 -150.5 -66.5t-48.5 -163.5q2 -59 24.5 -102t59.5 -70.5t87.5 -41t105.5 -13.5q78 0 128 8t83 19v753h415v-403h138v403h430l-15 -188 v-895h-415v412h-138v-336q-45 -12 -114.5 -27.5t-157.5 -30t-192.5 -24.5t-216.5 -10q-137 0 -255 32.5t-205 100t-136.5 171t-49.5 244.5z" />
<glyph horiz-adv-x="1124" d="M2 0l279 1083h618l219 -1083h-452l-7 150l-4 26h-192l-29 -176h-432zM496 440h145l-51 361l-4 69h-11l-6 -69z" />
<glyph horiz-adv-x="1124" d="M2 0l279 1083h618l219 -1083h-452l-7 150l-4 26h-192l-29 -176h-432zM266 1294l506 199l88 -238l-489 -75zM496 440h145l-51 361l-4 69h-11l-6 -69z" />
<glyph horiz-adv-x="1124" d="M2 0l279 1083h618l219 -1083h-452l-7 150l-4 26h-192l-29 -176h-432zM250 1282l260 182q18 14 40.5 19.5t39.5 5.5q18 0 41.5 -5t44.5 -20l258 -182l-103 -113l-241 74l-242 -74zM496 440h145l-51 361l-4 69h-11l-6 -69z" />
<glyph horiz-adv-x="1124" d="M2 0l279 1083h618l219 -1083h-452l-7 150l-4 26h-192l-29 -176h-432zM313 1202v285h228v-285h-228zM496 440h145l-51 361l-4 69h-11l-6 -69zM635 1202v285h227v-285h-227z" />
<glyph horiz-adv-x="1447" d="M0 0l276 1083h1055l23 -297h-385l12 -129h356l17 -215h-357l15 -143h397l25 -299h-791l12 147l-4 29h-202l-31 -176h-418zM498 451h135l-45 395h-23z" />
<glyph horiz-adv-x="1124" d="M2 0l279 1083h618l219 -1083h-452l-7 150l-4 26h-192l-29 -176h-432zM303 1255l88 238l506 -199l-104 -114zM496 440h145l-51 361l-4 69h-11l-6 -69z" />
<glyph horiz-adv-x="1124" d="M2 0l279 1083h618l219 -1083h-452l-7 150l-4 26h-192l-29 -176h-432zM338 1321q0 78 60.5 129t183.5 51q129 0 189 -51t60 -129t-60 -126t-189 -48q-123 0 -183.5 51t-60.5 123zM496 440h145l-51 361l-4 69h-11l-6 -69zM545 1321q0 -10 7 -23.5t30 -13.5q29 0 36 13.5 t7 23.5q0 12 -7.5 28.5t-35.5 16.5q-23 0 -30 -16.5t-7 -28.5z" />
<glyph horiz-adv-x="1124" d="M2 0l279 1083h618l219 -1083h-452l-7 150l-4 26h-192l-29 -176h-432zM233 1219l33 200q23 12 73 31.5t136 19.5q25 0 60.5 -5t72.5 -11t73 -11t64 -5q86 0 134.5 12t72.5 23l-28 -201q-23 -12 -75 -32.5t-136 -20.5q-25 0 -60 5t-73.5 12t-75.5 12t-66 5q-84 0 -132 -13 t-73 -21zM496 440h145l-51 361l-4 69h-11l-6 -69z" />
<glyph horiz-adv-x="1103" d="M82 0l14 186v897h584q82 0 151.5 -16t121 -52t80 -92.5t28.5 -136.5q0 -86 -42 -143t-95 -76v-8q61 -29 108 -90t47 -166q0 -141 -92 -222t-272 -81h-633zM496 657h88q35 0 51 22.5t16 51.5t-17.5 52.5t-58.5 23.5h-79v-150zM498 289h82q39 0 61.5 22.5t22.5 61.5 t-26 59.5t-60 20.5h-80v-164z" />
<glyph horiz-adv-x="931" d="M16 522q0 137 42 244.5t120 182.5t187.5 114t244.5 39q115 0 189.5 -16.5t113.5 -26.5l-82 -334q-29 12 -68.5 24.5t-103.5 12.5q-104 0 -161.5 -66.5t-57.5 -165.5q0 -102 56.5 -160.5t158.5 -58.5q63 0 119.5 28t89.5 77l68 -330q-59 -43 -154.5 -73.5t-224.5 -30.5 q-113 0 -210 32.5t-170 100t-115 169t-42 238.5z" />
<glyph horiz-adv-x="931" d="M16 522q0 137 42 244.5t120 182.5t187.5 114t244.5 39q115 0 189.5 -16.5t113.5 -26.5l-82 -336q-29 12 -68.5 24.5t-103.5 12.5q-104 0 -161.5 -65.5t-57.5 -164.5q0 -102 56.5 -160.5t158.5 -58.5q68 0 126.5 34t90.5 83l60 -342q-53 -39 -134 -67.5t-190 -34.5v-29 q68 0 108 -40t40 -99q0 -80 -62.5 -124t-167.5 -44q-74 0 -117.5 8t-60.5 12l29 135q20 -4 44.5 -6t45.5 -2q29 0 50.5 6t21.5 27q0 16 -19.5 21.5t-42.5 5.5q-18 0 -40.5 -3.5t-33.5 -5.5l29 146q-90 14 -166 55t-131 106.5t-87 157.5t-32 211z" />
<glyph horiz-adv-x="1130" d="M82 0l14 186v897h436q276 0 429 -133t153 -411q0 -264 -137 -401.5t-416 -137.5h-479zM512 307h10q47 0 80 11.5t53.5 37t29.5 69.5t9 112t-9 113.5t-28.5 73.5t-52.5 39t-82 11h-10v-467z" />
<glyph horiz-adv-x="989" d="M82 0l14 184v899h850v-297h-434v-127h406v-217h-406v-143h449v-299h-879z" />
<glyph horiz-adv-x="989" d="M82 0l14 184v899h850v-297h-434v-127h406v-217h-406v-143h449v-299h-879zM221 1294l506 199l88 -238l-489 -75z" />
<glyph horiz-adv-x="989" d="M82 0l14 184v899h850v-297h-434v-127h406v-217h-406v-143h449v-299h-879zM184 1272l260 182q18 14 41 19.5t39 5.5q18 0 42 -5.5t44 -19.5l258 -182l-102 -113l-242 74l-241 -74z" />
<glyph horiz-adv-x="989" d="M82 0l14 184v899h850v-297h-434v-127h406v-217h-406v-143h449v-299h-879zM268 1200v285h226v-285h-226zM590 1200v285h227v-285h-227z" />
<glyph horiz-adv-x="989" d="M82 0l14 184v899h850v-297h-434v-127h406v-217h-406v-143h449v-299h-879zM240 1255l88 238l506 -199l-105 -114z" />
<glyph horiz-adv-x="1130" d="M-20 563l124 27v493h433q276 0 426.5 -134t150.5 -412q0 -264 -137 -400.5t-416 -136.5h-477l16 186v164l-73 -14zM512 307h8q49 0 82 11.5t53.5 38t29.5 71.5t9 115q0 131 -36.5 181t-131.5 50h-14v-100l61 12l50 -225l-111 -23v-131z" />
<glyph horiz-adv-x="935" d="M82 0l14 184v899h819v-284h-403v-154h375v-262h-375v-383h-430z" />
<glyph horiz-adv-x="1107" d="M16 516q0 283 161 435.5t482 152.5q102 0 190.5 -14.5t168.5 -32.5l-76 -281q-33 10 -93.5 21.5t-131.5 11.5q-166 0 -226.5 -75t-60.5 -216q0 -115 34 -183.5t124 -68.5q37 0 53 3t29 7v125h-121v244h477v-592q-82 -25 -200.5 -48t-252.5 -23q-287 0 -422 135t-135 399z " />
<glyph horiz-adv-x="1161" d="M82 0l14 186v897h416v-403h137v403h430l-14 -188v-895h-416v412h-137v-412h-430z" />
<glyph horiz-adv-x="593" d="M82 0l14 186v897h416v-1083h-430z" />
<glyph horiz-adv-x="593" d="M-23 1294l506 199l88 -238l-489 -75zM82 0l14 186v897h416v-1083h-430z" />
<glyph horiz-adv-x="593" d="M-39 1274l260 182q18 14 41 19.5t39 5.5q18 0 42 -5.5t44 -19.5l258 -182l-102 -113l-242 74l-242 -74zM82 0l14 186v897h416v-1083h-430z" />
<glyph horiz-adv-x="593" d="M27 1200v285h227v-285h-227zM82 0l14 186v897h416v-1083h-430zM348 1200v285h227v-285h-227z" />
<glyph horiz-adv-x="593" d="M16 1255l88 238l506 -199l-104 -114zM82 0l14 186v897h416v-1083h-430z" />
<glyph horiz-adv-x="712" d="M-20 297q12 -4 39.5 -7t50.5 -3q66 0 103.5 27.5t37.5 93.5v370l-195 21v284h623l-14 -186v-514q0 -106 -39 -182t-107.5 -125t-162 -71.5t-201.5 -22.5q-18 0 -49 2t-52 6z" />
<glyph horiz-adv-x="1099" d="M82 0l16 186v897h416v-376h10l13 69l100 307h450l-215 -475l222 -608h-447l-106 340h-11l-16 -31v-309h-432z" />
<glyph horiz-adv-x="841" d="M82 0l18 186v897h416v-766h313v-317h-747z" />
<glyph horiz-adv-x="1542" d="M59 0l21 186l35 897h565l80 -669v-60h12v60l72 669h590l-13 -186l33 -897h-401v811h-11l-4 -47l-120 -764h-302l-131 760v53h-10v-813h-416z" />
<glyph horiz-adv-x="1175" d="M82 0l16 186v897h449l186 -653h10l-10 68l-61 585h422l-19 -184v-899h-446l-189 657h-10l10 -71l64 -586h-422z" />
<glyph horiz-adv-x="1175" d="M82 0l16 186v897h449l186 -653h10l-10 68l-61 585h422l-19 -184v-899h-446l-189 657h-10l10 -71l64 -586h-422zM242 1227l32 200q23 12 73 32t138 20q25 0 60 -5.5t71.5 -11.5t73.5 -11t66 -5q86 0 133 12t72 23l-29 -201q-23 -12 -75 -32.5t-134 -20.5q-25 0 -60.5 5 t-73.5 12t-75 12.5t-65 5.5q-86 0 -134.5 -13.5t-72.5 -21.5z" />
<glyph horiz-adv-x="1126" d="M16 532q0 131 37 236.5t110 179.5t179.5 114t245.5 40q264 0 393 -140.5t129 -408.5q0 -131 -37 -236.5t-108.5 -180.5t-177 -114.5t-242.5 -39.5q-268 0 -398.5 141t-130.5 409zM442 541q0 -45 3.5 -89t14.5 -78t32.5 -54.5t60.5 -20.5q43 0 68.5 22.5t39 59.5t18.5 82 t5 90q0 43 -3 85t-14.5 74.5t-34 53t-61.5 20.5q-43 0 -67.5 -21.5t-38.5 -56t-18.5 -78.5t-4.5 -89z" />
<glyph horiz-adv-x="1126" d="M16 543q0 264 145.5 411.5t426.5 147.5q264 0 393 -145.5t129 -413.5q0 -264 -145.5 -412.5t-419.5 -148.5q-268 0 -398.5 146.5t-130.5 414.5zM258 1294l506 199l88 -238l-490 -75zM440 547q0 -45 2 -89t13.5 -80t34 -57.5t63.5 -21.5q45 0 71.5 21.5t40 57.5t17.5 80 t4 89q0 43 -3 87t-14.5 77.5t-34 55t-63.5 21.5q-45 0 -71.5 -21.5t-40 -55t-16.5 -76.5t-3 -88z" />
<glyph horiz-adv-x="1126" d="M16 543q0 264 145.5 411.5t426.5 147.5q264 0 393 -145.5t129 -413.5q0 -264 -145.5 -412.5t-419.5 -148.5q-268 0 -398.5 146.5t-130.5 414.5zM223 1276l260 182q18 14 41 19.5t39 5.5q18 0 42 -5t44 -20l258 -182l-102 -113l-242 74l-241 -74zM440 547q0 -45 2 -89 t13.5 -80t34 -57.5t63.5 -21.5q45 0 71.5 21.5t40 57.5t17.5 80t4 89q0 43 -3 87t-14.5 77.5t-34 55t-63.5 21.5q-45 0 -71.5 -21.5t-40 -55t-16.5 -76.5t-3 -88z" />
<glyph horiz-adv-x="1126" d="M16 543q0 264 145.5 411.5t426.5 147.5q264 0 393 -145.5t129 -413.5q0 -264 -145.5 -412.5t-419.5 -148.5q-268 0 -398.5 146.5t-130.5 414.5zM293 1200v285h227v-285h-227zM440 547q0 -45 2 -89t13.5 -80t34 -57.5t63.5 -21.5q45 0 71.5 21.5t40 57.5t17.5 80t4 89 q0 43 -3 87t-14.5 77.5t-34 55t-63.5 21.5q-45 0 -71.5 -21.5t-40 -55t-16.5 -76.5t-3 -88zM614 1200v285h228v-285h-228z" />
<glyph horiz-adv-x="1464" d="M16 535q0 260 141.5 404t409.5 144h854v-297h-399v-133h371v-217h-371v-137h414v-299h-928q-250 0 -371 142.5t-121 392.5zM438 545q0 -51 4 -96.5t18.5 -78t40 -52t68.5 -19.5h41v487h-28q-47 0 -75 -20.5t-43 -54t-20.5 -76.5t-5.5 -90z" />
<glyph horiz-adv-x="1126" d="M16 543q0 264 145.5 411.5t426.5 147.5q264 0 393 -145.5t129 -413.5q0 -264 -145.5 -412.5t-419.5 -148.5q-268 0 -398.5 146.5t-130.5 414.5zM283 1255l88 238l506 -199l-105 -114zM440 547q0 -45 2 -89t13.5 -80t34 -57.5t63.5 -21.5q45 0 71.5 21.5t40 57.5t17.5 80 t4 89q0 43 -3 87t-14.5 77.5t-34 55t-63.5 21.5q-45 0 -71.5 -21.5t-40 -55t-16.5 -76.5t-3 -88z" />
<glyph horiz-adv-x="1126" d="M16 532q0 131 37 236.5t110 179.5t179.5 114t245.5 40q127 0 217 -33l61 102h146l-94 -157q98 -66 145 -182.5t47 -278.5q0 -131 -37 -236.5t-108.5 -180.5t-177 -114.5t-242.5 -39.5q-129 0 -230 34l-57 -98h-145l92 154q-96 68 -142.5 184.5t-46.5 275.5zM442 504 q0 -19 2 -35l181 301q-23 16 -54 16q-43 0 -67.5 -21.5t-38.5 -56t-18.5 -78.5t-4.5 -89v-37zM496 315q23 -16 57 -16q43 0 68.5 22.5t39 59.5t18.5 82t5 90v35.5t-2 36.5z" />
<glyph horiz-adv-x="1126" d="M16 543q0 264 145.5 411.5t426.5 147.5q264 0 393 -145.5t129 -413.5q0 -264 -145.5 -412.5t-419.5 -148.5q-268 0 -398.5 146.5t-130.5 414.5zM205 1217l33 200q23 12 72.5 31.5t135.5 19.5q25 0 61 -5t72.5 -11t72.5 -11t65 -5q86 0 134 12t73 22l-29 -200 q-23 -12 -75 -32.5t-136 -20.5q-25 0 -59.5 5t-73.5 12t-76 12t-65 5q-84 0 -132.5 -13t-72.5 -21zM440 547q0 -45 2 -89t13.5 -80t34 -57.5t63.5 -21.5q45 0 71.5 21.5t40 57.5t17.5 80t4 89q0 43 -3 87t-14.5 77.5t-34 55t-63.5 21.5q-45 0 -71.5 -21.5t-40 -55 t-16.5 -76.5t-3 -88z" />
<glyph horiz-adv-x="1071" d="M82 0l14 186v897h555q193 0 298.5 -96t105.5 -276q0 -176 -107.5 -266.5t-283.5 -90.5h-154v-354h-428zM500 612h53q41 0 66.5 28t25.5 69t-25.5 66.5t-66.5 25.5h-53v-189z" />
<glyph horiz-adv-x="1126" d="M16 532q0 133 39 239t112 179.5t178.5 112.5t238.5 39q268 0 397 -143.5t129 -405.5q0 -219 -90 -348t-240 -187l-6 -12l115 -205h-344l-78 185q-236 20 -343.5 164.5t-107.5 381.5zM442 543q0 -45 2 -89t13.5 -78t33 -55.5t62.5 -21.5q43 0 68.5 22.5t40 58.5t18.5 81 t4 90q0 43 -3 86t-13.5 75.5t-34 53t-62.5 20.5q-43 0 -68.5 -21.5t-38.5 -56t-17.5 -77.5t-4.5 -88z" />
<glyph horiz-adv-x="1130" d="M82 0l14 186v897h590q82 0 151.5 -17t120 -56t78 -98.5t27.5 -141.5q0 -94 -45 -162.5t-125 -91.5v-10q57 -16 82.5 -49t44.5 -111l76 -346h-430l-39 301q-6 53 -24.5 73.5t-59.5 20.5h-33v-395h-428zM498 618h59q41 0 69.5 23t28.5 70t-28.5 67.5t-69.5 20.5h-59v-181z " />
<glyph horiz-adv-x="966" d="M31 25l69 278q20 -6 52 -12t70 -12.5t78 -10.5t75 -4q20 0 42.5 1t41 6t31 15.5t12.5 26.5q0 29 -32 47.5t-99 40.5q-59 20 -116.5 46t-101.5 63t-71 89t-27 128q0 94 40 165t110.5 118t169 69.5t213.5 22.5q102 0 190 -15.5t135 -25.5l-71 -277q-8 2 -32 8.5t-54.5 12.5 t-65.5 10t-65 4q-63 0 -99.5 -13t-36.5 -46q0 -35 44.5 -50.5t111.5 -39.5q55 -20 107.5 -43t93.5 -57.5t65.5 -86t24.5 -125.5q0 -100 -42 -171.5t-117 -116.5t-179 -66.5t-227 -21.5q-100 0 -191.5 13t-148.5 30z" />
<glyph horiz-adv-x="907" d="M10 786v297h887v-297h-235v-786h-429l13 186v600h-236z" />
<glyph horiz-adv-x="1071" d="M82 0l14 186v897h414v-122h141q186 0 295 -96.5t109 -282.5q0 -178 -106.5 -270.5t-284.5 -92.5h-154v-219h-428zM510 494h39q41 0 63.5 25.5t22.5 66.5q0 88 -86 88h-39v-180z" />
<glyph horiz-adv-x="1116" d="M63 1083h433v-682q0 -53 11 -81.5t52 -28.5t57.5 27.5t16.5 82.5v494l-17 188h426v-694q0 -104 -35.5 -181t-100 -127t-156 -74.5t-199.5 -24.5q-219 0 -345 97t-126 308v508z" />
<glyph horiz-adv-x="1116" d="M63 1083h433v-682q0 -53 11 -81.5t52 -28.5t57.5 27.5t16.5 82.5v494l-17 188h426v-694q0 -104 -35.5 -181t-100 -127t-156 -74.5t-199.5 -24.5q-219 0 -345 97t-126 308v508zM238 1294l505 199l88 -238l-489 -75z" />
<glyph horiz-adv-x="1116" d="M63 1083h433v-682q0 -53 11 -81.5t52 -28.5t57.5 27.5t16.5 82.5v494l-17 188h426v-694q0 -104 -35.5 -181t-100 -127t-156 -74.5t-199.5 -24.5q-219 0 -345 97t-126 308v508zM221 1274l260 182q18 14 41 19.5t39 5.5q18 0 42 -5.5t44 -19.5l258 -182l-102 -113l-242 74 l-242 -74z" />
<glyph horiz-adv-x="1116" d="M63 1083h433v-682q0 -53 11 -81.5t52 -28.5t57.5 27.5t16.5 82.5v494l-17 188h426v-694q0 -104 -35.5 -181t-100 -127t-156 -74.5t-199.5 -24.5q-219 0 -345 97t-126 308v508zM283 1200v285h227v-285h-227zM604 1200v285h227v-285h-227z" />
<glyph horiz-adv-x="1116" d="M63 1083h433v-682q0 -53 11 -81.5t52 -28.5t57.5 27.5t16.5 82.5v494l-17 188h426v-694q0 -104 -35.5 -181t-100 -127t-156 -74.5t-199.5 -24.5q-219 0 -345 97t-126 308v508zM262 1255l88 238l506 -199l-104 -114z" />
<glyph horiz-adv-x="1083" d="M6 1083h447l59 -714l4 -74h10q0 29 1 42t1 21t2 11l88 528v186h459l-258 -1083h-602z" />
<glyph horiz-adv-x="1644" d="M20 1083h437l37 -786h10l4 74l84 526v186h455l83 -712l5 -74h10l39 600v186h440l-178 -1083h-539l-67 657l-6 76h-11l-4 -76l-90 -657h-534z" />
<glyph horiz-adv-x="1081" d="M6 0l205 575l-201 508h443l71 -297l6 -63h11l4 63l30 127l19 170h473l-217 -508l225 -575h-459l-71 319l-4 52h-13v-52l-41 -151l-24 -168h-457z" />
<glyph horiz-adv-x="1026" d="M6 1083h402l86 -350l6 -67h8l6 67l43 185l16 165h447l-315 -729v-354h-416v354z" />
<glyph horiz-adv-x="1026" d="M6 1083h402l86 -350l6 -67h8l6 67l43 185l16 165h447l-315 -729v-354h-416v354zM205 1294l506 199l88 -238l-490 -75z" />
<glyph horiz-adv-x="1026" d="M6 1083h402l86 -350l6 -67h8l6 67l43 185l16 165h447l-315 -729v-354h-416v354zM236 1200v285h225v-285h-225zM557 1200v285h227v-285h-227z" />
<glyph horiz-adv-x="940" d="M31 0v307l403 461l53 29l-2 10h-438v276h850v-311l-371 -444l-55 -31l4 -10h240l194 24v-311h-878z" />
<glyph horiz-adv-x="645" d="M20 766q0 104 81 152.5t206 52.5l37 2q0 35 -24.5 46t-75.5 13q-66 0 -120 -10t-77 -16l39 180q47 8 95 13t116 5q143 0 216 -58.5t73 -209.5v-215l10 -125h-178l-27 63h-8q-29 -31 -72 -52t-108 -21q-78 0 -130.5 45t-52.5 135zM250 797q0 -18 13 -28.5t30 -10.5 q31 0 42 24.5t11 61.5v20q-96 0 -96 -67z" />
<glyph horiz-adv-x="649" d="M49 606l10 113v717h244v-265h8q8 8 38 19.5t71 11.5q104 0 159.5 -71.5t55.5 -188.5q0 -72 -18.5 -135.5t-62.5 -111.5t-115.5 -76.5t-178.5 -28.5q-39 0 -100.5 3t-110.5 13zM291 830.5q0 -11.5 2 -21.5q0 -12 2 -27h10q49 0 67.5 39t18.5 90q0 100 -45 101 q-20 0 -31.5 -15.5t-16.5 -39t-6 -52t-1 -55.5v-19.5z" />
<glyph horiz-adv-x="538" d="M16 885q0 147 89.5 232t242.5 85q43 0 93.5 -7t86.5 -17l-41 -187q-16 10 -41.5 17.5t-54.5 7.5q-55 0 -91 -32t-36 -87q0 -53 31 -86t84 -33q37 0 70.5 15.5t56.5 35.5l33 -190q-23 -12 -75 -32.5t-138 -20.5q-143 0 -226.5 79.5t-83.5 219.5z" />
<glyph horiz-adv-x="641" d="M14 860q0 74 18.5 136.5t58.5 108.5t100.5 71.5t144.5 25.5h14v234h242l-10 -123v-713h-164l-21 62h-8q-66 -72 -158 -72q-113 0 -165 76.5t-52 193.5zM258 885q0 -47 9 -76t36 -29q18 0 29.5 14.5t16.5 38t6 53t1 58.5q0 16 -1 28.5t-1 20.5v17h-8q-49 0 -68.5 -38 t-19.5 -87z" />
<glyph horiz-adv-x="622" d="M14 887q0 68 20.5 125t60.5 99t98.5 66.5t134.5 24.5q78 0 130 -24.5t83.5 -67.5t45 -101.5t13.5 -125.5v-45h-328q4 -45 35 -62.5t92 -17.5q49 0 99.5 8t85.5 16l-37 -176q-29 -8 -84 -15t-115 -7q-166 0 -250 77.5t-84 225.5zM266 954h113l4 9q0 25 -11.5 46t-41.5 21 q-29 0 -45.5 -23.5t-18.5 -52.5z" />
<glyph horiz-adv-x="362" d="M37 1313l145 147l150 -147l-121 -117h96v-600h-260l12 106v494h95z" />
<glyph horiz-adv-x="362" d="M49 596l10 106v734h246v-840h-256z" />
<glyph horiz-adv-x="974" d="M49 1190h184l27 -64h8q23 31 64 53.5t102 22.5q106 0 150 -76h8q23 31 66.5 53.5t99.5 22.5q92 0 134 -50t42 -142v-416h-248v387q0 29 -29 29q-27 0 -33 -22.5t-6 -45.5v-348h-245v387q0 29 -29 29q-27 0 -33 -19.5t-6 -48.5v-348h-246v481z" />
<glyph horiz-adv-x="628" d="M12 889q0 137 80 225t234 88t222 -82t68 -219q0 -139 -82.5 -227t-236.5 -88t-219.5 82t-65.5 221zM260 895q0 -49 7 -85t42 -36q39 0 50.5 34t11.5 87q0 49 -8.5 84t-43.5 35q-41 0 -50 -36t-9 -83z" />
<glyph horiz-adv-x="460" d="M49 1190h178l23 -74h8q29 41 69 63.5t107 22.5l23 -198q-10 2 -20.5 3t-20.5 1q-61 0 -84 -36t-23 -100v-278h-248v481z" />
<glyph horiz-adv-x="546" d="M16 616l39 170q20 -8 70.5 -20t91.5 -12q70 0 70 32q0 25 -49 41q-37 12 -75 26.5t-69 35t-50 49.5t-19 72q0 55 25.5 92t67.5 58.5t93 30.5t102 9q59 0 109.5 -8t93.5 -18l-39 -154q-14 6 -56 13t-79 7q-31 0 -49.5 -7t-18.5 -27q0 -18 35 -35q43 -14 83 -28.5t71 -36 t49 -51.5t18 -75q0 -53 -23.5 -90t-63.5 -59.5t-93 -33.5t-110 -11q-63 0 -123 9t-101 21z" />
<glyph horiz-adv-x="401" d="M18 1014v170l52 6l24 131l209 63v-194h72v-176h-70v-191q0 -57 49 -57q23 0 41 8l-33 -182q-8 -4 -33.5 -6t-39.5 -2q-123 0 -177.5 51t-54.5 186v193h-39z" />
<glyph horiz-adv-x="595" d="M20 55q0 141 70 225.5t213 84.5t207.5 -79t64.5 -220t-75.5 -227.5t-218.5 -86.5t-202 81t-59 222zM244 57q0 -51 7 -91t44 -40q35 0 45 42t10 93q0 53 -7 90t-42 37q-37 0 -47 -39t-10 -92z" />
<glyph horiz-adv-x="522" d="M23 240q49 8 102 36.5t88 75.5h201l-11 -418h105v-174h-467v174h137l8 185l-6 4l-22 -33q-16 -10 -47 -20.5t-56 -14.5z" />
<glyph horiz-adv-x="561" d="M16 164l39 186q20 4 66.5 11.5t109.5 7.5q55 0 106.5 -13.5t92.5 -39t65.5 -65.5t24.5 -93q0 -66 -38 -116t-126 -97l4 -8h86l101 10v-187h-522v164q92 45 146 77t82 55.5t36 41t8 33.5q0 33 -32 47.5t-79 14.5q-55 0 -100 -10.5t-70 -18.5z" />
<glyph horiz-adv-x="555" d="M23 -55q20 -6 74.5 -16.5t121.5 -10.5q39 0 63.5 9.5t24.5 31.5q0 27 -25.5 33t-68.5 6h-94v115h96q41 0 65.5 9t24.5 36q0 23 -24.5 32t-67.5 9q-49 0 -99.5 -7.5t-84.5 -17.5l32 174q35 8 83.5 13.5t97.5 5.5q55 0 107 -8.5t92 -29t63.5 -53t23.5 -83.5 q0 -41 -22.5 -75t-59.5 -52v-9q27 -8 58 -37.5t31 -85.5q0 -55 -27 -91t-70 -57.5t-98 -29.5t-113 -8q-102 0 -174 23z" />
<glyph horiz-adv-x="571" d="M12 18l201 334h285v-338h61v-161h-61v-95h-217v95h-269v165zM180 16l4 -6l29 4h74v144l4 35h-10l-7 -33l-67 -123z" />
<glyph horiz-adv-x="536" d="M14 -51q25 -8 54 -15q25 -4 56.5 -8t65.5 -4q100 0 101 49q0 25 -39 40.5t-137 15.5h-68v327h426v-186l-100 12h-117v-35q47 -2 93 -13t83 -33.5t60.5 -57.5t23.5 -86q0 -57 -25.5 -97t-68.5 -64.5t-97.5 -35t-111.5 -10.5q-51 0 -90 5t-74 16z" />
<glyph horiz-adv-x="583" d="M20 49q0 141 78 228.5t250 87.5q43 0 85 -5.5t65 -11.5l34 -170q-29 6 -64.5 12.5t-82.5 6.5q-119 0 -131 -70h18q63 0 116.5 -8t92.5 -28.5t60.5 -55.5t21.5 -88q0 -88 -71.5 -142.5t-194.5 -54.5q-143 0 -210 85t-67 214zM242 18q0 -47 12 -76.5t47 -29.5q23 0 36 12.5 t13 32.5q0 35 -29.5 48t-64.5 13h-14z" />
<glyph horiz-adv-x="522" d="M12 168v186h498v-172q-55 -45 -88 -100t-50.5 -111.5t-22.5 -110t-5 -91.5v-9h-229v9q0 51 11 106t30.5 107.5t48 98.5t63.5 83l37 12l-4 6h-192z" />
<glyph horiz-adv-x="583" d="M18 -86q0 43 25 78t66 55v8q-29 16 -53.5 47t-24.5 76q0 49 23.5 85t61.5 58.5t85 33t94 10.5q51 0 99 -9.5t86 -29t60.5 -52t22.5 -79.5t-23.5 -75t-54.5 -44v-8q29 -16 54.5 -49t25.5 -78q0 -49 -23.5 -85t-62.5 -59.5t-89 -35t-103 -11.5t-101.5 8.5t-85.5 26.5 t-59.5 50t-22.5 79zM209 -47q0 -23 19.5 -33t47.5 -10q29 0 48.5 10t19.5 31q0 18 -18.5 28.5t-51.5 18.5l-18 4q-47 -14 -47 -49zM246 174q0 -16 22.5 -27.5t55.5 -19.5l10 -2q16 6 27.5 18.5t11.5 28.5q0 23 -19.5 31t-44.5 8q-23 0 -43 -8t-20 -29z" />
<glyph horiz-adv-x="583" d="M20 168q0 88 72 142.5t195 54.5q143 0 209.5 -85t66.5 -214q0 -141 -77.5 -228.5t-249.5 -87.5q-43 0 -85 5t-65 12l-35 170q29 -6 65 -12.5t83 -6.5q119 0 131 70h-19q-63 0 -116.5 8t-92.5 28.5t-60.5 55.5t-21.5 88zM233 158q0 -35 30 -48.5t65 -13.5h14 q0 47 -12.5 77t-46.5 30q-23 0 -36.5 -12.5t-13.5 -32.5z" />
<glyph horiz-adv-x="292" d="M37 170q0 113 37 228.5t96 199.5l104 -72q-37 -59 -63.5 -150t-26.5 -206q0 -113 27 -205t63 -151l-108 -70q-29 41 -52.5 92t-41 106.5t-26.5 114t-9 113.5z" />
<glyph horiz-adv-x="292" d="M18 -186q37 59 64 151t27 205q0 115 -27 206t-64 150l105 72q59 -84 96 -199.5t37 -228.5q0 -55 -9 -113.5t-26.5 -114t-41 -106.5t-52.5 -92z" />
<glyph horiz-adv-x="1056" d="M20 537q0 129 32 233t96.5 178t162 114t228.5 40t225 -38t154.5 -108.5t89 -172t28.5 -230.5t-34.5 -233.5t-103.5 -180.5t-170 -116.5t-232 -40.5t-221.5 38.5t-146.5 110.5t-82 174.5t-26 231.5zM430 541q0 -47 2 -90t11.5 -77t27.5 -54.5t51 -20.5t53.5 21.5 t30.5 56.5t14.5 80t4.5 92t-2 89t-11.5 73.5t-28 50t-51.5 18.5t-53 -19.5t-30.5 -53t-14.5 -76.5t-4 -90z" />
<glyph horiz-adv-x="931" d="M25 879q92 12 187 65t161 139h370l-20 -764h190v-319h-854v319h248l15 340l-11 5l-39 -60q-14 -10 -36.5 -20.5t-49 -19.5t-53.5 -16t-49 -11z" />
<glyph horiz-adv-x="991" d="M16 731l72 336q35 10 118 22.5t197 12.5q100 0 194.5 -23.5t168.5 -70.5t118 -119t44 -166q0 -117 -68.5 -210t-226.5 -181l6 -15h158l180 19v-336h-946v297q168 82 265 139.5t147.5 100.5t64.5 74.5t14 62.5q0 57 -56 83.5t-142 26.5q-102 0 -179 -18t-129 -35z" />
<glyph horiz-adv-x="972" d="M23 338q18 -6 53 -14.5t81 -15.5t103 -13t119 -6q68 0 113 15t45 58q0 47 -46.5 58.5t-123.5 11.5h-172v211h174q72 0 117.5 17.5t45.5 64.5q0 41 -45 57.5t-122 16.5q-88 0 -178.5 -13.5t-151.5 -31.5l57 313q66 16 152 25.5t176 9.5q102 0 196.5 -15.5t166 -51.5 t114.5 -96t43 -153q0 -76 -41 -135t-108 -92v-14q25 -10 52 -27.5t52 -45.5t41 -66.5t16 -88.5q0 -98 -48 -162.5t-126 -102.5t-179 -54t-206 -16q-92 0 -174 10t-141 28z" />
<glyph horiz-adv-x="1024" d="M14 170v324l365 589h518v-616h113v-297h-115v-170h-391v170h-490zM322 479l2 -12h190v260l23 61q-4 0 -7.5 1.5t-7.5 1.5l-155 -283z" />
<glyph horiz-adv-x="946" d="M14 348q45 -14 99 -24q45 -10 102 -17.5t119 -7.5q86 0 134 23.5t48 64.5q0 47 -71.5 73.5t-247.5 26.5h-123v596h772v-338l-180 21h-211v-61q84 -4 168 -25t151.5 -61.5t109.5 -105t42 -157.5q0 -104 -47.5 -175.5t-124 -116t-175 -63.5t-202.5 -19q-94 0 -165 10 t-136 26z" />
<glyph horiz-adv-x="1032" d="M20 528q0 129 35 234.5t109 180.5t186.5 117t267.5 42q78 0 154 -9.5t119 -21.5l61 -309q-53 10 -117.5 21.5t-150.5 11.5q-106 0 -165.5 -29t-72.5 -98h33q115 0 212 -14.5t169 -51.5t112 -100.5t40 -161.5q0 -80 -35 -145.5t-97.5 -113.5t-152.5 -73.5t-201 -25.5 q-131 0 -226 40.5t-157.5 113.5t-92.5 173.5t-30 218.5zM424 469q0 -84 21.5 -138.5t86.5 -54.5q39 0 64 24t25 60q0 31 -15.5 51.5t-40 34t-55.5 18.5t-61 5h-25z" />
<glyph horiz-adv-x="935" d="M14 743v340h908v-315q-98 -82 -159 -182.5t-92.5 -203.5t-42 -198.5t-10.5 -169.5v-14h-415v14q0 96 19.5 195.5t56 195t88 180.5t114.5 150l66 23l-4 10h-353z" />
<glyph horiz-adv-x="1038" d="M20 289q0 78 46.5 141.5t119.5 99.5v9q-51 29 -97 86t-46 137q0 92 43 156.5t111.5 105.5t154.5 59.5t174 18.5q92 0 179.5 -15.5t156 -52.5t110.5 -96t42 -145t-43 -140.5t-101 -83.5v-8q53 -31 100.5 -91t47.5 -142q0 -90 -43 -154.5t-113.5 -107.5t-162 -63.5 t-189.5 -20.5q-96 0 -185 15t-157 50t-108 94.5t-40 147.5zM367 350q0 -41 36.5 -59.5t88.5 -18.5q53 0 87.5 19.5t34.5 56.5q0 35 -36.5 53.5t-94.5 34.5l-28 6q-45 -16 -66.5 -39.5t-21.5 -52.5zM436 756q0 -33 41 -52.5t98 -33.5l21 -6q29 12 49.5 35.5t20.5 50.5 q0 41 -34 57t-81 16q-41 0 -78 -16t-37 -51z" />
<glyph horiz-adv-x="1032" d="M20 743q0 80 35 145.5t97.5 114t152.5 74t201 25.5q131 0 226 -41t157.5 -114t92.5 -173t30 -219q0 -129 -35 -234.5t-108.5 -180t-186.5 -116.5t-268 -42q-78 0 -154 9t-119 21l-61 310q53 -10 117.5 -21.5t150.5 -11.5q106 0 165.5 28.5t72.5 98.5h-33q-115 0 -212 14 t-169 51t-112 100.5t-40 161.5zM412 723q0 -31 15 -51.5t40 -33.5t55.5 -18.5t61.5 -5.5h24q0 84 -21.5 138.5t-86.5 54.5q-39 0 -63.5 -23.5t-24.5 -60.5z" />
<glyph horiz-adv-x="595" d="M20 240q0 141 70 225t213 84t207.5 -79t64.5 -220t-75.5 -227t-218.5 -86t-202 81t-59 222zM244 242q0 -51 7 -91t44 -40q35 0 45 42t10 93q0 53 -7 90t-42 37q-37 0 -47 -39t-10 -92z" />
<glyph horiz-adv-x="522" d="M23 424q49 8 102 36.5t88 76.5h201l-11 -418h105v-174h-467v174h137l8 184l-6 4l-22 -33q-16 -10 -47 -20t-56 -14z" />
<glyph horiz-adv-x="561" d="M16 348l39 187q20 4 66.5 11t109.5 7q55 0 106.5 -13.5t92.5 -39t65.5 -65.5t24.5 -93q0 -66 -38 -116t-126 -97l4 -8h86l101 10v-186h-522v164q92 45 146 76.5t82 55t36 41t8 33.5q0 33 -32 47.5t-79 14.5q-55 0 -100 -10.5t-70 -18.5z" />
<glyph horiz-adv-x="555" d="M23 129q20 -6 74.5 -16.5t121.5 -10.5q39 0 63.5 9.5t24.5 31.5q0 27 -25.5 33t-68.5 6h-94v115h96q41 0 65.5 9t24.5 36q0 23 -24.5 32t-67.5 9q-49 0 -99.5 -7t-84.5 -18l32 174q35 8 83.5 13.5t97.5 5.5q55 0 107 -8t92 -28.5t63.5 -53.5t23.5 -84q0 -41 -22.5 -75 t-59.5 -52v-8q27 -8 58 -38t31 -85t-27 -91t-70 -57.5t-98 -30t-113 -8.5q-102 0 -174 23z" />
<glyph horiz-adv-x="571" d="M12 37v166l201 334h285v-338h61v-162h-61v-94h-217v94h-269zM180 201l4 -6l29 4h74v143l4 35h-10l-7 -33l-67 -123z" />
<glyph horiz-adv-x="536" d="M14 133q25 -8 54 -14q25 -4 56.5 -8.5t65.5 -4.5q100 0 101 50q0 25 -39 40t-137 15h-68v328h426v-187l-100 13h-117v-35q47 -2 93 -13.5t83 -34t60.5 -57.5t23.5 -86q0 -57 -25.5 -97t-68.5 -64.5t-97.5 -35t-111.5 -10.5q-51 0 -90 5.5t-74 15.5z" />
<glyph horiz-adv-x="583" d="M20 233q0 141 78 228.5t250 87.5q43 0 85 -5t65 -12l34 -170q-29 6 -64.5 12.5t-82.5 6.5q-119 0 -131 -70h18q63 0 116.5 -8t92.5 -28.5t60.5 -55.5t21.5 -88q0 -88 -71.5 -142.5t-194.5 -54.5q-143 0 -210 85t-67 214zM242 203q0 -47 12 -77t47 -30q23 0 36 12.5 t13 32.5q0 35 -29.5 48.5t-64.5 13.5h-14z" />
<glyph horiz-adv-x="522" d="M12 352v187h498v-172q-55 -45 -88 -100.5t-50.5 -112t-22.5 -109.5t-5 -92v-8h-229v8q0 51 11 106.5t30.5 107.5t48 98t63.5 83l37 12l-4 7h-192z" />
<glyph horiz-adv-x="583" d="M18 98q0 43 25 78t66 55v9q-29 16 -53.5 46.5t-24.5 75.5q0 49 23.5 85t61.5 58.5t85 33t94 10.5q51 0 99 -9.5t86 -28.5t60.5 -52t22.5 -80t-23.5 -75t-54.5 -44v-8q29 -16 54.5 -49t25.5 -78q0 -49 -23.5 -85t-62.5 -59.5t-89 -35t-103 -11.5t-101.5 8.5t-85.5 27 t-59.5 50t-22.5 78.5zM209 137q0 -23 19.5 -33t47.5 -10q29 0 48.5 10.5t19.5 30.5q0 18 -18.5 28.5t-51.5 18.5l-18 4q-47 -14 -47 -49zM246 358q0 -16 22.5 -27.5t55.5 -19.5l10 -2q16 6 27.5 18.5t11.5 28.5q0 23 -19.5 31t-44.5 8q-23 0 -43 -8t-20 -29z" />
<glyph horiz-adv-x="583" d="M20 352q0 88 72 142.5t195 54.5q143 0 209.5 -85t66.5 -214q0 -141 -77.5 -228.5t-249.5 -87.5q-43 0 -85 5.5t-65 11.5l-35 170q29 -6 65 -12.5t83 -6.5q119 0 131 70h-19q-63 0 -116.5 8t-92.5 28.5t-60.5 55.5t-21.5 88zM233 342q0 -35 30 -48t65 -13h14 q0 47 -12.5 76.5t-46.5 29.5q-23 0 -36.5 -12.5t-13.5 -32.5z" />
<glyph horiz-adv-x="595" d="M20 891q0 141 70 225t213 84t207.5 -79t64.5 -220t-75.5 -227t-218.5 -86t-202 81t-59 222zM244 893q0 -51 7 -91t44 -40q35 0 45 42t10 93q0 53 -7 90t-42 37q-37 0 -47 -39t-10 -92z" />
<glyph horiz-adv-x="522" d="M23 1075q49 8 102 37t88 76h201l-11 -418h105v-174h-467v174h137l8 184l-6 4l-22 -32q-16 -10 -47 -20.5t-56 -14.5z" />
<glyph horiz-adv-x="561" d="M16 997l39 187q20 4 66.5 11t109.5 7q55 0 106.5 -13t92.5 -39t65.5 -66t24.5 -93q0 -66 -38 -116t-126 -97l4 -8h86l101 10v-186h-522v164q92 45 146 76.5t82 55t36 41t8 34.5q0 33 -32 47t-79 14q-55 0 -100 -10t-70 -19z" />
<glyph horiz-adv-x="555" d="M23 778q20 -6 74.5 -16t121.5 -10q39 0 63.5 9t24.5 32q0 27 -25.5 32.5t-68.5 5.5h-94v115h96q41 0 65.5 9.5t24.5 35.5q0 23 -24.5 32t-67.5 9q-49 0 -99.5 -7t-84.5 -17l32 174q35 8 83.5 13t97.5 5q55 0 107 -8t92 -28.5t63.5 -53.5t23.5 -84q0 -41 -22.5 -74.5 t-59.5 -52.5v-8q27 -8 58 -38t31 -85t-27 -91t-70 -57.5t-98 -29.5t-113 -8q-102 0 -174 22z" />
<glyph horiz-adv-x="571" d="M12 690v166l201 334h285v-338h61v-162h-61v-94h-217v94h-269zM180 854l4 -6l29 4h74v143l4 35h-10l-7 -33l-67 -123z" />
<glyph horiz-adv-x="536" d="M14 784q25 -8 54 -14q25 -4 56.5 -8t65.5 -4q100 0 101 49q0 25 -39 40t-137 15h-68v328h426v-186l-100 12h-117v-35q47 -2 93 -13.5t83 -34t60.5 -57t23.5 -85.5q0 -57 -25.5 -97.5t-68.5 -65t-97.5 -34.5t-111.5 -10q-51 0 -90 5t-74 15z" />
<glyph horiz-adv-x="583" d="M20 885q0 141 78 228t250 87q43 0 85 -5t65 -11l34 -170q-29 6 -64.5 12t-82.5 6q-119 0 -131 -69h18q63 0 116.5 -8.5t92.5 -29t60.5 -55t21.5 -88.5q0 -88 -71.5 -142t-194.5 -54q-143 0 -210 85t-67 214zM242 854q0 -47 12 -76.5t47 -29.5q23 0 36 12t13 33 q0 35 -29.5 48t-64.5 13h-14z" />
<glyph horiz-adv-x="522" d="M12 1004v186h498v-172q-55 -45 -88 -100.5t-50.5 -111.5t-22.5 -109.5t-5 -92.5v-8h-229v8q0 51 11 106.5t30.5 107.5t48 98.5t63.5 82.5l37 13l-4 6h-192z" />
<glyph horiz-adv-x="583" d="M18 752q0 43 25 77.5t66 55.5v8q-29 16 -53.5 47t-24.5 76q0 49 23.5 85t61.5 58.5t85 32.5t94 10q51 0 99 -9t86 -28.5t60.5 -52.5t22.5 -80t-23.5 -74.5t-54.5 -44.5v-8q29 -16 54.5 -49t25.5 -78q0 -49 -23.5 -85t-62.5 -59.5t-89 -34.5t-103 -11t-101.5 8t-85.5 26.5 t-59.5 50.5t-22.5 79zM209 791q0 -23 19.5 -33t47.5 -10q29 0 48.5 10t19.5 30q0 18 -18.5 28.5t-51.5 19.5l-18 4q-47 -14 -47 -49zM246 1012q0 -16 22.5 -27.5t55.5 -19.5l10 -2q16 6 27.5 18t11.5 29q0 23 -19.5 31t-44.5 8q-23 0 -43 -8.5t-20 -28.5z" />
<glyph horiz-adv-x="583" d="M20 1004q0 88 72 142t195 54q143 0 209.5 -85t66.5 -214q0 -141 -77.5 -228t-249.5 -87q-43 0 -85 5t-65 11l-35 170q29 -6 65 -12t83 -6q119 0 131 69h-19q-63 0 -116.5 8.5t-92.5 29t-60.5 55t-21.5 88.5zM233 993q0 -35 30 -48t65 -13h14q0 47 -12.5 76.5t-46.5 29.5 q-23 0 -36.5 -12t-13.5 -33z" />
<glyph horiz-adv-x="442" d="M31 1135q0 80 54 130t146 50q86 0 132.5 -46t46.5 -126q0 -78 -52.5 -127t-138.5 -49q-92 0 -140 45t-48 123z" />
<glyph horiz-adv-x="1261" d="M18 338q0 86 38 157.5t104 125.5q-35 37 -52.5 87t-17.5 95q0 68 28.5 123t79 94t120 60.5t153.5 21.5q131 0 225.5 -50.5t108.5 -160.5h313l162 12l-45 -264h-182q-4 -66 -15.5 -141.5t-29.5 -128.5q47 -23 103 -44.5t110 -37.5l-54 -305q-29 6 -70.5 20t-87.5 31.5 t-91.5 36t-79.5 36.5q-68 -57 -161 -90.5t-216 -33.5q-94 0 -175 23.5t-140.5 69.5t-93.5 112.5t-34 150.5zM356 334q0 -39 28 -61.5t67 -22.5q44 -1 75 24q-31 18 -71.5 49t-79.5 68q-18 -18 -19 -57zM446 770q0 -29 20.5 -57.5t51.5 -55.5q12 25 20.5 54.5t8.5 52.5 q0 57 -51 57q-20 0 -35 -14t-15 -37zM539 639q39 -31 82 -57.5t77 -49.5q6 16 11.5 48t5.5 59h-176z" />
</font>
</defs>
</svg>
