<?xml version="1.0" standalone="no"?>
<!DOCTYPE svg PUBLIC "-//W3C//DTD SVG 1.1//EN" "http://www.w3.org/Graphics/SVG/1.1/DTD/svg11.dtd" >
<svg xmlns="http://www.w3.org/2000/svg">
<metadata></metadata>
<defs>
<font id="distefanosansblack_italic" horiz-adv-x="991" >
<font-face units-per-em="2048" ascent="1536" descent="-512" />
<missing-glyph horiz-adv-x="368" />
<glyph unicode="&#xfb00;" horiz-adv-x="1138" d="M-92 -66q25 -6 49 -6q49 0 66.5 37t25.5 92l78 633h-94l33 275l104 12l8 74q8 78 38 142t80 110.5t123 71t169 24.5q35 0 67.5 -4t44.5 -9v-284q29 135 127.5 216t274.5 81q35 0 67.5 -4t44.5 -9v-290q-10 4 -30.5 6t-26.5 2q-45 0 -73.5 -20.5t-28.5 -73.5q0 -16 2 -23 q0 -6 2 -10h110l-34 -287h-117l-86 -690q-25 -193 -130.5 -277.5t-295.5 -84.5q-29 0 -51.5 3t-32.5 5v288q25 -6 49 -6q49 0 66.5 37t25.5 92l78 633h-137l-86 -690q-25 -193 -130.5 -277.5t-295.5 -84.5q-29 0 -51.5 3t-32.5 5v288zM541 1010q0 -16 2 -23q0 -6 2 -10h139 l8 74l6 45q-10 4 -29.5 6t-25.5 2q-45 0 -73.5 -20.5t-28.5 -73.5z" />
<glyph unicode="&#xfb01;" horiz-adv-x="1042" d="M-92 -66q25 -6 49 -6q49 0 66.5 37t25.5 92l78 633h-94l33 275l104 12l8 74q8 78 38 142t80 110.5t123 71t169 24.5q35 0 67.5 -4t44.5 -9v-174l199 191l201 -240l-199 -184l137 8l-96 -792v-195q-37 -4 -77 -11t-103 -7q-109 0 -154 46t-45 142q0 12 1 26.5t3 30.5 l60 463h-123l-86 -690q-25 -193 -130.5 -277.5t-295.5 -84.5q-29 0 -51.5 3t-32.5 5v288zM541 1010q0 -16 2 -23q0 -6 2 -10h258l-103 123v-4q-10 4 -30.5 6t-26.5 2q-45 0 -73.5 -20.5t-28.5 -73.5z" />
<glyph unicode="&#xfb02;" horiz-adv-x="1062" d="M-92 -66q25 -6 49 -6q49 0 66.5 37t25.5 92l78 633h-94l33 275l104 12l8 74q16 166 133 257t318 91q72 0 144.5 -4t136 -9.5t112.5 -11.5t74 -10l-142 -1167v-197q-29 -4 -74.5 -11t-109.5 -7q-109 0 -150.5 46t-41.5 142q0 12 1 26.5t3 30.5l112 877q-10 2 -28.5 4 t-22.5 2q-45 0 -73.5 -23.5t-28.5 -76.5q0 -16 2 -23q0 -6 2 -10h86l-35 -287h-92l-86 -690q-25 -193 -130.5 -277.5t-295.5 -84.5q-29 0 -51.5 3t-32.5 5v288z" />
<glyph unicode="&#xfb03;" horiz-adv-x="1554" d="M-92 -66q25 -6 49 -6q49 0 66.5 37t25.5 92l78 633h-94l33 275l104 12l8 74q8 78 38 142t80 110.5t123 71t169 24.5q35 0 67.5 -4t44.5 -9v-276q29 133 127.5 211t272.5 78q35 0 67.5 -4t44.5 -9v-174l199 191l201 -240l-199 -184l137 8l-96 -792v-195q-37 -4 -77 -11 t-103 -7q-109 0 -154 46t-45 142q0 12 1 26.5t3 30.5l60 463h-123l-86 -690q-25 -193 -130.5 -277.5t-295.5 -84.5q-29 0 -51.5 3t-32.5 5v288q25 -6 49 -6q49 0 66.5 37t25.5 92l78 633h-135l-86 -690q-25 -193 -130.5 -277.5t-295.5 -84.5q-29 0 -51.5 3t-32.5 5v288z M541 1010q0 -16 2 -23q0 -6 2 -10h137l8 74l6 45q-10 4 -29.5 6t-23.5 2q-45 0 -73.5 -20.5t-28.5 -73.5zM1053 1010q0 -16 2 -23q0 -6 2 -10h258l-103 123v-4q-10 4 -30.5 6t-26.5 2q-45 0 -73.5 -20.5t-28.5 -73.5z" />
<glyph unicode="&#xfb04;" horiz-adv-x="1574" d="M-92 -66q25 -6 49 -6q49 0 66.5 37t25.5 92l78 633h-94l33 275l104 12l8 74q8 78 38 142t80 110.5t123 71t169 24.5q35 0 67.5 -4t44.5 -9v-276q33 139 145.5 214t295.5 75q72 0 144.5 -4t136 -9.5t112.5 -11.5t74 -10l-142 -1167v-197q-29 -4 -74.5 -11t-109.5 -7 q-109 0 -150.5 46t-41.5 142q0 12 1 26.5t3 30.5l112 877q-10 2 -28.5 4t-22.5 2q-45 0 -73.5 -23.5t-28.5 -76.5q0 -16 2 -23q0 -6 2 -10h86l-35 -287h-92l-86 -690q-25 -193 -130.5 -277.5t-295.5 -84.5q-29 0 -51.5 3t-32.5 5v288q25 -6 49 -6q49 0 66.5 37t25.5 92 l78 633h-135l-86 -690q-25 -193 -130.5 -277.5t-295.5 -84.5q-29 0 -51.5 3t-32.5 5v288zM541 1010q0 -16 2 -23q0 -6 2 -10h137l8 74l6 45q-10 4 -29.5 6t-23.5 2q-45 0 -73.5 -20.5t-28.5 -73.5z" />
<glyph horiz-adv-x="0" />
<glyph unicode="&#xd;" horiz-adv-x="368" />
<glyph unicode=" "  horiz-adv-x="368" />
<glyph unicode="&#x09;" horiz-adv-x="368" />
<glyph unicode="&#xa0;" horiz-adv-x="368" />
<glyph unicode="!" horiz-adv-x="497" d="M47 133q0 90 58.5 143.5t148.5 53.5q74 0 117 -42t43 -110q0 -80 -53.5 -138t-145.5 -58q-80 0 -124 40.5t-44 110.5zM104 397l113 899h391l-188 -899h-316z" />
<glyph unicode="&#x22;" horiz-adv-x="602" d="M74 731l55 459h227l-55 -459h-227zM369 731l55 459h229l-55 -459h-229z" />
<glyph unicode="#" d="M6 240l27 225h168l65 215h-172l29 227h213l86 283h233l-86 -283h84l84 283h232l-84 -283h135l-29 -227h-176l-63 -215h172l-27 -225h-213l-74 -240h-233l74 240h-84l-74 -240h-234l74 240h-127zM434 465h84l64 215h-82z" />
<glyph unicode="$" d="M18 25l103 286q16 -4 45 -11t64.5 -14t74.5 -12.5t76 -5.5q51 0 84 11.5t33 39.5q0 29 -31 44.5t-90 37.5q-47 18 -93 43t-83 60t-59.5 82t-22.5 108q0 86 27.5 152.5t78.5 116t120 81t153 48.5l24 204h193l-23 -194q100 -2 180 -17.5t119 -25.5l-106 -281 q-39 14 -98.5 27.5t-131.5 13.5q-45 0 -78.5 -11t-37.5 -44q0 -14 6 -23.5t20.5 -18.5t40 -20.5t66.5 -25.5q41 -16 84 -39t78.5 -56.5t58 -80.5t22.5 -111q0 -170 -98 -262t-260 -127l-27 -213h-192l24 195h-30q-84 0 -172 13t-142 30z" />
<glyph unicode="%" horiz-adv-x="1095" d="M57 0l807 1190h180l-806 -1190h-181zM68 836q0 78 18 144.5t54 115.5t91.5 76.5t128.5 27.5q57 0 97.5 -19.5t67 -53t38.5 -80t12 -99.5q0 -78 -19 -144.5t-56 -114.5t-92.5 -75.5t-128.5 -27.5q-57 0 -97.5 18.5t-66 52t-36.5 80t-11 99.5zM268 813q0 -70 39 -70 q35 0 51.5 68t16.5 162q0 70 -39 69q-33 0 -50.5 -67.5t-17.5 -161.5zM528 242q0 78 18.5 144.5t54.5 115.5t91.5 76.5t128.5 27.5q57 0 97 -19.5t67 -53t39 -79.5t12 -100q0 -78 -19.5 -144.5t-56 -114.5t-92 -75.5t-129.5 -27.5q-57 0 -97 18.5t-65.5 52t-37 80 t-11.5 99.5zM729 219q0 -70 39 -69q35 0 51.5 67.5t16.5 161.5q0 70 -39 70q-33 0 -50.5 -68t-17.5 -162z" />
<glyph unicode="&#x26;" horiz-adv-x="1353" d="M12 336q0 117 50.5 197.5t136.5 148.5q-25 35 -37 81t-12 91q0 84 32.5 150.5t90 111.5t135 68.5t167.5 23.5q63 0 122 -13t104 -42t72.5 -72t31.5 -104h320l172 14l-86 -291h-181q-12 -72 -34.5 -154.5t-48.5 -139.5q45 -23 101 -46.5t109 -44.5l-94 -333q-37 8 -80 23 t-87 33.5t-86 40t-74 40.5q-78 -63 -175.5 -100t-222.5 -37q-94 0 -172 23.5t-134 68.5t-88 111.5t-32 150.5zM362 354q0 -35 27 -57.5t64 -22.5q27 0 45 7.5t34 21.5q-29 20 -67.5 53t-73.5 74q-10 -10 -19.5 -31.5t-9.5 -44.5zM516 831q0 -29 16.5 -56t42.5 -54 q18 31 32 66.5t14 60.5q0 53 -50 53q-29 0 -42 -21.5t-13 -48.5zM598 700q35 -33 76 -62.5t74 -51.5q8 18 17 52t13 62h-180z" />
<glyph unicode="'" horiz-adv-x="311" d="M72 731l57 459h233l-57 -459h-233z" />
<glyph unicode="(" horiz-adv-x="425" d="M27 373q0 221 81.5 429t219.5 394l151 -117q-43 -59 -83 -143t-70.5 -183.5t-50 -210t-19.5 -220.5q0 -129 21.5 -237t54.5 -185l-176 -113q-31 55 -54.5 122.5t-40 144.5t-25.5 158t-9 161z" />
<glyph unicode=")" horiz-adv-x="425" d="M-53 -96q41 57 81 142t71.5 184.5t51 210t19.5 221.5q0 129 -21.5 236.5t-54.5 184.5l176 113q31 -55 54.5 -123.5t40 -145.5t24.5 -158t8 -161q0 -221 -80.5 -428t-218.5 -393z" />
<glyph unicode="*" horiz-adv-x="706" d="M74 860l178 47l-162 56l148 217l108 -119l-24 172h262l-60 -170l133 117l93 -224l-168 -47l155 -49l-147 -221l-105 113l21 -162h-262l65 164l-137 -111z" />
<glyph unicode="+" d="M84 463l29 229h282l37 305h232l-37 -305h282l-28 -229h-283l-37 -299h-231l37 299h-283z" />
<glyph unicode="," horiz-adv-x="419" d="M-10 127q0 39 14 76t40 65.5t63.5 45t85.5 16.5q72 0 117.5 -41t45.5 -117q0 -70 -31.5 -120t-66.5 -91l-98 -125l-133 17l53 149q-31 8 -60.5 39t-29.5 86z" />
<glyph unicode="-" horiz-adv-x="593" d="M39 377l27 231h526l-29 -231h-524z" />
<glyph unicode="." horiz-adv-x="419" d="M-12 133q0 90 58 143.5t149 53.5q74 0 116.5 -42t42.5 -110q0 -80 -53 -138t-145 -58q-80 0 -124 40.5t-44 110.5z" />
<glyph unicode="/" horiz-adv-x="630" d="M-51 0l526 1190h248l-526 -1190h-248z" />
<glyph unicode="0" d="M25 463q0 156 33.5 291t102 236.5t175 159.5t252.5 58q113 0 191.5 -35.5t128.5 -100t73 -153t23 -192.5q0 -160 -34 -296t-103.5 -235.5t-176 -156.5t-252.5 -57q-113 0 -191.5 35.5t-127.5 99t-71.5 153t-22.5 193.5zM408 426q0 -59 15 -93t54 -34q63 0 89 81t42 216 q6 51 10.5 100t4.5 72q0 59 -14.5 91t-55.5 32q-63 0 -89 -80t-42 -215q-6 -49 -10 -97t-4 -73z" />
<glyph unicode="1" d="M10 0l39 319h256l66 447l-11 2l-41 -57q-16 -10 -39.5 -20.5t-51 -19.5t-55.5 -16.5t-50 -11.5l-35 340q43 6 95.5 23.5t104.5 44t100 61.5t85 78h346l-119 -871h238l-41 -319h-887z" />
<glyph unicode="2" d="M-14 0l37 297q172 100 277.5 172t163.5 124t78.5 93t20.5 82q0 57 -53 86t-131 29q-80 0 -169 -16.5t-155 -37.5l109 336q49 10 125 26.5t192 16.5q98 0 184.5 -23.5t152 -70.5t103 -118.5t37.5 -166.5q0 -84 -29.5 -154.5t-78.5 -132t-113.5 -113.5t-136.5 -97l2 -15 h162l176 19l-43 -336h-911z" />
<glyph unicode="3" d="M35 20v336q16 -6 53 -15t84 -17.5t98.5 -14.5t96.5 -6q72 0 118.5 18.5t46.5 63.5q0 49 -45 64.5t-110 15.5h-164l35 270h168q70 0 116 19.5t46 68.5q0 37 -41 54.5t-107 17.5q-82 0 -173 -15.5t-163 -35.5l107 332q33 6 64.5 12t66.5 10t74.5 7t91.5 3q98 0 186 -19.5 t152.5 -60.5t102.5 -102t38 -145q0 -94 -47 -166t-127 -109l-2 -10q45 -27 85 -80t40 -143q0 -115 -50.5 -191t-130 -120t-181 -62t-202.5 -18q-37 0 -81.5 3t-90 7t-86.5 11t-69 17z" />
<glyph unicode="4" d="M-8 170l39 324l446 696h467l-90 -723h107l-35 -297h-109l-22 -170h-371l22 170h-454zM336 467h160l32 262l23 59q-2 0 -5 2.5t-7 2.5l-156 -285l-47 -31v-10z" />
<glyph unicode="5" d="M37 23v317q27 -6 67.5 -13.5t86 -12.5t90.5 -9t79 -4q102 0 146.5 26.5t44.5 73.5q0 20 -12.5 39t-41 32t-79.5 20.5t-127 7.5h-156l84 690h764l-41 -342l-170 20h-209l-12 -92q182 -20 288.5 -104t106.5 -246q0 -123 -48 -208t-128 -137t-182.5 -75.5t-208.5 -23.5 q-92 0 -184.5 11t-157.5 30z" />
<glyph unicode="6" d="M37 453q0 150 34.5 285.5t110.5 240t196 167t290 62.5q92 0 178 -14t133 -29v-321q-51 14 -122 29.5t-152 15.5q-96 0 -157 -32t-77 -105h35q96 0 181 -17.5t147.5 -55.5t99.5 -100.5t37 -154.5q0 -102 -35 -184t-97.5 -139.5t-151.5 -88t-200 -30.5q-119 0 -203.5 35.5 t-140 99t-81 149.5t-25.5 187zM412 410q0 -53 21.5 -82t68.5 -29q43 0 67.5 26.5t24.5 67.5t-37 61.5t-94 20.5h-45q-6 -37 -6 -65z" />
<glyph unicode="7" d="M90 846l43 344h909l-43 -340q-111 -90 -184.5 -204t-119.5 -229.5t-69.5 -222t-31.5 -178.5l-2 -16h-393l2 16q14 121 47 237t79 220.5t104 195.5t126 165l64 24v12h-332z" />
<glyph unicode="8" d="M2 285q0 98 51 171.5t142 127.5l2 10q-41 33 -73 92t-32 131q0 100 44 175t113.5 122t158 70.5t178.5 23.5q80 0 157.5 -18.5t139 -55t99.5 -94t38 -137.5q0 -100 -47 -164.5t-121 -111.5l-2 -11q39 -35 73.5 -94t34.5 -145q0 -102 -46 -177t-119.5 -123t-169 -71.5 t-193.5 -23.5q-82 0 -158.5 17t-137 54t-96.5 94.5t-36 137.5zM340 365q0 -39 33 -56.5t78 -17.5q43 0 83.5 17.5t40.5 58.5q0 29 -28.5 55.5t-97.5 42.5q-49 -14 -79 -43t-30 -57zM465 840q0 -31 33.5 -56.5t93.5 -35.5q39 16 64.5 36.5t25.5 55.5t-28.5 55t-75.5 20 q-43 0 -78 -17t-35 -58z" />
<glyph unicode="9" d="M45 25v321q51 -14 122 -29.5t152 -15.5q96 0 157 32t77 105h-35q-96 0 -181 17.5t-147.5 55.5t-99.5 100.5t-37 154.5q0 102 35 184t97.5 139.5t151.5 88t200 30.5q119 0 203.5 -35.5t140 -99t81 -149.5t25.5 -187q0 -150 -34.5 -286t-110.5 -240.5t-196 -166.5t-290 -62 q-92 0 -178 14t-133 29zM430 797q0 -41 37 -61.5t94 -20.5h45q6 37 6 65q0 53 -21.5 82t-68.5 29q-43 0 -67.5 -26.5t-24.5 -67.5z" />
<glyph unicode=":" horiz-adv-x="419" d="M-12 133q0 90 58 143.5t149 53.5q74 0 116.5 -42t42.5 -110q0 -37 -13 -72.5t-39 -63.5t-62.5 -44t-83.5 -16q-80 0 -124 40.5t-44 110.5zM70 799q0 90 58 143t148 53q74 0 117 -42t43 -109q0 -80 -53 -138.5t-145 -58.5q-80 0 -124 41t-44 111z" />
<glyph unicode=";" horiz-adv-x="419" d="M-6 127q0 39 14.5 76t40 65.5t63.5 45t85 16.5q72 0 117.5 -41t45.5 -117q0 -70 -31.5 -120t-66.5 -91l-98 -125l-133 17l53 149q-31 8 -60.5 39t-29.5 86zM70 799q0 90 58 143t148 53q74 0 117 -42t43 -109q0 -86 -55 -141.5t-143 -55.5q-80 0 -124 41t-44 111z" />
<glyph unicode="&#x3c;" d="M88 600l735 506l99 -188l-478 -318l402 -330l-141 -166z" />
<glyph unicode="=" d="M82 299l29 231h796l-28 -231h-797zM123 629l29 231h796l-28 -231h-797z" />
<glyph unicode="&#x3e;" d="M109 283l477 317l-402 330l142 166l616 -496l-735 -506z" />
<glyph unicode="?" horiz-adv-x="835" d="M102 963l86 317q55 14 119 24.5t144 10.5q94 0 176 -24.5t143 -72t97 -117t36 -161.5q0 -174 -105.5 -277.5t-279.5 -152.5l-22 -111h-310l35 291q57 6 109.5 19.5t93.5 37t65.5 59.5t24.5 85q0 45 -37 81t-129 36q-66 0 -130 -14.5t-116 -30.5zM127 133q0 90 58.5 143.5 t148.5 53.5q74 0 117 -42t43 -110q0 -80 -53.5 -138t-145.5 -58q-80 0 -124 40.5t-44 110.5z" />
<glyph unicode="@" horiz-adv-x="1153" d="M4 244q0 150 45 287t131 239t211 163.5t285 61.5q115 0 205 -36.5t151.5 -101t93 -150.5t31.5 -185q0 -113 -31.5 -208t-95 -164.5t-157 -109.5t-216.5 -40l-20 82h-8q-16 -29 -61.5 -55.5t-98.5 -26.5q-47 0 -81 20.5t-56.5 55.5t-33.5 79t-11 91q0 104 28.5 187 t81 141.5t125 90t162.5 31.5q72 0 113 -5t67 -9l-30 -133l-31 -258l6 -64q31 14 54.5 44t40 70t25.5 85t9 90q0 274 -291 275q-100 0 -179 -41t-132 -114t-82 -171t-29 -213q0 -166 89 -258t255 -92q125 0 213 34.5t162 73.5l-26 -223q-76 -37 -170.5 -63.5t-210.5 -26.5 q-135 0 -235.5 41t-166 113.5t-98.5 173t-33 219.5zM516 276q0 -66 27 -65q29 0 43 34t24 122l19 143h-8q-27 0 -46.5 -22.5t-33 -57.5t-19.5 -76t-6 -78z" />
<glyph unicode="A" horiz-adv-x="1159" d="M-43 0l459 1296h610l82 -1296h-459l21 176v53h-199l-61 -229h-453zM549 520h129l6 438l4 84h-10l-19 -84z" />
<glyph unicode="B" horiz-adv-x="1144" d="M27 0l41 201l135 1095h571q84 0 155.5 -19.5t123 -57t80 -96t28.5 -138.5q0 -66 -16.5 -118t-43 -90t-61 -62.5t-69.5 -36.5v-10q57 -29 98 -94.5t41 -165.5q0 -195 -121 -301.5t-340 -106.5h-622zM500 332h78q53 0 83.5 25.5t30.5 88.5q0 90 -94 91h-76zM555 770h86 q53 0 75.5 30.5t22.5 76.5q0 41 -18.5 66.5t-67.5 25.5h-78z" />
<glyph unicode="C" horiz-adv-x="1040" d="M33 520q0 174 47 320.5t138 252t223 164t304 58.5q129 0 223.5 -21.5t141.5 -38.5l-137 -350q-33 16 -82 31.5t-109 15.5q-78 0 -134 -30.5t-93 -82t-54.5 -117t-17.5 -134.5q0 -106 54.5 -172t177.5 -66q72 0 145.5 33t124.5 80v-373q-66 -45 -171 -76.5t-247 -31.5 q-117 0 -215 35.5t-168.5 105.5t-110.5 170t-40 227z" />
<glyph unicode="D" horiz-adv-x="1187" d="M27 0l43 201l135 1095h411q293 0 439.5 -129t146.5 -401q0 -203 -45 -348.5t-135 -238.5t-223 -136t-307 -43h-465zM514 354h31q51 0 89 16.5t62.5 51.5t40 92t23.5 139q4 29 5 59.5t1 57.5q0 98 -36 135t-124 37h-20z" />
<glyph unicode="E" horiz-adv-x="1050" d="M27 0l43 201l133 1095h895l-43 -354h-471l-15 -141h424l-39 -314h-424l-18 -151h477l-41 -336h-921z" />
<glyph unicode="F" horiz-adv-x="999" d="M27 0l43 201l133 1095h848l-45 -354h-422l-21 -168h395l-38 -313h-394l-57 -461h-442z" />
<glyph unicode="G" horiz-adv-x="1124" d="M33 506q0 193 50 344t145.5 253.5t231.5 157t308 54.5q106 0 214 -16.5t187 -38.5l-122 -336q-47 16 -114 29.5t-136 13.5q-88 0 -147.5 -27t-96.5 -75t-56.5 -115.5t-27.5 -147.5q-6 -49 -6 -104q0 -80 34.5 -129.5t106.5 -49.5q35 0 52.5 4.5t31.5 8.5l17 149h-130 l37 289h504l-86 -704q-92 -29 -212 -56.5t-259 -27.5q-258 0 -392 136t-134 388z" />
<glyph unicode="H" horiz-adv-x="1191" d="M27 0l41 201l133 1095h428l-58 -460h148l55 460h445l-41 -200l-136 -1096h-426l60 492h-148l-59 -492h-442z" />
<glyph unicode="I" horiz-adv-x="602" d="M27 0l41 201l135 1095h426l-160 -1296h-442z" />
<glyph unicode="J" horiz-adv-x="753" d="M-10 -8v358q16 -4 44.5 -5t45.5 -1q74 0 120 33t56 110l59 474l-221 28l39 307h662l-41 -200l-76 -639q-31 -250 -166 -361.5t-410 -111.5q-10 0 -25.5 1t-31.5 2t-31.5 2t-23.5 3z" />
<glyph unicode="K" horiz-adv-x="1148" d="M27 0l43 201l135 1095h422l-62 -491h13l16 72l190 419h451l-309 -573l164 -723h-461l-80 428h-8l-25 -39l-47 -389h-442z" />
<glyph unicode="L" horiz-adv-x="847" d="M27 0l43 201l135 1095h420l-115 -942h319l-47 -354h-755z" />
<glyph unicode="M" horiz-adv-x="1691" d="M-4 0l47 201l195 1095h628l-30 -772l-7 -71h13l12 71l182 772h654l-39 -200l-107 -1096h-420l115 963h-14l-8 -56l-259 -907h-354l-14 903l6 62h-12l-146 -965h-442z" />
<glyph unicode="N" horiz-adv-x="1226" d="M33 0l43 201l133 1095h473l111 -796h10v78l22 718h435l-50 -200l-137 -1096h-465l-100 799h-10v-78l-31 -721h-434z" />
<glyph unicode="O" horiz-adv-x="1202" d="M33 504q0 184 45 333.5t132 255t213 164t288 58.5q258 0 379.5 -138.5t121.5 -383.5q0 -393 -172 -602t-505 -209q-260 0 -381 136t-121 386zM489 483q0 -66 20.5 -107.5t80.5 -41.5q39 0 65.5 24.5t46 66.5t30.5 98.5t20 119.5q4 43 8 84t4 74q0 66 -21.5 107.5 t-74.5 41.5q-39 0 -67 -23.5t-47 -64.5t-31.5 -96.5t-20.5 -118.5q-6 -47 -9.5 -89t-3.5 -75z" />
<glyph unicode="P" horiz-adv-x="1120" d="M27 0l41 201l135 1095h499q217 0 333 -102t116 -301q0 -125 -38 -219t-104.5 -157.5t-158.5 -95.5t-201 -32h-133l-49 -389h-440zM545 725h63q57 0 88 36t31 95q0 47 -23.5 77t-70.5 30h-64z" />
<glyph unicode="Q" horiz-adv-x="1202" d="M33 504q0 74 8 141.5t22 128.5q57 256 221.5 398.5t420.5 142.5q266 0 386.5 -137.5t120.5 -382.5q0 -80 -7 -150t-19 -131q-43 -211 -143.5 -326.5t-254.5 -169.5l-6 -12l99 -239h-430l-56 227q-96 14 -163.5 58t-112.5 110.5t-65.5 152.5t-20.5 189zM489 483 q0 -66 20.5 -107.5t80.5 -41.5q39 0 66.5 24.5t47 67.5t32 99.5t18.5 119.5q4 43 7 83t3 73q0 70 -21.5 109.5t-74.5 39.5q-39 0 -67 -24.5t-48.5 -66.5t-32.5 -97.5t-18 -116.5q-6 -45 -9.5 -87t-3.5 -75z" />
<glyph unicode="R" horiz-adv-x="1155" d="M27 0l41 201l133 1095h571q172 0 278.5 -84t106.5 -251q0 -49 -10 -101q-18 -92 -73.5 -154.5t-141.5 -91.5v-8q59 -23 82.5 -68.5t29.5 -138.5l29 -399h-438v358q0 68 -19.5 95.5t-72.5 27.5h-15l-57 -481h-444zM547 748h69q57 0 87 34.5t30 91.5q0 43 -22.5 68 t-69.5 25h-68z" />
<glyph unicode="S" horiz-adv-x="1005" d="M-29 31l119 334q23 -10 55.5 -19.5t69.5 -16.5t75 -12.5t70 -5.5q80 0 126 15.5t46 62.5q0 33 -27.5 51.5t-96.5 46.5q-57 23 -113.5 52.5t-100.5 73.5t-72 104.5t-28 144.5q0 16 3 45t9 51q25 96 76 164t125 111t166 62.5t199 19.5q117 0 223 -16.5t176 -36.5l-117 -332 q-20 8 -53 19.5t-70.5 20.5t-78.5 15t-78 6q-66 0 -104 -18.5t-38 -59.5q0 -35 36 -56t106 -50q59 -25 114.5 -54.5t97.5 -71.5t67.5 -98.5t25.5 -131.5q0 -18 -1 -39t-5 -37q-16 -111 -73.5 -186.5t-142.5 -122t-187.5 -65.5t-209.5 -19q-94 0 -198.5 12t-190.5 37z" />
<glyph unicode="T" horiz-adv-x="907" d="M74 950l41 346h884l-41 -346h-233l-119 -950h-446l45 201l104 749h-235z" />
<glyph unicode="U" horiz-adv-x="1153" d="M78 352q0 27 2 54.5t6 56.5l80 624v209h452l-102 -833q-2 -10 -2 -19.5v-17.5q0 -37 13.5 -56.5t47.5 -19.5q47 0 63.5 28t25.5 85l84 633v200h442l-103 -829q-31 -250 -163.5 -367.5t-391.5 -117.5q-219 0 -336.5 87t-117.5 283z" />
<glyph unicode="V" horiz-adv-x="1128" d="M113 1296h444v-876l-10 -88h14l12 88l164 676l25 200h477l-422 -1296h-610z" />
<glyph unicode="W" horiz-adv-x="1738" d="M98 1296h434v-964h13l10 88l141 676l25 200h481v-876l-12 -88h14l146 764l22 200h463l-358 -1296h-545v821l8 92h-14l-17 -92l-190 -821h-543z" />
<glyph unicode="X" horiz-adv-x="1163" d="M-39 0l287 666l-115 630h471l19 -395v-78h12l12 78l58 195l47 200h497l-282 -630l125 -666h-476l-30 424l4 59h-12l-11 -59l-55 -223l-43 -201h-508z" />
<glyph unicode="Y" horiz-adv-x="1091" d="M104 1296h437l30 -452l-6 -82h10l17 82l78 256l37 196h487l-449 -870l-51 -426h-436l49 426z" />
<glyph unicode="Z" horiz-adv-x="1046" d="M-27 0l47 395l541 535l49 20l-2 13h-504l41 333h953l-47 -395l-494 -526l-57 -23l2 -12h291l206 22l-41 -362h-985z" />
<glyph unicode="[" horiz-adv-x="468" d="M-8 -211l170 1401h377l-27 -221h-147l-119 -961h147l-26 -219h-375z" />
<glyph unicode="\" horiz-adv-x="630" d="M94 1190h234l247 -1190h-237z" />
<glyph unicode="]" horiz-adv-x="468" d="M-57 -211l26 219h146l118 961h-147l27 221h372l-172 -1401h-370z" />
<glyph unicode="^" d="M10 369l559 692l398 -688l-179 -131l-256 450l-350 -448z" />
<glyph unicode="_" horiz-adv-x="1064" d="M-100 -358l28 231h1076l-29 -231h-1075z" />
<glyph unicode="`" horiz-adv-x="983" d="M299 1167l113 238l456 -199l-112 -114z" />
<glyph unicode="a" horiz-adv-x="989" d="M12 330q0 147 42 270t122 210t195.5 136t263.5 49q100 0 197.5 -6t175.5 -16l-47 -203l-64 -506v-264q-20 -6 -43 -10q-20 -4 -48 -6t-56 -2q-150 0 -168 135l-7 45h-12q-37 -86 -111.5 -133t-162.5 -47q-145 0 -211 97t-66 251zM401 401q0 -47 12.5 -70.5t43.5 -23.5 t50 22.5t31.5 58.5t20.5 83t14 96l19 133h-17q-47 0 -79.5 -29.5t-53 -74.5t-31 -97.5t-10.5 -97.5z" />
<glyph unicode="b" horiz-adv-x="1009" d="M6 10l41 187l146 1175l382 21l-59 -488h14q23 29 79.5 59.5t125.5 30.5q70 0 121 -26.5t84 -72.5t48.5 -108.5t15.5 -132.5q0 -133 -37 -253.5t-118 -215t-208 -149.5t-305 -55q-31 0 -73 2t-86 5t-89 8t-82 13zM422 279h20q47 0 80 31.5t52.5 79.5t28.5 102.5t9 97.5 q0 51 -12 81.5t-45 30.5q-31 0 -50.5 -26.5t-33.5 -69.5t-22.5 -99t-16.5 -116z" />
<glyph unicode="c" horiz-adv-x="827" d="M18 412q0 139 45.5 247.5t125 183.5t188 113.5t235.5 38.5q33 0 71 -3t75 -9t68.5 -13t54.5 -14l-101 -307q-31 16 -69.5 27.5t-85.5 11.5q-96 0 -156.5 -63.5t-60.5 -161.5q0 -80 43 -124t122 -44q66 0 119 27.5t88 62.5v-319q-37 -23 -118.5 -53.5t-217.5 -30.5 q-102 0 -181 30.5t-133 88t-83 136t-29 175.5z" />
<glyph unicode="d" horiz-adv-x="987" d="M12 332q0 139 39 260t114 211t185.5 141t255.5 51h10l46 379l370 19l-141 -1129v-264q-20 -6 -43 -10q-20 -4 -48 -6t-57 -2q-150 0 -168 135l-6 45h-12q-14 -33 -39.5 -64.5t-60.5 -57.5t-77 -42t-91 -16q-74 0 -126 27.5t-86 74.5t-49.5 111.5t-15.5 136.5zM401 401 q0 -47 12.5 -70.5t43.5 -23.5t50 22.5t31.5 58.5t20.5 83t14 96l19 133h-17q-47 0 -79.5 -29.5t-53 -74.5t-31 -97.5t-10.5 -97.5z" />
<glyph unicode="e" horiz-adv-x="956" d="M16 410q0 125 40 232.5t114 185t181.5 122.5t242.5 45q76 0 143.5 -20.5t116.5 -57t78 -88t29 -112.5q0 -88 -36 -148.5t-97.5 -100.5t-142.5 -62.5t-171 -32.5l-113 -13q4 -35 22.5 -54t46.5 -28.5t59.5 -12.5t62.5 -3q96 0 175 16.5t136 32.5l-90 -288 q-61 -16 -143 -28.5t-170 -12.5q-238 0 -361 112.5t-123 315.5zM403 528q41 2 79 9.5t68 22.5t47 39t17 58q0 35 -19.5 50.5t-51.5 15.5q-59 0 -94 -55.5t-46 -126.5v-13z" />
<glyph unicode="f" horiz-adv-x="624" d="M-92 -66q25 -6 49 -6q49 0 66.5 37t25.5 92l78 633h-94l33 275l104 12l8 74q8 78 38 142t80 110.5t123 71t169 24.5q35 0 67.5 -4t44.5 -9v-290q-10 4 -30.5 6t-26.5 2q-45 0 -73.5 -20.5t-28.5 -73.5q0 -16 2 -23q0 -6 2 -10h110l-34 -287h-117l-86 -690 q-25 -193 -130.5 -277.5t-295.5 -84.5q-29 0 -51.5 3t-32.5 5v288z" />
<glyph unicode="g" horiz-adv-x="989" d="M6 -27q18 -10 48 -18t66 -16.5t72.5 -12.5t69.5 -4q63 0 107.5 8.5t75 29t50 54t33.5 82.5l19 66h-12q-35 -59 -96.5 -86t-137.5 -27q-70 0 -123 24.5t-90 68.5t-55.5 103.5t-18.5 131.5q0 143 43 258t124 194.5t197 122.5t261 43q100 0 197.5 -7t164.5 -15l-49 -203 l-84 -692q-16 -129 -67 -214t-127 -134t-172 -68.5t-203 -19.5q-115 0 -182.5 12t-110.5 22v297zM401 406q0 -96 56 -97q31 0 50 23.5t32.5 62.5t21.5 86t14 97l17 120h-17q-47 0 -79.5 -27.5t-53 -70.5t-31 -94t-10.5 -100z" />
<glyph unicode="h" horiz-adv-x="1024" d="M27 0l170 1372l397 19l-43 -197l-37 -315h12q35 41 99.5 79.5t142.5 38.5q117 0 169 -63.5t52 -173.5q-2 -18 -2 -38t-4 -40l-82 -680q-29 -6 -75 -13t-89 -7q-109 0 -153.5 46t-44.5 142q0 12 1 26.5t3 30.5l49 396q2 10 2 17v9q0 16 -8 28.5t-29 12.5q-39 0 -55.5 -37 t-26.5 -108l-67 -545h-381z" />
<glyph unicode="i" horiz-adv-x="534" d="M43 170q0 12 1 26.5t3 30.5l94 740l123 6l-149 178l264 252l213 -252l-189 -172l115 8l-96 -792v-195q-37 -4 -77 -11t-103 -7q-109 0 -154 46t-45 142z" />
<glyph unicode="j" horiz-adv-x="565" d="M-88 -49q8 -2 23.5 -4t31.5 -2q47 0 67.5 27.5t26.5 80.5l78 633l-94 14l33 265l207 8l-148 178l264 252l213 -252l-190 -174l149 10l-43 -190l-96 -779q-12 -106 -44 -178.5t-83 -118t-121.5 -64.5t-162.5 -19q-31 0 -65 4t-46 8v301z" />
<glyph unicode="k" horiz-adv-x="993" d="M6 0l39 178l148 1196l376 19l-94 -742l12 -2l21 62l145 266h398l-271 -379l150 -596q-25 -6 -53 -10q-25 -4 -59 -7t-68 -3q-119 0 -173.5 50t-78.5 148l-33 178h-10l-17 -22l-41 -336h-391z" />
<glyph unicode="l" horiz-adv-x="534" d="M43 170q0 12 1 26.5t3 30.5l143 1147l377 19l-147 -1196v-197q-29 -4 -75 -11t-109 -7q-109 0 -151 46t-42 142z" />
<glyph unicode="m" horiz-adv-x="1490" d="M27 0l92 727v250q35 8 69.5 13t77.5 5q96 0 133 -47t39 -131h13q41 78 107.5 128t168.5 50q88 0 150.5 -48t68.5 -130h12q35 80 105 129t164 49q119 0 174 -62.5t55 -170.5q0 -37 -6 -80l-84 -682q-31 -4 -67.5 -11t-90.5 -7q-109 0 -152.5 46t-43.5 142q0 12 1 26.5 t3 30.5l47 394q2 12 2 18v10q0 41 -39 41q-41 0 -53 -36t-23 -113l-67 -541h-375l76 614q2 12 2 19.5v11.5q0 45 -37 45q-41 0 -55.5 -31.5t-24.5 -117.5l-68 -541h-374z" />
<glyph unicode="n" horiz-adv-x="1013" d="M27 0l92 713v264q20 4 43 8q20 4 47 7t57 3q156 0 168 -135l4 -45h13q41 80 110.5 130t177.5 50q123 0 181.5 -66.5t58.5 -172.5v-37t-4 -37l-84 -682q-37 -4 -73 -11t-99 -7q-53 0 -88 11t-55.5 34.5t-28.5 59.5t-8 83q0 12 1 26.5t3 30.5l47 391q2 14 2 19.5v9.5 q0 43 -39 43q-41 0 -56.5 -36t-25.5 -113l-68 -541h-376z" />
<glyph unicode="o" horiz-adv-x="980" d="M18 391q0 133 36 245t104.5 191.5t170 123.5t232.5 44q213 0 313.5 -112.5t100.5 -298.5q0 -139 -36 -251t-106.5 -189.5t-173 -119.5t-237.5 -42q-106 0 -183 29.5t-126.5 82.5t-72 129t-22.5 168zM408 395q0 -53 14 -78.5t51 -25.5q53 0 76.5 51t34.5 145q2 20 4 42 t2 44q0 55 -15.5 83t-54.5 28q-51 0 -73.5 -53t-32.5 -139q-6 -49 -6 -97z" />
<glyph unicode="p" horiz-adv-x="999" d="M-14 -348l133 1061v264q20 4 43 8q20 4 47 7t57 3q150 0 168 -135l6 -45h13q14 33 39.5 64.5t60.5 57.5t77 42t91 16q74 0 126 -27.5t86 -75.5t49 -111.5t15 -135.5q0 -139 -37.5 -257t-111.5 -204t-184.5 -135t-253.5 -49h-11l-39 -330zM418 276h16q45 0 79 30t54.5 75 t30.5 97t10 97q0 47 -12 71t-43 24t-50.5 -22.5t-31.5 -58.5t-20.5 -83t-14.5 -96z" />
<glyph unicode="q" horiz-adv-x="989" d="M12 322q0 131 37 252.5t118 216t208 149.5t305 55q31 0 73 -2t86 -5t89 -8t82 -13l-41 -187l-140 -1110l-380 -20l55 422h-15q-10 -14 -31.5 -29.5t-49 -29t-60.5 -22.5t-67 -9q-70 0 -121 26.5t-84 72.5t-48.5 108.5t-15.5 132.5zM403 387q0 -51 12.5 -82t45.5 -31 q31 0 51 27t34.5 70t23 99t14.5 116l10 112h-21q-47 0 -79.5 -31.5t-52 -79.5t-29 -102.5t-9.5 -97.5z" />
<glyph unicode="r" horiz-adv-x="692" d="M27 0l94 782v195q33 4 69.5 11t71.5 7q86 0 130 -38.5t48 -100.5h11q27 33 51 58.5t55 44t70 27.5t92 9v-338q-14 4 -30.5 6.5t-31.5 2.5q-100 0 -144 -53.5t-56 -157.5l-56 -455h-374z" />
<glyph unicode="s" horiz-adv-x="851" d="M-35 27l94 280q18 -6 48 -14t65 -15.5t72 -12.5t69 -5q57 0 86 12.5t29 46.5q0 20 -16.5 33t-53.5 27q-53 18 -106 41.5t-96 56.5t-70 77t-27 105q0 98 43 163t112 103t153 54t165 16q92 0 187.5 -13t161.5 -30l-93 -254q-10 4 -35.5 10.5t-57 11.5t-66.5 9t-64 4 q-51 0 -81.5 -13t-30.5 -50q0 -35 61 -56q63 -23 117.5 -48t94.5 -58t63.5 -77t23.5 -103q0 -92 -40 -158t-106.5 -108t-152.5 -61t-178 -19q-49 0 -101.5 3t-101.5 9t-93 14t-75 19z" />
<glyph unicode="t" horiz-adv-x="608" d="M45 690l33 275l86 12l65 215l342 104l-41 -319h113l-35 -287h-112l-35 -284q-2 -10 -3 -30t-1 -26q0 -67 67 -67h2q12 0 28.5 1t33.5 5l-84 -289q-27 -6 -53 -10q-23 -4 -53.5 -6t-59.5 -2q-135 0 -206 65.5t-71 192.5q0 29 3.5 68.5t9.5 74.5l51 307h-80z" />
<glyph unicode="u" horiz-adv-x="1015" d="M49 221v36.5t4 37.5l84 682q37 4 73 11t99 7q106 0 143 -47t37 -141q0 -12 -1 -26.5t-3 -30.5l-47 -392q-2 -14 -2 -19v-9q0 -43 39 -43q41 0 56.5 35.5t25.5 113.5l68 541h376l-92 -713v-264q-20 -6 -43 -10q-20 -4 -47.5 -6t-56.5 -2q-156 0 -168 135l-4 45h-12 q-41 -80 -111 -130t-178 -50q-123 0 -181.5 66.5t-58.5 172.5z" />
<glyph unicode="v" d="M70 967l413 20v-641l-10 -67h10q10 25 21.5 60.5t23 75.5t21.5 78.5t20 73.5q16 57 26.5 110.5t16.5 98.5v197q14 4 38 8t48.5 7t49 5t40.5 2q113 0 164.5 -40t51.5 -134q0 -86 -30 -185t-75 -198q-33 -72 -69.5 -138.5t-71.5 -123.5t-67 -103t-52 -73h-461z" />
<glyph unicode="w" horiz-adv-x="1519" d="M70 967l413 20v-641l-8 -67h10q20 47 41 112.5t38.5 134t30.5 135t19 115.5v197q14 4 38 8t48.5 7t48 5t39.5 2q113 0 164.5 -40t51.5 -134q0 -31 -5.5 -67.5t-15.5 -71.5l35 -336l-8 -67h10q10 25 22.5 58.5t24.5 71t22.5 76.5t18.5 74q12 59 20.5 114.5t14.5 102.5v197 q14 4 37.5 8t48 7t48 5t40.5 2q113 0 164 -40t51 -134t-36 -202.5t-87 -217.5q-31 -66 -65.5 -127t-66.5 -113t-60.5 -93t-49.5 -68h-393l-16 225l26 64l-10 2q-25 -41 -52.5 -85t-55 -84t-51 -73t-37.5 -49h-400z" />
<glyph unicode="x" horiz-adv-x="974" d="M-33 0l219 516l-98 463q59 10 110.5 13t114.5 3q51 0 85 -10t55.5 -31.5t34 -52.5t18.5 -72l29 -194h10v65l35 93l41 184h421l-229 -463l111 -514q-61 -10 -115.5 -14t-118.5 -4q-102 0 -142 42t-54 126l-31 210h-10v-67l-35 -121l-31 -172h-420z" />
<glyph unicode="y" horiz-adv-x="993" d="M-39 -51q18 -4 42 -6t40 -2q102 0 169 42t107 119h-145l-104 865l411 20v-641l-8 -67h10q10 25 21.5 58.5t24 71t23.5 75.5t19 71q16 59 26.5 116.5t16.5 104.5l9 197q33 10 83 17t85 7q115 0 165 -41t50 -139q0 -72 -30 -171t-77 -210q-53 -129 -123.5 -253t-136.5 -218 q-68 -94 -132.5 -155.5t-133 -98.5t-145 -52t-167.5 -15q-29 0 -57.5 3t-42.5 5v297z" />
<glyph unicode="z" horiz-adv-x="892" d="M-29 0l37 324l484 374l49 17l-2 10h-465l30 252h809l-41 -336l-442 -358l-51 -19l2 -10h252l221 39q0 -90 -12.5 -149.5t-42 -95.5t-78.5 -51t-125 -15q-82 0 -232.5 9t-392.5 9z" />
<glyph unicode="{" horiz-adv-x="479" d="M-20 485v9l71 79q14 16 23.5 27.5t13.5 23t6 23.5t4 31l35 274q8 66 25.5 111t48.5 73.5t75 41t107 12.5h150l-27 -221h-104q-27 0 -36.5 -6.5t-13.5 -36.5l-36 -301q-4 -35 -13.5 -55.5t-40.5 -55.5l-22 -25l22 -38q10 -18 16.5 -33t6.5 -31v-15.5t-4 -33.5l-33 -268 q-2 -10 -3 -21.5t-1 -15.5q0 -16 9 -20.5t32 -4.5h102l-26 -219h-150q-111 0 -157 40t-46 136q0 14 1 29.5t3 32.5l35 274q2 12 3 21.5t1 17.5q0 18 -7 32.5t-19 33.5z" />
<glyph unicode="|" horiz-adv-x="370" d="M-18 -264l178 1454h231l-180 -1454h-229z" />
<glyph unicode="}" horiz-adv-x="479" d="M-63 -211l26 221h105q27 0 36 6.5t13 36.5l37 301q4 35 13 55.5t40 55.5l22 24l-22 39q-10 18 -16.5 32.5t-6.5 31.5v15t4 34l33 268q2 10 3 21.5t1 15.5q0 16 -9 20.5t-32 4.5h-102l27 219h149q111 0 157 -40t46 -136q0 -14 -1 -29.5t-3 -32.5l-35 -274q-2 -12 -3 -21.5 t-1 -17.5q0 -18 7 -32.5t19 -33.5l52 -79v-9l-72 -79q-16 -16 -24.5 -27.5t-12.5 -23t-6 -24t-4 -30.5l-35 -274q-16 -131 -73.5 -184.5t-182.5 -53.5h-149z" />
<glyph unicode="~" d="M78 426l28 238q29 23 93.5 46t144.5 23q39 0 82 -12t86 -27.5t85 -28t83 -12.5q39 0 75 9.5t66.5 21.5t53 26.5t36.5 24.5l-28 -239q-29 -23 -94.5 -46.5t-143.5 -23.5q-39 0 -81 12.5t-85 26.5t-86 26.5t-82 12.5q-78 0 -141.5 -29t-91.5 -49z" />
<glyph unicode="&#xa1;" horiz-adv-x="497" d="M-102 -319l188 899h315l-112 -899h-391zM92 799q0 80 55.5 138t143.5 58q80 0 123 -41t43 -110q0 -92 -57.5 -144.5t-147.5 -52.5q-76 0 -118 41t-42 111z" />
<glyph unicode="&#xa2;" d="M55 446q0 135 36 244t100.5 191t155.5 135t204 78l22 202h193l-21 -194q92 -4 159 -19.5t102 -25.5l-111 -328q-23 12 -51 21q-25 8 -58.5 14t-74.5 6q-61 0 -108.5 -21.5t-79 -58.5t-47 -87t-15.5 -105q0 -92 52 -139.5t146 -47.5q76 0 142.5 30t107.5 71v-338 q-47 -33 -122.5 -54.5t-174.5 -31.5l-24 -201h-193l25 207q-76 10 -142.5 46t-115.5 94.5t-78 137t-29 174.5z" />
<glyph unicode="&#xa3;" d="M-16 0l53 281l115 28l16 127h-160l47 197h135l9 57q14 111 51 188.5t96.5 128t143 73t196.5 22.5q45 0 97.5 -5t100.5 -12.5t86 -14.5t54 -13l-98 -289q-45 8 -91.5 13t-93.5 5q-72 0 -109.5 -30.5t-45.5 -98.5l-4 -24h327l-47 -197h-303l-14 -117h225l170 17l-45 -336 h-911z" />
<glyph unicode="&#xa4;" d="M43 276l145 138q-14 31 -24 67.5t-10 79.5q0 55 12 99.5t41 93.5l-107 129l187 174l104 -129q43 18 80 26.5t82 8.5q41 0 85 -11.5t81 -31.5l143 135l135 -164l-139 -129q14 -33 25.5 -71t11.5 -79q0 -57 -14.5 -111.5t-40.5 -99.5l100 -118l-186 -172l-103 122 q-41 -18 -81 -25t-83 -7q-37 0 -85 12t-83 35l-145 -133zM377 569q0 -57 41 -98t96 -41q63 0 108.5 46t45.5 118q0 57 -41 98t-97 41q-68 0 -110.5 -49t-42.5 -115z" />
<glyph unicode="&#xa5;" d="M16 307l50 197h184l-23 80h-180l51 196h76l-82 303h402l30 -319v-68h8l15 68l55 154l35 165h424l-158 -303h107l-49 -196h-160l-39 -80h215l-49 -197h-250l-39 -307h-395l39 307h-267z" />
<glyph unicode="&#xa6;" horiz-adv-x="370" d="M-18 -264l73 612h232l-76 -612h-229zM84 580l76 610h231l-76 -610h-231z" />
<glyph unicode="&#xa7;" horiz-adv-x="763" d="M-25 -195l78 203q29 -10 73 -18t91 -8q59 0 107.5 21.5t48.5 74.5q0 35 -27 56.5t-80 53.5q-53 33 -95 62t-71.5 61.5t-46 71.5t-16.5 90q0 78 37 152.5t88 124.5q-10 23 -19.5 55.5t-9.5 64.5q0 88 33 151.5t90 105.5t135 61.5t166 19.5t142.5 -9t99.5 -23l-78 -203 q-16 4 -65.5 15t-104.5 11q-59 0 -104.5 -21.5t-45.5 -74.5q0 -31 22.5 -54.5t74.5 -51.5q55 -31 99 -61.5t74.5 -64.5t47 -75t16.5 -92v-21.5t-2 -21.5q-8 -66 -43 -127.5t-78 -102.5q10 -23 19.5 -54.5t9.5 -70.5q0 -88 -34 -150t-91 -103t-135 -60.5t-166 -19.5 q-90 0 -143.5 10t-96.5 22zM291 526q0 -37 34.5 -64.5t82.5 -55.5l41 -25q33 33 32 70q0 27 -13 46t-31.5 34.5t-40 26.5t-36.5 22l-36 22q-33 -35 -33 -76z" />
<glyph unicode="&#xa8;" horiz-adv-x="983" d="M313 1100l37 286h215l-37 -286h-215zM621 1100l36 286h215l-36 -286h-215z" />
<glyph unicode="&#xa9;" horiz-adv-x="1034" d="M90 901q0 104 38 195.5t103.5 159t153.5 106.5t190 39q100 0 189.5 -39t155 -106.5t104.5 -158.5t39 -196q0 -104 -39 -194.5t-104.5 -158t-154.5 -106.5t-190 -39q-102 0 -190 39t-153.5 106.5t-103.5 158t-38 194.5zM188 901q0 -84 31 -155.5t83 -126t122.5 -85 t150.5 -30.5t151 30.5t124 85t84 126t31 155.5q0 82 -31 154.5t-84 126t-124 85t-151 31.5t-150.5 -31.5t-122.5 -85t-83 -126t-31 -154.5zM322 860q0 76 24.5 134.5t67.5 98.5t101 61.5t126 21.5q55 0 90 -6.5t53 -12.5l-59 -168q-33 14 -80 15q-53 0 -87 -35t-34 -90 q0 -43 25.5 -71t68.5 -28q35 0 67 13.5t50 35.5v-165q-31 -20 -71.5 -34t-96.5 -14q-51 0 -96 17.5t-78 49.5t-52 77t-19 100z" />
<glyph unicode="&#xaa;" horiz-adv-x="628" d="M59 799q0 90 25 164.5t73 128t118.5 83t162.5 29.5q119 0 215 -12l-59 -467l4 -127q-12 -4 -39 -8t-51 -4q-92 0 -102 84l-5 26h-8q-23 -53 -64.5 -81.5t-95.5 -28.5q-92 0 -133 59.5t-41 153.5zM299 844q0 -57 33 -58q35 0 47 48.5t20 107.5l13 82h-11q-27 0 -46 -18.5 t-31.5 -46t-18.5 -58.5t-6 -57z" />
<glyph unicode="&#xab;" horiz-adv-x="1034" d="M33 553l485 485l148 -172l-322 -313l248 -315l-197 -170zM432 553l488 485l149 -172l-324 -313l250 -315l-198 -170z" />
<glyph unicode="&#xac;" d="M88 629l29 231h815l-70 -561h-237l41 330h-578z" />
<glyph unicode="&#xad;" horiz-adv-x="593" d="M39 377l27 231h526l-29 -231h-524z" />
<glyph unicode="&#xae;" horiz-adv-x="1034" d="M90 901q0 104 38 195.5t103.5 159t153.5 106.5t190 39q100 0 189.5 -39t155 -106.5t104.5 -158.5t39 -196q0 -104 -39 -194.5t-104.5 -158t-154.5 -106.5t-190 -39q-102 0 -190 39t-153.5 106.5t-103.5 158t-38 194.5zM188 901q0 -84 31 -155.5t83 -126t122.5 -85 t150.5 -30.5t151 30.5t124 85t84 126t31 155.5q0 82 -31 154.5t-84 126t-124 85t-151 31.5t-150.5 -31.5t-122.5 -85t-83 -126t-31 -154.5zM317 627l19 92l55 450h258q76 0 127 -37.5t51 -101.5q0 -49 -24.5 -89t-69.5 -54v-8q25 -10 34 -24.5t13 -53.5l13 -174h-199v151 q0 49 -33 49h-16l-25 -200h-203zM557 938h25q45 0 45 55q0 35 -35 35h-25z" />
<glyph unicode="&#xaf;" horiz-adv-x="983" d="M266 1126l27 224h622l-26 -224h-623z" />
<glyph unicode="&#xb0;" horiz-adv-x="585" d="M78 895q0 141 82 227t221 86q125 0 184.5 -64.5t59.5 -166.5q0 -150 -80 -232.5t-228 -82.5q-123 0 -181 64.5t-58 168.5zM123 430l188 178l150 -178l-193 -170zM281 903q0 -35 11 -59.5t44 -24.5q53 0 68.5 46t15.5 106q0 33 -12.5 57.5t-42.5 24.5q-27 0 -43.5 -14.5 t-25.5 -36t-12 -48t-3 -51.5z" />
<glyph unicode="&#xb1;" d="M51 0l29 231h762l-29 -231h-762zM121 567l29 230h264l35 274h233l-35 -274h264l-28 -230h-265l-32 -274h-234l33 274h-264z" />
<glyph unicode="&#xb2;" horiz-adv-x="544" d="M41 592l18 164q96 47 152.5 80.5t85.5 58.5t37 42t8 36q0 29 -26.5 42t-69.5 13q-53 0 -95 -10t-71 -21l59 185q20 4 65.5 11t104.5 7q49 0 94.5 -11t80 -35t55 -58.5t20.5 -79.5v-15.5t-2 -15.5q-8 -66 -48 -114t-132 -95l4 -8h82l94 10l-20 -186h-496z" />
<glyph unicode="&#xb3;" horiz-adv-x="528" d="M61 606v172q18 -6 65.5 -17t113.5 -11q35 0 61.5 9t26.5 36q0 23 -23.5 28.5t-62.5 5.5h-90l14 117h92q37 0 64.5 10.5t27.5 38.5q0 20 -22.5 28.5t-63.5 8.5t-91 -7t-83 -17l49 174q35 8 82 13t94 5q49 0 95.5 -9t81 -29.5t55 -51.5t20.5 -76q0 -49 -25.5 -80.5 t-68.5 -52.5l-2 -8q23 -10 48.5 -41t25.5 -78q0 -59 -29 -96t-74 -58.5t-101 -29.5t-112 -8q-47 0 -93 7t-75 17z" />
<glyph unicode="&#xb4;" horiz-adv-x="983" d="M307 1206l504 199l53 -238l-473 -75z" />
<glyph unicode="&#xb5;" horiz-adv-x="1036" d="M-33 -350l47 207l136 1120q29 4 68.5 11t103.5 7q109 0 147.5 -47t38.5 -141q0 -12 -1 -26.5t-3 -30.5l-47 -383q-2 -12 -3 -23.5t-1 -15.5q0 -41 41 -41q39 0 53 33.5t24 115.5l68 541h383l-111 -784v-193q-29 -6 -73.5 -12t-75.5 -6q-47 0 -78 11t-48.5 29.5t-25.5 44 t-12 56.5h-12q-29 -59 -70 -86t-106 -37l-41 -334z" />
<glyph unicode="&#xb6;" horiz-adv-x="974" d="M49 713q0 205 130 319.5t356 114.5h497l-24 -215l-88 -12l-152 -1278h-238l154 1273h-86l-154 -1273h-245l43 176l71 600q-66 0 -116 23.5t-82.5 63.5t-49 94t-16.5 114z" />
<glyph unicode="&#xb7;" horiz-adv-x="419" d="M39 557q0 90 55.5 143.5t145.5 53.5q74 0 120 -42t46 -110q0 -80 -53.5 -138t-141.5 -58q-80 0 -126 40.5t-46 110.5z" />
<glyph unicode="&#xb8;" horiz-adv-x="983" d="M203 -338l45 135q18 -4 41.5 -6t42.5 -2q29 0 49 6t25 27q0 16 -16.5 24.5t-41.5 8.5q-18 0 -38.5 -3.5t-30.5 -5.5l47 154h166l-7 -45q55 -4 90 -40t35 -87q0 -92 -67.5 -139t-171.5 -47q-72 0 -112 8t-56 12z" />
<glyph unicode="&#xb9;" horiz-adv-x="516" d="M61 596l21 160h127l31 223l-7 2l-18 -31q-14 -10 -45 -19t-53 -13l-17 169q41 6 98.5 34t94.5 69h174l-59 -434h118l-20 -160h-445z" />
<glyph unicode="&#xba;" horiz-adv-x="618" d="M63 836q0 80 21.5 146.5t65 115.5t104.5 75.5t141 26.5q129 0 190.5 -68.5t61.5 -181.5q0 -170 -86 -268t-252 -98q-129 0 -187.5 68.5t-58.5 183.5zM301 836q0 -29 7 -46.5t30 -17.5q41 0 57.5 48t16.5 126q0 29 -9.5 47.5t-31.5 18.5q-23 0 -36 -16.5t-20.5 -43 t-10.5 -57t-3 -59.5z" />
<glyph unicode="&#xbb;" horiz-adv-x="1034" d="M-2 238l324 315l-250 313l194 172l369 -485l-488 -485zM397 238l328 315l-250 313l195 172l368 -485l-489 -485z" />
<glyph unicode="&#xbc;" horiz-adv-x="1216" d="M61 596l21 160h127l31 223l-7 2l-18 -31q-14 -10 -45 -19t-53 -13l-17 169q41 6 98.5 34t94.5 69h174l-59 -434h118l-20 -160h-445zM129 0l809 1190h180l-809 -1190h-180zM631 94l20 176l230 324h268l-41 -338h57l-18 -162h-60l-12 -94h-203l13 94h-254zM809 256h98 l19 143l16 33q-2 0 -3 1t-3 1l-100 -155l-27 -15v-8z" />
<glyph unicode="&#xbd;" horiz-adv-x="1253" d="M61 596l21 160h127l24 176l17 47l-6 2l-29 -31q-14 -10 -45 -19t-53 -13l-17 169q41 6 98.5 34t94.5 69h174l-59 -434h118l-20 -160h-445zM129 0l809 1190h180l-809 -1190h-180zM657 0l19 164q96 47 152.5 81t85 58.5t36.5 41.5t8 36q0 29 -26.5 42t-69.5 13 q-53 0 -95 -10t-71 -20l60 184q20 4 65 11t105 7q49 0 94 -11t80 -34.5t55.5 -58.5t20.5 -80v-15.5t-2 -15.5q-8 -66 -48.5 -114t-132.5 -95l4 -8h82l95 10l-21 -186h-496z" />
<glyph unicode="&#xbe;" horiz-adv-x="1134" d="M61 606v172q18 -6 65.5 -17t113.5 -11q35 0 61.5 9t26.5 36q0 23 -23.5 28.5t-62.5 5.5h-90l14 117h92q37 0 64.5 10.5t27.5 38.5q0 20 -22.5 28.5t-63.5 8.5t-91 -7t-83 -17l49 174q35 8 82 13t94 5q49 0 95.5 -9t81 -29.5t55 -51.5t20.5 -76q0 -49 -25.5 -80.5 t-68.5 -52.5l-2 -8q23 -10 48.5 -41t25.5 -78q0 -59 -29 -96t-74 -58.5t-101 -29.5t-112 -8q-47 0 -93 7t-75 17zM109 0l809 1190h178l-809 -1190h-178zM555 94l20 176l230 324h268l-41 -338h58l-19 -162h-59l-13 -94h-202l12 94h-254zM733 256h98l19 143l16 33q-2 0 -3 1 t-3 1l-100 -155l-27 -15v-8z" />
<glyph unicode="&#xbf;" horiz-adv-x="835" d="M-51 37q0 174 105.5 277.5t279.5 152.5l22 111h310l-35 -291q-57 -6 -109.5 -19.5t-93.5 -37t-65.5 -59.5t-24.5 -85q0 -45 37 -81t129 -36q66 0 130 14.5t116 30.5l-86 -317q-55 -14 -119 -24.5t-144 -10.5q-94 0 -176 24.5t-143.5 71.5t-97 117t-35.5 162zM358 799 q0 80 53.5 138t145.5 58q80 0 124 -41t44 -110q0 -90 -58.5 -143.5t-148.5 -53.5q-74 0 -117 42t-43 110z" />
<glyph unicode="&#xc0;" horiz-adv-x="1159" d="M-43 0l459 1296h610l82 -1296h-459l21 176v53h-199l-61 -229h-453zM455 1448l112 238l457 -199l-113 -115zM549 520h129l6 438l4 84h-10l-19 -84z" />
<glyph unicode="&#xc1;" horiz-adv-x="1159" d="M-43 0l459 1296h610l82 -1296h-459l21 176v53h-199l-61 -229h-453zM424 1487l504 199l53 -238l-473 -76zM549 520h129l6 438l4 84h-10l-19 -84z" />
<glyph unicode="&#xc2;" horiz-adv-x="1159" d="M-43 0l459 1296h610l82 -1296h-459l21 176v53h-199l-61 -229h-453zM408 1466l268 183q20 14 41.5 19t38.5 5q18 0 39.5 -5t38.5 -19l223 -183l-111 -112l-221 73l-238 -73zM549 520h129l6 438l4 84h-10l-19 -84z" />
<glyph unicode="&#xc3;" horiz-adv-x="1159" d="M-43 0l459 1296h610l82 -1296h-459l21 176v53h-199l-61 -229h-453zM385 1393l55 200q23 12 73 32t134 20q25 0 56.5 -5.5t66.5 -11.5t68.5 -11t62.5 -5q80 0 128 12t73 23l-55 -201q-23 -12 -74 -31.5t-131 -19.5q-25 0 -57.5 5t-67.5 11t-70 11t-61 5q-80 0 -128 -13 t-73 -21zM549 520h129l6 438l4 84h-10l-19 -84z" />
<glyph unicode="&#xc4;" horiz-adv-x="1159" d="M-43 0l459 1296h610l82 -1296h-459l21 176v53h-199l-61 -229h-453zM467 1380l37 287h215l-37 -287h-215zM549 520h129l6 438l4 84h-10l-19 -84zM774 1380l37 287h215l-37 -287h-215z" />
<glyph unicode="&#xc5;" horiz-adv-x="1159" d="M-43 0l459 1296h610l82 -1296h-459l21 176v53h-199l-61 -229h-453zM510 1493q0 90 62.5 148.5t189.5 58.5q111 0 167 -48t56 -118q0 -92 -62.5 -145.5t-191.5 -53.5q-111 0 -166 46t-55 112zM549 520h129l6 438l4 84h-10l-19 -84zM707 1505q0 -12 6 -22t26 -10 q45 0 45 55q0 14 -6 24.5t-28 10.5q-25 0 -34 -19t-9 -39z" />
<glyph unicode="&#xc6;" horiz-adv-x="1574" d="M-49 0l446 1296h1164v-354h-453v-141h403v-314h-411v-151h436v-336h-893l35 176v33h-217l-60 -209h-450zM559 551h139l23 389h-53z" />
<glyph unicode="&#xc7;" horiz-adv-x="1040" d="M33 520q0 174 47 320.5t138 252t223 164t304 58.5q129 0 223.5 -21.5t141.5 -38.5l-137 -350q-33 16 -82 31.5t-109 15.5q-78 0 -134 -30.5t-93 -82t-54.5 -117t-17.5 -134.5q0 -106 54.5 -172t177.5 -66q72 0 145.5 33t124.5 80v-373q-59 -41 -149.5 -70.5t-212.5 -35.5 l-5 -29q55 -4 90 -40t35 -87q0 -92 -67.5 -139t-171.5 -47q-72 0 -112 8t-56 12l45 135q18 -4 41.5 -6t42.5 -2q29 0 49.5 6t24.5 27q0 16 -16.5 24.5t-41.5 8.5q-18 0 -38.5 -3.5t-30.5 -5.5l43 146q-94 14 -172 57t-133.5 110.5t-86 158t-30.5 202.5z" />
<glyph unicode="&#xc8;" horiz-adv-x="1050" d="M27 0l43 201l133 1095h895l-43 -354h-471l-15 -141h424l-39 -314h-424l-18 -151h477l-41 -336h-921zM385 1448l113 238l456 -199l-112 -115z" />
<glyph unicode="&#xc9;" horiz-adv-x="1050" d="M27 0l43 201l133 1095h895l-43 -354h-471l-15 -141h424l-39 -314h-424l-18 -151h477l-41 -336h-921zM393 1487l504 199l53 -238l-473 -76z" />
<glyph unicode="&#xca;" horiz-adv-x="1050" d="M27 0l43 201l133 1095h895l-43 -354h-471l-15 -141h424l-39 -314h-424l-18 -151h477l-41 -336h-921zM346 1466l268 183q20 14 42 19t38 5q18 0 40 -5t38 -19l223 -183l-110 -112l-221 73l-238 -73z" />
<glyph unicode="&#xcb;" horiz-adv-x="1050" d="M27 0l43 201l133 1095h895l-43 -354h-471l-15 -141h424l-39 -314h-424l-18 -151h477l-41 -336h-921zM401 1380l37 287h215l-37 -287h-215zM709 1380l36 287h216l-37 -287h-215z" />
<glyph unicode="&#xcc;" horiz-adv-x="602" d="M27 0l41 201l135 1095h426l-160 -1296h-442zM176 1448l113 238l456 -199l-112 -115z" />
<glyph unicode="&#xcd;" horiz-adv-x="602" d="M27 0l41 201l135 1095h426l-160 -1296h-442zM139 1487l504 199l53 -238l-473 -76z" />
<glyph unicode="&#xce;" horiz-adv-x="602" d="M27 0l41 201l135 1095h426l-160 -1296h-442zM119 1466l268 183q20 14 42 19t38 5q18 0 39.5 -5t38.5 -19l223 -183l-111 -112l-221 73l-237 -73z" />
<glyph unicode="&#xcf;" horiz-adv-x="602" d="M27 0l41 201l135 1095h426l-160 -1296h-442zM172 1380l37 287h215l-37 -287h-215zM479 1380l37 287h215l-37 -287h-215z" />
<glyph unicode="&#xd0;" horiz-adv-x="1187" d="M16 674l117 24l72 598h416q283 0 432 -131t149 -401q0 -383 -185.5 -573.5t-531.5 -190.5h-450l41 201l30 260l-71 -15zM518 354h12q59 0 104.5 20.5t75 69t44 127t14.5 195.5q0 98 -35 135t-123 41h-18l-21 -151l91 20l20 -225l-139 -31z" />
<glyph unicode="&#xd1;" horiz-adv-x="1226" d="M33 0l43 201l133 1095h473l111 -796h10v78l22 718h435l-50 -200l-137 -1096h-465l-100 799h-10v-78l-31 -721h-434zM406 1393l55 200q23 12 73 32t134 20q25 0 56.5 -5.5t66 -11.5t68.5 -11t63 -5q80 0 128 12t72 23l-55 -201q-23 -12 -74 -31.5t-131 -19.5 q-25 0 -57.5 5t-67.5 11t-69.5 11t-61.5 5q-80 0 -128 -13t-72 -21z" />
<glyph unicode="&#xd2;" horiz-adv-x="1202" d="M33 504q0 184 45 333.5t132 255t213 164t288 58.5q258 0 379.5 -138.5t121.5 -383.5q0 -393 -172 -602t-505 -209q-260 0 -381 136t-121 386zM432 1448l113 238l456 -199l-112 -115zM489 483q0 -66 20.5 -107.5t80.5 -41.5q39 0 65.5 24.5t46 66.5t30.5 98.5t20 119.5 q4 43 8 84t4 74q0 66 -21.5 107.5t-74.5 41.5q-39 0 -67 -23.5t-47 -64.5t-31.5 -96.5t-20.5 -118.5q-6 -47 -9.5 -89t-3.5 -75z" />
<glyph unicode="&#xd3;" horiz-adv-x="1202" d="M33 504q0 184 45 333.5t132 255t213 164t288 58.5q258 0 379.5 -138.5t121.5 -383.5q0 -393 -172 -602t-505 -209q-260 0 -381 136t-121 386zM428 1487l504 199l53 -238l-473 -76zM489 483q0 -66 20.5 -107.5t80.5 -41.5q39 0 65.5 24.5t46 66.5t30.5 98.5t20 119.5 q4 43 8 84t4 74q0 66 -21.5 107.5t-74.5 41.5q-39 0 -67 -23.5t-47 -64.5t-31.5 -96.5t-20.5 -118.5q-6 -47 -9.5 -89t-3.5 -75z" />
<glyph unicode="&#xd4;" horiz-adv-x="1202" d="M33 504q0 184 45 333.5t132 255t213 164t288 58.5q258 0 379.5 -138.5t121.5 -383.5q0 -393 -172 -602t-505 -209q-260 0 -381 136t-121 386zM397 1466l269 183q20 14 41.5 19t37.5 5q18 0 40 -5t38 -19l224 -183l-111 -112l-221 73l-238 -73zM489 483q0 -66 20.5 -107.5 t80.5 -41.5q39 0 65.5 24.5t46 66.5t30.5 98.5t20 119.5q4 43 8 84t4 74q0 66 -21.5 107.5t-74.5 41.5q-39 0 -67 -23.5t-47 -64.5t-31.5 -96.5t-20.5 -118.5q-6 -47 -9.5 -89t-3.5 -75z" />
<glyph unicode="&#xd5;" horiz-adv-x="1202" d="M33 504q0 184 45 333.5t132 255t213 164t288 58.5q258 0 379.5 -138.5t121.5 -383.5q0 -393 -172 -602t-505 -209q-260 0 -381 136t-121 386zM371 1393l55 200q23 12 73 32t134 20q25 0 56.5 -5.5t66.5 -11.5t68.5 -11t62.5 -5q80 0 128 12t72 23l-55 -201 q-23 -12 -74 -31.5t-131 -19.5q-25 0 -57.5 5t-67 11t-69.5 11t-62 5q-80 0 -128 -13t-72 -21zM489 483q0 -66 20.5 -107.5t80.5 -41.5q39 0 65.5 24.5t46 66.5t30.5 98.5t20 119.5q4 43 8 84t4 74q0 66 -21.5 107.5t-74.5 41.5q-39 0 -67 -23.5t-47 -64.5t-31.5 -96.5 t-20.5 -118.5q-6 -47 -9.5 -89t-3.5 -75z" />
<glyph unicode="&#xd6;" horiz-adv-x="1202" d="M33 504q0 184 45 333.5t132 255t213 164t288 58.5q258 0 379.5 -138.5t121.5 -383.5q0 -393 -172 -602t-505 -209q-260 0 -381 136t-121 386zM449 1380l36 287h215l-36 -287h-215zM489 483q0 -66 20.5 -107.5t80.5 -41.5q39 0 65.5 24.5t46 66.5t30.5 98.5t20 119.5 q4 43 8 84t4 74q0 66 -21.5 107.5t-74.5 41.5q-39 0 -67 -23.5t-47 -64.5t-31.5 -96.5t-20.5 -118.5q-6 -47 -9.5 -89t-3.5 -75zM756 1380l37 287h215l-37 -287h-215z" />
<glyph unicode="&#xd7;" d="M100 344l256 240l-198 237l180 170l197 -239l253 239l144 -168l-254 -237l196 -240l-176 -168l-200 238l-256 -238z" />
<glyph unicode="&#xd8;" horiz-adv-x="1202" d="M33 504q0 184 45 333.5t132 255t213 164t288 58.5q113 0 202 -29l43 74h140l-72 -127q96 -66 142 -176.5t46 -263.5q0 -393 -172 -602t-505 -209q-117 0 -209 28l-52 -92h-139l82 143q-96 66 -140 177.5t-44 265.5zM492 543l223 393q-16 14 -47 14q-39 0 -67 -23.5 t-47 -64.5t-31.5 -96t-20.5 -119q-4 -29 -6 -54.5t-4 -49.5zM524 358q20 -25 66 -24q39 0 65.5 24.5t46 66.5t30.5 98.5t20 119.5q4 35 7 70t5 65z" />
<glyph unicode="&#xd9;" horiz-adv-x="1153" d="M78 352q0 27 2 54.5t6 56.5l80 624v209h452l-102 -833q-2 -10 -2 -19.5v-17.5q0 -37 13.5 -56.5t47.5 -19.5q47 0 63.5 28t25.5 85l84 633v200h442l-103 -829q-31 -250 -163.5 -367.5t-391.5 -117.5q-219 0 -336.5 87t-117.5 283zM424 1448l113 238l456 -199l-112 -115z " />
<glyph unicode="&#xda;" horiz-adv-x="1153" d="M78 352q0 27 2 54.5t6 56.5l80 624v209h452l-102 -833q-2 -10 -2 -19.5v-17.5q0 -37 13.5 -56.5t47.5 -19.5q47 0 63.5 28t25.5 85l84 633v200h442l-103 -829q-31 -250 -163.5 -367.5t-391.5 -117.5q-219 0 -336.5 87t-117.5 283zM430 1487l504 199l53 -238l-473 -76z " />
<glyph unicode="&#xdb;" horiz-adv-x="1153" d="M78 352q0 27 2 54.5t6 56.5l80 624v209h452l-102 -833q-2 -10 -2 -19.5v-17.5q0 -37 13.5 -56.5t47.5 -19.5q47 0 63.5 28t25.5 85l84 633v200h442l-103 -829q-31 -250 -163.5 -367.5t-391.5 -117.5q-219 0 -336.5 87t-117.5 283zM385 1466l268 183q20 14 42 19t38 5 q18 0 40 -5t38 -19l223 -183l-110 -112l-222 73l-237 -73z" />
<glyph unicode="&#xdc;" horiz-adv-x="1153" d="M78 352q0 27 2 54.5t6 56.5l80 624v209h452l-102 -833q-2 -10 -2 -19.5v-17.5q0 -37 13.5 -56.5t47.5 -19.5q47 0 63.5 28t25.5 85l84 633v200h442l-103 -829q-31 -250 -163.5 -367.5t-391.5 -117.5q-219 0 -336.5 87t-117.5 283zM442 1380l37 287h215l-37 -287h-215z M750 1380l36 287h215l-36 -287h-215z" />
<glyph unicode="&#xdd;" horiz-adv-x="1091" d="M104 1296h437l30 -452l-6 -82h10l17 82l78 256l37 196h487l-449 -870l-51 -426h-436l49 426zM387 1487l504 199l53 -238l-473 -76z" />
<glyph unicode="&#xde;" horiz-adv-x="1110" d="M27 0l43 201l129 1095h422l-15 -145h129q184 0 285.5 -105.5t101.5 -285.5q0 -121 -37.5 -217.5t-104.5 -163t-159 -101t-200 -34.5h-125l-27 -244h-442zM530 584h43q47 0 76 28.5t35 77.5q0 6 1 11.5t1 9.5q0 41 -21.5 65.5t-62.5 24.5h-45z" />
<glyph unicode="&#xdf;" horiz-adv-x="1103" d="M12 0l39 178l66 512h-62l37 277l66 10q25 207 149.5 317.5t341.5 110.5q82 0 159 -21.5t135 -63.5t93 -102.5t35 -140.5q0 -92 -32.5 -153.5t-73.5 -104.5l-39 -41l-2 -10l30 -37q51 -61 91 -138t40 -175q0 -109 -37.5 -190t-101 -136t-147.5 -82.5t-176 -27.5 q-12 0 -35 1t-48.5 4t-49 6t-39.5 7l86 303q8 -2 16 -3t22 -1q57 0 88 35t31 82q0 41 -23.5 78.5t-51 76.5t-51 80t-23.5 88q0 45 19.5 82t62.5 99q18 29 37.5 56.5t19.5 63.5q0 25 -17.5 43.5t-45.5 18.5q-43 0 -66 -35t-29 -86l-120 -981h-394z" />
<glyph unicode="&#xe0;" horiz-adv-x="989" d="M12 330q0 147 42 270t122 210t195.5 136t263.5 49q100 0 197.5 -6t175.5 -16l-47 -203l-64 -506v-264q-20 -6 -43 -10q-20 -4 -48 -6t-56 -2q-150 0 -168 135l-7 45h-12q-37 -86 -111.5 -133t-162.5 -47q-145 0 -211 97t-66 251zM344 1167l113 238l456 -199l-112 -114z M401 401q0 -47 12.5 -70.5t43.5 -23.5t50 22.5t31.5 58.5t20.5 83t14 96l19 133h-17q-47 0 -79.5 -29.5t-53 -74.5t-31 -97.5t-10.5 -97.5z" />
<glyph unicode="&#xe1;" horiz-adv-x="989" d="M12 330q0 150 41 272.5t120 209.5t194.5 135t267.5 48q100 0 186 -5t164 -15l-96 -766l8 -209q-23 -6 -64.5 -12t-82.5 -6q-150 0 -168 135l-7 45h-12q-37 -86 -108.5 -133t-159.5 -47q-76 0 -129 25.5t-87 71.5t-50.5 109.5t-16.5 141.5zM367 1206l503 199l54 -238 l-473 -75zM401 401q0 -47 12.5 -70.5t43.5 -23.5t50 22.5t31.5 58.5t20.5 83t14 96l19 133h-17q-47 0 -79.5 -29.5t-53 -74.5t-31 -97.5t-10.5 -97.5z" />
<glyph unicode="&#xe2;" horiz-adv-x="989" d="M12 330q0 147 42 270t122 210t195.5 136t263.5 49q100 0 197.5 -6t175.5 -16l-47 -203l-64 -506v-264q-20 -6 -43 -10q-20 -4 -48 -6t-56 -2q-150 0 -168 135l-7 45h-12q-37 -86 -111.5 -133t-162.5 -47q-145 0 -211 97t-66 251zM293 1198l268 182q20 14 42 19.5t38 5.5 q18 0 39.5 -5t38.5 -20l223 -182l-111 -113l-221 74l-237 -74zM401 401q0 -47 12.5 -70.5t43.5 -23.5t50 22.5t31.5 58.5t20.5 83t14 96l19 133h-17q-47 0 -79.5 -29.5t-53 -74.5t-31 -97.5t-10.5 -97.5z" />
<glyph unicode="&#xe3;" horiz-adv-x="989" d="M12 330q0 147 42 270t122 210t195.5 136t263.5 49q100 0 197.5 -6t175.5 -16l-47 -203l-64 -506v-264q-20 -6 -43 -10q-20 -4 -48 -6t-56 -2q-150 0 -168 135l-7 45h-12q-37 -86 -111.5 -133t-162.5 -47q-145 0 -211 97t-66 251zM287 1112l55 201q23 12 73 31.5t134 19.5 q25 0 56.5 -5t66.5 -11.5t68.5 -11.5t62.5 -5q80 0 128 12.5t73 22.5l-56 -201q-23 -12 -74 -31.5t-131 -19.5q-25 0 -57.5 5t-67 11.5t-69.5 11.5t-62 5q-80 0 -128 -13.5t-72 -21.5zM401 401q0 -47 12.5 -70.5t43.5 -23.5t50 22.5t31.5 58.5t20.5 83t14 96l19 133h-17 q-47 0 -79.5 -29.5t-53 -74.5t-31 -97.5t-10.5 -97.5z" />
<glyph unicode="&#xe4;" horiz-adv-x="989" d="M12 330q0 147 42 270t122 210t195.5 136t263.5 49q100 0 197.5 -6t175.5 -16l-47 -203l-64 -506v-264q-20 -6 -43 -10q-20 -4 -48 -6t-56 -2q-150 0 -168 135l-7 45h-12q-37 -86 -111.5 -133t-162.5 -47q-145 0 -211 97t-66 251zM356 1112l37 287h215l-37 -287h-215z M401 401q0 -47 12.5 -70.5t43.5 -23.5t50 22.5t31.5 58.5t20.5 83t14 96l19 133h-17q-47 0 -79.5 -29.5t-53 -74.5t-31 -97.5t-10.5 -97.5zM664 1112l36 287h215l-36 -287h-215z" />
<glyph unicode="&#xe5;" horiz-adv-x="989" d="M12 330q0 147 42 270t122 210t195.5 136t263.5 49q100 0 197.5 -6t175.5 -16l-47 -203l-64 -506v-264q-20 -6 -43 -10q-20 -4 -48 -6t-56 -2q-150 0 -168 135l-7 45h-12q-37 -86 -111.5 -133t-162.5 -47q-145 0 -211 97t-66 251zM395 1212q0 90 62.5 148.5t189.5 58.5 q111 0 167 -48t56 -118q0 -92 -62.5 -145t-191.5 -53q-111 0 -166 46t-55 111zM401 401q0 -47 12.5 -70.5t43.5 -23.5t50 22.5t31.5 58.5t20.5 83t14 96l19 133h-17q-47 0 -79.5 -29.5t-53 -74.5t-31 -97.5t-10.5 -97.5zM592 1225q0 -12 6 -22.5t27 -10.5q45 0 45 55 q0 14 -6.5 24.5t-28.5 10.5q-25 0 -34 -18.5t-9 -38.5z" />
<glyph unicode="&#xe6;" horiz-adv-x="1449" d="M-2 264q0 96 43 169t113.5 124t164 82t195.5 43l78 8q82 152 206 228.5t300 76.5q76 0 140.5 -18.5t112.5 -54t75.5 -88t27.5 -119.5q0 -82 -31.5 -148.5t-87 -118t-129 -85t-157.5 -48.5l-119 -20q12 -18 59 -26.5t105 -8.5q86 0 171 15.5t132 35.5l-88 -288 q-51 -16 -137.5 -28.5t-190.5 -12.5q-127 0 -220 35.5t-138 84.5h-17q-61 -47 -136 -83.5t-183 -36.5q-141 0 -215 79.5t-74 202.5zM332 309q0 -66 63 -65q51 0 88 52t52 128l10 55q-104 -16 -158.5 -64t-54.5 -106zM911 498q104 16 156.5 64t52.5 106q0 66 -63 65 q-53 0 -87 -52t-48 -128z" />
<glyph unicode="&#xe7;" horiz-adv-x="827" d="M18 412q0 139 45.5 247.5t125 183.5t188 113.5t235.5 38.5q33 0 71 -3t75 -9t68.5 -13t54.5 -14l-101 -307q-31 16 -69.5 27.5t-85.5 11.5q-96 0 -156.5 -63.5t-60.5 -161.5q0 -80 43 -124t122 -44q66 0 119 27.5t88 62.5v-319q-35 -23 -104.5 -49.5t-179.5 -32.5l-4 -29 q55 -4 89.5 -40t34.5 -87q0 -92 -67.5 -139t-171.5 -47q-72 0 -112 8t-56 12l45 135q18 -4 41.5 -6t42.5 -2q29 0 49.5 6t24.5 27q0 16 -16.5 24.5t-41.5 8.5q-18 0 -38.5 -3.5t-30.5 -5.5l45 148q-150 31 -231 142.5t-81 275.5z" />
<glyph unicode="&#xe8;" horiz-adv-x="956" d="M16 410q0 125 40 232.5t114 185t181.5 122.5t242.5 45q76 0 143.5 -20.5t116.5 -57t78 -88t29 -112.5q0 -88 -36 -148.5t-97.5 -100.5t-142.5 -62.5t-171 -32.5l-113 -13q4 -35 22.5 -54t46.5 -28.5t59.5 -12.5t62.5 -3q96 0 175 16.5t136 32.5l-90 -288 q-61 -16 -143 -28.5t-170 -12.5q-238 0 -361 112.5t-123 315.5zM319 1167l113 238l457 -199l-113 -114zM403 528q41 2 79 9.5t68 22.5t47 39t17 58q0 35 -19.5 50.5t-51.5 15.5q-59 0 -94 -55.5t-46 -126.5v-13z" />
<glyph unicode="&#xe9;" horiz-adv-x="956" d="M16 410q0 125 40 232.5t114 185t181.5 122.5t242.5 45q76 0 143.5 -20.5t116.5 -57t78 -88t29 -112.5q0 -88 -36 -148.5t-97.5 -100.5t-142.5 -62.5t-171 -32.5l-113 -13q4 -35 22.5 -54t46.5 -28.5t59.5 -12.5t62.5 -3q96 0 175 16.5t136 32.5l-90 -288 q-61 -16 -143 -28.5t-170 -12.5q-238 0 -361 112.5t-123 315.5zM322 1206l503 199l54 -238l-473 -75zM403 528q41 2 79 9.5t68 22.5t47 39t17 58q0 35 -19.5 50.5t-51.5 15.5q-59 0 -94 -55.5t-46 -126.5v-13z" />
<glyph unicode="&#xea;" horiz-adv-x="956" d="M16 410q0 125 40 232.5t114 185t181.5 122.5t242.5 45q76 0 143.5 -20.5t116.5 -57t78 -88t29 -112.5q0 -88 -36 -148.5t-97.5 -100.5t-142.5 -62.5t-171 -32.5l-113 -13q4 -35 22.5 -54t46.5 -28.5t59.5 -12.5t62.5 -3q96 0 175 16.5t136 32.5l-90 -288 q-61 -16 -143 -28.5t-170 -12.5q-238 0 -361 112.5t-123 315.5zM279 1194l268 182q20 14 41.5 19.5t38.5 5.5q18 0 39.5 -5t38.5 -20l223 -182l-111 -113l-221 74l-238 -74zM403 528q41 2 79 9.5t68 22.5t47 39t17 58q0 35 -19.5 50.5t-51.5 15.5q-59 0 -94 -55.5 t-46 -126.5v-13z" />
<glyph unicode="&#xeb;" horiz-adv-x="956" d="M16 410q0 125 40 232.5t114 185t181.5 122.5t242.5 45q76 0 143.5 -20.5t116.5 -57t78 -88t29 -112.5q0 -88 -36 -148.5t-97.5 -100.5t-142.5 -62.5t-171 -32.5l-113 -13q4 -35 22.5 -54t46.5 -28.5t59.5 -12.5t62.5 -3q96 0 175 16.5t136 32.5l-90 -288 q-61 -16 -143 -28.5t-170 -12.5q-238 0 -361 112.5t-123 315.5zM326 1112l36 287h216l-37 -287h-215zM403 528q41 2 79 9.5t68 22.5t47 39t17 58q0 35 -19.5 50.5t-51.5 15.5q-59 0 -94 -55.5t-46 -126.5v-13zM633 1112l37 287h215l-37 -287h-215z" />
<glyph unicode="&#xec;" horiz-adv-x="534" d="M45 170q0 12 1 26.5t3 30.5l94 740l377 20l-96 -792v-195q-37 -4 -77 -11t-103 -7q-109 0 -154 46t-45 142zM61 1167l113 238l457 -199l-113 -114z" />
<glyph unicode="&#xed;" horiz-adv-x="534" d="M45 170q0 12 1 26.5t3 30.5l94 740l377 20l-96 -792v-195q-37 -4 -77 -11t-103 -7q-109 0 -154 46t-45 142zM57 1206l504 199l53 -238l-473 -75z" />
<glyph unicode="&#xee;" horiz-adv-x="534" d="M25 1200l268 182q20 14 41.5 19.5t38.5 5.5q18 0 39.5 -5t38.5 -20l223 -182l-111 -113l-221 74l-238 -74zM43 170q0 12 1 26.5t3 30.5l94 740l377 20l-96 -792v-195q-37 -4 -77 -11t-103 -7q-109 0 -154 46t-45 142z" />
<glyph unicode="&#xef;" horiz-adv-x="534" d="M45 170q0 12 1 26.5t3 30.5l94 740l377 20l-96 -792v-195q-37 -4 -77 -11t-103 -7q-109 0 -154 46t-45 142zM76 1112l37 287h215l-37 -287h-215zM383 1112l37 287h215l-37 -287h-215z" />
<glyph unicode="&#xf0;" horiz-adv-x="972" d="M18 395q0 115 33 204t87.5 151.5t124 99.5t140.5 47l17 2l47 -20l4 10l-43 88l-188 -41l-17 227l103 23l-68 131l414 90l59 -135l174 39l17 -228l-103 -22q33 -84 60.5 -146.5t47 -121t30 -122t10.5 -147.5q0 -268 -143.5 -405t-391.5 -137q-102 0 -179 32.5t-129 88 t-79 131t-27 161.5zM397 412q0 -47 18.5 -82t59.5 -35q35 0 56.5 16.5t32.5 42t15.5 58t4.5 65.5q0 41 -15.5 79t-58.5 38q-68 0 -90.5 -52t-22.5 -130z" />
<glyph unicode="&#xf1;" horiz-adv-x="1013" d="M27 0l92 713v264q20 4 43 8q20 4 47 7t57 3q156 0 168 -135l4 -45h13q41 80 110.5 130t177.5 50q123 0 181.5 -66.5t58.5 -172.5v-37t-4 -37l-84 -682q-37 -4 -73 -11t-99 -7q-53 0 -88 11t-55.5 34.5t-28.5 59.5t-8 83q0 12 1 26.5t3 30.5l47 391q2 14 2 19.5v9.5 q0 43 -39 43q-41 0 -56.5 -36t-25.5 -113l-68 -541h-376zM250 1112l55 201q23 12 73 31.5t134 19.5q25 0 56.5 -5t66.5 -11.5t68.5 -11.5t62.5 -5q80 0 128 12.5t73 22.5l-56 -201q-23 -12 -74 -31.5t-130 -19.5q-25 0 -58 5t-67.5 11.5t-69.5 11.5t-61 5 q-80 0 -128.5 -13.5t-72.5 -21.5z" />
<glyph unicode="&#xf2;" horiz-adv-x="980" d="M18 391q0 133 36 245t104.5 191.5t170 123.5t232.5 44q213 0 313.5 -112.5t100.5 -298.5q0 -139 -36 -251t-106.5 -189.5t-173 -119.5t-237.5 -42q-106 0 -183 29.5t-126.5 82.5t-72 129t-22.5 168zM303 1167l113 238l456 -199l-112 -114zM408 395q0 -53 14 -78.5 t51 -25.5q53 0 76.5 51t34.5 145q2 20 4 42t2 44q0 55 -15.5 83t-54.5 28q-51 0 -73.5 -53t-32.5 -139q-6 -49 -6 -97z" />
<glyph unicode="&#xf3;" horiz-adv-x="980" d="M18 391q0 133 36 245t104.5 191.5t170 123.5t232.5 44q213 0 313.5 -112.5t100.5 -298.5q0 -139 -36 -251t-106.5 -189.5t-173 -119.5t-237.5 -42q-106 0 -183 29.5t-126.5 82.5t-72 129t-22.5 168zM309 1206l504 199l53 -238l-473 -75zM408 395q0 -53 14 -78.5t51 -25.5 q53 0 76.5 51t34.5 145q2 20 4 42t2 44q0 55 -15.5 83t-54.5 28q-51 0 -73.5 -53t-32.5 -139q-6 -49 -6 -97z" />
<glyph unicode="&#xf4;" horiz-adv-x="980" d="M18 391q0 133 36 245t104.5 191.5t170 123.5t232.5 44q213 0 313.5 -112.5t100.5 -298.5q0 -139 -36 -251t-106.5 -189.5t-173 -119.5t-237.5 -42q-106 0 -183 29.5t-126.5 82.5t-72 129t-22.5 168zM256 1196l268 182q20 14 42 19.5t38 5.5q18 0 40 -5t38 -20l223 -182 l-110 -113l-222 74l-237 -74zM408 395q0 -53 14 -78.5t51 -25.5q53 0 76.5 51t34.5 145q2 20 4 42t2 44q0 55 -15.5 83t-54.5 28q-51 0 -73.5 -53t-32.5 -139q-6 -49 -6 -97z" />
<glyph unicode="&#xf5;" horiz-adv-x="980" d="M18 391q0 133 36 245t104.5 191.5t170 123.5t232.5 44q213 0 313.5 -112.5t100.5 -298.5q0 -139 -36 -251t-106.5 -189.5t-173 -119.5t-237.5 -42q-106 0 -183 29.5t-126.5 82.5t-72 129t-22.5 168zM227 1112l56 201q23 12 73 31.5t133 19.5q25 0 57 -5t66.5 -11.5 t68.5 -11.5t62 -5q80 0 128.5 12.5t72.5 22.5l-55 -201q-23 -12 -74 -31.5t-131 -19.5q-25 0 -57.5 5t-67.5 11.5t-69.5 11.5t-61.5 5q-80 0 -128 -13.5t-73 -21.5zM408 395q0 -53 14 -78.5t51 -25.5q53 0 76.5 51t34.5 145q2 20 4 42t2 44q0 55 -15.5 83t-54.5 28 q-51 0 -73.5 -53t-32.5 -139q-6 -49 -6 -97z" />
<glyph unicode="&#xf6;" horiz-adv-x="980" d="M18 391q0 133 36 245t104.5 191.5t170 123.5t232.5 44q213 0 313.5 -112.5t100.5 -298.5q0 -139 -36 -251t-106.5 -189.5t-173 -119.5t-237.5 -42q-106 0 -183 29.5t-126.5 82.5t-72 129t-22.5 168zM309 1112l37 287h215l-37 -287h-215zM408 395q0 -53 14 -78.5t51 -25.5 q53 0 76.5 51t34.5 145q2 20 4 42t2 44q0 55 -15.5 83t-54.5 28q-51 0 -73.5 -53t-32.5 -139q-6 -49 -6 -97zM616 1112l37 287h215l-37 -287h-215z" />
<glyph unicode="&#xf7;" d="M102 461l29 231h797l-29 -231h-797zM291 219q0 90 58.5 143.5t148.5 53.5q74 0 116.5 -42t42.5 -110q0 -37 -13 -72.5t-38.5 -63.5t-62.5 -44t-84 -16q-80 0 -124 41t-44 110zM373 885q0 90 58 143t149 53q74 0 116.5 -42t42.5 -109q0 -80 -53 -138.5t-145 -58.5 q-80 0 -124 41t-44 111z" />
<glyph unicode="&#xf8;" horiz-adv-x="980" d="M20 391q0 133 36 245t104.5 191.5t170 123.5t232.5 44q86 0 160 -22l51 90h98l-69 -123q90 -51 132 -142t42 -214q0 -139 -36 -251t-106.5 -189.5t-173 -119.5t-237.5 -42q-86 0 -154 18l-47 -82h-98l65 117q-90 51 -130 142t-40 214zM410 420l145 256q-14 8 -33 8 q-51 0 -73.5 -53t-32.5 -139q-6 -37 -6 -72zM438 299q14 -8 37 -8q53 0 76.5 51t34.5 145q2 18 4 38t2 42z" />
<glyph unicode="&#xf9;" horiz-adv-x="1015" d="M49 221v36.5t4 37.5l84 682q37 4 73 11t99 7q106 0 143 -47t37 -141q0 -12 -1 -26.5t-3 -30.5l-47 -392q-2 -14 -2 -19v-9q0 -43 39 -43q41 0 56.5 35.5t25.5 113.5l68 541h376l-92 -713v-264q-20 -6 -43 -10q-20 -4 -47.5 -6t-56.5 -2q-156 0 -168 135l-4 45h-12 q-41 -80 -111 -130t-178 -50q-123 0 -181.5 66.5t-58.5 172.5zM326 1167l112 238l457 -199l-113 -114z" />
<glyph unicode="&#xfa;" horiz-adv-x="1015" d="M49 221v36.5t4 37.5l84 682q37 4 73 11t99 7q106 0 143 -47t37 -141q0 -12 -1 -26.5t-3 -30.5l-47 -392q-2 -14 -2 -19v-9q0 -43 39 -43q41 0 56.5 35.5t25.5 113.5l68 541h376l-92 -713v-264q-20 -6 -43 -10q-20 -4 -47.5 -6t-56.5 -2q-156 0 -168 135l-4 45h-12 q-41 -80 -111 -130t-178 -50q-123 0 -181.5 66.5t-58.5 172.5zM332 1206l504 199l53 -238l-473 -75z" />
<glyph unicode="&#xfb;" horiz-adv-x="1015" d="M49 221v36.5t4 37.5l84 682q37 4 73 11t99 7q106 0 143 -47t37 -141q0 -12 -1 -26.5t-3 -30.5l-47 -392q-2 -14 -2 -19v-9q0 -43 39 -43q41 0 56.5 35.5t25.5 113.5l68 541h376l-92 -713v-264q-20 -6 -43 -10q-20 -4 -47.5 -6t-56.5 -2q-156 0 -168 135l-4 45h-12 q-41 -80 -111 -130t-178 -50q-123 0 -181.5 66.5t-58.5 172.5zM285 1194l268 182q20 14 41.5 19.5t38.5 5.5q18 0 39.5 -5t38.5 -20l223 -182l-111 -113l-221 74l-237 -74z" />
<glyph unicode="&#xfc;" horiz-adv-x="1015" d="M49 221v36.5t4 37.5l84 682q37 4 73 11t99 7q106 0 143 -47t37 -141q0 -12 -1 -26.5t-3 -30.5l-47 -392q-2 -14 -2 -19v-9q0 -43 39 -43q41 0 56.5 35.5t25.5 113.5l68 541h376l-92 -713v-264q-20 -6 -43 -10q-20 -4 -47.5 -6t-56.5 -2q-156 0 -168 135l-4 45h-12 q-41 -80 -111 -130t-178 -50q-123 0 -181.5 66.5t-58.5 172.5zM328 1112l37 287h215l-37 -287h-215zM635 1112l37 287h215l-37 -287h-215z" />
<glyph unicode="&#xfd;" horiz-adv-x="993" d="M-39 -51q18 -4 42 -6t40 -2q102 0 169 42t107 119h-145l-104 865l411 20v-641l-8 -67h10q10 25 21.5 58.5t24 71t23.5 75.5t19 71q16 59 26.5 116.5t16.5 104.5l9 197q33 10 83 17t85 7q115 0 165 -41t50 -139q0 -72 -30 -171t-77 -210q-53 -129 -123.5 -253t-136.5 -218 q-68 -94 -132.5 -155.5t-133 -98.5t-145 -52t-167.5 -15q-29 0 -57.5 3t-42.5 5v297zM319 1206l504 199l54 -238l-474 -75z" />
<glyph unicode="&#xfe;" horiz-adv-x="999" d="M-27 -348l39 182l185 1536q23 4 68.5 9t105.5 5q94 0 137 -43t43 -118l-2 -39l-31 -264l8 -5q37 35 87.5 58.5t103.5 23.5q74 0 127 -26.5t87 -74.5t50 -113.5t16 -143.5q0 -141 -38.5 -261t-113.5 -208t-184.5 -138t-250.5 -50h-11l-39 -310zM418 276h16q45 0 79 30 t54.5 75t30.5 97t10 97q0 47 -12 71t-43 24t-50.5 -22.5t-31.5 -58.5t-20.5 -83t-14.5 -96z" />
<glyph unicode="&#xff;" horiz-adv-x="993" d="M-39 -51q18 -4 42 -6t40 -2q102 0 169 42t107 119h-145l-104 865l411 20v-641l-8 -67h10q10 25 21.5 58.5t24 71t23.5 75.5t19 71q16 59 26.5 116.5t16.5 104.5l9 197q33 10 83 17t85 7q115 0 165 -41t50 -139q0 -72 -30 -171t-77 -210q-53 -129 -123.5 -253t-136.5 -218 q-68 -94 -132.5 -155.5t-133 -98.5t-145 -52t-167.5 -15q-29 0 -57.5 3t-42.5 5v297zM328 1112l37 287h215l-37 -287h-215zM635 1112l37 287h215l-37 -287h-215z" />
<glyph unicode="&#x152;" horiz-adv-x="1597" d="M33 514q0 188 47 334.5t137 246t219 150.5t293 51h916l-43 -354h-455l-17 -141h424l-38 -314h-422l-19 -151h481l-43 -336h-985q-256 0 -375.5 136t-119.5 378zM479 526q0 -84 25.5 -131t95.5 -47h47l86 602h-31q-63 0 -106 -35.5t-68.5 -94t-37 -135.5t-11.5 -159z" />
<glyph unicode="&#x153;" horiz-adv-x="1466" d="M18 381q0 135 34 247.5t101.5 194.5t169 127t234.5 45q76 0 146.5 -20.5t119.5 -59.5h17q53 29 125.5 54.5t171.5 25.5q70 0 131 -20.5t106 -57t70.5 -88t25.5 -112.5q0 -90 -40.5 -152.5t-108.5 -103.5t-157 -63.5t-185 -30.5l-66 -7q4 -35 22.5 -54t45.5 -28.5 t57.5 -12.5t61.5 -3q96 0 175 16.5t136 32.5l-90 -288q-61 -16 -143 -28.5t-170 -12.5q-86 0 -167 19t-128 65h-13q-59 -37 -128.5 -60.5t-151.5 -23.5q-104 0 -180 28.5t-125 80.5t-73 126t-24 164zM408 397q0 -47 15 -76.5t52 -29.5q55 0 79 54t34 140q4 25 4 49.5v53.5 q0 43 -15.5 69.5t-52.5 26.5q-29 0 -48 -17.5t-31.5 -45t-19.5 -63.5t-13 -73q-4 -23 -4 -44v-44zM913 528q41 2 79 9.5t68 22.5t47 39t17 58q0 35 -19.5 50.5t-51.5 15.5q-59 0 -94 -55.5t-46 -126.5v-13z" />
<glyph unicode="&#x178;" horiz-adv-x="1091" d="M104 1296h437l30 -452l-6 -82h10l17 82l78 256l37 196h487l-449 -870l-51 -426h-436l49 426zM393 1380l37 287h215l-37 -287h-215zM700 1380l37 287h215l-37 -287h-215z" />
<glyph unicode="&#x2c6;" horiz-adv-x="983" d="M260 1186l268 182q20 14 42 19.5t38 5.5q18 0 40 -5.5t38 -19.5l223 -182l-110 -113l-221 74l-238 -74z" />
<glyph unicode="&#x2dc;" horiz-adv-x="983" d="M233 1112l56 201q23 12 73 31.5t134 19.5q25 0 56.5 -5t66 -11.5t68.5 -11.5t63 -5q80 0 128 12.5t72 22.5l-55 -201q-23 -12 -74 -31.5t-131 -19.5q-25 0 -57.5 5t-67.5 11.5t-69.5 11.5t-61.5 5q-80 0 -128 -13.5t-73 -21.5z" />
<glyph unicode="&#x2000;" horiz-adv-x="850" />
<glyph unicode="&#x2001;" horiz-adv-x="1700" />
<glyph unicode="&#x2002;" horiz-adv-x="850" />
<glyph unicode="&#x2003;" horiz-adv-x="1700" />
<glyph unicode="&#x2004;" horiz-adv-x="566" />
<glyph unicode="&#x2005;" horiz-adv-x="425" />
<glyph unicode="&#x2006;" horiz-adv-x="283" />
<glyph unicode="&#x2007;" horiz-adv-x="283" />
<glyph unicode="&#x2008;" horiz-adv-x="212" />
<glyph unicode="&#x2009;" horiz-adv-x="340" />
<glyph unicode="&#x200a;" horiz-adv-x="94" />
<glyph unicode="&#x2010;" horiz-adv-x="593" d="M39 377l27 231h526l-29 -231h-524z" />
<glyph unicode="&#x2011;" horiz-adv-x="593" d="M39 377l27 231h526l-29 -231h-524z" />
<glyph unicode="&#x2012;" horiz-adv-x="593" d="M39 377l27 231h526l-29 -231h-524z" />
<glyph unicode="&#x2013;" horiz-adv-x="1028" d="M-10 381l28 231h1024l-28 -231h-1024z" />
<glyph unicode="&#x2014;" horiz-adv-x="2048" d="M-12 381l28 231h2048l-28 -231h-2048z" />
<glyph unicode="&#x2018;" horiz-adv-x="419" d="M104 1073q0 70 32 120t67 91l98 125l133 -16l-53 -150q31 -8 60.5 -38.5t29.5 -86.5q0 -41 -14.5 -76.5t-40 -64.5t-63.5 -45.5t-85 -16.5q-72 0 -118 41t-46 117z" />
<glyph unicode="&#x2019;" horiz-adv-x="419" d="M104 1108q0 39 14.5 76t40 65.5t63.5 45t85 16.5q72 0 118 -41t46 -117q0 -70 -31.5 -120t-66.5 -91l-99 -125l-133 17l54 149q-31 8 -61 39t-30 86z" />
<glyph unicode="&#x201a;" horiz-adv-x="419" d="M-6 127q0 39 14.5 76t40 65.5t63.5 45t85 16.5q72 0 117.5 -41t45.5 -117q0 -70 -31.5 -120t-66.5 -91l-98 -125l-133 17l53 149q-31 8 -60.5 39t-29.5 86z" />
<glyph unicode="&#x201c;" horiz-adv-x="839" d="M109 1071q0 70 31.5 120t66.5 91l98 125l133 -16l-53 -150q31 -8 60.5 -39t29.5 -86q0 -80 -51 -141.5t-145 -61.5q-72 0 -121 41t-49 117zM526 1071q0 70 32 120t67 91l98 125l133 -16l-53 -150q31 -8 60.5 -39t29.5 -86q0 -80 -51 -141.5t-146 -61.5q-72 0 -121 41 t-49 117z" />
<glyph unicode="&#x201d;" horiz-adv-x="839" d="M109 1108q0 39 14 76t39.5 65.5t63.5 45t85 16.5q72 0 118 -41t46 -117q0 -70 -31.5 -120t-66.5 -91l-98 -125l-134 17l54 149q-31 8 -60.5 39t-29.5 86zM528 1108q0 39 14.5 76t40 65.5t63.5 45t85 16.5q72 0 118 -41t46 -117q0 -70 -32 -120t-66 -91l-99 -125l-133 17 l53 149q-31 8 -60.5 39t-29.5 86z" />
<glyph unicode="&#x201e;" horiz-adv-x="839" d="M-6 127q0 39 14.5 76t40 65.5t63.5 45t85 16.5q72 0 117.5 -41t45.5 -117q0 -70 -31.5 -120t-66.5 -91l-98 -125l-133 17l53 149q-31 8 -60.5 39t-29.5 86zM414 127q0 39 14 76t40 65.5t63.5 45t84.5 16.5q72 0 118 -41t46 -117q0 -70 -31.5 -120t-66.5 -91l-98 -125 l-133 17l53 149q-31 8 -60.5 39t-29.5 86z" />
<glyph unicode="&#x2022;" horiz-adv-x="528" d="M39 547q0 115 71.5 182.5t188.5 67.5q96 0 155.5 -57.5t59.5 -149.5q0 -104 -66.5 -176t-183.5 -72q-100 0 -162.5 57.5t-62.5 147.5z" />
<glyph unicode="&#x2026;" horiz-adv-x="1257" d="M-6 137q0 90 53 141.5t143 51.5q74 0 122 -44t48 -112q0 -80 -48 -136t-140 -56q-80 0 -129 43t-49 112zM412 137q0 90 53 141.5t143 51.5q74 0 122 -44t48 -112q0 -80 -48 -136t-140 -56q-80 0 -129 43t-49 112zM831 137q0 90 53.5 141.5t143.5 51.5q74 0 122 -44 t48 -112q0 -80 -48 -136t-140 -56q-80 0 -129.5 43t-49.5 112z" />
<glyph unicode="&#x202f;" horiz-adv-x="340" />
<glyph unicode="&#x2039;" horiz-adv-x="632" d="M29 553l485 485l148 -172l-322 -313l248 -315l-197 -170z" />
<glyph unicode="&#x203a;" horiz-adv-x="632" d="M-4 238l323 315l-249 313l194 172l369 -485l-488 -485z" />
<glyph unicode="&#x2044;" horiz-adv-x="264" d="M-256 0l702 1190h177l-703 -1190h-176z" />
<glyph unicode="&#x205f;" horiz-adv-x="425" />
<glyph unicode="&#x2070;" horiz-adv-x="575" d="M72 829q0 174 76.5 272.5t224.5 98.5q121 0 177 -64.5t56 -174.5q0 -174 -78.5 -273.5t-232.5 -99.5q-119 0 -171 65t-52 176zM283 836q0 -33 8 -53.5t33 -20.5q20 0 33.5 18.5t21.5 47t11 62.5t3 64q0 31 -8 50.5t-33 19.5q-20 0 -33.5 -17.5t-21.5 -45t-11 -60 t-3 -65.5z" />
<glyph unicode="&#x2074;" horiz-adv-x="544" d="M43 690l20 176l230 324h268l-41 -338h58l-19 -162h-59l-13 -94h-202l12 94h-254zM221 852h98l19 143l16 33q-2 0 -3 1t-3 1l-100 -156l-27 -14v-8z" />
<glyph unicode="&#x2075;" horiz-adv-x="514" d="M68 604v180q20 -8 45 -14q23 -4 49 -8t61 -4q92 0 92 49q0 23 -30.5 39t-120.5 16h-64l41 328h402l-23 -186l-92 12h-111l-2 -35q39 -2 78 -12.5t67.5 -30.5t47 -52t18.5 -77q0 -63 -26.5 -106.5t-69.5 -70t-97 -37.5t-110 -11q-47 0 -84 5t-71 15z" />
<glyph unicode="&#x2076;" horiz-adv-x="559" d="M70 840q0 166 88 263t264 97q41 0 83 -6t64 -10v-170q-25 6 -59.5 12t-73.5 6q-55 0 -89 -15.5t-44 -53.5h16q113 0 186 -39t73 -129q0 -96 -70 -152.5t-195 -56.5q-123 0 -183 70.5t-60 183.5zM274 817q0 -31 12.5 -50t39.5 -19q23 0 36 14t13 37q0 31 -26.5 42 t-57.5 11h-12q-2 -10 -3.5 -18.5t-1.5 -16.5z" />
<glyph unicode="&#x2077;" horiz-adv-x="512" d="M82 1004l20 186h473l-18 -172q-57 -45 -95 -100.5t-61.5 -111.5t-36 -109.5t-16.5 -92.5v-8h-217v8q6 53 23.5 107.5t43 106.5t57.5 98.5t69 82.5l36 13l-2 6h-184z" />
<glyph unicode="&#x2078;" horiz-adv-x="561" d="M53 737q0 53 29 88t76 58v8q-23 10 -42.5 41t-19.5 67q0 57 24.5 96.5t64.5 62t88.5 32.5t95.5 10q43 0 86 -9t76.5 -27.5t55 -48.5t21.5 -71q0 -55 -27.5 -86.5t-62.5 -48.5v-8q27 -23 44.5 -49.5t17.5 -69.5q0 -55 -26 -93t-65.5 -61.5t-91 -33.5t-102.5 -10 q-45 0 -89 9t-78 27.5t-54.5 47t-20.5 69.5zM240 780q0 -20 19.5 -28.5t43.5 -8.5q29 0 47.5 11.5t18.5 33.5q0 18 -15.5 27.5t-44.5 18.5l-18 4q-51 -20 -51 -58zM303 1008q0 -33 59 -45l19 -5q16 8 28.5 20.5t14.5 27.5q0 23 -17.5 32t-41.5 9q-23 0 -42.5 -8.5 t-19.5 -30.5z" />
<glyph unicode="&#x2079;" horiz-adv-x="561" d="M86 991q0 96 69.5 152.5t194.5 56.5q123 0 183.5 -70.5t60.5 -183.5q0 -166 -88 -263t-264 -97q-41 0 -83 6t-65 10v170q25 -6 59.5 -12t73.5 -6q55 0 89 15t44 54h-16q-113 0 -185.5 39t-72.5 129zM289 987q0 -31 26.5 -42t57.5 -11h12q2 10 3 18.5t1 16.5q0 31 -12 50 t-39 19q-23 0 -36 -14t-13 -37z" />
<glyph unicode="&#x207d;" horiz-adv-x="278" d="M82 817q0 45 6 88q14 113 63.5 228.5t114.5 199.5l90 -71q-53 -72 -94 -194t-41 -269q0 -78 12.5 -141.5t34.5 -108.5l-110 -70q-35 66 -55.5 156t-20.5 182z" />
<glyph unicode="&#x207e;" horiz-adv-x="278" d="M29 549q49 72 91 193.5t42 265.5q0 80 -13.5 144.5t-33.5 109.5l106 71q37 -68 58.5 -158t21.5 -184v-43t-4 -43q-6 -55 -22.5 -113.5t-40 -113.5t-52 -106.5t-61.5 -92.5z" />
<glyph unicode="&#x207f;" horiz-adv-x="622" d="M63 594l60 477v119q16 2 40.5 6t47.5 4q59 0 81.5 -24.5t26.5 -61.5h9q27 31 68.5 58.5t101.5 27.5q74 0 109.5 -40t35.5 -105v-23.5t-2 -21.5l-51 -416q-23 -4 -44.5 -7t-60.5 -3q-66 0 -88 27.5t-22 86.5q0 8 1 16.5t1 18.5l29 238q2 10 2 18q0 25 -25 25 q-23 0 -33 -21.5t-16 -68.5l-41 -330h-230z" />
<glyph unicode="&#x20ac;" d="M4 326l64 178h67v8q0 14 1 33.5t5 34.5h-106l63 178h90q66 158 206.5 251t338.5 93q100 0 178 -15.5t115 -27.5l-78 -256q-31 10 -69.5 15t-71.5 5q-72 0 -120 -17.5t-83 -47.5h266l-63 -178h-287q-2 -6 -4 -15q-4 -16 -4 -28q-2 -8 -2 -23v-10h330l-66 -178h-233 q23 -29 61.5 -46.5t104.5 -17.5q47 0 103 11.5t97 33.5l25 -250q-47 -27 -131 -51t-197 -24q-170 0 -295 87t-164 257h-141z" />
<glyph unicode="&#x2122;" horiz-adv-x="1013" d="M117 1249l18 154h619v-270l-4 -37h8l6 37l72 270h254l-19 -90l-51 -457h-182l63 346l8 27h-8l-115 -373h-129l-6 371h-8v-25l-39 -346h-188l26 92l47 301h-96l-47 -391h-176l16 92l37 299h-106z" />
<glyph unicode="&#x2153;" horiz-adv-x="1226" d="M61 596l21 160h127l31 223l-7 2l-18 -31q-14 -10 -48 -19t-56 -13l-11 169q41 6 98.5 34t94.5 69h174l-59 -434h118l-20 -160h-445zM129 0l807 1190h180l-807 -1190h-180zM686 16v172q18 -6 65.5 -17t112.5 -11q35 0 61.5 9t26.5 36q0 23 -23.5 29t-62.5 6h-90l15 116h92 q37 0 64.5 10.5t27.5 39.5q0 20 -22.5 28t-63.5 8t-91 -7t-83 -17l49 174q35 8 82 13t94 5q49 0 95 -9t81 -29.5t55.5 -51.5t20.5 -76q0 -49 -25.5 -80.5t-68.5 -52.5l-2 -8q23 -10 48 -41t25 -78q0 -59 -28.5 -96t-73.5 -58.5t-101.5 -29.5t-111.5 -8q-47 0 -93 7t-75 17z " />
<glyph unicode="&#x2154;" horiz-adv-x="1269" d="M43 592l18 164q96 47 152.5 80.5t85.5 58.5t37 42t8 36q0 29 -26.5 42t-69.5 13q-53 0 -95 -10t-71 -21l59 185q20 4 65.5 11t104.5 7q49 0 94.5 -11t80 -35t55 -58.5t20.5 -79.5v-15.5t-2 -15.5q-8 -66 -48 -114t-132 -95l4 -8h82l94 10l-20 -186h-496zM176 0l807 1190 h180l-807 -1190h-180zM729 16v172q18 -6 65.5 -17t112.5 -11q35 0 61.5 9t26.5 36q0 23 -23.5 29t-62.5 6h-90l15 116h92q37 0 64.5 10.5t27.5 39.5q0 20 -22.5 28t-63.5 8t-91 -7t-83 -17l49 174q35 8 82 13t94 5q49 0 95 -9t81 -29.5t55.5 -51.5t20.5 -76 q0 -49 -25.5 -80.5t-68.5 -52.5l-2 -8q23 -10 48 -41t25 -78q0 -59 -28.5 -96t-73.5 -58.5t-101.5 -29.5t-111.5 -8q-47 0 -93 7t-75 17z" />
<glyph unicode="&#x215b;" horiz-adv-x="1218" d="M61 596l21 160h127l31 223l-7 2l-18 -31q-14 -10 -45 -19t-53 -13l-17 169q41 6 98.5 34t94.5 69h174l-59 -434h118l-20 -160h-445zM129 0l807 1192h180l-807 -1192h-180zM633 143q0 53 28.5 88t75.5 58v8q-23 10 -42 41t-19 68q0 57 24.5 96t64.5 61.5t88 32.5t95 10 q43 0 86 -9t77 -27.5t55.5 -48t21.5 -70.5q0 -55 -27.5 -87t-62.5 -49v-8q27 -23 44 -49.5t17 -69.5q0 -55 -25.5 -93t-65.5 -61.5t-91 -33.5t-103 -10q-45 0 -89 9t-77.5 27.5t-54 47t-20.5 69.5zM819 186q0 -20 19.5 -28t44.5 -8q29 0 47 11t18 34q0 18 -15 27t-44 18 l-19 4q-51 -20 -51 -58zM883 414q0 -33 59 -45l19 -4q16 8 28 20t15 27q0 23 -17.5 32t-42.5 9q-23 0 -42 -8.5t-19 -30.5z" />
<glyph unicode="&#x215c;" horiz-adv-x="1200" d="M61 606v172q18 -6 65.5 -17t113.5 -11q35 0 61.5 9t26.5 36q0 23 -23.5 28.5t-62.5 5.5h-90l14 117h92q37 0 64.5 10.5t27.5 38.5q0 20 -22.5 28.5t-63.5 8.5t-91 -7t-83 -17l49 174q35 8 82 13t94 5q49 0 95.5 -9t81 -29.5t55 -51.5t20.5 -76q0 -49 -25.5 -80.5 t-68.5 -52.5l-2 -8q23 -10 48.5 -41t25.5 -78q0 -59 -29 -96t-74 -58.5t-101 -29.5t-112 -8q-47 0 -93 7t-75 17zM111 0l807 1190h178l-807 -1190h-178zM614 143q0 53 29 88t76 58v8q-23 10 -42.5 41t-19.5 68q0 57 25 96t64.5 61.5t88 32.5t95.5 10q43 0 86 -9t76.5 -27.5 t55 -48t21.5 -70.5q0 -55 -27.5 -87t-62.5 -49v-8q27 -23 44.5 -49.5t17.5 -69.5q0 -55 -25.5 -93t-65.5 -61.5t-91.5 -33.5t-102.5 -10q-45 0 -89 9t-78 27.5t-54.5 47t-20.5 69.5zM801 186q0 -20 19.5 -28t43.5 -8q29 0 47.5 11t18.5 34q0 18 -15.5 27t-44.5 18l-18 4 q-51 -20 -51 -58zM864 414q0 -33 60 -45l18 -4q16 8 28.5 20t14.5 27q0 23 -17.5 32t-41.5 9q-23 0 -42.5 -8.5t-19.5 -30.5z" />
<glyph unicode="&#x215d;" horiz-adv-x="1196" d="M63 604v180q20 -8 46 -14q23 -4 49 -8t61 -4q92 0 92 49q0 23 -30.5 39t-120.5 16h-64l41 328h402l-23 -186l-92 12h-111l-2 -35q39 -2 78 -12.5t67.5 -30.5t47 -52t18.5 -77q0 -63 -26.5 -106.5t-69.5 -70t-97.5 -37.5t-109.5 -11q-47 0 -84 5t-72 15zM90 0l807 1190 h178l-807 -1190h-178zM610 143q0 53 29 88t76 58v8q-23 10 -42.5 41t-19.5 68q0 57 24.5 96t64.5 61.5t88.5 32.5t95.5 10q43 0 86 -9t76.5 -27.5t55 -48t21.5 -70.5q0 -55 -27.5 -87t-62.5 -49v-8q27 -23 44.5 -49.5t17.5 -69.5q0 -55 -26 -93t-65.5 -61.5t-91 -33.5 t-102.5 -10q-45 0 -89 9t-78 27.5t-54.5 47t-20.5 69.5zM797 186q0 -20 19.5 -28t43.5 -8q29 0 47.5 11t18.5 34q0 18 -15.5 27t-44.5 18l-18 4q-51 -20 -51 -58zM860 414q0 -33 60 -45l18 -4q16 8 28.5 20t14.5 27q0 23 -17.5 32t-41.5 9q-23 0 -42.5 -8.5t-19.5 -30.5z " />
<glyph unicode="&#x215e;" horiz-adv-x="1136" d="M20 0l803 1192h181l-807 -1192h-177zM88 1004l21 186h473l-19 -172q-57 -45 -95 -100.5t-61.5 -111.5t-36 -109.5t-16.5 -92.5v-8h-217v8q6 53 23.5 107.5t43 106.5t57.5 98.5t69 82.5l37 13l-2 6h-185zM551 143q0 53 28.5 88t75.5 58v8q-23 10 -42 41t-19 68 q0 57 24.5 96t64.5 61.5t88 32.5t95 10q43 0 86 -9t77 -27.5t55.5 -48t21.5 -70.5q0 -55 -27.5 -87t-62.5 -49v-8q27 -23 44 -49.5t17 -69.5q0 -55 -25.5 -93t-65.5 -61.5t-91 -33.5t-102 -10q-45 0 -89.5 9t-78 27.5t-54 47t-20.5 69.5zM737 186q0 -20 19.5 -28t44.5 -8 q29 0 47 11t18 34q0 18 -15 27t-44 18l-19 4q-51 -20 -51 -58zM801 414q0 -33 59 -45l19 -4q16 8 28.5 20t14.5 27q0 23 -17.5 32t-42.5 9q-23 0 -42 -8.5t-19 -30.5z" />
<glyph unicode="&#x2160;" horiz-adv-x="589" d="M-59 0l12 88h94l19 98l98 809h-103l11 88h602l-10 -88h-105l-110 -907h104l-12 -88h-600z" />
<glyph unicode="&#x2164;" horiz-adv-x="1095" d="M-59 0l12 88h244l-72 907h-64l11 88h1108l-11 -88h-69l-297 -907h256l-12 -88h-1106zM518 295h12l13 74l127 528l12 98h-160v-626z" />
<glyph unicode="&#x2169;" horiz-adv-x="1067" d="M-59 0l12 88h33l266 467l-137 440h-54l11 88h1079l-10 -88h-60l-241 -440l151 -467h39l-12 -88h-1077zM418 88h145l-39 201v51h-10l-10 -51l-58 -121zM528 995l33 -209v-63h10l17 63l47 125l22 84h-129z" />
<glyph unicode="&#x216c;" horiz-adv-x="800" d="M-59 0l12 88h94l19 98l98 809h-103l11 88h813l-11 -88h-315l-84 -678h260l-26 -229h55l-12 -88h-811z" />
<glyph unicode="&#x216d;" horiz-adv-x="956" d="M-59 0l12 88h235q-61 51 -109 149.5t-48 233.5q0 96 22.5 176t61.5 144.5t90 115.5t106 88h-250l11 88h968l-10 -88h-88l-92 -272q-29 18 -74 33.5t-98 15.5q-49 0 -94 -17.5t-78 -51t-52.5 -84t-19.5 -113.5q0 -86 51.5 -140.5t141.5 -54.5q137 0 213 115l32 -338h48 l-13 -88h-966z" />
<glyph unicode="&#x216e;" horiz-adv-x="1144" d="M-59 0l12 88h141l19 98l96 809h-148l11 88h1181l-10 -88h-268q154 -111 153 -354q0 -199 -64.5 -338t-186.5 -215h256l-13 -88h-1179zM522 307h10q47 0 84 15.5t61.5 51.5t38 96t13.5 155q0 86 -32.5 117.5t-108.5 31.5h-10z" />
<glyph unicode="&#x216f;" horiz-adv-x="1476" d="M-59 0l12 88h43l29 98l145 809h-109l11 88h1489l-11 -88h-102l-16 -98l-50 -809h58l-13 -88h-1486zM391 88h148l-37 596v53h-10zM733 449h12l9 59l129 487h-144v-487zM852 88h145l60 647h-10l-11 -47z" />
<glyph unicode="&#x25fc;" horiz-adv-x="993" d="M0 0v993h993v-993h-993z" />
<glyph horiz-adv-x="2093" d="M33 559q0 168 49 306.5t139 238.5t217 155.5t281 55.5q121 0 206 -15.5t132 -27.5l-127 -350q-25 10 -65 21t-91 11q-78 0 -132 -26.5t-89 -74.5t-51.5 -111.5t-16.5 -137.5q0 -141 76 -200.5t223 -59.5q63 0 120 9t114 24l108 919h408l-53 -460h147l53 460h439l-41 -200 l-129 -1096h-422l57 492h-145l-51 -410q-154 -35 -328 -67.5t-373 -32.5q-145 0 -266 35.5t-207 107.5t-134 180.5t-48 253.5z" />
<glyph horiz-adv-x="1959" d="M33 559q0 168 49 306.5t139 238.5t217 155.5t281 55.5q121 0 206 -15.5t132 -27.5l-127 -350q-25 10 -65 21t-91 11q-78 0 -132 -26.5t-89 -74.5t-51.5 -111.5t-16.5 -137.5q0 -141 76 -200.5t223 -59.5q63 0 116.5 8t111.5 23l118 997l394 17l-33 -175l-37 -315h12 q29 35 93.5 66.5t136.5 31.5q119 0 174 -65.5t55 -179.5q0 -16 -1 -35t-3 -35l-80 -682h-385l76 635q0 45 -41 45q-39 0 -53.5 -33t-22.5 -92l-57 -481q-80 -18 -157 -34.5t-157.5 -29t-169 -20.5t-186.5 -8q-145 0 -266 35.5t-207 107.5t-134 180.5t-48 253.5z" />
<glyph horiz-adv-x="1802" d="M18 436q0 125 43 227.5t120 176t182.5 114.5t228.5 41q88 0 158.5 -11t101.5 -19l-109 -306q-18 10 -52 19.5t-77 9.5q-57 0 -96 -20.5t-63.5 -51t-34.5 -68.5t-10 -73q0 -86 53 -135t153 -49q66 0 128.5 9t103.5 22l129 1050l397 14l-37 -169l-41 -326h13q33 35 92 70.5 t131 35.5q119 0 177 -65.5t58 -179.5v-33t-4 -37l-80 -682q-29 -6 -73.5 -12t-87.5 -6q-109 0 -155 46t-46 142q0 12 1 26.5t3 30.5l51 414q0 20 -10 33.5t-33 13.5q-39 0 -52 -35t-21 -96l-62 -491q-123 -27 -298 -55.5t-372 -28.5q-113 0 -206 29.5t-160.5 87 t-105.5 142.5t-38 195z" />
<glyph horiz-adv-x="2000" d="M33 559q0 168 49 306.5t139 238.5t217 155.5t281 55.5q121 0 206 -15.5t132 -27.5l-127 -350q-25 10 -65 21t-91 11q-78 0 -132 -26.5t-89 -74.5t-51.5 -111.5t-16.5 -137.5q0 -141 76 -200.5t223 -59.5q63 0 115.5 7t110.5 22l84 710h393l-47 -403h131l47 403h410 l-37 -188l-105 -895h-395l47 412h-131l-39 -336q-158 -35 -319.5 -64.5t-360.5 -29.5q-145 0 -266 35.5t-207 107.5t-134 180.5t-48 253.5z" />
<glyph horiz-adv-x="1878" d="M33 469q0 150 47 267.5t131 199.5t196.5 124t245.5 42q92 0 160 -11.5t109 -21.5l-119 -336q-31 10 -62.5 18.5t-78.5 8.5q-109 0 -165.5 -68.5t-56.5 -173.5q0 -111 65.5 -163t172.5 -52q74 0 122 8t81 19l90 753h395l-47 -403h131l47 403h408l-37 -188l-105 -895h-393 l47 412h-131l-39 -336q-45 -12 -112.5 -27.5t-152.5 -30t-185.5 -24.5t-206.5 -10q-121 0 -223.5 30.5t-176 92t-115.5 151.5t-42 211z" />
<glyph horiz-adv-x="1069" d="M-43 0l391 1083h588l82 -1083h-436l18 143v33h-186l-45 -176h-412zM485 451h127l-4 329l6 70h-14l-14 -70z" />
<glyph horiz-adv-x="1069" d="M-43 0l391 1083h588l82 -1083h-436l18 143v33h-186l-45 -176h-412zM326 1290l503 199l54 -238l-473 -75zM485 451h127l-4 329l6 70h-14l-14 -70z" />
<glyph horiz-adv-x="1069" d="M-43 0l391 1083h588l82 -1083h-436l18 143v33h-186l-45 -176h-412zM332 1284l268 182q20 14 42 19.5t38 5.5q18 0 39.5 -5t38.5 -20l223 -182l-111 -113l-221 74l-237 -74zM485 451h127l-4 329l6 70h-14l-14 -70z" />
<glyph horiz-adv-x="1069" d="M-43 0l391 1083h588l82 -1083h-436l18 143v33h-186l-45 -176h-412zM391 1202l37 287h215l-37 -287h-215zM485 451h127l-4 329l6 70h-14l-14 -70zM698 1202l37 287h215l-37 -287h-215z" />
<glyph horiz-adv-x="1355" d="M-49 0l393 1083h997v-297h-380v-129h337v-215h-340v-143h365v-299h-762l29 147v29h-193l-49 -176h-397zM477 451h129l25 395h-41z" />
<glyph horiz-adv-x="1069" d="M-43 0l391 1083h588l82 -1083h-436l18 143v33h-186l-45 -176h-412zM381 1251l113 238l456 -199l-112 -114zM485 451h127l-4 329l6 70h-14l-14 -70z" />
<glyph horiz-adv-x="1069" d="M-43 0l391 1083h588l82 -1083h-436l18 143v33h-186l-45 -176h-412zM426 1300q0 90 62.5 148.5t189.5 58.5q111 0 167 -48t56 -118q0 -92 -62.5 -145t-191.5 -53q-111 0 -166 46t-55 111zM485 451h127l-4 329l6 70h-14l-14 -70zM623 1313q0 -12 6 -22.5t26 -10.5 q45 0 45 55q0 14 -6 24.5t-28 10.5q-25 0 -34 -18.5t-9 -38.5z" />
<glyph horiz-adv-x="1069" d="M-43 0l391 1083h588l82 -1083h-436l18 143v33h-186l-45 -176h-412zM309 1212l56 201q23 12 72.5 31.5t133.5 19.5q25 0 56.5 -5t66.5 -11t69 -11t62 -5q80 0 128 12t73 22l-55 -200q-23 -12 -74 -32t-131 -20q-25 0 -57.5 5.5t-67.5 11.5t-69.5 11t-61.5 5 q-80 0 -128 -13t-73 -22zM485 451h127l-4 329l6 70h-14l-14 -70z" />
<glyph horiz-adv-x="1036" d="M27 0l34 186l107 897h553q72 0 132 -14t105.5 -45t70 -79t24.5 -116q0 -51 -14.5 -94t-37 -76.5t-50 -57t-56.5 -34.5l-2 -8q49 -25 84 -77t35 -136q0 -160 -101.5 -253t-281.5 -93h-602zM457 291h69q47 0 75 23.5t28 74.5q0 41 -23.5 58.5t-62.5 17.5h-68zM496 643h82 q41 0 59 26.5t18 57.5q0 35 -14 54.5t-55 19.5h-74z" />
<glyph horiz-adv-x="884" d="M33 446q0 156 46 278t129 206t197.5 128t249.5 44q111 0 188 -16.5t111 -26.5l-116 -334q-29 12 -68 24.5t-98 12.5q-109 0 -170.5 -76t-61.5 -186q0 -82 50.5 -135.5t138.5 -53.5q59 0 122.5 25.5t102.5 71.5v-342q-61 -39 -148.5 -61.5t-197.5 -22.5 q-102 0 -188.5 30.5t-151 89t-100 145.5t-35.5 199z" />
<glyph horiz-adv-x="884" d="M33 446q0 156 46 278t129 206t197.5 128t249.5 44q111 0 188 -16.5t111 -26.5l-116 -334q-29 12 -68 24.5t-98 12.5q-109 0 -170.5 -76t-61.5 -186q0 -82 50.5 -135.5t138.5 -53.5q59 0 122.5 25.5t102.5 71.5v-342q-59 -37 -138 -58.5t-179 -25.5l-5 -27q59 0 93 -34 t34 -85q0 -90 -68.5 -139t-172.5 -49q-66 0 -110 8t-54 12l41 135q18 -4 41.5 -6t42.5 -2q29 0 51.5 7.5t22.5 29.5q0 14 -17.5 18.5t-40.5 4.5q-16 0 -38.5 -3.5t-30.5 -5.5l47 152q-152 35 -246 147.5t-94 300.5z" />
<glyph horiz-adv-x="1062" d="M27 0l34 186l107 897h416q238 0 365.5 -107.5t127.5 -334.5q0 -313 -156.5 -477t-437.5 -164h-456zM471 307h10q47 0 84 15.5t61.5 51.5t38 96t13.5 155q0 86 -33 117.5t-108 31.5h-11z" />
<glyph horiz-adv-x="946" d="M27 0l36 184l105 899h809l-35 -297h-412l-16 -127h385l-27 -217h-385l-18 -143h428l-33 -299h-837z" />
<glyph horiz-adv-x="946" d="M27 0l36 184l105 899h809l-35 -297h-412l-16 -127h385l-27 -217h-385l-18 -143h428l-33 -299h-837zM301 1294l479 199l84 -238l-465 -75z" />
<glyph horiz-adv-x="946" d="M27 0l36 184l105 899h809l-35 -297h-412l-16 -127h385l-27 -217h-385l-18 -143h428l-33 -299h-837zM274 1272l269 182q20 14 41.5 19.5t38.5 5.5q18 0 39.5 -5.5t37.5 -19.5l224 -182l-111 -113l-221 74l-238 -74z" />
<glyph horiz-adv-x="946" d="M27 0l36 184l105 899h809l-35 -297h-412l-16 -127h385l-27 -217h-385l-18 -143h428l-33 -299h-837zM340 1200l37 287h215l-37 -287h-215zM647 1200l37 287h215l-37 -287h-215z" />
<glyph horiz-adv-x="946" d="M27 0l36 184l105 899h809l-35 -297h-412l-16 -127h385l-27 -217h-385l-18 -143h428l-33 -299h-837zM326 1251l112 238l457 -199l-113 -114z" />
<glyph horiz-adv-x="1062" d="M-6 563l123 27l57 493h412q250 0 370.5 -118.5t120.5 -343.5q0 -158 -40 -274t-116.5 -193.5t-187 -115.5t-250.5 -38h-454l37 186l18 164l-70 -14zM471 307h8q47 0 85 14.5t63.5 51.5t39 98t13.5 158q0 82 -34 113.5t-105 31.5h-15l-12 -100l59 12l21 -225l-107 -23z " />
<glyph horiz-adv-x="903" d="M27 0l34 184l107 899h778l-33 -284h-385l-16 -154h354l-30 -262h-357l-43 -383h-409z" />
<glyph horiz-adv-x="1011" d="M33 428q0 328 171 502t498 174q96 0 188.5 -14.5t166.5 -32.5l-105 -281q-31 10 -90 21.5t-121 11.5q-88 0 -147 -25.5t-96 -72.5t-52.5 -117t-15.5 -156q0 -78 31 -125t100 -47q35 0 48.5 3t23.5 7l14 125h-112l28 244h451l-72 -592q-80 -25 -194.5 -48t-241.5 -23 q-242 0 -357.5 117.5t-115.5 328.5z" />
<glyph horiz-adv-x="1079" d="M27 0l36 186l109 897h395l-49 -403h131l49 403h408l-35 -188l-108 -895h-396l49 412h-131l-49 -412h-409z" />
<glyph horiz-adv-x="550" d="M27 0l36 186l107 897h395l-129 -1083h-409z" />
<glyph horiz-adv-x="550" d="M27 0l36 186l107 897h395l-129 -1083h-409zM86 1294l479 199l84 -238l-465 -75z" />
<glyph horiz-adv-x="550" d="M27 0l36 186l107 897h395l-129 -1083h-409zM61 1272l269 182q20 14 41.5 19.5t38.5 5.5q18 0 39.5 -5.5t37.5 -19.5l224 -182l-111 -113l-221 74l-238 -74z" />
<glyph horiz-adv-x="550" d="M27 0l36 186l107 897h395l-129 -1083h-409zM113 1200l37 287h215l-37 -287h-215zM420 1200l37 287h215l-37 -287h-215z" />
<glyph horiz-adv-x="550" d="M27 0l36 186l107 897h395l-129 -1083h-409zM102 1255l82 238l482 -199l-99 -114z" />
<glyph horiz-adv-x="677" d="M-18 -10v305q10 -4 34.5 -6t36.5 -2q59 0 96 27.5t48 93.5l47 370l-185 21l35 284h592l-37 -186l-63 -514q-12 -106 -55.5 -182t-110 -124t-154.5 -70.5t-192 -22.5q-20 0 -48 1t-44 5z" />
<glyph horiz-adv-x="1042" d="M27 0l39 186l106 897h395l-51 -397h8l23 70l147 327h418l-272 -475l147 -608h-418l-69 377h-8l-15 -27l-41 -350h-409z" />
<glyph horiz-adv-x="798" d="M27 0l39 186l108 897h395l-92 -766h299l-39 -317h-710z" />
<glyph horiz-adv-x="1464" d="M-4 0l43 186l160 897h542l-22 -655l-4 -59h8l10 59l150 655h559l-33 -186l-66 -897h-387l82 770h-10l-8 -47l-195 -723h-297l-8 719v53h-12l-109 -772h-403z" />
<glyph horiz-adv-x="1093" d="M29 0l39 186l108 897h420l98 -671h11v67l14 604h403l-41 -184l-108 -899h-416l-92 676h-10v-72l-27 -604h-399z" />
<glyph horiz-adv-x="1093" d="M29 0l39 186l108 897h420l98 -671h11v67l14 604h403l-41 -184l-108 -899h-416l-92 676h-10v-72l-27 -604h-399zM319 1221l56 200q23 12 73 32t134 20q25 0 56.5 -5.5t66 -11.5t68.5 -11t63 -5q80 0 128 12t72 23l-55 -201q-23 -12 -74 -31.5t-131 -19.5q-25 0 -57.5 5 t-67.5 11t-69.5 11t-61.5 5q-80 0 -128 -13t-73 -21z" />
<glyph horiz-adv-x="1075" d="M25 440q0 317 149.5 489.5t439.5 172.5q219 0 341 -122t122 -337q0 -317 -145.5 -489t-437.5 -172q-225 0 -347 122.5t-122 335.5zM428 446q0 -63 18.5 -105t71.5 -42q37 0 62.5 17.5t42 48t25.5 72.5t16 91q4 27 6 54.5t2 56.5q0 72 -21.5 109.5t-75.5 37.5 q-37 0 -62.5 -18t-40.5 -51t-23.5 -75t-14.5 -87q-4 -23 -5 -57t-1 -52z" />
<glyph horiz-adv-x="1075" d="M25 434q0 317 155.5 492.5t446.5 175.5q219 0 334.5 -119t115.5 -334q0 -317 -151.5 -492t-444.5 -175q-225 0 -340.5 119.5t-115.5 332.5zM338 1294l479 199l84 -238l-465 -75zM428 446q0 -63 18.5 -105t71.5 -42q37 0 62.5 17.5t42 48t25.5 72.5t16 91q4 27 6 54.5 t2 56.5q0 72 -21.5 109.5t-75.5 37.5q-37 0 -62.5 -18t-40.5 -51t-23.5 -75t-14.5 -87q-4 -23 -5 -57t-1 -52z" />
<glyph horiz-adv-x="1075" d="M25 434q0 317 155.5 492.5t446.5 175.5q219 0 334.5 -119t115.5 -334q0 -317 -151.5 -492t-444.5 -175q-225 0 -340.5 119.5t-115.5 332.5zM317 1272l269 182q20 14 41.5 19.5t38.5 5.5q18 0 39.5 -5.5t37.5 -19.5l224 -182l-111 -113l-221 74l-238 -74zM428 446 q0 -63 18.5 -105t71.5 -42q37 0 62.5 17.5t42 48t25.5 72.5t16 91q4 27 6 54.5t2 56.5q0 72 -21.5 109.5t-75.5 37.5q-37 0 -62.5 -18t-40.5 -51t-23.5 -75t-14.5 -87q-4 -23 -5 -57t-1 -52z" />
<glyph horiz-adv-x="1075" d="M25 434q0 317 155.5 492.5t446.5 175.5q219 0 334.5 -119t115.5 -334q0 -317 -151.5 -492t-444.5 -175q-225 0 -340.5 119.5t-115.5 332.5zM375 1200l37 287h215l-37 -287h-215zM428 446q0 -63 18.5 -105t71.5 -42q37 0 62.5 17.5t42 48t25.5 72.5t16 91q4 27 6 58.5 t2 52.5q0 72 -21.5 109.5t-75.5 37.5q-37 0 -62.5 -18t-40.5 -51t-23.5 -75t-14.5 -87q-4 -23 -5 -57t-1 -52zM682 1200l37 287h215l-37 -287h-215z" />
<glyph horiz-adv-x="1402" d="M27 438q0 29 2 58.5t6 60.5q31 260 182.5 393t405.5 133h811l-35 -297h-381l-14 -133h352l-27 -217h-352l-19 -137h394l-37 -299h-881q-209 0 -308 119t-99 319zM426 449q0 -66 21.5 -108t80.5 -42h39l62 487h-27q-45 0 -74.5 -18t-48 -51t-29 -75t-16.5 -89 q-4 -29 -6 -55.5t-2 -48.5z" />
<glyph horiz-adv-x="1075" d="M25 434q0 317 155.5 492.5t446.5 175.5q219 0 334.5 -119t115.5 -334q0 -317 -151.5 -492t-444.5 -175q-225 0 -340.5 119.5t-115.5 332.5zM381 1255l84 238l481 -199l-100 -114zM428 446q0 -63 18.5 -105t71.5 -42q37 0 62.5 17.5t42 48t25.5 72.5t16 91q4 27 6 54.5 t2 56.5q0 72 -21.5 109.5t-75.5 37.5q-37 0 -62.5 -18t-40.5 -51t-23.5 -75t-14.5 -87q-4 -23 -5 -57t-1 -52z" />
<glyph horiz-adv-x="1075" d="M25 446q0 317 159.5 486.5t446.5 169.5q59 0 112.5 -11.5t94.5 -27.5l77 108h138l-115 -167q66 -57 102.5 -148.5t36.5 -214.5q0 -156 -42 -278.5t-119.5 -206.5t-189.5 -129t-251 -45q-63 0 -119.5 12t-101.5 29l-70 -105h-139l115 164q-68 55 -101.5 148.5t-33.5 215.5 zM428 469l209 301q-20 16 -55 16q-47 0 -77 -30.5t-46.5 -78.5t-23.5 -103.5t-7 -104.5zM459 315q20 -16 59 -16q41 0 66.5 22.5t42 59.5t24.5 82t15 90q2 18 4 35.5t2 36.5z" />
<glyph horiz-adv-x="1075" d="M25 434q0 317 155.5 492.5t446.5 175.5q219 0 334.5 -119t115.5 -334q0 -317 -151.5 -492t-444.5 -175q-225 0 -340.5 119.5t-115.5 332.5zM287 1214l55 201q23 12 73 31.5t134 19.5q25 0 56.5 -5t66.5 -11t68.5 -11t62.5 -5q80 0 128 12t73 22l-56 -200 q-23 -12 -74 -31.5t-131 -19.5q-25 0 -57.5 5t-67 11t-69.5 11t-62 5q-80 0 -128 -13t-72 -22zM428 446q0 -63 18.5 -105t71.5 -42q37 0 62.5 17.5t42 48t25.5 72.5t16 91q4 27 6 57.5t2 53.5q0 72 -21.5 109.5t-75.5 37.5q-37 0 -62.5 -18t-40.5 -51t-23.5 -75t-14.5 -87 q-4 -23 -5 -57t-1 -52z" />
<glyph horiz-adv-x="1030" d="M27 0l34 186l107 897h539q166 0 254 -79.5t88 -229.5q0 -104 -32 -182t-87.5 -131t-132 -80t-164.5 -27h-158l-43 -354h-405zM494 614h53q41 0 74.5 24t33.5 83q0 45 -24.5 64.5t-65.5 19.5h-49z" />
<glyph horiz-adv-x="1077" d="M25 440q0 319 153.5 490.5t433.5 171.5q225 0 346 -125t121 -334q0 -270 -102.5 -422.5t-282.5 -208.5l-6 -12l82 -199h-326l-51 185q-96 12 -164.5 50t-114.5 97.5t-67.5 137t-21.5 169.5zM428 446q0 -63 18.5 -105t71.5 -42q37 0 62.5 17.5t42 48t25.5 72.5t16 91 q4 27 6 54.5t2 56.5q0 72 -21.5 109.5t-75.5 37.5q-37 0 -62.5 -18t-40.5 -51t-23.5 -75t-14.5 -87q-4 -23 -5 -57t-1 -52z" />
<glyph horiz-adv-x="1069" d="M27 0l34 186l111 897h539q160 0 257 -69.5t97 -212.5q0 -113 -53.5 -185.5t-143.5 -99.5v-10q53 -16 69.5 -49t27.5 -111l34 -346h-409v301q0 53 -14.5 73.5t-55.5 20.5h-41l-49 -395h-403zM498 612h61q39 0 71 29t32 84q0 80 -80 80h-62z" />
<glyph horiz-adv-x="894" d="M-27 25l103 278q10 -4 35.5 -10t59.5 -13.5t73 -12.5t75 -5q135 0 136 55q0 29 -26 45.5t-93 43.5q-47 18 -93 43.5t-83 61.5t-59.5 84t-22.5 114q0 102 42 177t115.5 123t172 70.5t210.5 22.5q111 0 193 -15.5t127 -25.5l-100 -277q-33 10 -89.5 23.5t-117.5 13.5 q-59 0 -96 -13t-37 -48q0 -37 34.5 -52.5t96.5 -39.5q113 -45 179 -112t66 -185q0 -102 -44 -176t-120.5 -121t-181 -69.5t-225.5 -22.5q-37 0 -84 3t-93 9t-87 14t-66 17z" />
<glyph horiz-adv-x="862" d="M53 786l35 297h842l-35 -297h-223l-99 -786h-405l37 186l71 600h-223z" />
<glyph horiz-adv-x="1019" d="M27 0l34 186l105 897h393l-12 -122h135q160 0 250 -83t90 -239q0 -104 -32 -182t-87 -131.5t-131 -80t-166 -26.5h-147l-27 -219h-405zM492 494h36q41 0 68 29.5t27 76.5q0 74 -72 74h-39z" />
<glyph horiz-adv-x="1085" d="M70 313v36t4 38l69 508v188h410l-82 -669q-2 -18 -3 -35t-1 -27q0 -61 53 -61q41 0 57.5 27.5t24.5 82.5l68 494v188h403l-82 -694q-12 -104 -56 -181t-112.5 -127t-158 -74.5t-191.5 -24.5q-188 0 -295.5 79.5t-107.5 251.5z" />
<glyph horiz-adv-x="1085" d="M70 313v36t4 38l69 508v188h410l-82 -669q-2 -18 -3 -35t-1 -27q0 -61 53 -61q41 0 57.5 27.5t24.5 82.5l68 494v188h403l-82 -694q-12 -104 -56 -181t-112.5 -127t-158 -74.5t-191.5 -24.5q-188 0 -295.5 79.5t-107.5 251.5zM326 1294l479 199l84 -238l-465 -75z" />
<glyph horiz-adv-x="1085" d="M70 313v36t4 38l69 508v188h410l-82 -669q-2 -18 -3 -35t-1 -27q0 -61 53 -61q41 0 57.5 27.5t24.5 82.5l68 494v188h403l-82 -694q-12 -104 -56 -181t-112.5 -127t-158 -74.5t-191.5 -24.5q-188 0 -295.5 79.5t-107.5 251.5zM317 1272l248 182q18 14 39 19.5t37 5.5 q18 0 41 -5.5t41 -19.5l246 -182l-99 -113l-229 74l-229 -74z" />
<glyph horiz-adv-x="1085" d="M70 313v36t4 38l69 508v188h410l-82 -669q-2 -18 -3 -35t-1 -27q0 -61 53 -61q41 0 57.5 27.5t24.5 82.5l68 494v188h403l-82 -694q-12 -104 -56 -181t-112.5 -127t-158 -74.5t-191.5 -24.5q-188 0 -295.5 79.5t-107.5 251.5zM369 1200l37 287h215l-37 -287h-215z M676 1200l37 287h215l-37 -287h-215z" />
<glyph horiz-adv-x="1085" d="M70 313v36t4 38l69 508v188h410l-82 -669q-2 -18 -3 -35t-1 -27q0 -61 53 -61q41 0 57.5 27.5t24.5 82.5l68 494v188h403l-82 -694q-12 -104 -56 -181t-112.5 -127t-158 -74.5t-191.5 -24.5q-188 0 -295.5 79.5t-107.5 251.5zM362 1251l113 238l457 -199l-113 -114z" />
<glyph horiz-adv-x="1019" d="M84 1083h397v-733l-6 -74h10l11 74l151 547l23 186h434l-375 -1083h-571z" />
<glyph horiz-adv-x="1521" d="M98 1083h396l-27 -804h10l12 73l129 545l21 186h416v-731l-6 -73h10l121 618l22 186h418l-295 -1083h-498v688l4 76h-12l-12 -76l-164 -688h-496z" />
<glyph horiz-adv-x="1013" d="M-39 0l260 555l-129 528h420l33 -331v-64h8l10 64l39 161l43 170h451l-269 -528l148 -555h-434l-25 352v51h-8l-8 -51l-56 -184l-51 -168h-432z" />
<glyph horiz-adv-x="970" d="M84 1083h389l31 -378v-68h8l14 68l72 213l31 165h426l-385 -729l-43 -354h-396l43 354z" />
<glyph horiz-adv-x="970" d="M84 1083h389l31 -378v-68h8l14 68l72 213l31 165h426l-385 -729l-43 -354h-396l43 354zM287 1294l479 199l84 -238l-465 -75z" />
<glyph horiz-adv-x="970" d="M84 1083h389l31 -378v-68h8l14 68l72 213l31 165h426l-385 -729l-43 -354h-396l43 354zM311 1200l37 287h215l-37 -287h-215zM618 1200l37 287h215l-36 -287h-216z" />
<glyph horiz-adv-x="903" d="M-27 0l37 307l459 461l51 29v10h-434l31 276h827l-37 -311l-424 -444l-57 -31l2 -10h250l186 24l-37 -311h-854z" />
<glyph horiz-adv-x="620" d="M53 799q0 90 24.5 164.5t73 128t119 83t162.5 29.5q119 0 215 -12l-59 -467l4 -127q-12 -4 -39 -8t-51 -4q-92 0 -103 84l-4 26h-8q-23 -53 -64.5 -81.5t-95.5 -28.5q-92 0 -133 59.5t-41 153.5zM293 844q0 -57 33 -58q35 0 47 48.5t20 107.5l13 82h-11q-27 0 -46 -18.5 t-31.5 -46t-18.5 -58.5t-6 -57z" />
<glyph horiz-adv-x="618" d="M61 602l25 111l86 708l231 13l-36 -295h10q12 16 47 35.5t76 19.5q84 0 123 -60.5t39 -144.5q0 -80 -23 -152.5t-71 -129t-124.5 -90t-183.5 -33.5q-37 0 -95.5 4t-103.5 14zM311 762h13q29 0 48 19.5t31.5 48t17.5 61.5t5 59q0 31 -7 49.5t-28 18.5q-18 0 -30.5 -16.5 t-20.5 -42t-14.5 -59.5t-8.5 -69z" />
<glyph horiz-adv-x="536" d="M63 846q0 84 28 150.5t76 111.5t113.5 68.5t141.5 23.5q41 0 89 -7t75 -17l-62 -185q-16 8 -40.5 16.5t-53.5 8.5q-57 0 -94 -39t-37 -98q0 -102 102 -103q39 0 71 16.5t52 36.5v-192q-23 -14 -72 -32.5t-130 -18.5q-123 0 -191 71.5t-68 188.5z" />
<glyph horiz-adv-x="620" d="M43 799q0 84 22.5 157.5t67.5 128t111.5 85t154.5 30.5h11l26 232l226 10l-91 -719v-125q-10 -4 -34.5 -8t-53.5 -4q-47 0 -71.5 22.5t-28.5 59.5l-2 28h-8q-16 -41 -59.5 -75.5t-102.5 -34.5q-90 0 -129 62.5t-39 150.5zM279 840q0 -55 34 -56q35 0 47.5 43t22.5 111 l12 84h-10q-29 0 -49.5 -18.5t-32.5 -45t-18 -59.5t-6 -59z" />
<glyph horiz-adv-x="598" d="M53 844q0 76 23.5 140.5t68.5 111.5t111 74.5t147 27.5q92 0 157 -46t65 -124q0 -53 -21.5 -90t-58.5 -60.5t-86 -37t-105 -19.5l-67 -8q2 -20 13 -31.5t28.5 -17.5t36 -8t36.5 -2q59 0 106.5 10t82.5 20l-53 -176q-37 -10 -87.5 -17t-103.5 -7q-145 0 -219 68.5 t-74 191.5zM295 922q45 4 80 19t35 52q0 16 -10.5 24.5t-26.5 8.5q-33 0 -52.5 -28.5t-25.5 -67.5v-8z" />
<glyph horiz-adv-x="333" d="M74 700q0 8 1 16.5t3 18.5l57 455l88 4l-98 117l156 147l125 -147l-125 -113l86 4l-60 -487v-119q-23 -4 -47 -8t-63 -4q-66 0 -94.5 28.5t-28.5 87.5z" />
<glyph horiz-adv-x="333" d="M76 700q0 12 1 23.5t3 28.5l86 678l229 10l-90 -723v-123q-16 -4 -45 -7t-67 -3q-66 0 -91.5 28.5t-25.5 87.5z" />
<glyph horiz-adv-x="913" d="M63 594l60 479v113q23 4 47.5 8t46.5 4q53 0 72.5 -19.5t29.5 -54.5h9q25 29 63.5 51.5t97.5 22.5q94 0 129 -74h9q27 29 66.5 51.5t92.5 22.5q147 0 148 -143q0 -10 -1 -21.5t-3 -25.5l-51 -414q-18 -4 -40 -8t-63 -4q-66 0 -89 27.5t-23 86.5q0 8 1 16.5t1 16.5l28 225 q2 14 2 19.5v13.5q0 25 -24 25q-25 0 -33 -21.5t-14 -68.5l-41 -328h-228l45 364q2 10 2 16.5v10.5q0 27 -24 27q-23 0 -32 -18.5t-15 -71.5l-41 -328h-228z" />
<glyph horiz-adv-x="610" d="M57 836q0 80 21.5 146.5t64.5 115.5t104.5 75.5t141.5 26.5q129 0 190.5 -68.5t61.5 -181.5q0 -170 -86 -268t-252 -98q-129 0 -187.5 68.5t-58.5 183.5zM295 836q0 -29 7 -46.5t30 -17.5q41 0 57.5 48t16.5 126q0 29 -9.5 47.5t-31.5 18.5q-23 0 -36.5 -16.5t-20.5 -43 t-10 -57t-3 -59.5z" />
<glyph horiz-adv-x="430" d="M63 596l58 475v119q6 2 34.5 6t51.5 4q53 0 79.5 -23.5t28.5 -60.5h9q33 39 63.5 61.5t95.5 22.5v-205q-10 2 -19 3t-18 1q-61 0 -86.5 -31.5t-33.5 -95.5l-35 -276h-228z" />
<glyph horiz-adv-x="550" d="M27 612l57 170q23 -10 69 -19t85 -9q35 0 52 7t17 30q0 20 -41 34q-33 12 -65.5 26.5t-58 35t-42 46t-16.5 62.5q0 59 25.5 98.5t67.5 63t93.5 33.5t100.5 10q55 0 112.5 -8t98.5 -18l-56 -154q-12 6 -56 13t-81 7q-29 0 -47 -7t-18 -29q0 -20 36 -35q37 -14 70 -29.5 t57.5 -35t39 -46.5t14.5 -63q0 -55 -24.5 -95.5t-64.5 -65t-92.5 -36.5t-107.5 -12q-59 0 -122.5 7t-102.5 19z" />
<glyph horiz-adv-x="403" d="M78 1014l20 166l52 8l40 131l209 63l-26 -194h69l-20 -174h-70l-20 -180q-2 -6 -2 -14.5v-12.5q0 -41 41 -41q8 0 18 1t21 3l-52 -176q-16 -4 -32 -6t-34 -3t-36 -1q-168 0 -168 155q0 16 2 42t6 46l31 187h-49z" />
<glyph horiz-adv-x="573" d="M-31 -6q0 174 77 272.5t224 98.5q121 0 177.5 -64.5t56.5 -175.5q0 -174 -79 -273.5t-232 -99.5q-119 0 -171.5 65.5t-52.5 176.5zM180 0q0 -33 8.5 -53.5t32.5 -20.5q20 0 33.5 18.5t22 47t11.5 62.5t3 65t-8.5 50t-32.5 19q-20 0 -33.5 -17t-22 -45t-11.5 -60.5 t-3 -65.5z" />
<glyph horiz-adv-x="516" d="M-47 -240l20 160h127l31 223l-6 2l-19 -30q-14 -10 -44.5 -19.5t-53.5 -13.5l-16 170q41 6 98 33.5t94 68.5h174l-59 -434h119l-21 -160h-444z" />
<glyph horiz-adv-x="546" d="M-59 -240l18 164q96 47 152.5 81t85 58.5t37 42t8.5 35.5q0 29 -27 42.5t-70 13.5q-53 0 -95 -10.5t-70 -20.5l59 184q20 4 65.5 11.5t104.5 7.5q49 0 94 -11.5t80 -35t55.5 -58.5t20.5 -80v-15t-2 -15q-8 -66 -48 -114t-133 -95l5 -8h81l95 10l-21 -187h-495z" />
<glyph horiz-adv-x="528" d="M-41 -55q18 -6 65.5 -17.5t112.5 -11.5q35 0 61.5 9t26.5 36q0 23 -23.5 29t-62.5 6h-90l14 117h93q37 0 64.5 10t27.5 39q0 20 -22.5 28.5t-63.5 8.5t-91.5 -7.5t-82.5 -17.5l49 174q35 8 82 13.5t94 5.5q49 0 95 -9.5t81 -30t55.5 -51t20.5 -75.5q0 -49 -25.5 -81 t-68.5 -52l-2 -9q23 -10 48 -40.5t25 -77.5q0 -59 -28.5 -96.5t-73.5 -59t-101.5 -29.5t-111.5 -8q-47 0 -93 7t-75 18v172z" />
<glyph horiz-adv-x="544" d="M-59 -147l20 176l229 323h269l-41 -338h57l-18 -161h-60l-12 -95h-203l13 95h-254zM119 14h98l19 144l16 32q-2 0 -3 1.5t-3 1.5l-101 -156l-26 -14v-9z" />
<glyph horiz-adv-x="501" d="M-33 -51q20 -8 45 -15q23 -4 49.5 -8t61.5 -4q92 0 92 49q0 23 -30.5 39.5t-121.5 16.5h-63l41 327h401l-22 -186l-92 12h-111l-2 -35q39 -2 78 -12t67.5 -30.5t47 -52.5t18.5 -77q0 -63 -26.5 -106t-69.5 -69.5t-97.5 -38t-109.5 -11.5q-47 0 -84 5t-72 16v180z" />
<glyph horiz-adv-x="575" d="M-31 4q0 166 88 263.5t265 97.5q41 0 82.5 -6.5t64.5 -10.5v-170q-25 6 -59.5 12.5t-73.5 6.5q-55 0 -89 -15.5t-44 -54.5h16q113 0 185.5 -39t72.5 -129q0 -96 -69.5 -152.5t-194.5 -56.5q-123 0 -183.5 70.5t-60.5 183.5zM174 -18q0 -31 12.5 -50.5t38.5 -19.5 q23 0 36 14.5t13 36.5q0 31 -26.5 42t-57.5 11h-12q-2 -10 -3 -18t-1 -16z" />
<glyph horiz-adv-x="505" d="M-23 168l21 186h473l-18 -172q-57 -45 -95.5 -100t-62 -111.5t-35.5 -110t-16 -91.5v-9h-217v9q6 53 23.5 107t43 106.5t57 98.5t68.5 83l37 12l-2 6h-184z" />
<glyph horiz-adv-x="555" d="M-51 -98q0 53 28.5 88t75.5 57v8q-23 10 -42 41t-19 68q0 57 24.5 96t64.5 61.5t88 33t95 10.5q43 0 86 -9.5t77 -28t55.5 -48t21.5 -70.5q0 -55 -27.5 -87t-62.5 -48v-8q27 -23 44 -49.5t17 -69.5q0 -55 -25.5 -93t-65.5 -61.5t-91 -34t-103 -10.5q-45 0 -89 9.5 t-77.5 27.5t-54 47t-20.5 70zM135 -55q0 -20 19.5 -28.5t44.5 -8.5q29 0 47 11t18 34q0 18 -15.5 27.5t-43.5 17.5l-19 4q-51 -20 -51 -57zM199 172q0 -33 59 -45l18 -4q16 8 28.5 20.5t14.5 26.5q0 23 -17 32t-42 9q-23 0 -42 -8t-19 -31z" />
<glyph horiz-adv-x="561" d="M-18 158q0 96 69.5 152.5t194.5 56.5q123 0 183 -71t60 -183q0 -166 -88 -263.5t-264 -97.5q-41 0 -83 6t-64 11v170q25 -6 59.5 -12.5t73.5 -6.5q55 0 89 15.5t44 54.5h-16q-113 0 -185.5 39t-72.5 129zM184 154q0 -31 27 -42.5t57 -11.5h13q2 10 3 18.5t1 16.5 q0 31 -12.5 50.5t-39.5 19.5q-23 0 -36 -14.5t-13 -36.5z" />
<glyph horiz-adv-x="278" d="M-8 82q0 45 6 88q12 113 62.5 228.5t115.5 199.5l90 -72q-53 -72 -95 -191.5t-42 -264.5q0 -80 13.5 -145.5t35.5 -110.5l-110 -70q-35 66 -55.5 156t-20.5 182z" />
<glyph horiz-adv-x="278" d="M-61 -186q25 35 48 85t41.5 110.5t30 128t11.5 138.5q0 78 -12.5 141.5t-32.5 108.5l106 72q35 -68 56.5 -158t21.5 -184v-43t-4 -43q-6 -55 -22.5 -113.5t-40 -114t-52.5 -106.5t-59 -92z" />
<glyph horiz-adv-x="1003" d="M27 424q0 156 34.5 281.5t104.5 214t174 135.5t242 47q217 0 322.5 -120t105.5 -325q0 -158 -38 -282.5t-111 -211.5t-179.5 -134t-243.5 -47q-217 0 -314 119.5t-97 322.5zM414 432q0 -57 15 -95t58 -38q53 0 81 62.5t42 166.5q4 33 6 65t2 62q0 53 -16 89t-59 36 q-29 0 -50.5 -19.5t-35 -51t-22.5 -74.5t-13 -90q-4 -27 -6 -56.5t-2 -56.5z" />
<glyph horiz-adv-x="884" d="M10 0l39 319h234l55 340l-10 5l-43 -60q-31 -20 -87.5 -38.5t-99.5 -28.5l-16 342q88 12 186.5 65t169.5 139h346l-106 -764h182l-41 -319h-809z" />
<glyph horiz-adv-x="942" d="M-20 0l34 297q174 86 276.5 145.5t155 103.5t66.5 77.5t14 64.5q0 51 -49 75.5t-127 24.5q-98 0 -174 -18t-125 -35l107 332q37 10 117.5 22.5t189.5 12.5q88 0 170 -20.5t145.5 -62.5t101.5 -105.5t38 -147.5v-27.5t-2 -27.5q-14 -117 -89 -205t-239 -174l6 -15h149 l173 19l-39 -336h-899z" />
<glyph horiz-adv-x="923" d="M16 25v313q33 -10 118 -30.5t204 -20.5q66 0 113 16t47 66q0 39 -43 51t-113 12h-162l25 211h166q68 0 118 18.5t50 67.5q0 39 -42 54.5t-114 15.5q-35 0 -78 -4t-86 -10.5t-82 -14.5t-69 -16l90 313q63 16 147 25.5t170 9.5q92 0 175 -16.5t145.5 -53.5t100.5 -93 t38 -136q0 -90 -47 -148.5t-125 -95.5l-2 -14q20 -8 42.5 -26.5t42 -46.5t33 -62.5t13.5 -77.5q0 -106 -51.5 -175t-133 -108t-183 -53t-201.5 -14q-88 0 -170 12t-136 31z" />
<glyph horiz-adv-x="972" d="M-14 170l39 324l415 589h492l-76 -616h107l-35 -297h-109l-22 -170h-371l23 170h-463zM311 467h181l32 260l31 61q-4 0 -7 1.5t-7 1.5l-183 -283l-47 -29v-12z" />
<glyph horiz-adv-x="878" d="M20 18v330q37 -14 82 -24q39 -10 90.5 -17.5t110.5 -7.5q168 0 168 88q0 20 -12.5 38.5t-44 33t-85 21.5t-132.5 7h-117l74 596h729l-39 -338l-170 21h-199l-6 -61q74 -4 143.5 -23.5t124 -56.5t87 -94.5t32.5 -137.5q0 -117 -48 -195.5t-126 -126.5t-177 -68.5 t-200 -20.5q-88 0 -156.5 10t-128.5 26z" />
<glyph horiz-adv-x="980" d="M29 444q0 152 41 274t120.5 207t200.5 131t281 46q37 0 75.5 -3t75.5 -8.5t68 -10.5t49 -9v-309q-47 10 -110.5 21.5t-133.5 11.5q-100 0 -162.5 -28t-78.5 -97h30q100 0 186.5 -17.5t150 -54.5t98 -95.5t34.5 -140.5q0 -174 -127 -277t-356 -103q-111 0 -193.5 33.5 t-138 95t-83 146.5t-27.5 187zM403 403q0 -57 21.5 -92t71.5 -35q39 0 63.5 27t24.5 68q0 55 -48.5 76.5t-103.5 21.5h-22q-6 -35 -7 -66z" />
<glyph horiz-adv-x="888" d="M51 743l39 340h862l-34 -315q-104 -82 -174 -182.5t-113 -203.5t-64.5 -198.5t-29.5 -169.5v-14h-396v14q12 96 43 195.5t77 195t105.5 180.5t127.5 150l65 23l-2 10h-336z" />
<glyph horiz-adv-x="987" d="M2 262q0 98 52 162.5t136 105.5v9q-43 23 -75.5 76t-32.5 124q0 102 44 172t114.5 112t158.5 60.5t174 18.5q78 0 156 -16.5t140.5 -51.5t101.5 -88t39 -129q0 -51 -14.5 -90t-38 -68.5t-52 -51t-59.5 -38.5v-8q47 -37 79.5 -88t32.5 -127q0 -100 -45 -170t-117.5 -113 t-165.5 -62t-188 -19q-84 0 -162.5 16t-140 50t-99.5 87t-38 127zM340 342q0 -37 34 -53.5t81 -16.5q51 0 85.5 20.5t34.5 61.5q0 29 -31.5 49.5t-82.5 32.5l-27 6q-47 -16 -70.5 -43.5t-23.5 -56.5zM455 752q0 -31 32.5 -50.5t83.5 -31.5l25 -6q29 14 53.5 37.5t24.5 56.5 q0 35 -33 50t-74 15q-39 0 -75.5 -17.5t-36.5 -53.5z" />
<glyph horiz-adv-x="980" d="M57 721q0 174 127 277.5t357 103.5q111 0 193.5 -35t138 -96.5t83 -146.5t27.5 -185q0 -152 -41 -273.5t-121 -206.5t-200.5 -131t-280.5 -46q-37 0 -76 3t-75.5 7t-67.5 10t-49 10v310q47 -10 110.5 -21.5t132.5 -11.5q100 0 163 27.5t79 97.5h-31q-102 0 -187 16 t-148.5 53t-98.5 95.5t-35 142.5zM428 713q0 -55 48 -77t104 -22h22q6 33 6 66q0 57 -21.5 92t-70.5 35q-39 0 -63.5 -26.5t-24.5 -67.5z" />
<glyph horiz-adv-x="573" d="M-31 178q0 174 77 272.5t224 98.5q121 0 177.5 -64.5t56.5 -175.5q0 -174 -79 -273t-232 -99q-119 0 -171.5 65t-52.5 176zM180 184q0 -33 8.5 -53t32.5 -20q20 0 33.5 18t22 47t11.5 62.5t3 64.5t-8.5 50.5t-32.5 19.5q-20 0 -33.5 -17.5t-22 -45t-11.5 -60.5t-3 -66z " />
<glyph horiz-adv-x="516" d="M-47 -55l20 159h127l31 224l-6 2l-19 -31q-14 -10 -44.5 -19.5t-53.5 -13.5l-16 170q41 6 98 34t94 69h174l-59 -435h119l-21 -159h-444z" />
<glyph horiz-adv-x="546" d="M-59 -55l18 164q96 47 152.5 80.5t85 58t37 42t8.5 36.5q0 29 -27 42t-70 13q-53 0 -95 -10.5t-70 -20.5l59 185q20 4 65.5 11t104.5 7q49 0 94 -11.5t80 -35t55.5 -58t20.5 -79.5v-15.5t-2 -15.5q-8 -66 -48 -114t-133 -95l5 -8h81l95 10l-21 -186h-495z" />
<glyph horiz-adv-x="528" d="M-41 -43v172q18 -6 65.5 -17.5t112.5 -11.5q35 0 61.5 9.5t26.5 35.5q0 23 -23.5 29t-62.5 6h-90l14 117h93q37 0 64.5 10t27.5 39q0 20 -22.5 28.5t-63.5 8.5t-91.5 -7t-82.5 -18l49 174q35 8 82 13.5t94 5.5q49 0 95 -9.5t81 -29.5t55.5 -51t20.5 -76q0 -49 -25.5 -81 t-68.5 -52l-2 -8q23 -10 48 -41t25 -78q0 -59 -28.5 -96t-73.5 -58.5t-101.5 -30t-111.5 -8.5q-47 0 -93 7.5t-75 17.5z" />
<glyph horiz-adv-x="544" d="M-59 37l20 176l229 324h269l-41 -338h57l-18 -162h-60l-12 -94h-203l13 94h-254zM119 199h98l19 143l16 33q-2 0 -3 1t-3 1l-101 -156l-26 -14v-8z" />
<glyph horiz-adv-x="501" d="M-33 -47v180q20 -8 45 -14q23 -4 49.5 -8.5t61.5 -4.5q92 0 92 50q0 23 -30.5 39t-121.5 16h-63l41 328h401l-22 -187l-92 13h-111l-2 -35q39 -2 78 -12.5t67.5 -31t47 -52t18.5 -76.5q0 -63 -26.5 -106.5t-69.5 -70t-97.5 -38t-109.5 -11.5q-47 0 -84 5.5t-72 15.5z" />
<glyph horiz-adv-x="575" d="M-31 188q0 166 88 263.5t265 97.5q41 0 82.5 -6t64.5 -11v-170q-25 6 -59.5 12.5t-73.5 6.5q-55 0 -89 -15.5t-44 -54.5h16q113 0 185.5 -39t72.5 -129q0 -96 -69.5 -152.5t-194.5 -56.5q-123 0 -183.5 71t-60.5 183zM174 166q0 -31 12.5 -50.5t38.5 -19.5q23 0 36 14.5 t13 36.5q0 31 -26.5 42.5t-57.5 11.5h-12q-2 -10 -3 -18.5t-1 -16.5z" />
<glyph horiz-adv-x="505" d="M-23 352l21 187h473l-18 -172q-57 -45 -95.5 -100.5t-62 -112t-35.5 -109.5t-16 -92v-8h-217v8q6 53 23.5 107.5t43 106.5t57 98t68.5 83l37 12l-2 7h-184z" />
<glyph horiz-adv-x="555" d="M-51 86q0 53 28.5 88t75.5 57v9q-23 10 -42 40.5t-19 67.5q0 57 24.5 96t64.5 61.5t88 33t95 10.5q43 0 86 -9.5t77 -27.5t55.5 -48t21.5 -71q0 -55 -27.5 -87t-62.5 -48v-8q27 -23 44 -49.5t17 -69.5q0 -55 -25.5 -93t-65.5 -61.5t-91 -34t-103 -10.5q-45 0 -89 9.5 t-77.5 28t-54 47t-20.5 69.5zM135 129q0 -20 19.5 -28.5t44.5 -8.5q29 0 47 11.5t18 33.5q0 18 -15.5 27.5t-43.5 17.5l-19 4q-51 -20 -51 -57zM199 356q0 -33 59 -45l18 -4q16 8 28.5 20.5t14.5 26.5q0 23 -17 32t-42 9q-23 0 -42 -8t-19 -31z" />
<glyph horiz-adv-x="561" d="M-18 342q0 96 69.5 152.5t194.5 56.5q123 0 183 -70.5t60 -183.5q0 -166 -88 -263t-264 -97q-41 0 -83 6t-64 10v170q25 -6 59.5 -12.5t73.5 -6.5q55 0 89 15.5t44 54.5h-16q-113 0 -185.5 39t-72.5 129zM184 338q0 -31 27 -42t57 -11h13q2 10 3 18t1 16q0 31 -12.5 50.5 t-39.5 19.5q-23 0 -36 -14.5t-13 -36.5z" />
<glyph horiz-adv-x="575" d="M72 829q0 174 76.5 272.5t224.5 98.5q121 0 177 -64.5t56 -174.5q0 -174 -78.5 -273.5t-232.5 -99.5q-119 0 -171 65t-52 176zM283 836q0 -33 8 -53.5t33 -20.5q20 0 33.5 18.5t21.5 47t11 62.5t3 64q0 31 -8 50.5t-33 19.5q-20 0 -33.5 -17.5t-21.5 -45t-11 -60 t-3 -65.5z" />
<glyph horiz-adv-x="516" d="M61 596l21 160h127l31 223l-7 2l-18 -31q-14 -10 -45 -19t-53 -13l-17 169q41 6 98.5 34t94.5 69h174l-59 -434h118l-20 -160h-445z" />
<glyph horiz-adv-x="544" d="M41 592l18 164q96 47 152.5 80.5t85.5 58.5t37 42t8 36q0 29 -26.5 42t-69.5 13q-53 0 -95 -10t-71 -21l59 185q20 4 65.5 11t104.5 7q49 0 94.5 -11t80 -35t55 -58.5t20.5 -79.5v-15.5t-2 -15.5q-8 -66 -48 -114t-132 -95l4 -8h82l94 10l-20 -186h-496z" />
<glyph horiz-adv-x="528" d="M61 606v172q18 -6 65.5 -17t113.5 -11q35 0 61.5 9t26.5 36q0 23 -23.5 28.5t-62.5 5.5h-90l14 117h92q37 0 64.5 10.5t27.5 38.5q0 20 -22.5 28.5t-63.5 8.5t-91 -7t-83 -17l49 174q35 8 82 13t94 5q49 0 95.5 -9t81 -29.5t55 -51.5t20.5 -76q0 -49 -25.5 -80.5 t-68.5 -52.5l-2 -8q23 -10 48.5 -41t25.5 -78q0 -59 -29 -96t-74 -58.5t-101 -29.5t-112 -8q-47 0 -93 7t-75 17z" />
<glyph horiz-adv-x="544" d="M43 690l20 176l230 324h268l-41 -338h58l-19 -162h-59l-13 -94h-202l12 94h-254zM221 852h98l19 143l16 33q-2 0 -3 1t-3 1l-100 -156l-27 -14v-8z" />
<glyph horiz-adv-x="514" d="M68 604v180q20 -8 45 -14q23 -4 49 -8t61 -4q92 0 92 49q0 23 -30.5 39t-120.5 16h-64l41 328h402l-23 -186l-92 12h-111l-2 -35q39 -2 78 -12.5t67.5 -30.5t47 -52t18.5 -77q0 -63 -26.5 -106.5t-69.5 -70t-97 -37.5t-110 -11q-47 0 -84 5t-71 15z" />
<glyph horiz-adv-x="559" d="M70 840q0 166 88 263t264 97q41 0 83 -6t64 -10v-170q-25 6 -59.5 12t-73.5 6q-55 0 -89 -15.5t-44 -53.5h16q113 0 186 -39t73 -129q0 -96 -70 -152.5t-195 -56.5q-123 0 -183 70.5t-60 183.5zM274 817q0 -31 12.5 -50t39.5 -19q23 0 36 14t13 37q0 31 -26.5 42 t-57.5 11h-12q-2 -10 -3.5 -18.5t-1.5 -16.5z" />
<glyph horiz-adv-x="512" d="M82 1004l20 186h473l-18 -172q-57 -45 -95 -100.5t-61.5 -111.5t-36 -109.5t-16.5 -92.5v-8h-217v8q6 53 23.5 107.5t43 106.5t57.5 98.5t69 82.5l36 13l-2 6h-184z" />
<glyph horiz-adv-x="561" d="M53 737q0 53 29 88t76 58v8q-23 10 -42.5 41t-19.5 67q0 57 24.5 96.5t64.5 62t88.5 32.5t95.5 10q43 0 86 -9t76.5 -27.5t55 -48.5t21.5 -71q0 -55 -27.5 -86.5t-62.5 -48.5v-8q27 -23 44.5 -49.5t17.5 -69.5q0 -55 -26 -93t-65.5 -61.5t-91 -33.5t-102.5 -10 q-45 0 -89 9t-78 27.5t-54.5 47t-20.5 69.5zM240 780q0 -20 19.5 -28.5t43.5 -8.5q29 0 47.5 11.5t18.5 33.5q0 18 -15.5 27.5t-44.5 18.5l-18 4q-51 -20 -51 -58zM303 1008q0 -33 59 -45l19 -5q16 8 28.5 20.5t14.5 27.5q0 23 -17.5 32t-41.5 9q-23 0 -42.5 -8.5 t-19.5 -30.5z" />
<glyph horiz-adv-x="561" d="M86 991q0 96 69.5 152.5t194.5 56.5q123 0 183.5 -70.5t60.5 -183.5q0 -166 -88 -263t-264 -97q-41 0 -83 6t-65 10v170q25 -6 59.5 -12t73.5 -6q55 0 89 15t44 54h-16q-113 0 -185.5 39t-72.5 129zM289 987q0 -31 26.5 -42t57.5 -11h12q2 10 3 18.5t1 16.5q0 31 -12 50 t-39 19q-23 0 -36 -14t-13 -37z" />
<glyph horiz-adv-x="419" d="M104 1124q0 90 56.5 141.5t146.5 51.5q74 0 119 -44t45 -112q0 -80 -51.5 -136t-143.5 -56q-80 0 -126 43t-46 112z" />
<glyph horiz-adv-x="1241" d="M10 305q0 98 46 178t122 138q-23 31 -34 73.5t-11 83.5q0 74 30 134.5t82 102.5t122.5 64.5t150.5 22.5q57 0 110.5 -12.5t95.5 -38t68.5 -65.5t30.5 -95h299l156 12l-76 -264h-174q-10 -66 -30.5 -141.5t-45.5 -128.5q41 -23 93.5 -43.5t99.5 -38.5l-88 -305 q-27 6 -65 20t-80 31.5t-81.5 36t-70.5 36.5q-72 -57 -161 -90.5t-206 -33.5q-82 0 -151.5 22.5t-120.5 65.5t-81 102t-30 133zM330 326q0 -35 23.5 -55.5t58.5 -20.5q40 -1 71 24q-27 18 -61.5 49t-67.5 68q-10 -10 -17 -27.5t-7 -37.5zM469 760q0 -50 53 -103 q16 29 29.5 62t13.5 55q0 47 -43 47q-18 0 -35.5 -15t-17.5 -46zM541 639q33 -29 67.5 -55.5t71.5 -51.5q8 16 16.5 48t12.5 59h-168z" />
</font>
</defs>
</svg>
