<?xml version="1.0" standalone="no"?>
<!DOCTYPE svg PUBLIC "-//W3C//DTD SVG 1.1//EN" "http://www.w3.org/Graphics/SVG/1.1/DTD/svg11.dtd" >
<svg xmlns="http://www.w3.org/2000/svg">
<metadata></metadata>
<defs>
<font id="distefanosansbold" horiz-adv-x="1011" >
<font-face units-per-em="2048" ascent="1536" descent="-512" />
<missing-glyph horiz-adv-x="360" />
<glyph unicode="&#xfb00;" horiz-adv-x="1140" d="M16 748v215l103 16v63q0 178 104.5 268.5t296.5 90.5q8 0 16.5 -1t16.5 -1h18l33 -236q-8 2 -23.5 4t-31.5 2q-63 0 -99 -29.5t-36 -95.5q0 -16 6 -37.5t10 -29.5h238v65q0 178 104.5 268.5t296.5 90.5q8 0 16.5 -1t16.5 -1h18l33 -236q-8 2 -23.5 4t-31.5 2 q-63 0 -99 -29.5t-36 -95.5q0 -16 6 -37.5t10 -29.5h160v-229h-174v-748h-316l19 176v572h-252v-748h-316l19 176v572h-103z" />
<glyph unicode="&#xfb01;" horiz-adv-x="1044" d="M16 748v215l103 16v63q0 178 104.5 268.5t296.5 90.5q8 0 16.5 -1t16.5 -1h18l33 -236q-8 2 -23.5 4t-31.5 2q-63 0 -99 -29.5t-36 -95.5q0 -16 6 -37.5t10 -29.5h531v-977h-310l15 176v572h-250v-748h-316l19 176v572h-103zM621 1214l184 189l186 -186l-184 -185z" />
<glyph unicode="&#xfb02;" horiz-adv-x="1064" d="M16 748v215l103 16v72q0 100 33.5 167.5t95 107.5t145.5 57.5t185 17.5q49 0 106 -5t111.5 -11.5t98.5 -13.5t67 -11v-1360h-310l17 176v989q-14 4 -46 7.5t-61 3.5q-66 0 -107.5 -31t-41.5 -96q0 -33 6 -52l8 -20h119v-229h-129v-748h-316l19 176v572h-103z" />
<glyph unicode="&#xfb03;" horiz-adv-x="1593" d="M16 748v215l103 16v63q0 178 104.5 268.5t296.5 90.5q8 0 16.5 -1t16.5 -1h18l33 -236q-8 2 -23.5 4t-31.5 2q-63 0 -99 -29.5t-36 -95.5q0 -16 6 -37.5t10 -29.5h238v65q0 178 104.5 268.5t296.5 90.5q8 0 16.5 -1t16.5 -1h18l33 -236q-8 2 -23.5 4t-31.5 2 q-63 0 -99 -29.5t-36 -95.5q0 -16 6 -37.5t10 -29.5h530v-977h-309l14 176v572h-249v-748h-316l19 176v572h-252v-748h-316l19 176v572h-103zM1169 1214l185 189l186 -186l-184 -185z" />
<glyph unicode="&#xfb04;" horiz-adv-x="1613" d="M16 748v215l103 16v63q0 178 104.5 268.5t296.5 90.5q8 0 16.5 -1t16.5 -1h18l33 -236q-8 2 -23.5 4t-31.5 2q-63 0 -99 -29.5t-36 -95.5q0 -16 6 -37.5t10 -29.5h238v74q0 100 33.5 167.5t95 107.5t145.5 57.5t184 17.5q49 0 106.5 -5t112 -11.5t98.5 -13.5t66 -11 v-1360h-309l17 176v989q-14 4 -46 7.5t-61 3.5q-66 0 -107.5 -31t-41.5 -96q0 -33 6 -52l8 -20h119v-229h-129v-748h-316l19 176v572h-252v-748h-316l19 176v572h-103z" />
<glyph horiz-adv-x="0" />
<glyph unicode="&#xd;" horiz-adv-x="360" />
<glyph unicode=" "  horiz-adv-x="360" />
<glyph unicode="&#x09;" horiz-adv-x="360" />
<glyph unicode="&#xa0;" horiz-adv-x="360" />
<glyph unicode="!" horiz-adv-x="507" d="M100 117q0 66 41 104.5t111 38.5q66 0 101.5 -36t35.5 -101q0 -63 -39.5 -102t-105.5 -39q-68 0 -106 35.5t-38 99.5zM125 360l14 936h303l-69 -936h-248z" />
<glyph unicode="&#x22;" horiz-adv-x="602" d="M74 731v459h168v-459h-168zM360 731v459h170v-459h-170z" />
<glyph unicode="#" d="M43 266v160h174l57 293h-192v162h223l60 309h176l-60 -309h158l59 309h176l-61 -309h156v-162h-187l-55 -293h201v-160h-230l-51 -266h-176l49 266h-155l-52 -266h-176l51 266h-145zM395 426h156l55 293h-155z" />
<glyph unicode="$" d="M84 25l59 227q45 -16 120 -33.5t153 -17.5q76 0 130 23.5t54 76.5q0 51 -50 79t-124 56q-57 23 -111.5 48.5t-97.5 62.5t-68.5 88t-25.5 123q0 70 25.5 126t70.5 97t105.5 68.5t132.5 40.5v206h149v-194q100 0 183 -13.5t120 -21.5l-57 -225q-43 16 -103.5 29.5 t-127.5 13.5q-70 0 -125.5 -23.5t-55.5 -77.5q0 -49 47.5 -76.5t118.5 -56.5q55 -23 111.5 -48t100.5 -62t72 -87.5t28 -123.5q0 -139 -89.5 -219t-224.5 -111v-213h-149v195h-45q-111 0 -195 15t-131 28z" />
<glyph unicode="%" horiz-adv-x="1146" d="M20 893q0 141 70 224t205 83t196.5 -80t61.5 -221q0 -143 -72.5 -228t-208.5 -85q-135 0 -193.5 82t-58.5 225zM152 0l700 1190h141l-698 -1190h-143zM197 893q0 -33 3 -63.5t12 -55t26.5 -39t44.5 -14.5q51 0 71.5 54t20.5 122q0 66 -16.5 116t-67.5 50q-55 0 -74.5 -51 t-19.5 -119zM594 299q0 141 69.5 224t204.5 83t196.5 -80t61.5 -221q0 -143 -72.5 -228t-207.5 -85t-193.5 82t-58.5 225zM770 299q0 -33 3 -63.5t12.5 -55t26.5 -39t44 -14.5q51 0 71.5 54.5t20.5 121.5q0 66 -16.5 116t-67.5 50q-55 0 -74.5 -51t-19.5 -119z" />
<glyph unicode="&#x26;" horiz-adv-x="1335" d="M51 358q0 100 42 178t116 140q-41 53 -61.5 107.5t-20.5 107.5q0 72 27.5 130t78 100t121 64.5t156.5 22.5q68 0 127 -13t104 -42t73 -72t32 -104h348l158 12l-39 -223h-207q-2 -117 -17.5 -228.5t-54.5 -197.5q59 -33 121 -57.5t115 -44.5l-51 -256q-29 8 -69 22 t-84 33.5t-89 41t-84 44.5q-68 -66 -166 -103.5t-225 -37.5q-96 0 -178 25.5t-142.5 73.5t-95.5 117.5t-35 159.5zM328 360q0 -68 49 -111.5t117 -43.5q90 0 147 57q-61 41 -135 103.5t-125 119.5q-53 -49 -53 -125zM418 868q0 -45 33.5 -95t87 -102.5t119 -101.5t126.5 -92 q25 53 34 132t9 157h-229q12 23 20.5 54.5t8.5 56.5q0 100 -101 100q-45 0 -76.5 -28.5t-31.5 -80.5z" />
<glyph unicode="'" horiz-adv-x="319" d="M74 731v459h172v-459h-172z" />
<glyph unicode="(" horiz-adv-x="458" d="M61 492q0 199 63.5 382t154.5 320l127 -84q-68 -113 -120.5 -268.5t-52.5 -349.5q0 -199 52.5 -354.5t120.5 -266.5l-130 -82q-92 137 -153.5 320.5t-61.5 382.5z" />
<glyph unicode=")" horiz-adv-x="458" d="M53 -129q68 111 120 266.5t52 354.5q0 195 -52 350t-120 268l127 84q90 -137 153.5 -320.5t63.5 -381.5q0 -199 -61.5 -382.5t-153.5 -320.5z" />
<glyph unicode="*" horiz-adv-x="747" d="M47 825l205 84l-203 88l88 150l172 -129l-28 215h188l-27 -213l172 127l86 -154l-200 -84l200 -84l-88 -151l-170 123l27 -207h-188l28 209l-172 -123z" />
<glyph unicode="+" d="M96 508v164h324v325h174v-325h324v-164h-324v-336h-174v336h-324z" />
<glyph unicode="," horiz-adv-x="415" d="M66 119q0 66 42 106.5t107 40.5q63 0 101 -38t38 -101q0 -41 -11 -68.5t-34 -64.5l-98 -152l-105 13l50 145q-35 10 -62.5 36.5t-27.5 82.5z" />
<glyph unicode="-" horiz-adv-x="655" d="M74 412v163h508v-163h-508z" />
<glyph unicode="." horiz-adv-x="415" d="M66 117q0 66 42 104.5t111 38.5q66 0 101.5 -36t35.5 -101q0 -63 -39.5 -102t-105.5 -39q-70 0 -107.5 35.5t-37.5 99.5z" />
<glyph unicode="/" horiz-adv-x="665" d="M-2 0l481 1190h189l-480 -1190h-190z" />
<glyph unicode="0" d="M31 586q0 133 30.5 247.5t92 197.5t154.5 130t218 47t211 -44t140.5 -123.5t79 -190.5t24.5 -244q0 -135 -30.5 -249.5t-92 -197.5t-155 -130t-218.5 -47q-123 0 -210 44t-141 122.5t-78.5 190.5t-24.5 247zM332 586q0 -80 7 -146.5t25.5 -116t50 -77t83.5 -27.5 q49 0 83.5 31t57.5 84t33 122.5t10 149.5t-7 146.5t-25.5 116t-51.5 77t-84 27.5t-86 -31t-56.5 -84t-30.5 -122.5t-9 -149.5z" />
<glyph unicode="1" d="M80 975q45 8 95 26.5t99.5 46t93.5 63.5t76 79h283l-27 -952h250v-238h-850v238h295l21 639l-8 2l-39 -64q-43 -35 -109.5 -58.5t-126.5 -37.5z" />
<glyph unicode="2" d="M53 0v244q154 98 257.5 176t166 142.5t89 118.5t26.5 107q0 96 -65.5 139.5t-182.5 43.5q-92 0 -172 -22.5t-117 -37.5l56 258q41 12 119.5 25.5t164.5 13.5q102 0 192.5 -24.5t158 -74.5t106.5 -126t39 -178q0 -78 -23.5 -147.5t-74 -136t-126 -134.5t-180.5 -139 q4 -8 5 -12h309l157 16v-252h-905z" />
<glyph unicode="3" d="M53 283q10 -4 42 -14.5t77 -20.5t102.5 -18.5t120.5 -8.5q45 0 88 7.5t75 23.5t51.5 43t19.5 65q0 39 -18.5 65t-50.5 40t-75 20.5t-90 6.5h-162v219h152q45 0 86 5t72.5 19.5t50 40t18.5 66.5q0 68 -57 99.5t-147 31.5q-102 0 -189.5 -20.5t-140.5 -37.5l57 263 q39 6 86 14q41 6 95.5 11t117.5 5q98 0 185.5 -18.5t154 -59t104 -105t37.5 -155.5q0 -88 -45 -155.5t-120 -102.5v-8q35 -16 68.5 -38.5t59 -54.5t41 -76t15.5 -99q0 -98 -45 -166t-119 -110t-168 -60t-190 -18q-92 0 -175 7t-133 21z" />
<glyph unicode="4" d="M45 201v270l430 719h371v-766h119v-223h-121v-201h-287v201h-512zM281 434l4 -10h280v401l23 82q-2 0 -5 1t-5 1l-250 -440z" />
<glyph unicode="5" d="M66 274q53 -16 110 -28q49 -10 109.5 -18.5t124.5 -8.5q98 0 168.5 36t70.5 116q0 92 -94 125.5t-254 33.5h-151v660h718v-254l-157 16h-265v-202q92 -2 182.5 -25t162 -68t116.5 -114.5t45 -167.5q0 -102 -43 -176t-113.5 -122t-164.5 -71.5t-195 -23.5q-117 0 -189.5 9 t-133.5 23z" />
<glyph unicode="6" d="M55 567q0 135 32 252t101.5 203t180 136t270.5 50q66 0 130.5 -7t100.5 -15l39 -256q-47 16 -111.5 27.5t-129.5 11.5q-141 0 -214 -55.5t-85 -174.5q29 4 57.5 5t50.5 1q104 0 195.5 -19t159 -62t106.5 -114t39 -171q0 -88 -32 -162t-90 -126t-140 -80.5t-183 -28.5 q-129 0 -220 46t-148.5 124.5t-83 185t-25.5 229.5zM352 528q0 -66 8.5 -123t30 -99t59 -65.5t95.5 -23.5q63 0 102 47.5t39 106.5q0 47 -17.5 78.5t-47 50t-70.5 27t-86 8.5q-29 0 -62.5 -2.5t-50.5 -4.5z" />
<glyph unicode="7" d="M68 934v256h864v-256q-115 -109 -180.5 -231.5t-100.5 -244.5t-44 -233.5t-9 -197.5v-27h-303v29q0 231 62.5 458.5t217.5 425.5l60 27l-2 12h-412z" />
<glyph unicode="8" d="M45 309q0 90 52.5 163t131.5 120v10q-63 37 -109 101.5t-46 156.5q0 86 35.5 151.5t97 109.5t142.5 65.5t171 21.5q86 0 166 -17t141.5 -56t98.5 -100.5t37 -149.5q0 -92 -50.5 -157.5t-113.5 -106.5v-9q74 -45 122 -111.5t48 -164.5q0 -88 -39 -154.5t-103.5 -110.5 t-150.5 -66.5t-178 -22.5t-174 17t-144.5 56t-98.5 101.5t-36 152.5zM309 336q0 -66 52.5 -94.5t121.5 -28.5q74 0 131.5 30.5t57.5 96.5q0 55 -52.5 90t-125.5 55l-39 11q-57 -23 -101.5 -64t-44.5 -96zM367 868q0 -57 48 -91t115 -50l33 -8q23 6 46.5 19.5t44 30.5 t32.5 39.5t12 49.5q0 59 -47 93t-119 34q-66 0 -115.5 -28.5t-49.5 -88.5z" />
<glyph unicode="9" d="M35 811q0 88 31.5 162t90 126t140.5 80.5t182 28.5q129 0 220.5 -46t148.5 -125t82.5 -185.5t25.5 -228.5q0 -135 -31.5 -252t-101 -203t-180.5 -136t-270 -50q-66 0 -130.5 7t-101.5 15l-39 256q47 -16 112 -27.5t130 -11.5q141 0 214 55.5t85 174.5q-29 -4 -57.5 -5.5 t-50.5 -1.5q-104 0 -195.5 19.5t-159 62.5t-106.5 113t-39 172zM326 819q0 -47 17 -78.5t47 -50t70 -27t87 -8.5q29 0 62.5 2t49.5 5q0 66 -8 123t-29.5 99t-59.5 65.5t-95 23.5q-63 0 -102 -47.5t-39 -106.5z" />
<glyph unicode=":" horiz-adv-x="415" d="M66 117q0 66 42 104.5t111 38.5q66 0 101.5 -36t35.5 -101q0 -63 -39.5 -102t-105.5 -39q-70 0 -107.5 35.5t-37.5 99.5zM66 782q0 66 42 105t111 39q66 0 101.5 -36t35.5 -102q0 -63 -39.5 -102t-105.5 -39q-70 0 -107.5 36t-37.5 99z" />
<glyph unicode=";" horiz-adv-x="415" d="M66 119q0 66 42 106.5t107 40.5q63 0 101 -38t38 -101q0 -41 -11 -68.5t-34 -64.5l-98 -152l-105 13l50 145q-35 10 -62.5 36.5t-27.5 82.5zM66 784q0 63 42 103.5t109 40.5q66 0 102.5 -37t36.5 -103q0 -63 -39.5 -102t-105.5 -39q-70 0 -107.5 36t-37.5 101z" />
<glyph unicode="&#x3c;" d="M123 600l635 479l98 -145l-446 -334l450 -334l-104 -145z" />
<glyph unicode="=" d="M96 330v164h822v-164h-822zM96 664v163h822v-163h-822z" />
<glyph unicode="&#x3e;" d="M152 266l450 334l-446 334l98 145l635 -479l-633 -479z" />
<glyph unicode="?" horiz-adv-x="858" d="M37 1034l35 244q39 10 110.5 23.5t157.5 13.5q100 0 186 -25.5t149.5 -77t98.5 -126t35 -173.5q0 -74 -27.5 -139t-77 -117.5t-115 -90.5t-140.5 -56l-19 -150h-237v299q57 8 113 27t100.5 46.5t72 68.5t27.5 96q0 98 -66.5 139t-167.5 41q-70 0 -131 -13t-104 -30z M166 117q0 66 42 104.5t109 38.5q66 0 103 -36t37 -101q0 -63 -40 -102t-106 -39q-70 0 -107.5 35.5t-37.5 99.5z" />
<glyph unicode="@" horiz-adv-x="1200" d="M41 340q0 135 41 254t119 208t190.5 141t255.5 52q123 0 220.5 -40t165 -110.5t102 -164.5t34.5 -205q0 -92 -26.5 -177t-80.5 -149.5t-134 -104.5t-185 -42l-28 102h-8q-14 -37 -53.5 -70.5t-112.5 -33.5q-53 0 -93 25.5t-67 67.5t-40 96.5t-13 111.5q0 86 22.5 158.5 t67.5 125t109.5 81t150.5 28.5q59 0 103 -4t67 -8l-10 -135v-291l16 -80q76 29 111.5 107.5t35.5 185.5q0 371 -358 371q-106 0 -187 -39t-134.5 -106.5t-81 -160t-27.5 -198.5q0 -104 25.5 -193.5t76 -154t126 -101.5t177.5 -37q123 0 222.5 32t167.5 69v-168 q-72 -35 -176.5 -60.5t-221.5 -25.5q-143 0 -250.5 49t-178 135t-105.5 204t-35 255zM502 313q0 -72 20.5 -115.5t61.5 -43.5q57 0 74.5 62.5t17.5 186.5v140h-10q-4 0 -9.5 1t-11.5 1q-78 0 -110.5 -67.5t-32.5 -164.5z" />
<glyph unicode="A" horiz-adv-x="1175" d="M8 0l354 1296h490l315 -1296h-389v172l-22 145h-324l-78 -317h-346zM489 569h218l-86 441l-9 82h-8l-8 -82z" />
<glyph unicode="B" horiz-adv-x="1144" d="M90 0l16 170v1126h545q90 0 166 -20.5t131.5 -62.5t87 -107.5t31.5 -155.5q0 -102 -46 -172.5t-116 -99.5v-8q82 -37 134.5 -111t52.5 -197q0 -172 -106.5 -267t-307.5 -95h-588zM430 760h166q72 0 108.5 40t36.5 101q0 66 -38.5 104.5t-114.5 38.5h-158v-284zM432 250 h156q86 0 130 36t44 113q0 74 -46 114t-128 40h-156v-303z" />
<glyph unicode="C" horiz-adv-x="1044" d="M41 604q0 160 41 291t121 224t196.5 144.5t270.5 51.5q109 0 195.5 -15.5t150.5 -35.5l-70 -267q-33 16 -100.5 34t-134.5 18q-164 0 -246 -117t-82 -307q0 -78 16.5 -145.5t51 -119t87 -80t126.5 -28.5q53 0 101 14.5t89 36t72.5 48t50.5 50.5l59 -295 q-25 -20 -64.5 -41.5t-92 -40t-116 -30.5t-136.5 -12q-129 0 -237.5 42t-185.5 121.5t-120 195.5t-43 263z" />
<glyph unicode="D" horiz-adv-x="1198" d="M90 0l19 170v1126h415q315 0 474 -164.5t159 -498.5q0 -305 -152.5 -469t-453.5 -164h-461zM432 260h113q152 2 213 97.5t61 279.5q0 205 -61.5 302t-214.5 97h-111v-776z" />
<glyph unicode="E" horiz-adv-x="1015" d="M90 0l16 170v1126h852v-260h-528v-258h483v-241h-483v-277h549v-260h-889z" />
<glyph unicode="F" horiz-adv-x="946" d="M90 0l16 170v1126h816v-260h-490v-284h438v-242h-438v-510h-342z" />
<glyph unicode="G" horiz-adv-x="1136" d="M31 616q0 156 42 285t124 221t204.5 142.5t286.5 50.5q78 0 169 -13.5t192 -41.5l-64 -269q-41 16 -109.5 37t-164.5 21q-178 0 -260 -117t-82 -309q0 -76 12 -143.5t41 -120t78 -83t121 -30.5q37 0 73.5 7t65.5 23v211h-174v236h469v-625q-88 -47 -203 -82.5t-254 -35.5 q-121 0 -224.5 35.5t-180 112.5t-119.5 197.5t-43 290.5z" />
<glyph unicode="H" horiz-adv-x="1189" d="M90 0l16 170v1126h326v-499h328v499h340l-17 -170v-1126h-323v543h-328v-543h-342z" />
<glyph unicode="I" horiz-adv-x="538" d="M90 0l16 170v1126h326v-1296h-342z" />
<glyph unicode="J" horiz-adv-x="714" d="M-23 258q16 -4 39 -7t37 -3q109 0 166 43t57 153v592l-262 25v235h602l-16 -170v-688q0 -121 -39 -207t-107.5 -141t-161.5 -80.5t-200 -25.5q-20 0 -44.5 2t-33.5 4z" />
<glyph unicode="K" horiz-adv-x="1110" d="M90 0l16 170v1126h326v-493h12l21 82l233 411h379l-352 -520l377 -776h-369l-217 518h-8l-76 -115v-403h-342z" />
<glyph unicode="L" horiz-adv-x="870" d="M90 0l19 170v1126h323v-1036h418v-260h-760z" />
<glyph unicode="M" horiz-adv-x="1630" d="M66 0l22 170l51 1126h477l181 -843l8 -70h10l8 70l203 843h494l-13 -170l31 -1126h-324v1028h-10l-8 -65l-252 -963h-276l-228 961l-8 69h-10l-19 -1030h-337z" />
<glyph unicode="N" horiz-adv-x="1214" d="M90 0l19 168v1128h399l315 -890h13l-11 79l-37 811h336l-18 -170v-1126h-397l-318 911h-12l12 -86l39 -825h-340z" />
<glyph unicode="O" horiz-adv-x="1220" d="M41 637q0 154 39 278.5t114.5 214t187.5 137.5t257 48q141 0 243.5 -46t168 -131t97.5 -207t32 -274q0 -154 -39 -278.5t-114 -212.5t-186.5 -136t-256.5 -48q-139 0 -241.5 45t-169.5 129t-99.5 205.5t-32.5 275.5zM387 639q0 -74 8 -144.5t32 -127t63.5 -90 t105.5 -33.5q68 0 113 35.5t72.5 95t40 133.5t12.5 151q0 74 -9.5 144.5t-33 126t-64.5 89.5t-104 34q-68 0 -114 -36t-72.5 -94.5t-38 -133t-11.5 -150.5z" />
<glyph unicode="P" horiz-adv-x="1101" d="M90 0l19 170v1126h505q209 0 333 -110.5t124 -319.5q0 -102 -32.5 -180t-93 -130t-144.5 -78.5t-187 -26.5h-180v-451h-344zM434 709h123q90 0 137 38.5t47 124.5q0 88 -50 127t-138 39h-119v-329z" />
<glyph unicode="Q" horiz-adv-x="1220" d="M41 635q0 156 39 281.5t114.5 214t186.5 136.5t254 48t246.5 -46t169 -131t97.5 -207t32 -274q0 -254 -94.5 -413.5t-268.5 -225.5l-4 -12l127 -239h-305l-96 217q-133 8 -227.5 57t-155 133t-88 201t-27.5 260zM385 639q0 -74 8 -144.5t32 -126t64.5 -89t106.5 -33.5 q70 0 116 35.5t73.5 94t39 132.5t11.5 151q0 74 -9.5 144.5t-34 126t-65.5 89.5t-104 34q-70 0 -116 -36t-72.5 -94.5t-38 -133t-11.5 -150.5z" />
<glyph unicode="R" horiz-adv-x="1148" d="M90 0l16 170v1126h521q96 0 177 -21.5t139 -66.5t91 -114.5t33 -165.5q0 -119 -55.5 -200t-151.5 -110v-8q68 -25 99.5 -77t56.5 -160l86 -373h-334l-70 348q-10 49 -23 80t-35 49.5t-52.5 25.5t-73.5 7h-82v-510h-342zM432 727h141q86 0 128 42t42 118q0 155 -163 155 h-2h-146v-315z" />
<glyph unicode="S" horiz-adv-x="993" d="M27 29l63 266q20 -10 57 -20.5t81 -18.5t92.5 -12t95.5 -4q41 0 78.5 7t66.5 22.5t46.5 38t17.5 52.5q0 31 -15.5 54.5t-41 42t-61.5 35t-77 34.5q-57 25 -122.5 56.5t-122 75.5t-94.5 104.5t-38 144.5q0 104 40 181t114 127.5t176 75t227 24.5q49 0 97.5 -4t92.5 -10.5 t78.5 -13.5t57.5 -13l-59 -258q-41 12 -114 27.5t-177 15.5q-39 0 -76 -6t-64.5 -20.5t-44 -36t-16.5 -54.5q0 -29 18.5 -51.5t47 -43t66.5 -37.5t77 -34q59 -25 123.5 -56.5t118 -75.5t88 -105.5t34.5 -147.5q0 -111 -44 -188.5t-119.5 -126.5t-177 -71.5t-216.5 -22.5 t-216 13t-158 34z" />
<glyph unicode="T" horiz-adv-x="894" d="M14 1036v260h867v-260h-271v-1036h-342l17 170v866h-271z" />
<glyph unicode="U" horiz-adv-x="1181" d="M80 1296h344v-831q0 -106 30.5 -159.5t127.5 -53.5q96 0 136 53t40 160v661l-17 170h342v-841q0 -242 -131 -357.5t-379 -115.5t-361.5 114.5t-113.5 356.5v673z" />
<glyph unicode="V" horiz-adv-x="1112" d="M8 1296h350l174 -942l7 -90h12l8 90l164 768l10 174h371l-332 -1296h-455z" />
<glyph unicode="W" horiz-adv-x="1775" d="M25 1296h360l135 -1030h12l5 82l133 774l6 174h409l144 -948l4 -82h14l123 856l6 174h375l-268 -1296h-439l-143 924l-8 84h-12l-9 -84l-155 -924h-436z" />
<glyph unicode="X" horiz-adv-x="1155" d="M8 0l326 692l-287 604h365l147 -354l14 -78h13l14 76l86 184l51 172h393l-305 -604l322 -692h-383l-164 428l-14 70h-11l-14 -70l-92 -238l-51 -190h-410z" />
<glyph unicode="Y" horiz-adv-x="1075" d="M6 1296h348l162 -497l8 -84h11l12 84l119 327l36 170h367l-373 -843v-453h-334v453z" />
<glyph unicode="Z" horiz-adv-x="1001" d="M31 0v256l506 737l53 31l-4 12h-537v260h903v-252l-506 -739l-65 -33l4 -12h356l230 23v-283h-940z" />
<glyph unicode="[" horiz-adv-x="487" d="M111 -211v1401h342v-164h-168v-1075h168v-162h-342z" />
<glyph unicode="\" horiz-adv-x="649" d="M-4 1190h180l477 -1190h-184z" />
<glyph unicode="]" horiz-adv-x="487" d="M35 -49h168v1075h-168v164h342v-1401h-342v162z" />
<glyph unicode="^" d="M27 377l479 633l479 -633l-145 -105l-334 451l-334 -447z" />
<glyph unicode="_" horiz-adv-x="1128" d="M0 -195h1128v-163h-1128v163z" />
<glyph unicode="`" horiz-adv-x="1054" d="M268 1206l86 191l432 -217l-73 -82z" />
<glyph unicode="a" horiz-adv-x="991" d="M39 270q0 102 44 169t121 107t179 55t217 15q-2 96 -55 127t-158 31q-82 0 -163 -16.5t-128 -32.5l54 244q41 6 83 12q37 4 83 9t92 5q125 0 217 -19.5t151.5 -68.5t88 -131t28.5 -207v-413l16 -156h-221l-45 125h-10q-47 -61 -117 -102t-172 -41q-133 0 -219 74.5 t-86 213.5zM328 309q0 -49 29.5 -76.5t76.5 -27.5q92 0 130 66.5t38 181.5q-51 0 -100 -4.5t-88 -19.5t-62.5 -43t-23.5 -77z" />
<glyph unicode="b" horiz-adv-x="1019" d="M82 10l18 178v1194h295v-479h13q4 6 21 21.5t47 31t70 27.5t91 12q84 0 148.5 -30.5t109.5 -87t67.5 -134t22.5 -172.5q0 -127 -31.5 -234.5t-102.5 -186t-184.5 -123.5t-275.5 -45q-39 0 -81 2t-83 6t-77.5 9t-67.5 11zM383 375q0 -25 1 -71t3 -83q10 -2 19 -2 q8 -2 17 -2h19q68 0 114 25.5t74.5 68.5t42 101.5t13.5 124.5q0 100 -30.5 162.5t-104.5 62.5q-51 0 -84 -32t-51.5 -86t-25.5 -123.5t-7 -145.5z" />
<glyph unicode="c" horiz-adv-x="837" d="M35 463q0 121 34.5 219t100.5 168t163 107.5t220 37.5q92 0 156.5 -12t93.5 -20l-51 -236q-33 16 -77 27.5t-93 11.5q-127 0 -187.5 -80t-60.5 -205q0 -117 53 -191.5t164 -74.5q74 0 137.5 34t97.5 77l43 -240q-10 -10 -37.5 -27.5t-70.5 -34t-101.5 -29.5t-130.5 -13 q-104 0 -189 34.5t-143.5 98t-90 152.5t-31.5 196z" />
<glyph unicode="d" horiz-adv-x="1017" d="M35 414q0 127 33.5 234.5t103.5 184t172 119.5t242 43h43v387h307l-14 -178v-1204h-189l-37 119h-10q-35 -49 -103.5 -93t-176.5 -44q-86 0 -156 31.5t-117 89t-72.5 137t-25.5 174.5zM332 444q0 -96 29.5 -162.5t103.5 -66.5q53 0 87 32t52.5 85t25.5 123.5t7 148.5 q0 45 -2 83t-4 69q-8 0 -17 2q-8 0 -16 1t-16 1q-68 0 -115 -24.5t-77 -67.5t-44 -100.5t-14 -123.5z" />
<glyph unicode="e" horiz-adv-x="964" d="M35 479q0 111 31.5 205t92 162.5t150.5 108.5t207 40q115 0 193.5 -37.5t127 -103.5t70 -156t21.5 -194v-80h-486l-100 -14q4 -113 75.5 -155t200.5 -42q82 0 163 14.5t124 28.5l-53 -238q-16 -4 -46 -10t-68 -12t-82 -10t-87 -4q-262 0 -398 128t-136 369zM342 590h301 l8 10q0 76 -31.5 125t-105.5 49t-118 -51t-54 -133z" />
<glyph unicode="f" horiz-adv-x="591" d="M16 748v215l103 16v63q0 178 104.5 268.5t296.5 90.5q8 0 16.5 -1t16.5 -1h18l33 -236q-8 2 -23.5 4t-31.5 2q-63 0 -99 -29.5t-36 -95.5q0 -16 6 -37.5t10 -29.5h160v-229h-174v-748h-316l19 176v572h-103z" />
<glyph unicode="g" horiz-adv-x="1050" d="M35 -80q0 98 76.5 162.5t210.5 101.5v101q-119 29 -189 103.5t-70 215.5q0 193 126 292t368 99q39 0 93.5 -2t116.5 -5t126.5 -7t122.5 -10v-195l-115 -14v-12q16 -23 30.5 -62t14.5 -96q0 -137 -82 -210t-217 -97v-64l111 -37q102 -35 163.5 -92t61.5 -155 q0 -78 -40 -134.5t-107.5 -92.5t-155.5 -52t-182 -16q-90 0 -174 15t-148.5 48t-102.5 86t-38 129zM324 -45q0 -51 50 -70.5t124 -19.5q37 0 70.5 5t61 15.5t44 25.5t16.5 38q0 35 -33.5 55.5t-85.5 32.5l-159 41q-37 -23 -62.5 -55.5t-25.5 -67.5zM348 606q0 -57 36 -97 t120 -40q66 0 114 33t48 104q0 164 -150 164q-92 0 -130 -41t-38 -123z" />
<glyph unicode="h" horiz-adv-x="1040" d="M104 0v1382h312l-17 -157v-348h11q35 47 101.5 83.5t152.5 36.5q147 0 216.5 -87t69.5 -236v-674h-299v627q0 59 -21.5 97t-80.5 38q-47 0 -76 -20.5t-45 -56.5t-22.5 -82t-6.5 -95v-508h-295z" />
<glyph unicode="i" horiz-adv-x="487" d="M51 1204l197 199l198 -199l-198 -196zM86 0l16 147v830h295v-977h-311z" />
<glyph unicode="j" horiz-adv-x="585" d="M-20 -125q33 -6 59 -6q72 0 102.5 39t30.5 110v730l-152 24v205h472l-25 -178v-783q0 -199 -95.5 -288.5t-293.5 -89.5q-8 0 -27.5 1t-30.5 3zM123 1204l196 199l199 -199l-199 -196z" />
<glyph unicode="k" horiz-adv-x="1003" d="M82 0l18 176v1206h293v-729l13 -2l16 60l188 266h375l-305 -340l319 -637h-327l-201 395h-10l-68 -78v-317h-311z" />
<glyph unicode="l" horiz-adv-x="501" d="M82 0l22 176v1206h293v-1382h-315z" />
<glyph unicode="m" horiz-adv-x="1556" d="M82 977h221l37 -121h10q37 55 107.5 97t175.5 42q92 0 159.5 -36.5t100.5 -102.5h10q41 55 109.5 97t167.5 42q145 0 215.5 -78.5t70.5 -228.5v-688h-297v643q0 53 -24.5 86t-75.5 33q-43 0 -69.5 -16.5t-42 -46t-21.5 -70.5t-6 -92v-537h-295v643q0 53 -23.5 86 t-76.5 33q-84 0 -113 -61.5t-29 -163.5v-537h-295v799z" />
<glyph unicode="n" horiz-adv-x="1036" d="M82 977h221l37 -123h10q43 57 117 99t182 42q150 0 223.5 -84t73.5 -237v-674h-299v647q0 53 -24.5 84t-77.5 31q-41 0 -70 -18.5t-46 -50t-25.5 -73.5t-8.5 -92v-528h-295v799z" />
<glyph unicode="o" horiz-adv-x="1001" d="M35 479q0 113 31.5 208t93 164t151.5 106.5t207 37.5t202 -34.5t140 -99t81 -157t26 -204.5q0 -113 -33 -208t-95.5 -164t-153.5 -107.5t-208 -38.5q-119 0 -203 35.5t-137 100t-77.5 156.5t-24.5 205zM334 485q0 -55 6 -105t23.5 -88t48 -59.5t77.5 -21.5 q100 0 140.5 80t40.5 201q0 55 -7.5 105t-26 87t-49 58.5t-79.5 21.5q-51 0 -85 -22.5t-53.5 -61.5t-27.5 -89.5t-8 -105.5z" />
<glyph unicode="p" horiz-adv-x="1017" d="M82 -340l16 178v1139h185l43 -119h10q18 23 47 47.5t64.5 44t79.5 32.5t98 13q88 0 154.5 -32.5t111.5 -90t68.5 -136.5t23.5 -173q0 -129 -34 -232.5t-102.5 -177t-172 -113.5t-242.5 -40h-43v-340h-307zM381 373q0 -45 2 -89.5t4 -62.5q8 -2 16 -2q10 -2 33 -2 q68 0 115 24.5t76.5 67.5t44 100.5t14.5 122.5q0 96 -31.5 163t-103.5 67q-55 0 -88 -33t-51.5 -87t-24.5 -123.5t-6 -145.5z" />
<glyph unicode="q" horiz-adv-x="1019" d="M35 406q0 125 31.5 233.5t102.5 187t183.5 123.5t276.5 45q94 0 177 -8t132 -16l-20 -176v-1135h-295v414h-13q-4 -6 -21.5 -21.5t-46 -31t-67.5 -27.5t-88 -12q-84 0 -149.5 30.5t-110.5 87t-68.5 134t-23.5 172.5zM332 440q0 -100 30.5 -162.5t104.5 -62.5q51 0 84 32 t51.5 86t25.5 123.5t7 145.5v33.5t-1 44t-2 43.5t-1 33q-10 0 -19 2q-8 0 -17 1t-20 1q-68 0 -113.5 -25.5t-74.5 -68.5t-42 -101.5t-13 -124.5z" />
<glyph unicode="r" horiz-adv-x="698" d="M82 977h233l33 -123h10q37 61 111 101t190 40l33 -266q-8 2 -28.5 4t-36.5 2q-133 0 -182.5 -68.5t-49.5 -195.5v-471h-295v801z" />
<glyph unicode="s" horiz-adv-x="839" d="M23 29l55 219q16 -6 45 -14.5t62.5 -15.5t69.5 -12t71 -5q33 0 64.5 3t57 12t42 25.5t16.5 41.5q0 37 -40 59.5t-104 46.5q-57 23 -113 48.5t-101.5 59t-73 81t-27.5 114.5q0 82 38 139.5t100.5 94.5t144.5 53t170 16q104 0 168.5 -11t113.5 -23l-51 -226 q-41 16 -103.5 28.5t-121.5 12.5q-61 0 -108.5 -13t-47.5 -56q0 -39 42 -58.5t100 -42.5q57 -23 114.5 -48.5t102.5 -60t73.5 -82.5t28.5 -116q0 -88 -39 -148.5t-103.5 -98.5t-148.5 -54t-172 -16q-53 0 -103 5t-94.5 12t-78 15.5t-49.5 14.5z" />
<glyph unicode="t" horiz-adv-x="612" d="M12 748v215l107 14l39 213l260 106v-319h164v-229h-160v-408q0 -133 135 -133q14 0 30.5 2t28.5 6l-41 -229q-10 -2 -30.5 -3t-36.5 -1q-88 0 -160 16t-122 56t-77.5 108.5t-27.5 175.5v410h-109z" />
<glyph unicode="u" horiz-adv-x="1038" d="M90 303v674h299v-643q0 -53 24.5 -86t78.5 -33q82 0 115.5 66.5t33.5 169.5v526h295v-801l20 -176h-225l-35 123h-8q-43 -57 -118.5 -99t-184.5 -42q-150 0 -222.5 84t-72.5 237z" />
<glyph unicode="v" horiz-adv-x="962" d="M8 977h318l135 -635l8 -72h10l10 72l107 446l14 189h344l-290 -977h-381z" />
<glyph unicode="w" horiz-adv-x="1552" d="M18 977h314l125 -721h10l6 76l98 469l11 176h364l121 -645l4 -76h8l107 528l12 193h336l-240 -977h-381l-122 670l-7 71h-10l-6 -71l-141 -670h-381z" />
<glyph unicode="x" horiz-adv-x="972" d="M4 0l258 524l-248 453h332l113 -264l16 -64h10l17 64l61 112l49 152h349l-256 -453l264 -524h-320l-151 319l-15 66h-10l-12 -66l-70 -169l-35 -150h-352z" />
<glyph unicode="y" horiz-adv-x="956" d="M8 977h311l173 -608h10v67l82 365l10 176h354l-319 -993q-31 -96 -76 -162t-106.5 -106t-141.5 -56t-182 -16q-10 0 -27.5 1t-25.5 3l-37 229q39 -8 86 -8q86 0 133 35t70 112l8 33z" />
<glyph unicode="z" horiz-adv-x="872" d="M29 0v236l436 473l45 24v12h-465v232h795v-244l-426 -469l-43 -18v-10h286l187 16v-252h-815z" />
<glyph unicode="{" horiz-adv-x="485" d="M10 485v9l70 77q29 33 33 50.5t4 52.5v321q0 104 47 149.5t151 45.5h136v-164h-99q-37 0 -49 -12.5t-12 -48.5v-324q0 -37 -6 -57.5t-35 -55.5l-35 -39l35 -40q27 -35 34 -54.5t7 -56.5v-324q0 -37 12 -50t49 -13h99v-162h-136q-104 0 -151 45t-47 150v321q0 35 -4 52.5 t-33 50.5z" />
<glyph unicode="|" horiz-adv-x="387" d="M106 -264v1454h175v-1454h-175z" />
<glyph unicode="}" horiz-adv-x="485" d="M35 -49h98q37 0 49.5 13t12.5 50v324q0 18 1 31.5t5 26t12 24.5t23 29l34 40l-34 39q-29 35 -35 55.5t-6 57.5v324q0 37 -12.5 49t-49.5 12h-98v164h135q104 0 151.5 -45t47.5 -150v-321q0 -35 4 -52.5t33 -50.5l69 -77v-9l-69 -77q-29 -33 -33 -50.5t-4 -52.5v-321 q0 -104 -47.5 -149.5t-151.5 -45.5h-135v162z" />
<glyph unicode="~" d="M106 479v170q18 12 79 38t143 26q45 0 92 -13.5t95 -30t95 -29.5t90 -13q68 0 125.5 24.5t87.5 44.5v-170q-16 -14 -76.5 -38.5t-142.5 -24.5q-43 0 -91 13t-96 29.5t-95 30t-93 13.5q-66 0 -124 -23.5t-89 -46.5z" />
<glyph unicode="&#xa1;" horiz-adv-x="507" d="M66 -319l69 935h248l-14 -935h-303zM119 854q0 63 39.5 102t105.5 39q70 0 108 -35.5t38 -99.5q0 -66 -42 -104.5t-112 -38.5q-66 0 -101.5 35.5t-35.5 101.5z" />
<glyph unicode="&#xa2;" d="M90 528q0 233 114.5 378t315.5 181v209h150v-194q68 -2 141.5 -16.5t126.5 -30.5l-57 -236q-37 16 -88.5 29.5t-112.5 13.5q-72 0 -124 -24.5t-87 -68.5t-52.5 -103.5t-17.5 -128.5q0 -145 64.5 -229.5t206.5 -84.5q80 0 145.5 39t95.5 84l54 -260q-43 -33 -115 -63.5 t-180 -38.5v-197h-150v199q-96 14 -175 54t-136 106.5t-88 161.5t-31 220z" />
<glyph unicode="&#xa3;" d="M39 475l16 143h146v93q0 205 118.5 298t327.5 93q76 0 160 -11.5t143 -27.5l-53 -217q-41 8 -86 13t-109 5q-104 0 -151 -41t-47 -133v-72h383l-17 -143h-366v-235h280l174 14v-254h-895l17 203l121 30v242h-162z" />
<glyph unicode="&#xa4;" d="M82 889l123 123l125 -127q82 51 180 51q94 0 178 -51l127 127l117 -117l-127 -125q57 -86 57 -184q0 -96 -53 -178l123 -123l-123 -121l-123 121q-76 -49 -176 -49t-184 53l-125 -123l-117 117l127 125q-51 84 -51 178q0 96 49 176zM326 586q0 -78 53 -131.5t131 -53.5 t132 53.5t54 131.5t-54 131t-132 53t-131 -53t-53 -131z" />
<glyph unicode="&#xa5;" d="M37 1083h313l142 -376l10 -64h8l12 64l78 202l41 174h336l-152 -329h140l-19 -142h-182l-66 -137h267l-19 -143h-287v-332h-305v332h-305l19 143h245l-65 137h-199l19 142h118z" />
<glyph unicode="&#xa6;" horiz-adv-x="387" d="M106 -264v612h175v-612h-175zM106 580v610h175v-610h-175z" />
<glyph unicode="&#xa7;" horiz-adv-x="782" d="M55 526q0 72 37 136.5t84 107.5q-29 35 -46 75t-17 91q0 68 30.5 119t80.5 85t116 51t137 17q74 0 123 -7t96 -17l-43 -164q-23 8 -67.5 17.5t-102.5 9.5q-70 0 -123 -24t-53 -85q0 -51 36 -83t118 -77q61 -35 110.5 -66.5t84 -68.5t53 -81t18.5 -105q0 -72 -36 -138.5 t-83 -107.5q29 -35 45.5 -74t16.5 -90q0 -68 -30 -120t-80 -86t-115.5 -51t-137.5 -17t-127 7t-94 17l43 164q23 -8 69 -17.5t101 -9.5q72 0 125 24t53 87q0 49 -35.5 80t-113.5 76q-61 33 -111.5 65.5t-86.5 70.5t-55.5 83t-19.5 106zM240 532q0 -55 45 -94t131 -90l61 -37 q31 31 49.5 64t18.5 74q0 55 -42 94t-128 86l-70 39q-33 -31 -49 -63t-16 -73z" />
<glyph unicode="&#xa8;" horiz-adv-x="1054" d="M299 1120v266h176v-266h-176zM580 1120v266h176v-266h-176z" />
<glyph unicode="&#xa9;" horiz-adv-x="1091" d="M55 899q0 104 38 195.5t104.5 159t156 106.5t191.5 39q100 0 190 -39t156.5 -106.5t105.5 -158.5t39 -196q0 -104 -39 -194.5t-105.5 -158t-156.5 -106.5t-190 -39q-102 0 -191.5 39t-156 106.5t-104.5 158t-38 194.5zM160 899q0 -84 29.5 -155.5t82 -124t123 -83 t150.5 -30.5t150.5 30.5t122.5 83t83 124t31 155.5q0 82 -31 153.5t-83 125t-122.5 84t-150.5 30.5t-150.5 -30.5t-123 -84t-82 -125t-29.5 -153.5zM307 877q0 135 73 217t202 82q47 0 86 -7.5t65 -13.5l-22 -113q-23 8 -47.5 14.5t-57.5 6.5q-76 0 -114.5 -48t-38.5 -130 q0 -66 35.5 -111t101.5 -45q41 0 75.5 17.5t51.5 37.5l22 -118q-20 -16 -65 -35t-109 -19q-111 0 -184.5 70t-73.5 195z" />
<glyph unicode="&#xaa;" horiz-adv-x="600" d="M23 760q0 63 27.5 104t73.5 65.5t108.5 34t134.5 9.5q-2 59 -35 77.5t-96 18.5q-49 0 -99.5 -10t-79.5 -21l37 150q25 4 49 8q23 4 49.5 6t55.5 2q76 0 132 -12t93 -42t54.5 -80t17.5 -126v-254l10 -94h-135l-29 76h-8q-29 -37 -70 -62.5t-104 -25.5q-80 0 -133 45 t-53 131zM199 784q0 -31 18.5 -47t46.5 -16q57 0 80 40.5t23 110.5q-31 0 -62 -2t-54.5 -11t-37.5 -26.5t-14 -48.5z" />
<glyph unicode="&#xab;" horiz-adv-x="1067" d="M53 553l430 465l123 -121l-321 -344l323 -348l-127 -119zM459 553l428 465l125 -121l-324 -344l326 -348l-127 -119z" />
<glyph unicode="&#xac;" d="M90 653v164h803v-465h-172v301h-631z" />
<glyph unicode="&#xad;" horiz-adv-x="655" d="M74 412v163h508v-163h-508z" />
<glyph unicode="&#xae;" horiz-adv-x="1091" d="M55 899q0 104 38 195.5t104.5 159t156 106.5t191.5 39q100 0 190 -39t156.5 -106.5t105.5 -158.5t39 -196q0 -104 -39 -194.5t-105.5 -158t-156.5 -106.5t-190 -39q-102 0 -191.5 39t-156 106.5t-104.5 158t-38 194.5zM160 899q0 -84 29.5 -155.5t82 -124t123 -83 t150.5 -30.5t150.5 30.5t122.5 83t83 124t31 155.5q0 82 -31 153.5t-83 125t-122.5 84t-150.5 30.5t-150.5 -30.5t-123 -84t-82 -125t-29.5 -153.5zM350 627l6 69v471h224q82 0 133 -35.5t51 -117.5q0 -51 -24.5 -84t-65.5 -45v-8q29 -10 42 -30t23 -67l35 -153h-139 l-27 145q-8 39 -24.5 52.5t-53.5 13.5h-36v-211h-144zM494 930h61q72 0 72 67q0 63 -70 64h-63v-131z" />
<glyph unicode="&#xaf;" horiz-adv-x="1054" d="M236 1180v170h583v-170h-583z" />
<glyph unicode="&#xb0;" horiz-adv-x="626" d="M29 930q0 123 69.5 198.5t196.5 75.5q133 0 195.5 -75.5t62.5 -198.5q0 -125 -69.5 -198t-202.5 -73q-129 0 -190.5 74t-61.5 197zM152 465l135 141l137 -139l-137 -137zM190 930q0 -59 19.5 -104.5t73.5 -45.5q59 0 81.5 43t22.5 107q0 59 -17.5 105t-74.5 46 q-59 0 -82 -45t-23 -106z" />
<glyph unicode="&#xb1;" d="M106 0v164h799v-164h-799zM106 604v164h312v307h174v-307h311v-164h-311v-323h-174v323h-312z" />
<glyph unicode="&#xb2;" horiz-adv-x="540" d="M23 1036l36 146q10 4 52.5 12t101.5 8q53 0 102.5 -12t88 -39t61 -65.5t22.5 -90.5q0 -41 -10 -73.5t-34.5 -63.5t-64.5 -61.5t-99 -65.5l2 -8h151l86 10v-139h-485v139q88 49 143 84t88 62.5t45.5 51t12.5 48.5q0 47 -37 69.5t-97 22.5q-37 0 -83 -9t-82 -26z" />
<glyph unicode="&#xb3;" horiz-adv-x="544" d="M31 737q41 -12 86 -19t100 -7q14 0 35.5 2t40 9t32 20.5t13.5 35.5q0 39 -36 51.5t-89 12.5h-90v102h90q47 0 82 12.5t35 51.5q0 20 -11.5 33.5t-29 21.5t-37 10t-37.5 2q-45 0 -89 -8t-89 -23l31 140q23 4 64.5 10t100.5 6q51 0 99.5 -9t85.5 -28.5t58.5 -52.5t21.5 -82 q0 -43 -22.5 -76.5t-63.5 -52.5v-8q35 -14 65.5 -45t30.5 -86q0 -51 -24.5 -86t-65.5 -55.5t-92.5 -28.5t-104.5 -8q-47 0 -92 5t-72 11z" />
<glyph unicode="&#xb4;" horiz-adv-x="1054" d="M268 1182l432 217l86 -191l-444 -108z" />
<glyph unicode="&#xb5;" horiz-adv-x="1044" d="M82 -342l18 174v1145h301v-647q0 -55 29 -85t78 -30q45 0 73.5 18.5t45 52t21.5 81t5 104.5v506h287v-801l23 -176h-220l-34 123h-11q-29 -61 -83 -101t-140 -40q-29 0 -45 3t-33 7v-334h-315z" />
<glyph unicode="&#xb6;" horiz-adv-x="989" d="M45 782q0 80 27.5 146.5t79 115t125 76t167.5 27.5h510v-148l-102 -14v-1343h-164v1343h-147v-1343h-183l17 155v649q-166 0 -248 91.5t-82 244.5z" />
<glyph unicode="&#xb7;" horiz-adv-x="415" d="M63 573q0 66 42 105t112 39q66 0 101.5 -36t35.5 -101q0 -63 -39.5 -102.5t-105.5 -39.5q-70 0 -108 36t-38 99z" />
<glyph unicode="&#xb8;" horiz-adv-x="1056" d="M340 -340l22 107q16 -4 43 -7.5t54 -3.5q35 0 59.5 10.5t24.5 38.5q0 23 -20.5 33t-51.5 10q-18 0 -37.5 -2t-30.5 -4l27 158h137v-66q63 0 106.5 -37.5t43.5 -99.5q0 -76 -63.5 -115.5t-155.5 -39.5q-63 0 -102.5 7t-55.5 11z" />
<glyph unicode="&#xb9;" horiz-adv-x="516" d="M31 1071q49 10 104 40t92 77h152l-12 -463h125v-129h-441v129h152l8 291l-6 2l-19 -37q-23 -18 -61.5 -30.5t-69.5 -20.5z" />
<glyph unicode="&#xba;" horiz-adv-x="606" d="M20 887q0 137 76 225t217 88q145 0 209 -82t64 -219q0 -145 -73 -229t-224 -84q-143 0 -206 82t-63 219zM199 891q0 -68 19.5 -117t78.5 -49q61 0 85 49t24 121q0 68 -19.5 117t-79.5 49q-61 0 -84.5 -51t-23.5 -119z" />
<glyph unicode="&#xbb;" horiz-adv-x="1067" d="M53 205l326 348l-324 344l125 121l428 -465l-428 -467zM459 205l323 348l-321 344l123 121l430 -465l-428 -467z" />
<glyph unicode="&#xbc;" horiz-adv-x="1216" d="M31 1071q49 10 104 40t92 77h152l-12 -463h125v-129h-441v129h152l8 291l-6 2l-19 -37q-23 -18 -61.5 -30.5t-69.5 -20.5zM188 0l699 1190h143l-700 -1190h-142zM639 106v148l223 340h219v-367h66v-121h-66v-106h-157v106h-285zM762 231l2 -4h162v213l12 37h-8l-139 -231 z" />
<glyph unicode="&#xbd;" horiz-adv-x="1251" d="M31 1071q49 10 104 40t92 77h152l-12 -463h125v-129h-441v129h152l8 291l-6 2l-19 -37q-23 -18 -61.5 -30.5t-69.5 -20.5zM188 0l699 1190h143l-700 -1190h-142zM717 442l37 146q10 4 52 12t101 8q53 0 102.5 -12t88.5 -39t61.5 -65.5t22.5 -90.5q0 -41 -10.5 -73.5 t-35 -63.5t-64.5 -61.5t-99 -65.5l2 -8h151l86 10v-139h-485v139q88 49 143.5 84t88 62.5t45 51t12.5 48.5q0 47 -37 69.5t-96 22.5q-37 0 -83 -9t-83 -26z" />
<glyph unicode="&#xbe;" horiz-adv-x="1144" d="M31 737q41 -12 86 -19t100 -7q14 0 35.5 2t40 9t32 20.5t13.5 35.5q0 39 -36 51.5t-89 12.5h-90v102h90q47 0 82 12.5t35 51.5q0 20 -11.5 33.5t-29 21.5t-37 10t-37.5 2q-45 0 -89 -8t-89 -23l31 140q23 4 64.5 10t100.5 6q51 0 99.5 -9t85.5 -28.5t58.5 -52.5t21.5 -82 q0 -43 -22.5 -76.5t-63.5 -52.5v-8q35 -14 65.5 -45t30.5 -86q0 -51 -24.5 -86t-65.5 -55.5t-92.5 -28.5t-104.5 -8q-47 0 -92 5t-72 11zM172 0l700 1190h142l-701 -1190h-141zM600 104v132l231 358h220v-363h65v-127h-65v-104h-168v104h-283zM733 229l2 -6l27 8h125v205 l6 23l-6 2l-8 -23l-125 -190z" />
<glyph unicode="&#xbf;" horiz-adv-x="858" d="M49 63q0 74 27.5 139.5t77 118t115 90.5t141.5 56l18 149h238v-299q-59 -10 -114.5 -27.5t-99.5 -45t-72 -68.5t-28 -96q0 -98 66.5 -139t167.5 -41q70 0 131 13t104 30l-35 -244q-39 -10 -110.5 -23.5t-157.5 -13.5q-102 0 -187 25.5t-148.5 77t-98.5 126t-35 172.5z M401 854q0 63 40 102t106 39q70 0 107.5 -35.5t37.5 -99.5q0 -66 -42 -104.5t-109 -38.5q-66 0 -103 35.5t-37 101.5z" />
<glyph unicode="&#xc0;" horiz-adv-x="1175" d="M8 0l354 1296h490l315 -1296h-389v172l-22 145h-324l-78 -317h-346zM354 1485l86 190l432 -217l-73 -82zM489 569h218l-86 441l-9 82h-8l-8 -82z" />
<glyph unicode="&#xc1;" horiz-adv-x="1175" d="M8 0l354 1296h490l315 -1296h-389v172l-22 145h-324l-78 -317h-346zM342 1458l432 217l86 -190l-444 -109zM489 569h218l-86 441l-9 82h-8l-8 -82z" />
<glyph unicode="&#xc2;" horiz-adv-x="1175" d="M8 0l354 1296h490l315 -1296h-389v172l-22 145h-324l-78 -317h-346zM307 1468l238 170q33 20 61 21q14 0 31.5 -4t34.5 -17l235 -170l-78 -86l-223 99l-223 -99zM489 569h218l-86 441l-9 82h-8l-8 -82z" />
<glyph unicode="&#xc3;" horiz-adv-x="1175" d="M8 0l354 1296h490l315 -1296h-389v172l-22 145h-324l-78 -317h-346zM281 1448l24 154q14 8 61.5 26.5t122.5 18.5q27 0 60 -5.5t68.5 -11.5t71.5 -11t67 -5q61 0 101 9t67 19l-23 -153q-14 -8 -62 -26.5t-120 -18.5q-29 0 -62.5 5t-68.5 11t-71 11.5t-66 5.5 q-63 0 -102.5 -10.5t-67.5 -18.5zM489 569h218l-86 441l-9 82h-8l-8 -82z" />
<glyph unicode="&#xc4;" horiz-adv-x="1175" d="M8 0l354 1296h490l315 -1296h-389v172l-22 145h-324l-78 -317h-346zM377 1399v266h176v-266h-176zM489 569h218l-86 441l-9 82h-8l-8 -82zM657 1399v266h177v-266h-177z" />
<glyph unicode="&#xc5;" horiz-adv-x="1175" d="M8 0l354 1296h490l315 -1296h-389v172l-22 145h-324l-78 -317h-346zM399 1516q0 78 59.5 128t164.5 50q106 0 163.5 -47t57.5 -125t-60.5 -125t-167.5 -47q-104 0 -160.5 46t-56.5 120zM489 569h218l-86 441l-9 82h-8l-8 -82zM561 1520q0 -23 14.5 -40.5t42.5 -17.5 q33 0 48.5 17.5t15.5 40.5q0 27 -14.5 44t-46.5 17q-29 0 -44.5 -17t-15.5 -44z" />
<glyph unicode="&#xc6;" horiz-adv-x="1648" d="M8 0l346 1296h1162l22 -260h-512l21 -258h477l20 -241h-477l25 -277h526l22 -260h-860v168l-12 170h-338l-84 -338h-338zM492 590h258l-35 444h-113z" />
<glyph unicode="&#xc7;" horiz-adv-x="1044" d="M41 604q0 160 41 291t121 224t196.5 144.5t270.5 51.5q94 0 183 -17.5t153 -33.5l-70 -267q-33 16 -95.5 34t-129.5 18q-164 0 -246 -117t-82 -307q0 -78 19.5 -145.5t57.5 -119t93 -80t129 -28.5q53 0 98 15.5t82 38t64.5 51t46.5 55.5l63 -306q-25 -18 -60.5 -39.5 t-83.5 -40t-107.5 -30.5t-129.5 -14v-48q63 0 107.5 -37.5t44.5 -99.5q0 -76 -63.5 -115.5t-155.5 -39.5q-63 0 -102.5 7t-55.5 11l21 107q18 -4 44.5 -7.5t51.5 -3.5q35 0 60.5 10.5t25.5 38.5q0 23 -20.5 33t-53.5 10q-16 0 -35.5 -2t-31.5 -4l26 150q-106 16 -194 65 t-150.5 127t-97.5 183.5t-35 236.5z" />
<glyph unicode="&#xc8;" horiz-adv-x="1015" d="M90 0l16 170v1126h852v-260h-528v-258h483v-241h-483v-277h549v-260h-889zM299 1485l86 190l432 -217l-74 -82z" />
<glyph unicode="&#xc9;" horiz-adv-x="1015" d="M90 0l16 170v1126h852v-260h-528v-258h483v-241h-483v-277h549v-260h-889zM305 1458l432 217l86 -190l-444 -109z" />
<glyph unicode="&#xca;" horiz-adv-x="1015" d="M90 0l16 170v1126h852v-260h-528v-258h483v-241h-483v-277h549v-260h-889zM248 1468l237 170q33 20 62 21q14 0 31.5 -4t33.5 -17l236 -170l-78 -86l-223 99l-223 -99z" />
<glyph unicode="&#xcb;" horiz-adv-x="1015" d="M90 0l16 170v1126h852v-260h-528v-258h483v-241h-483v-277h549v-260h-889zM326 1399v266h176v-266h-176zM606 1399v266h176v-266h-176z" />
<glyph unicode="&#xcc;" horiz-adv-x="538" d="M27 1485l86 190l432 -217l-74 -82zM88 0l18 170v14.5v44t-1 103t-1 192.5v311.5v460.5h326v-1296h-342z" />
<glyph unicode="&#xcd;" horiz-adv-x="538" d="M4 1458l432 217l86 -190l-444 -109zM88 0l18 170v14.5v44t-1 103t-1 192.5v311.5v460.5h326v-1296h-342z" />
<glyph unicode="&#xce;" horiz-adv-x="538" d="M-37 1468l238 170q33 20 61 21q14 0 31.5 -4t34.5 -17l235 -170l-78 -86l-223 99l-223 -99zM86 0l16 170v1126h326v-1296h-342z" />
<glyph unicode="&#xcf;" horiz-adv-x="538" d="M43 1401v266h174v-266h-174zM90 0l14 170v1126h326v-1296h-340zM324 1401v266h174v-266h-174z" />
<glyph unicode="&#xd0;" horiz-adv-x="1198" d="M-20 657l129 27v612h415q315 0 474 -164.5t159 -498.5q0 -305 -152.5 -469t-453.5 -164h-461l19 170v334l-93 -19zM432 260h113q152 2 213 97.5t61 279.5q0 205 -61.5 302t-214.5 97h-111v-286l162 34l37 -170l-199 -43v-311z" />
<glyph unicode="&#xd1;" horiz-adv-x="1214" d="M90 0l19 168v1128h399l315 -890h13l-11 79l-37 811h336l-18 -170v-1126h-397l-318 911h-12l12 -86l39 -825h-340zM299 1448l25 154q14 8 61 26.5t123 18.5q27 0 59.5 -5.5t68.5 -11.5t71.5 -11t66.5 -5q61 0 102.5 9t65.5 19l-22 -153q-14 -8 -62.5 -26.5t-120.5 -18.5 q-29 0 -62.5 5t-68.5 11t-70.5 11.5t-66.5 5.5q-63 0 -102 -10.5t-68 -18.5z" />
<glyph unicode="&#xd2;" horiz-adv-x="1220" d="M41 637q0 154 39 278.5t114.5 214t187.5 137.5t257 48q141 0 243.5 -46t168 -131t97.5 -207t32 -274q0 -154 -39 -278.5t-114 -212.5t-186.5 -136t-256.5 -48q-139 0 -241.5 45t-169.5 129t-99.5 205.5t-32.5 275.5zM365 1485l86 190l432 -217l-74 -82zM387 639 q0 -74 8 -144.5t32 -127t63.5 -90t105.5 -33.5q68 0 113 35.5t72.5 95t40 133.5t12.5 151q0 74 -9.5 144.5t-33 126t-64.5 89.5t-104 34q-68 0 -114 -36t-72.5 -94.5t-38 -133t-11.5 -150.5z" />
<glyph unicode="&#xd3;" horiz-adv-x="1220" d="M41 637q0 154 39 278.5t114.5 214t187.5 137.5t257 48q141 0 243.5 -46t168 -131t97.5 -207t32 -274q0 -154 -39 -278.5t-114 -212.5t-186.5 -136t-256.5 -48q-139 0 -241.5 45t-169.5 129t-99.5 205.5t-32.5 275.5zM365 1458l432 217l86 -190l-445 -109zM387 639 q0 -74 8 -144.5t32 -127t63.5 -90t105.5 -33.5q68 0 113 35.5t72.5 95t40 133.5t12.5 151q0 74 -9.5 144.5t-33 126t-64.5 89.5t-104 34q-68 0 -114 -36t-72.5 -94.5t-38 -133t-11.5 -150.5z" />
<glyph unicode="&#xd4;" horiz-adv-x="1220" d="M41 637q0 154 39 278.5t114.5 214t187.5 137.5t257 48q141 0 243.5 -46t168 -131t97.5 -207t32 -274q0 -154 -39 -278.5t-114 -212.5t-186.5 -136t-256.5 -48q-139 0 -241.5 45t-169.5 129t-99.5 205.5t-32.5 275.5zM311 1468l238 170q33 20 61 21q14 0 31.5 -4t34.5 -17 l235 -170l-77 -86l-224 99l-223 -99zM387 639q0 -74 8 -144.5t32 -127t63.5 -90t105.5 -33.5q68 0 113 35.5t72.5 95t40 133.5t12.5 151q0 74 -9.5 144.5t-33 126t-64.5 89.5t-104 34q-68 0 -114 -36t-72.5 -94.5t-38 -133t-11.5 -150.5z" />
<glyph unicode="&#xd5;" horiz-adv-x="1220" d="M41 637q0 154 39 278.5t114.5 214t187.5 137.5t257 48q141 0 243.5 -46t168 -131t97.5 -207t32 -274q0 -154 -39 -278.5t-114 -212.5t-186.5 -136t-256.5 -48q-139 0 -241.5 45t-169.5 129t-99.5 205.5t-32.5 275.5zM287 1448l24 154q14 8 61.5 26.5t123.5 18.5 q27 0 59.5 -5.5t68 -11.5t71.5 -11t67 -5q61 0 102 9t66 19l-23 -153q-14 -8 -62 -26.5t-120 -18.5q-29 0 -62.5 5t-68.5 11t-71 11.5t-66 5.5q-63 0 -102.5 -10.5t-67.5 -18.5zM387 639q0 -74 8 -144.5t32 -127t63.5 -90t105.5 -33.5q68 0 113 35.5t72.5 95t40 133.5 t12.5 151q0 74 -9.5 144.5t-33 126t-64.5 89.5t-104 34q-68 0 -114 -36t-72.5 -94.5t-38 -133t-11.5 -150.5z" />
<glyph unicode="&#xd6;" horiz-adv-x="1220" d="M41 637q0 154 39 278.5t114.5 214t187.5 137.5t257 48q141 0 243.5 -46t168 -131t97.5 -207t32 -274q0 -154 -39 -278.5t-114 -212.5t-186.5 -136t-256.5 -48q-139 0 -241.5 45t-169.5 129t-99.5 205.5t-32.5 275.5zM387 639q0 -74 8 -144.5t32 -127t63.5 -90 t105.5 -33.5q68 0 113 35.5t72.5 95t40 133.5t12.5 151q0 74 -9.5 144.5t-33 126t-64.5 89.5t-104 34q-68 0 -114 -36t-72.5 -94.5t-38 -133t-11.5 -150.5zM391 1399v266h176v-266h-176zM672 1399v266h176v-266h-176z" />
<glyph unicode="&#xd7;" d="M121 319l264 265l-262 262l125 123l262 -262l260 264l117 -119l-262 -260l266 -266l-123 -125l-266 266l-264 -262z" />
<glyph unicode="&#xd8;" horiz-adv-x="1220" d="M41 637q0 154 39 278.5t114.5 214t187.5 137.5t257 48q63 0 135 -17.5t113 -40.5l59 103h141l-96 -160q98 -86 143.5 -222t45.5 -321q0 -154 -39 -278.5t-114 -212.5t-186.5 -136t-256.5 -48q-166 0 -281 65l-76 -129h-143l121 201q-84 86 -124 215t-40 303zM387 639 q0 -49 3 -97t11 -91l334 559q-39 43 -112 43q-68 0 -114 -36t-72.5 -94.5t-38 -133t-11.5 -150.5zM461 309q41 -66 135 -65q68 0 113 35.5t72.5 95t40 133.5t12.5 151q0 59 -6.5 118t-22.5 110z" />
<glyph unicode="&#xd9;" horiz-adv-x="1181" d="M80 1296h344v-831q0 -106 30.5 -159.5t127.5 -53.5q96 0 136 53t40 160v661l-17 170h342v-841q0 -242 -131 -357.5t-379 -115.5t-361.5 114.5t-113.5 356.5v673zM350 1485l86 190l432 -217l-73 -82z" />
<glyph unicode="&#xda;" horiz-adv-x="1181" d="M80 1296h344v-831q0 -106 30.5 -159.5t127.5 -53.5q96 0 136 53t40 160v661l-17 170h342v-841q0 -242 -131 -357.5t-379 -115.5t-361.5 114.5t-113.5 356.5v673zM338 1458l432 217l86 -190l-444 -109z" />
<glyph unicode="&#xdb;" horiz-adv-x="1181" d="M80 1296h344v-831q0 -106 30.5 -159.5t127.5 -53.5q96 0 136 53t40 160v661l-17 170h342v-841q0 -242 -131 -357.5t-379 -115.5t-361.5 114.5t-113.5 356.5v673zM293 1468l237 170q33 20 62 21q14 0 31.5 -4t33.5 -17l236 -170l-78 -86l-223 99l-223 -99z" />
<glyph unicode="&#xdc;" horiz-adv-x="1181" d="M80 1296h344v-831q0 -106 30.5 -159.5t127.5 -53.5q96 0 136 53t40 160v661l-17 170h342v-841q0 -242 -131 -357.5t-379 -115.5t-361.5 114.5t-113.5 356.5v673zM369 1399v266h176v-266h-176zM649 1399v266h176v-266h-176z" />
<glyph unicode="&#xdd;" horiz-adv-x="1075" d="M6 1296h348l162 -497l8 -84h11l12 84l119 327l36 170h367l-373 -843v-453h-334v453zM291 1458l432 217l86 -190l-444 -109z" />
<glyph unicode="&#xde;" horiz-adv-x="1105" d="M90 0l19 174v1122h329v-170h176q209 0 335 -109.5t126 -318.5q0 -102 -32.5 -179t-93 -128t-144.5 -76.5t-187 -25.5h-180v-289h-348zM438 547h123q90 0 137 37t47 123q0 90 -51 125.5t-139 35.5h-117v-321z" />
<glyph unicode="&#xdf;" horiz-adv-x="1107" d="M16 748v215l103 16v35q0 96 31.5 168.5t90 121t138.5 73t178 24.5q84 0 159 -21.5t132 -64.5t90 -106.5t33 -147.5q0 -78 -26.5 -135.5t-70.5 -104.5l-45 -49v-10l60 -64q33 -35 65.5 -71.5t59 -78.5t42 -91t15.5 -109q0 -90 -29.5 -157.5t-84 -114.5t-128 -70.5 t-161.5 -23.5q-35 0 -90.5 5t-88.5 13l39 229q10 -4 40 -8t50 -4q66 0 108 37t42 108q0 35 -14.5 67t-39 64.5t-56 67.5t-64.5 74q-29 33 -51.5 60.5t-22.5 62.5q0 37 17.5 64.5t56.5 74.5t59.5 80t20.5 78q0 51 -33 86t-88 35q-72 0 -104.5 -49.5t-32.5 -129.5v-997h-314 l17 176v572h-103z" />
<glyph unicode="&#xe0;" horiz-adv-x="991" d="M39 270q0 102 44 169t121 107t179 55t217 15q-2 96 -55 127t-158 31q-82 0 -163 -16.5t-128 -32.5l54 244q41 6 83 12q37 4 83 9t92 5q125 0 217 -19.5t151.5 -68.5t88 -131t28.5 -207v-413l16 -156h-221l-45 125h-10q-47 -61 -117 -102t-172 -41q-133 0 -219 74.5 t-86 213.5zM268 1206l86 191l432 -217l-73 -82zM328 309q0 -49 29.5 -76.5t76.5 -27.5q92 0 130 66.5t38 181.5q-51 0 -100 -4.5t-88 -19.5t-62.5 -43t-23.5 -77z" />
<glyph unicode="&#xe1;" horiz-adv-x="991" d="M39 270q0 102 44 169t121 107t179 55t217 15q-2 96 -55 127t-158 31q-82 0 -163 -16.5t-128 -32.5l54 244q41 6 83 12q37 4 83 9t92 5q125 0 217 -19.5t151.5 -68.5t88 -131t28.5 -207v-413l16 -156h-221l-45 125h-10q-47 -61 -117 -102t-172 -41q-133 0 -219 74.5 t-86 213.5zM248 1192l432 217l86 -190l-444 -109zM328 309q0 -49 29.5 -76.5t76.5 -27.5q92 0 130 66.5t38 181.5q-51 0 -100 -4.5t-88 -19.5t-62.5 -43t-23.5 -77z" />
<glyph unicode="&#xe2;" horiz-adv-x="991" d="M39 270q0 102 44 169t121 107t179 55t217 15q-2 96 -55 127t-158 31q-82 0 -163 -16.5t-128 -32.5l54 244q41 6 83 12q37 4 83 9t92 5q125 0 217 -19.5t151.5 -68.5t88 -131t28.5 -207v-413l16 -156h-221l-45 125h-10q-47 -61 -117 -102t-172 -41q-133 0 -219 74.5 t-86 213.5zM199 1212l237 170q33 20 62 21q14 0 31.5 -4t33.5 -17l236 -170l-78 -86l-223 99l-224 -99zM328 309q0 -49 29.5 -76.5t76.5 -27.5q92 0 130 66.5t38 181.5q-51 0 -100 -4.5t-88 -19.5t-62.5 -43t-23.5 -77z" />
<glyph unicode="&#xe3;" horiz-adv-x="991" d="M39 270q0 102 44 169t121 107t179 55t217 15q-2 96 -55 127t-158 31q-82 0 -163 -16.5t-128 -32.5l54 244q41 6 83 12q37 4 83 9t92 5q125 0 217 -19.5t151.5 -68.5t88 -131t28.5 -207v-413l16 -156h-221l-45 125h-10q-47 -61 -117 -102t-172 -41q-133 0 -219 74.5 t-86 213.5zM180 1167l25 154q14 8 61 26.5t123 18.5q27 0 59.5 -5t68.5 -11.5t72 -11.5t66 -5q61 0 101.5 9.5t66.5 19.5l-22 -154q-14 -8 -62.5 -26.5t-120.5 -18.5q-29 0 -62.5 5.5t-68 11.5t-70.5 11t-67 5q-63 0 -102 -10t-68 -19zM328 309q0 -49 29.5 -76.5t76.5 -27.5 q92 0 130 66.5t38 181.5q-51 0 -100 -4.5t-88 -19.5t-62.5 -43t-23.5 -77z" />
<glyph unicode="&#xe4;" horiz-adv-x="991" d="M39 270q0 102 44 169t121 107t179 55t217 15q-2 96 -55 127t-158 31q-82 0 -163 -16.5t-128 -32.5l54 244q41 6 83 12q37 4 83 9t92 5q125 0 217 -19.5t151.5 -68.5t88 -131t28.5 -207v-413l16 -156h-221l-45 125h-10q-47 -61 -117 -102t-172 -41q-133 0 -219 74.5 t-86 213.5zM291 1133v266h176v-266h-176zM328 309q0 -49 29.5 -76.5t76.5 -27.5q92 0 130 66.5t38 181.5q-51 0 -100 -4.5t-88 -19.5t-62.5 -43t-23.5 -77zM571 1133v266h177v-266h-177z" />
<glyph unicode="&#xe5;" horiz-adv-x="991" d="M39 270q0 102 44 169t121 107t179 55t217 15q-2 96 -55 127t-158 31q-82 0 -163 -16.5t-128 -32.5l54 244q41 6 83 12q37 4 83 9t92 5q125 0 217 -19.5t151.5 -68.5t88 -131t28.5 -207v-413l16 -156h-221l-45 125h-10q-47 -61 -117 -102t-172 -41q-133 0 -219 74.5 t-86 213.5zM291 1241q0 78 59.5 128t163.5 50q106 0 163.5 -47t57.5 -125t-60.5 -125t-166.5 -47q-104 0 -160.5 46t-56.5 120zM328 309q0 -49 29.5 -76.5t76.5 -27.5q92 0 130 66.5t38 181.5q-51 0 -100 -4.5t-88 -19.5t-62.5 -43t-23.5 -77zM453 1245q0 -23 14 -40t43 -17 q33 0 48 17.5t15 39.5q0 27 -14 44.5t-47 17.5q-29 0 -44 -17.5t-15 -44.5z" />
<glyph unicode="&#xe6;" horiz-adv-x="1525" d="M39 270q0 102 44 169t121 105t179 52t219 14q-4 51 -18.5 84t-42 50.5t-68.5 23.5t-96 6q-37 0 -76 -5t-77 -12t-70.5 -15.5t-57.5 -16.5l54 244q41 6 83 12q37 4 83 9t92 5q135 0 222 -24.5t140 -83.5h12q53 49 129 78.5t162 29.5q119 0 199 -37.5t128 -104.5t68.5 -159 t20.5 -198v-66h-492l-98 -14q2 -61 26.5 -100.5t62.5 -63t88 -31.5t104 -8q37 0 80 4t83.5 11.5t74.5 14.5t52 13l-51 -233q-47 -12 -123.5 -26.5t-158.5 -14.5q-55 0 -113.5 8t-113 27.5t-102.5 51t-87 81.5h-14q-51 -70 -133 -119t-216 -49q-154 0 -236.5 76.5 t-82.5 211.5zM328 309q0 -47 28.5 -75.5t75.5 -28.5q96 0 134 66t38 175q-51 0 -101 -3t-89 -17t-62.5 -41t-23.5 -76zM905 596h299l8 10q0 72 -31.5 120t-105.5 48t-117 -50t-53 -128z" />
<glyph unicode="&#xe7;" horiz-adv-x="837" d="M35 463q0 121 34.5 219t100.5 168t163 107.5t220 37.5q92 0 156.5 -12t93.5 -20l-51 -236q-33 16 -77 27.5t-93 11.5q-127 0 -187.5 -80t-60.5 -205q0 -117 53 -191.5t164 -74.5q74 0 137.5 34t97.5 77l43 -240q-10 -8 -33.5 -23.5t-61.5 -32t-89 -29.5t-113 -17v-50 q63 0 107.5 -37.5t44.5 -99.5q0 -76 -63.5 -115.5t-155.5 -39.5q-63 0 -102 7t-56 11l21 107q18 -4 44.5 -7.5t51.5 -3.5q35 0 60.5 10.5t25.5 38.5q0 23 -20.5 33t-53.5 10q-16 0 -35.5 -2t-31.5 -4l26 148q-84 14 -151.5 54t-113.5 101.5t-70.5 142.5t-24.5 175z" />
<glyph unicode="&#xe8;" horiz-adv-x="964" d="M35 479q0 111 31.5 205t92 162.5t150.5 108.5t207 40q115 0 193.5 -37.5t127 -103.5t70 -156t21.5 -194v-80h-486l-100 -14q4 -113 75.5 -155t200.5 -42q82 0 163 14.5t124 28.5l-53 -238q-16 -4 -46 -10t-68 -12t-82 -10t-87 -4q-262 0 -398 128t-136 369zM248 1206 l86 191l432 -217l-74 -82zM342 590h301l8 10q0 76 -31.5 125t-105.5 49t-118 -51t-54 -133z" />
<glyph unicode="&#xe9;" horiz-adv-x="964" d="M35 479q0 111 31.5 205t92 162.5t150.5 108.5t207 40q115 0 193.5 -37.5t127 -103.5t70 -156t21.5 -194v-80h-486l-100 -14q4 -113 75.5 -155t200.5 -42q82 0 163 14.5t124 28.5l-53 -238q-16 -4 -46 -10t-68 -12t-82 -10t-87 -4q-262 0 -398 128t-136 369zM268 1180 l432 217l86 -191l-444 -108zM342 590h301l8 10q0 76 -31.5 125t-105.5 49t-118 -51t-54 -133z" />
<glyph unicode="&#xea;" horiz-adv-x="964" d="M35 479q0 111 31.5 205t92 162.5t150.5 108.5t207 40q115 0 193.5 -37.5t127 -103.5t70 -156t21.5 -194v-80h-486l-100 -14q4 -113 75.5 -155t200.5 -42q82 0 163 14.5t124 28.5l-53 -238q-16 -4 -46 -10t-68 -12t-82 -10t-87 -4q-262 0 -398 128t-136 369zM207 1212 l237 170q33 20 62 21q14 0 31.5 -4t33.5 -17l236 -170l-78 -86l-223 99l-223 -99zM342 590h301l8 10q0 76 -31.5 125t-105.5 49t-118 -51t-54 -133z" />
<glyph unicode="&#xeb;" horiz-adv-x="964" d="M35 479q0 111 31.5 205t92 162.5t150.5 108.5t207 40q115 0 193.5 -37.5t127 -103.5t70 -156t21.5 -194v-80h-486l-100 -14q4 -113 75.5 -155t200.5 -42q82 0 163 14.5t124 28.5l-53 -238q-16 -4 -46 -10t-68 -12t-82 -10t-87 -4q-262 0 -398 128t-136 369zM281 1133v266 h176v-266h-176zM342 590h301l8 10q0 76 -31.5 125t-105.5 49t-118 -51t-54 -133zM561 1133v266h176v-266h-176z" />
<glyph unicode="&#xec;" horiz-adv-x="487" d="M-8 1206l86 191l432 -217l-74 -82zM88 0l14 135v842h295v-977h-309z" />
<glyph unicode="&#xed;" horiz-adv-x="487" d="M-23 1180l433 217l86 -191l-445 -108zM86 0l16 135v842h295v-977h-311z" />
<glyph unicode="&#xee;" horiz-adv-x="487" d="M-49 1210l237 170q33 20 62 21q14 0 31.5 -4t33.5 -17l236 -170l-78 -86l-223 99l-223 -99zM88 0l16 135v842h293v-977h-309z" />
<glyph unicode="&#xef;" horiz-adv-x="487" d="M23 1133v266h176v-266h-176zM88 0l14 135v842h295v-977h-309zM303 1133v266h176v-266h-176z" />
<glyph unicode="&#xf0;" horiz-adv-x="1001" d="M35 440q0 96 28.5 177t79 140.5t121 95.5t156.5 42l35 2l37 -14l6 6l-105 155l-176 -38l-39 170l115 24l-92 135l307 68l94 -137l178 39l35 -170l-121 -27q16 -27 47 -76t63 -104.5t60.5 -108.5t42.5 -88q23 -55 41.5 -123.5t18.5 -158.5q0 -221 -127 -344t-363 -123 q-113 0 -195.5 34.5t-138 96t-82 145.5t-26.5 182zM330 440q0 -45 9 -86t29.5 -72.5t52.5 -50t79 -18.5q49 0 82.5 18.5t53 50t28 72.5t8.5 86q0 43 -7.5 84t-25.5 74t-50 52.5t-81 19.5q-51 0 -85 -18.5t-54.5 -49.5t-29.5 -73t-9 -89z" />
<glyph unicode="&#xf1;" horiz-adv-x="1036" d="M82 977h221l37 -123h10q43 57 117 99t182 42q150 0 223.5 -84t73.5 -237v-674h-299v647q0 53 -24.5 84t-77.5 31q-41 0 -70 -18.5t-46 -50t-25.5 -73.5t-8.5 -92v-528h-295v799zM203 1165l24 154q14 8 61.5 26.5t123.5 18.5q27 0 59.5 -5t68 -11.5t71.5 -11.5t67 -5 q61 0 100 9.5t68 19.5l-23 -154q-14 -8 -62 -26.5t-120 -18.5q-29 0 -62.5 5t-68.5 11.5t-71 11.5t-66 5q-63 0 -102.5 -10t-67.5 -19z" />
<glyph unicode="&#xf2;" horiz-adv-x="1001" d="M35 479q0 113 31.5 208t93 164t151.5 106.5t207 37.5t202 -34.5t140 -99t81 -157t26 -204.5q0 -113 -33 -208t-95.5 -164t-153.5 -107.5t-208 -38.5q-119 0 -203 35.5t-137 100t-77.5 156.5t-24.5 205zM252 1208l86 191l432 -217l-74 -82zM334 485q0 -55 6 -105t23.5 -88 t48 -59.5t77.5 -21.5q100 0 140.5 80t40.5 201q0 55 -7.5 105t-26 87t-49 58.5t-79.5 21.5q-51 0 -85 -22.5t-53.5 -61.5t-27.5 -89.5t-8 -105.5z" />
<glyph unicode="&#xf3;" horiz-adv-x="1001" d="M35 479q0 113 31.5 208t93 164t151.5 106.5t207 37.5t202 -34.5t140 -99t81 -157t26 -204.5q0 -113 -33 -208t-95.5 -164t-153.5 -107.5t-208 -38.5q-119 0 -203 35.5t-137 100t-77.5 156.5t-24.5 205zM252 1182l432 217l86 -191l-444 -108zM334 485q0 -55 6 -105 t23.5 -88t48 -59.5t77.5 -21.5q100 0 140.5 80t40.5 201q0 55 -7.5 105t-26 87t-49 58.5t-79.5 21.5q-51 0 -85 -22.5t-53.5 -61.5t-27.5 -89.5t-8 -105.5z" />
<glyph unicode="&#xf4;" horiz-adv-x="1001" d="M35 479q0 113 31.5 208t93 164t151.5 106.5t207 37.5t202 -34.5t140 -99t81 -157t26 -204.5q0 -113 -33 -208t-95.5 -164t-153.5 -107.5t-208 -38.5q-119 0 -203 35.5t-137 100t-77.5 156.5t-24.5 205zM207 1212l237 170q33 20 62 21q14 0 31.5 -4t33.5 -17l236 -170 l-78 -86l-223 99l-223 -99zM334 485q0 -55 6 -105t23.5 -88t48 -59.5t77.5 -21.5q100 0 140.5 80t40.5 201q0 55 -7.5 105t-26 87t-49 58.5t-79.5 21.5q-51 0 -85 -22.5t-53.5 -61.5t-27.5 -89.5t-8 -105.5z" />
<glyph unicode="&#xf5;" horiz-adv-x="1001" d="M35 479q0 113 31.5 208t93 164t151.5 106.5t207 37.5t202 -34.5t140 -99t81 -157t26 -204.5q0 -113 -33 -208t-95.5 -164t-153.5 -107.5t-208 -38.5q-119 0 -203 35.5t-137 100t-77.5 156.5t-24.5 205zM190 1167l25 154q14 8 61.5 26.5t122.5 18.5q27 0 60 -5t68.5 -11.5 t71.5 -11.5t67 -5q61 0 102 9.5t66 19.5l-23 -154q-14 -8 -62.5 -26.5t-119.5 -18.5q-29 0 -63 5.5t-68.5 11.5t-70.5 11t-67 5q-63 0 -102 -10t-68 -19zM334 485q0 -55 6 -105t23.5 -88t48 -59.5t77.5 -21.5q100 0 140.5 80t40.5 201q0 55 -7.5 105t-26 87t-49 58.5 t-79.5 21.5q-51 0 -85 -22.5t-53.5 -61.5t-27.5 -89.5t-8 -105.5z" />
<glyph unicode="&#xf6;" horiz-adv-x="1001" d="M35 479q0 113 31.5 208t93 164t151.5 106.5t207 37.5t202 -34.5t140 -99t81 -157t26 -204.5q0 -113 -33 -208t-95.5 -164t-153.5 -107.5t-208 -38.5q-119 0 -203 35.5t-137 100t-77.5 156.5t-24.5 205zM283 1133v266h176v-266h-176zM334 485q0 -55 6 -105t23.5 -88 t48 -59.5t77.5 -21.5q100 0 140.5 80t40.5 201q0 55 -7.5 105t-26 87t-49 58.5t-79.5 21.5q-51 0 -85 -22.5t-53.5 -61.5t-27.5 -89.5t-8 -105.5zM563 1133v266h176v-266h-176z" />
<glyph unicode="&#xf7;" d="M96 496v163h822v-163h-822zM360 238q0 66 42 104.5t112 38.5q66 0 101.5 -36t35.5 -101q0 -63 -39.5 -102.5t-105.5 -39.5q-70 0 -108 36t-38 100zM360 903q0 66 42 105t112 39q66 0 101.5 -36t35.5 -102q0 -63 -39.5 -102t-105.5 -39q-70 0 -108 36t-38 99z" />
<glyph unicode="&#xf8;" horiz-adv-x="1001" d="M35 479q0 113 31.5 208t93 164t151.5 106.5t207 37.5q100 0 180 -28l58 96h141l-90 -154q82 -63 121 -167.5t39 -241.5q0 -113 -33 -208t-95.5 -164t-153.5 -107.5t-208 -38.5q-59 0 -109.5 9t-93.5 25l-59 -98h-143l98 164q-72 66 -103.5 167t-31.5 230zM334 485 q0 -70 8 -116l227 383q-25 12 -61 12q-51 0 -85 -22.5t-53.5 -61.5t-27.5 -89t-8 -106zM406 236q31 -25 83 -25q100 0 140.5 80t40.5 201q0 90 -19 157z" />
<glyph unicode="&#xf9;" horiz-adv-x="1038" d="M90 303v674h299v-643q0 -53 24.5 -86t78.5 -33q82 0 115.5 66.5t33.5 169.5v526h295v-801l20 -176h-225l-35 123h-8q-43 -57 -118.5 -99t-184.5 -42q-150 0 -222.5 84t-72.5 237zM256 1206l86 191l432 -217l-74 -82z" />
<glyph unicode="&#xfa;" horiz-adv-x="1038" d="M90 303v674h299v-643q0 -53 24.5 -86t78.5 -33q82 0 115.5 66.5t33.5 169.5v526h295v-801l20 -176h-225l-35 123h-8q-43 -57 -118.5 -99t-184.5 -42q-150 0 -222.5 84t-72.5 237zM258 1182l432 217l86 -191l-444 -108z" />
<glyph unicode="&#xfb;" horiz-adv-x="1038" d="M90 303v674h299v-643q0 -53 24.5 -86t78.5 -33q82 0 115.5 66.5t33.5 169.5v526h295v-801l20 -176h-225l-35 123h-8q-43 -57 -118.5 -99t-184.5 -42q-150 0 -222.5 84t-72.5 237zM209 1212l237 170q33 20 62 21q14 0 31.5 -4t33.5 -17l236 -170l-78 -86l-223 99l-223 -99 z" />
<glyph unicode="&#xfc;" horiz-adv-x="1038" d="M90 303v674h299v-643q0 -53 24.5 -86t78.5 -33q82 0 115.5 66.5t33.5 169.5v526h295v-801l20 -176h-225l-35 123h-8q-43 -57 -118.5 -99t-184.5 -42q-150 0 -222.5 84t-72.5 237zM281 1133v266h176v-266h-176zM561 1133v266h176v-266h-176z" />
<glyph unicode="&#xfd;" horiz-adv-x="956" d="M8 977h311l173 -608h10v67l82 365l10 176h354l-319 -993q-31 -96 -76 -162t-106.5 -106t-141.5 -56t-182 -16q-10 0 -27.5 1t-25.5 3l-37 229q39 -8 86 -8q86 0 133 35t70 112l8 33zM227 1180l432 217l86 -191l-444 -108z" />
<glyph unicode="&#xfe;" horiz-adv-x="1017" d="M82 -340l16 178v1546h293v-481l8 -4q29 35 86.5 66.5t143.5 31.5t152.5 -32.5t111.5 -91t67.5 -137.5t22.5 -173q0 -127 -34 -230.5t-102.5 -177t-172 -114.5t-242.5 -41h-43v-340h-307zM381 373q0 -45 3 -90.5t3 -61.5q8 -2 16 -2q10 -2 33 -2q68 0 115 24.5t76.5 67.5 t44 100.5t14.5 122.5q0 96 -30.5 163t-102.5 67q-55 0 -89 -33t-52.5 -87t-24.5 -123.5t-6 -145.5z" />
<glyph unicode="&#xff;" horiz-adv-x="956" d="M8 977h311l173 -608h10v67l82 365l10 176h354l-319 -993q-31 -96 -76 -162t-106.5 -106t-141.5 -56t-182 -16q-10 0 -27.5 1t-25.5 3l-37 229q39 -8 86 -8q86 0 133 35t70 112l8 33zM252 1133v266h176v-266h-176zM532 1133v266h177v-266h-177z" />
<glyph unicode="&#x152;" horiz-adv-x="1660" d="M41 631q0 317 156.5 491t457.5 174h959v-260h-537v-262h496v-242h-496v-272h547v-260h-1030q-289 0 -421 163t-132 468zM381 635q0 -84 10 -153.5t38 -120t75 -78t119 -27.5h129v784h-90q-84 0 -137.5 -30.5t-86 -86t-45 -129t-12.5 -159.5z" />
<glyph unicode="&#x153;" horiz-adv-x="1585" d="M35 477q0 113 31.5 208t93 164t151.5 107.5t207 38.5q104 0 177 -33.5t118 -87.5h12q55 55 130 88t173 33q119 0 200 -37.5t130 -103.5t69.5 -156t20.5 -194v-35.5t-2 -44.5h-487l-101 -14q4 -104 77 -150.5t200 -46.5q43 0 86 4t83 10t72.5 14.5t53.5 14.5l-49 -233 q-35 -8 -110 -24.5t-181 -16.5q-119 0 -215 33.5t-158 93.5h-14q-55 -57 -135 -92t-191 -35q-119 0 -203 34.5t-137 99t-77.5 157t-24.5 204.5zM334 485q0 -55 6 -105t23.5 -87t48 -59.5t77.5 -22.5q51 0 85 21.5t55.5 58.5t31 88t9.5 113q0 55 -7.5 104t-26 87t-49 59.5 t-79.5 21.5q-51 0 -85 -22.5t-53.5 -60.5t-27.5 -89.5t-8 -106.5zM963 590h301l8 10q0 76 -33 125t-104 49q-74 0 -118 -51t-54 -133z" />
<glyph unicode="&#x178;" horiz-adv-x="1075" d="M6 1296h348l162 -497l8 -84h11l12 84l119 327l36 170h367l-373 -843v-453h-334v453zM299 1403v266h176v-266h-176zM580 1403v266h176v-266h-176z" />
<glyph unicode="&#x2c6;" horiz-adv-x="1054" d="M227 1198l238 170q33 20 61 21q14 0 31.5 -4.5t34.5 -16.5l235 -170l-77 -86l-224 98l-223 -98z" />
<glyph unicode="&#x2dc;" horiz-adv-x="1054" d="M207 1165l24 154q14 8 61.5 26.5t123.5 18.5q27 0 59.5 -5t68.5 -11.5t71.5 -11.5t66.5 -5q61 0 101 9.5t67 19.5l-23 -154q-14 -8 -62 -26.5t-120 -18.5q-29 0 -62.5 5t-68.5 11.5t-70.5 11.5t-66.5 5q-63 0 -102 -10t-68 -19z" />
<glyph unicode="&#x2000;" horiz-adv-x="847" />
<glyph unicode="&#x2001;" horiz-adv-x="1694" />
<glyph unicode="&#x2002;" horiz-adv-x="847" />
<glyph unicode="&#x2003;" horiz-adv-x="1694" />
<glyph unicode="&#x2004;" horiz-adv-x="564" />
<glyph unicode="&#x2005;" horiz-adv-x="423" />
<glyph unicode="&#x2006;" horiz-adv-x="282" />
<glyph unicode="&#x2007;" horiz-adv-x="282" />
<glyph unicode="&#x2008;" horiz-adv-x="211" />
<glyph unicode="&#x2009;" horiz-adv-x="338" />
<glyph unicode="&#x200a;" horiz-adv-x="94" />
<glyph unicode="&#x2010;" horiz-adv-x="655" d="M74 412v163h508v-163h-508z" />
<glyph unicode="&#x2011;" horiz-adv-x="655" d="M74 412v163h508v-163h-508z" />
<glyph unicode="&#x2012;" horiz-adv-x="655" d="M74 412v163h508v-163h-508z" />
<glyph unicode="&#x2013;" horiz-adv-x="1024" d="M0 412v163h1024v-163h-1024z" />
<glyph unicode="&#x2014;" horiz-adv-x="2048" d="M0 412v163h2048v-163h-2048z" />
<glyph unicode="&#x2018;" horiz-adv-x="415" d="M61 1096q0 41 11.5 68.5t33.5 64.5l99 151l104 -12l-49 -145q35 -10 62.5 -37t27.5 -82q0 -66 -42 -107t-107 -41q-63 0 -101.5 38t-38.5 102z" />
<glyph unicode="&#x2019;" horiz-adv-x="415" d="M66 1102q0 66 42 106.5t107 40.5q63 0 101 -37.5t38 -101.5q0 -41 -11 -68.5t-34 -64.5l-98 -152l-105 13l50 145q-35 10 -62.5 37t-27.5 82z" />
<glyph unicode="&#x201a;" horiz-adv-x="415" d="M66 119q0 66 42 106.5t107 40.5q63 0 101 -38t38 -101q0 -41 -11 -68.5t-34 -64.5l-98 -152l-105 13l50 145q-35 10 -62.5 36.5t-27.5 82.5z" />
<glyph unicode="&#x201c;" horiz-adv-x="800" d="M66 1096q0 41 11 68.5t34 64.5l98 151l104 -12l-49 -145q35 -10 62.5 -37t27.5 -82q0 -66 -42 -107t-107 -41q-63 0 -101 38t-38 102zM444 1096q0 41 11.5 68.5t33.5 64.5l99 151l104 -12l-49 -145q35 -10 62.5 -37t27.5 -82q0 -66 -42 -107t-107 -41q-63 0 -101.5 38 t-38.5 102z" />
<glyph unicode="&#x201d;" horiz-adv-x="800" d="M66 1102q0 66 42 106.5t107 40.5q63 0 101 -37.5t38 -101.5q0 -41 -11 -68.5t-34 -64.5l-98 -152l-105 13l50 145q-35 10 -62.5 37t-27.5 82zM451 1102q0 66 42 106.5t107 40.5q63 0 101 -37.5t38 -101.5q0 -41 -11 -68.5t-34 -64.5l-98 -152l-104 13l49 145 q-35 10 -62.5 37t-27.5 82z" />
<glyph unicode="&#x201e;" horiz-adv-x="800" d="M66 119q0 66 42 106.5t107 40.5q63 0 101 -38t38 -101q0 -41 -11 -68.5t-34 -64.5l-98 -152l-105 13l50 145q-35 10 -62.5 36.5t-27.5 82.5zM451 119q0 66 42 106.5t107 40.5q63 0 101 -38t38 -101q0 -41 -11 -68.5t-34 -64.5l-98 -152l-104 13l49 145q-35 10 -62.5 36.5 t-27.5 82.5z" />
<glyph unicode="&#x2022;" horiz-adv-x="581" d="M76 565q0 94 60.5 151.5t160.5 57.5q98 0 153.5 -53t55.5 -152q0 -94 -59.5 -150.5t-157.5 -56.5q-100 0 -156.5 53.5t-56.5 149.5z" />
<glyph unicode="&#x2026;" horiz-adv-x="1183" d="M66 117q0 66 42 104.5t111 38.5q66 0 101.5 -36t35.5 -101q0 -63 -39.5 -102t-105.5 -39q-70 0 -107.5 35.5t-37.5 99.5zM451 117q0 66 40.5 104.5t110.5 38.5q66 0 101.5 -36t35.5 -101q0 -63 -39.5 -102t-105.5 -39q-68 0 -105.5 35.5t-37.5 99.5zM836 117 q0 66 41 104.5t110 38.5q66 0 101.5 -36t35.5 -101q0 -63 -39.5 -102t-105.5 -39q-70 0 -106.5 35.5t-36.5 99.5z" />
<glyph unicode="&#x202f;" horiz-adv-x="338" />
<glyph unicode="&#x2039;" horiz-adv-x="661" d="M53 553l430 465l123 -121l-321 -344l323 -348l-127 -119z" />
<glyph unicode="&#x203a;" horiz-adv-x="661" d="M53 205l326 348l-324 344l125 121l428 -465l-428 -467z" />
<glyph unicode="&#x2044;" horiz-adv-x="356" d="M-201 0l678 1190h141l-675 -1190h-144z" />
<glyph unicode="&#x205f;" horiz-adv-x="423" />
<glyph unicode="&#x2070;" horiz-adv-x="585" d="M27 887q0 143 67.5 228t198.5 85q135 0 195.5 -80t60.5 -221t-71.5 -227t-205.5 -86q-133 0 -189 80t-56 221zM190 889q0 -70 18.5 -122t74.5 -52q27 0 46 15t31.5 41t18.5 59.5t6 68.5q0 68 -19.5 119t-76.5 51q-29 0 -47.5 -15.5t-29.5 -40t-16.5 -57t-5.5 -67.5z" />
<glyph unicode="&#x2074;" horiz-adv-x="565" d="M31 702v140l223 348h219v-367h66v-121h-66v-106h-158v106h-284zM154 827l2 -4h161v213l13 37h-8l-140 -231z" />
<glyph unicode="&#x2075;" horiz-adv-x="520" d="M23 748q25 -8 53 -17q25 -6 55.5 -10t65.5 -4q57 0 94 17.5t37 60.5q0 45 -51.5 62t-139.5 17h-65v316h385v-137l-84 10h-146v-86q49 0 97.5 -11.5t86.5 -36t60.5 -61.5t22.5 -88q0 -53 -22.5 -90t-60.5 -60.5t-88.5 -33.5t-103.5 -10q-57 0 -95 5t-67 13z" />
<glyph unicode="&#x2076;" horiz-adv-x="567" d="M35 887q0 143 75.5 228t237.5 85q37 0 75 -6t58 -10l33 -133q-29 8 -73 15t-83 7q-137 0 -151 -112q18 2 31.5 3t25.5 1q119 0 198 -44t79 -145q0 -86 -67.5 -138t-178.5 -52q-68 0 -117 22.5t-80.5 63.5t-47 95t-15.5 120zM199 862q0 -66 20.5 -110.5t79.5 -44.5 q37 0 59.5 20t22.5 55q0 47 -39 65.5t-92 18.5h-27.5t-23.5 -4z" />
<glyph unicode="&#x2077;" horiz-adv-x="489" d="M23 1053v137h442v-137q-55 -51 -88 -111.5t-50.5 -120t-22.5 -115t-5 -96.5v-14h-168v14q0 111 31 223.5t108 208.5l27 13v8h-178z" />
<glyph unicode="&#x2078;" horiz-adv-x="575" d="M33 754q0 47 26.5 80.5t71.5 54.5v8q-35 16 -59.5 49t-24.5 80q0 45 21.5 79t55.5 55.5t78 31.5t91 10t91 -9t78 -29.5t53.5 -52.5t19.5 -75q0 -47 -25 -77.5t-61 -47.5v-8q39 -18 64.5 -53t25.5 -82q0 -45 -21.5 -79t-57.5 -56.5t-83 -33.5t-96 -11t-94.5 9t-79 28.5 t-54 51.5t-20.5 77zM176 774q0 -35 28.5 -50t69.5 -15q37 0 67 15t30 46q0 29 -31 46.5t-72 27.5l-22 6q-29 -12 -49.5 -30.5t-20.5 -45.5zM211 1028q0 -31 27.5 -46t68.5 -26l17 -4q29 8 48 28.5t19 45.5q0 33 -26.5 47t-65.5 14q-35 0 -61.5 -14t-26.5 -45z" />
<glyph unicode="&#x2079;" horiz-adv-x="567" d="M27 1010q0 86 67.5 138t177.5 52q68 0 117 -22.5t81 -63.5t47 -96t15 -119q0 -143 -75.5 -228t-237.5 -85q-37 0 -75 6t-58 10l-33 133q29 -8 73 -15t83 -7q137 0 151 112q-18 -2 -31.5 -3t-25.5 -1q-59 0 -109.5 10.5t-87 33t-58 58t-21.5 87.5zM186 1004 q0 -47 39 -65.5t92 -18.5h27.5t24.5 4q0 66 -20.5 110.5t-80.5 44.5q-37 0 -59.5 -20t-22.5 -55z" />
<glyph unicode="&#x207d;" horiz-adv-x="313" d="M49 897q0 117 38 229.5t93 198.5l84 -55q-39 -68 -68.5 -162t-29.5 -211t29.5 -210t68.5 -161l-86 -55q-55 86 -92 197.5t-37 228.5z" />
<glyph unicode="&#x207e;" horiz-adv-x="313" d="M49 526q39 68 68.5 161t29.5 210t-29.5 211t-68.5 162l84 55q55 -86 93 -198.5t38 -229.5t-37 -228.5t-92 -197.5z" />
<glyph unicode="&#x207f;" horiz-adv-x="624" d="M45 1190h133l25 -74h10q27 35 69 60.5t107 25.5q92 0 137 -52t45 -144v-410h-182v393q0 33 -15.5 52.5t-45.5 19.5q-51 0 -71.5 -42t-20.5 -101v-322h-179v487z" />
<glyph unicode="&#x20ac;" d="M33 344l30 131h82q-2 8 -2 19v38q0 31 7 78h-117l30 129h113q53 172 185.5 267.5t343.5 95.5q94 0 158.5 -14.5t99.5 -24.5l-50 -203q-29 10 -69.5 19.5t-87.5 9.5q-203 0 -271 -150h353l-31 -129h-361q-2 -8 -4 -27.5t-2 -41.5q0 -20 1 -37t3 -29h394l-29 -131h-332 q25 -68 81 -107.5t151 -39.5q74 0 133 25.5t98 56.5l53 -207q-43 -27 -125 -58.5t-219 -31.5q-176 0 -307 94t-176 268h-133z" />
<glyph unicode="&#x2122;" horiz-adv-x="1069" d="M12 1288v115h377v-115h-115v-430h-153l6 76v354h-115zM387 856l8 76l15 471h208l72 -334l2 -35h8l2 35l72 334h215l-6 -76l14 -471h-147l4 393l4 29h-8l-98 -422h-111l-98 422h-8l4 -29l4 -393h-156z" />
<glyph unicode="&#x2153;" horiz-adv-x="1218" d="M31 1071q49 10 104 40t92 77h152l-12 -463h125v-129h-441v129h152l8 291l-6 2l-19 -37q-23 -18 -61.5 -30.5t-69.5 -20.5zM188 0l699 1190h143l-700 -1190h-142zM702 147q41 -12 86.5 -19t100.5 -7q14 0 35.5 2t40 9t32 20.5t13.5 35.5q0 39 -36 51.5t-89 12.5h-90v102 h90q47 0 81.5 12.5t34.5 51.5q0 20 -11 33.5t-28.5 21.5t-37 10t-37.5 2q-45 0 -89 -8t-89 -22l30 139q23 4 65 10t101 6q51 0 99.5 -9t85 -28.5t58 -52.5t21.5 -82q0 -43 -22.5 -76.5t-63.5 -52.5v-8q35 -14 66 -45t31 -86q0 -51 -25 -86t-65.5 -55.5t-92 -28.5t-104.5 -8 q-47 0 -92 5t-72 11z" />
<glyph unicode="&#x2154;" horiz-adv-x="1247" d="M23 1036l36 146q10 4 52.5 12t101.5 8q53 0 102.5 -12t88 -39t61 -65.5t22.5 -90.5q0 -41 -10 -73.5t-34.5 -63.5t-64.5 -61.5t-99 -65.5l2 -8h151l86 10v-139h-485v139q88 49 143 84t88 62.5t45.5 51t12.5 48.5q0 47 -37 69.5t-97 22.5q-37 0 -83 -9t-82 -26zM219 0 l699 1190h143l-701 -1190h-141zM705 147q41 -12 86 -19t100 -7q14 0 35.5 2t40 9t32 20.5t13.5 35.5q0 39 -36 51.5t-89 12.5h-90v102h90q47 0 82 12.5t35 51.5q0 20 -11.5 33.5t-29 21.5t-37 10t-37.5 2q-45 0 -89 -8t-89 -22l30 139q23 4 65 10t101 6q51 0 99.5 -9 t85 -28.5t58 -52.5t21.5 -82q0 -43 -22.5 -76.5t-63.5 -52.5v-8q35 -14 66 -45t31 -86q0 -51 -24.5 -86t-65.5 -55.5t-92.5 -28.5t-104.5 -8q-47 0 -92 5t-72 11z" />
<glyph unicode="&#x215b;" horiz-adv-x="1220" d="M31 1071q49 10 104 40t92 77h152l-12 -463h125v-129h-441v129h152l8 291l-6 2l-19 -37q-23 -18 -61.5 -30.5t-69.5 -20.5zM188 0l699 1192h143l-700 -1192h-142zM672 158q0 47 26.5 80.5t71.5 54.5v8q-35 16 -59.5 49t-24.5 80q0 45 21.5 79t55.5 55.5t78 31.5t91 10 t91 -9t78 -29.5t53.5 -52.5t19.5 -75q0 -47 -25 -77.5t-62 -47.5v-8q39 -18 65 -53t26 -82q0 -45 -21.5 -79t-57.5 -56.5t-83 -33.5t-96 -11t-94.5 9t-79 28.5t-54 51.5t-20.5 77zM815 178q0 -35 28.5 -50t69.5 -15q37 0 67 15t30 46q0 29 -31 46.5t-72 27.5l-22 6 q-29 -12 -49.5 -30.5t-20.5 -45.5zM850 432q0 -31 27.5 -46t68.5 -26l17 -4q29 8 48 29t19 45q0 33 -26.5 47.5t-65.5 14.5q-35 0 -61.5 -14.5t-26.5 -45.5z" />
<glyph unicode="&#x215c;" horiz-adv-x="1206" d="M31 737q41 -12 86 -19t100 -7q14 0 35.5 2t40 9t32 20.5t13.5 35.5q0 39 -36 51.5t-89 12.5h-90v102h90q47 0 82 12.5t35 51.5q0 20 -11.5 33.5t-29 21.5t-37 10t-37.5 2q-45 0 -89 -8t-89 -23l31 140q23 4 64.5 10t100.5 6q51 0 99.5 -9t85.5 -28.5t58.5 -52.5t21.5 -82 q0 -43 -22.5 -76.5t-63.5 -52.5v-8q35 -14 65.5 -45t30.5 -86q0 -51 -24.5 -86t-65.5 -55.5t-92.5 -28.5t-104.5 -8q-47 0 -92 5t-72 11zM172 0l700 1190h142l-701 -1190h-141zM653 158q0 47 27 80.5t72 54.5v8q-35 16 -59.5 49t-24.5 80q0 45 21.5 79t55 55.5t77.5 31.5 t91 10t91.5 -9t78 -29.5t53 -52.5t19.5 -75q0 -47 -24.5 -77.5t-61.5 -47.5v-8q39 -18 64.5 -53t25.5 -82q0 -45 -21.5 -79t-57.5 -56.5t-83 -33.5t-96 -11t-94 9t-79 28.5t-54.5 51.5t-20.5 77zM797 178q0 -35 28.5 -50t69.5 -15q37 0 66.5 15t29.5 46q0 29 -30.5 46.5 t-71.5 27.5l-23 6q-29 -12 -49 -30.5t-20 -45.5zM831 432q0 -31 28 -46t69 -26l16 -4q29 8 48.5 29t19.5 45q0 33 -27 47.5t-65 14.5q-35 0 -62 -14.5t-27 -45.5z" />
<glyph unicode="&#x215d;" horiz-adv-x="1196" d="M23 748q25 -8 53 -17q25 -6 55.5 -10t65.5 -4q57 0 94 17.5t37 60.5q0 45 -51.5 62t-139.5 17h-65v316h385v-137l-84 10h-146v-86q49 0 97.5 -11.5t86.5 -36t60.5 -61.5t22.5 -88q0 -53 -22.5 -90t-60.5 -60.5t-88.5 -33.5t-103.5 -10q-57 0 -95 5t-67 13zM162 0 l700 1190h142l-701 -1190h-141zM653 158q0 47 27 80.5t72 54.5v8q-35 16 -59.5 49t-24.5 80q0 45 21.5 79t55 55.5t77.5 31.5t91 10t91.5 -9t78 -29.5t53 -52.5t19.5 -75q0 -47 -24.5 -77.5t-61.5 -47.5v-8q39 -18 64.5 -53t25.5 -82q0 -45 -21.5 -79t-57.5 -56.5t-83 -33.5 t-96 -11t-94 9t-79 28.5t-54.5 51.5t-20.5 77zM797 178q0 -35 28.5 -50t69.5 -15q37 0 66.5 15t29.5 46q0 29 -30.5 46.5t-71.5 27.5l-23 6q-29 -12 -49 -30.5t-20 -45.5zM831 432q0 -31 28 -46t69 -26l16 -4q29 8 48.5 29t19.5 45q0 33 -27 47.5t-65 14.5q-35 0 -62 -14.5 t-27 -45.5z" />
<glyph unicode="&#x215e;" horiz-adv-x="1097" d="M23 1053v137h442v-137q-55 -51 -88 -111.5t-50.5 -120t-22.5 -115t-5 -96.5v-14h-168v14q0 111 31 223.5t108 208.5l27 13v8h-178zM53 0l699 1192h141l-700 -1192h-140zM549 158q0 47 26.5 80.5t71.5 54.5v8q-35 16 -59.5 49t-24.5 80q0 45 21.5 79t55.5 55.5t78 31.5 t91 10t91 -9t78 -29.5t53.5 -52.5t19.5 -75q0 -47 -25 -77.5t-61 -47.5v-8q39 -18 64.5 -53t25.5 -82q0 -45 -21.5 -79t-57.5 -56.5t-83 -33.5t-96 -11t-94.5 9t-79 28.5t-54 51.5t-20.5 77zM692 178q0 -35 29 -50t70 -15q37 0 66.5 15t29.5 46q0 29 -31 46.5t-72 27.5 l-22 6q-29 -12 -49.5 -30.5t-20.5 -45.5zM727 432q0 -31 27.5 -46t68.5 -26l17 -4q29 8 48 29t19 45q0 33 -26.5 47.5t-65.5 14.5q-35 0 -61.5 -14.5t-26.5 -45.5z" />
<glyph unicode="&#x2160;" horiz-adv-x="538" d="M0 0v74h109l8 86v850h-117v73h541v-73h-119v-936h119v-74h-541z" />
<glyph unicode="&#x2164;" horiz-adv-x="1050" d="M-2 0v74h289l-236 936h-53v73h1053v-73h-56l-239 -936h295v-74h-1053zM369 1010l143 -713l6 -72h10l7 72l131 631l4 82h-301z" />
<glyph unicode="&#x2169;" horiz-adv-x="1056" d="M0 0v74h43l256 483l-231 453h-68v73h1057v-73h-72l-231 -453l258 -483h45v-74h-1057zM383 74h295l-131 270l-15 59h-10l-12 -59l-107 -205zM391 1010l115 -262l16 -64h10l15 64l92 196l12 66h-260z" />
<glyph unicode="&#x216c;" horiz-adv-x="802" d="M0 0v74h115l8 80v856h-123v73h803v-73h-377v-774h322v-162h55v-74h-803z" />
<glyph unicode="&#x216d;" horiz-adv-x="948" d="M0 0v74h262q-94 59 -156.5 169.5t-62.5 264.5q0 178 69.5 305t188.5 197h-301v73h948v-73h-80l-47 -203q-33 16 -80 28.5t-108 12.5q-70 0 -122 -25.5t-88 -69.5t-53.5 -102.5t-17.5 -124.5q0 -55 15.5 -108t47 -93t78 -64.5t107.5 -24.5q96 0 155.5 38.5t94.5 83.5 l63 -237q-10 -10 -35.5 -25.5t-41.5 -21.5h112v-74h-948z" />
<glyph unicode="&#x216e;" horiz-adv-x="1169" d="M0 0v74h147l9 100v836h-156v73h1178v-73h-301q221 -131 221 -478q0 -330 -207 -458h287v-74h-1178zM463 229h100q123 0 174 75t51 228q0 172 -52 247t-185 75h-88v-625z" />
<glyph unicode="&#x216f;" horiz-adv-x="1505" d="M0 0v74h76l14 80l53 856h-143v73h1505v-73h-137l-4 -80l55 -856h86v-74h-1505zM385 74h233l-192 706l-4 58h-10zM588 1010l153 -631l7 -57h10l4 57l156 631h-330zM887 74h235l-26 762h-11l-4 -56z" />
<glyph unicode="&#x25fc;" horiz-adv-x="972" d="M0 0v973h973v-973h-973z" />
<glyph horiz-adv-x="2101" d="M41 631q0 154 40 279.5t119 216t194.5 139.5t269.5 49q86 0 156.5 -13.5t105.5 -23.5l-64 -262q-33 12 -72.5 21.5t-89.5 9.5q-166 0 -243.5 -109t-77.5 -281q0 -90 23.5 -165.5t69.5 -130t114.5 -84t158.5 -29.5q86 0 149.5 15.5t121.5 35.5v997h325v-499h328v499h342 l-16 -170v-1126h-326v543h-328v-461q-74 -18 -148.5 -36.5t-154.5 -33t-169 -22.5t-189 -8q-147 0 -265 43t-201 124.5t-128 202.5t-45 279z" />
<glyph horiz-adv-x="1951" d="M41 629q0 152 40 277.5t117.5 216.5t193.5 141.5t267 50.5q86 0 157 -12.5t110 -24.5l-64 -262q-33 14 -71.5 22.5t-92.5 8.5q-82 0 -142 -29t-99 -81t-58.5 -124t-19.5 -158q0 -92 24.5 -166.5t71.5 -128t117 -83t162 -29.5q72 0 140.5 14t121.5 37v1083h311l-16 -155 v-350h10q37 45 102.5 81.5t151.5 36.5q150 0 218.5 -86t68.5 -235v-674h-297v647q0 51 -24.5 83t-76.5 32q-43 0 -71.5 -19.5t-47 -53.5t-25.5 -80t-7 -101v-430q-70 -18 -139.5 -35.5t-144.5 -31t-159 -21.5t-182 -8q-147 0 -266 42t-204 123.5t-131 202.5t-46 279z" />
<glyph horiz-adv-x="1785" d="M35 483q0 117 33.5 211t98 162t160 103.5t218.5 35.5q72 0 132 -10t87 -18l-57 -228q-29 10 -63 18.5t-75 8.5q-121 0 -178 -71.5t-57 -196.5q0 -129 70.5 -207t209.5 -78q72 0 131.5 12.5t106.5 28.5v1128h309l-16 -157v-348h12q31 45 97.5 82.5t154.5 37.5 q147 0 217 -87t70 -236v-674h-297v647q0 51 -23.5 83t-75.5 32q-43 0 -72.5 -19.5t-48 -54.5t-25.5 -81t-7 -101v-443q-41 -10 -99.5 -24t-131 -26.5t-156.5 -21.5t-176 -9q-256 0 -402.5 122.5t-146.5 378.5z" />
<glyph horiz-adv-x="1994" d="M41 629q0 152 40 277.5t117.5 216.5t193.5 141.5t267 50.5q86 0 157 -12.5t110 -24.5l-64 -262q-33 12 -71.5 21.5t-92.5 9.5q-82 0 -142 -29t-99 -81t-58.5 -124t-19.5 -158q0 -92 24.5 -166.5t71.5 -128t118 -83t161 -29.5q74 0 136 14t111 33v788h306v-415h278v415 h320l-15 -149v-934h-305v451h-278v-377q-143 -37 -294 -64.5t-325 -27.5q-147 0 -267 42t-205 123.5t-130 202.5t-45 279z" />
<glyph horiz-adv-x="1888" d="M41 528q0 272 140.5 423t402.5 151q70 0 133 -10.5t96 -18.5l-57 -244q-25 12 -62 21.5t-78 9.5q-141 0 -203.5 -84t-62.5 -233q0 -147 80 -235.5t227 -88.5q63 0 126 11.5t112 31.5v821h303v-415h281v415h319l-14 -149v-934h-305v451h-281v-381q-113 -29 -266.5 -57.5 t-331.5 -28.5q-131 0 -234.5 37.5t-176 108.5t-110.5 171t-38 227z" />
<glyph horiz-adv-x="1056" d="M8 0l324 1083h461l256 -1083h-349l-8 174l-22 119h-269l-79 -293h-314zM455 500h176l-66 338l-8 69h-10l-8 -69z" />
<glyph horiz-adv-x="1056" d="M8 0l324 1083h461l256 -1083h-347l-10 174l-22 119h-269l-79 -293h-314zM276 1251l433 217l86 -190l-445 -109zM455 500h176l-66 338l-8 69h-10l-8 -69z" />
<glyph horiz-adv-x="1056" d="M8 0l324 1083h461l256 -1083h-347l-10 174l-22 119h-269l-79 -293h-314zM260 1274l238 170q33 20 61 20q14 0 31.5 -4t34.5 -16l235 -170l-78 -86l-223 98l-223 -98zM455 500h176l-66 338l-8 69h-10l-8 -69z" />
<glyph horiz-adv-x="1056" d="M8 0l324 1083h461l256 -1083h-347l-10 174l-22 119h-269l-79 -293h-314zM334 1194v266h176v-266h-176zM455 500h176l-66 338l-8 69h-10l-8 -69zM614 1194v266h177v-266h-177z" />
<glyph horiz-adv-x="1419" d="M8 0l318 1083h974l21 -221h-412l19 -209h383l18 -207h-385l21 -225h428l18 -221h-754l11 147l-11 146h-256l-73 -293h-320zM455 500h184l-29 372h-61z" />
<glyph horiz-adv-x="1056" d="M8 0l324 1083h461l256 -1083h-347l-10 174l-22 119h-269l-79 -293h-314zM309 1276l86 190l432 -217l-73 -82zM455 500h176l-66 338l-8 69h-10l-8 -69z" />
<glyph horiz-adv-x="1056" d="M8 0l324 1083h461l256 -1083h-349l-8 174l-22 119h-269l-79 -293h-314zM342 1323q0 78 59.5 128t163.5 50q106 0 163.5 -47t57.5 -125t-60 -125t-167 -47q-104 0 -160.5 46t-56.5 120zM455 500h176l-66 338l-8 69h-10l-8 -69zM504 1327q0 -23 14 -40t43 -17 q33 0 48.5 17.5t15.5 39.5q0 27 -14.5 44.5t-47.5 17.5q-29 0 -44 -17.5t-15 -44.5z" />
<glyph horiz-adv-x="1056" d="M8 0l324 1083h461l256 -1083h-347l-10 174l-22 119h-269l-79 -293h-314zM238 1237l24 154q14 8 61.5 26.5t122.5 18.5q27 0 60 -5.5t68.5 -11.5t71.5 -11t67 -5q61 0 102 9t66 20l-23 -154q-14 -8 -62 -26.5t-120 -18.5q-29 0 -62.5 5t-68.5 11t-71 11.5t-66 5.5 q-63 0 -102.5 -10.5t-67.5 -18.5zM455 500h176l-66 338l-8 69h-10l-8 -69z" />
<glyph horiz-adv-x="1052" d="M90 0l14 174v909h519q74 0 139 -16t113.5 -52t76 -90.5t27.5 -129.5q0 -86 -39 -144.5t-98 -83.5v-8q68 -29 112.5 -95.5t44.5 -164.5q0 -143 -93 -221t-259 -78h-557zM410 637h143q57 0 89 31.5t32 85.5q0 53 -32 83.5t-97 30.5h-135v-231zM412 221h133q72 0 108.5 29 t36.5 94q0 59 -38 92t-105 33h-135v-248z" />
<glyph horiz-adv-x="903" d="M41 518q0 276 141.5 430t403.5 154q94 0 164.5 -13.5t105.5 -23.5l-57 -250q-35 16 -82 30.5t-96 14.5q-139 0 -205 -90t-66 -238q0 -66 14.5 -122t43 -98t74.5 -65.5t110 -23.5q90 0 152.5 39t93.5 84l57 -260q-47 -35 -135 -69.5t-225 -34.5q-104 0 -194.5 34.5 t-157 102t-104.5 168t-38 231.5z" />
<glyph horiz-adv-x="903" d="M41 518q0 276 141.5 430t403.5 154q94 0 164.5 -13.5t105.5 -23.5l-57 -250q-35 16 -82 30.5t-96 14.5q-139 0 -205 -90t-66 -238q0 -66 14.5 -122t43 -98t74.5 -65.5t110 -23.5q90 0 152.5 39t93.5 84l57 -260q-43 -33 -118 -63.5t-189 -38.5v-50q63 0 107 -35.5 t44 -97.5q0 -76 -64.5 -115.5t-156.5 -39.5q-61 0 -101 7t-57 11l23 107q18 -4 45 -7.5t51 -3.5q35 0 60.5 10.5t25.5 39.5q0 23 -21.5 30.5t-51.5 7.5q-16 0 -36 -2t-32 -4l27 146q-88 12 -163 53t-130.5 107.5t-86 159.5t-30.5 210z" />
<glyph horiz-adv-x="1087" d="M90 0l14 174v909h406q262 0 399.5 -136t137.5 -415q0 -258 -128 -395t-372 -137h-457zM412 229h100q123 0 174 75t51 228q0 172 -52 247t-185 75h-88v-625z" />
<glyph horiz-adv-x="919" d="M90 0l14 158v925h764v-221h-458v-209h430v-207h-430v-223h473v-223h-793z" />
<glyph horiz-adv-x="919" d="M90 0l14 158v925h764v-221h-458v-209h430v-207h-430v-223h473v-223h-793zM248 1249l432 217l86 -190l-444 -109z" />
<glyph horiz-adv-x="919" d="M90 0l14 158v925h764v-221h-458v-209h430v-207h-430v-223h473v-223h-793zM199 1274l237 170q33 20 62 20q14 0 31.5 -4t33.5 -16l236 -170l-78 -86l-223 98l-224 -98z" />
<glyph horiz-adv-x="919" d="M90 0l14 158v925h764v-221h-458v-209h430v-207h-430v-223h473v-223h-793zM279 1194v266h176v-266h-176zM559 1194v266h176v-266h-176z" />
<glyph horiz-adv-x="919" d="M90 0l14 158v925h764v-221h-458v-209h430v-207h-430v-223h473v-223h-793zM248 1276l86 190l432 -217l-74 -82z" />
<glyph horiz-adv-x="1087" d="M-18 573l122 25v485h406q262 0 399.5 -136t137.5 -415q0 -258 -128 -395t-372 -137h-457l14 174v248l-88 -19zM412 229h100q123 0 174 75t51 228q0 172 -52 247t-185 75h-88v-192l123 26l36 -168l-159 -35v-256z" />
<glyph horiz-adv-x="868" d="M90 0l14 152v931h740v-221h-434v-237h405v-217h-405v-408h-320z" />
<glyph horiz-adv-x="1042" d="M31 514q0 131 37.5 239.5t112.5 186.5t187.5 120t262.5 42q72 0 152.5 -13.5t168.5 -37.5l-57 -228q-47 14 -113.5 29.5t-142.5 15.5q-80 0 -137.5 -26.5t-94 -72.5t-54 -109.5t-17.5 -139.5q0 -61 11 -118.5t38 -101.5t72 -69.5t112 -25.5q72 0 115 14v201h-137v196h414 v-557q-78 -35 -180.5 -56t-227.5 -21q-109 0 -204 29.5t-165.5 94t-111.5 165t-41 243.5z" />
<glyph horiz-adv-x="1097" d="M90 0l14 154v929h306v-419h278v419h320l-15 -155v-928h-305v446h-278v-446h-320z" />
<glyph horiz-adv-x="516" d="M90 0l14 154v929h306v-1083h-320z" />
<glyph horiz-adv-x="516" d="M0 1249l432 217l86 -190l-444 -109zM90 0l14 154v929h306v-1083h-320z" />
<glyph horiz-adv-x="516" d="M-45 1274l238 170q33 20 61 20q14 0 31.5 -4t33.5 -16l236 -170l-78 -86l-223 98l-223 -98zM90 0l14 154v929h304v-1083h-318z" />
<glyph horiz-adv-x="516" d="M31 1194v266h176v-266h-176zM92 0l12 154v929h306v-1083h-318zM311 1194v266h176v-266h-176z" />
<glyph horiz-adv-x="516" d="M-8 1276l86 190l432 -217l-74 -82zM90 0l14 154v929h306v-1083h-320z" />
<glyph horiz-adv-x="641" d="M-23 215q10 -2 30 -4t30 -2q90 0 140 33.5t50 132.5v483l-217 19v206h533l-13 -153v-574q0 -98 -34.5 -168.5t-94 -116.5t-140.5 -67.5t-175 -21.5q-39 0 -70 6z" />
<glyph horiz-adv-x="1026" d="M90 0l16 174v909h304v-407h10l14 59l217 348h344l-313 -417l336 -666h-324l-211 430h-8l-65 -86v-344h-320z" />
<glyph horiz-adv-x="790" d="M90 0l14 154v929h306v-847h360v-236h-680z" />
<glyph horiz-adv-x="1454" d="M66 0l24 174l47 909h414l164 -702l6 -57h10l6 57l176 702h441l-15 -174l23 -909h-295v858h-12l-4 -55l-217 -803h-224l-196 803l-6 57h-11l-20 -860h-311z" />
<glyph horiz-adv-x="1110" d="M90 0l16 152v931h351l299 -768h8l-8 70l-49 698h313l-16 -151v-932h-349l-303 786h-10l10 -71l51 -715h-313z" />
<glyph horiz-adv-x="1110" d="M90 0l16 152v931h351l299 -768h8l-8 70l-49 698h313l-16 -151v-932h-349l-303 786h-10l10 -71l51 -715h-313zM236 1235l24 154q14 8 61.5 26.5t122.5 18.5q27 0 60 -5.5t68.5 -11.5t71.5 -11t67 -5q61 0 101 9t67 20l-23 -154q-14 -8 -62.5 -26.5t-119.5 -18.5 q-29 0 -62.5 5t-68.5 11t-71 11.5t-66 5.5q-63 0 -102.5 -10.5t-67.5 -18.5z" />
<glyph horiz-adv-x="1095" d="M41 532q0 131 35 236.5t101.5 179.5t164.5 114t225 40q242 0 365 -143.5t123 -405.5q0 -131 -35 -236.5t-102.5 -180.5t-166 -114.5t-223.5 -39.5q-244 0 -365.5 143t-121.5 407zM352 537q0 -61 8.5 -120t29 -103t55 -70.5t90.5 -26.5q57 0 97 28.5t64.5 75t34.5 106.5 t10 126q0 61 -8 118.5t-29.5 100.5t-57.5 69.5t-91 26.5q-59 0 -98 -28.5t-61.5 -74.5t-33 -106.5t-10.5 -121.5z" />
<glyph horiz-adv-x="1095" d="M41 539q0 131 35 235.5t101.5 177t164.5 111.5t225 39q242 0 365 -147.5t123 -409.5q0 -129 -35 -233.5t-102.5 -178.5t-166 -112.5t-223.5 -38.5q-244 0 -365.5 146.5t-121.5 410.5zM279 1249l432 217l86 -190l-445 -109zM350 541q0 -61 8.5 -120t29 -104t56 -72.5 t91.5 -27.5q59 0 99 27.5t64.5 74t34.5 105.5t10 125q0 61 -8 119.5t-29.5 102.5t-58.5 71.5t-92 27.5q-61 0 -100 -28.5t-62.5 -74.5t-33 -105.5t-9.5 -120.5z" />
<glyph horiz-adv-x="1095" d="M41 539q0 131 35 235.5t101.5 177t164.5 111.5t225 39q242 0 365 -147.5t123 -409.5q0 -129 -35 -233.5t-102.5 -178.5t-166 -112.5t-223.5 -38.5q-244 0 -365.5 146.5t-121.5 410.5zM250 1274l237 170q33 20 62 20q14 0 31.5 -4t33.5 -16l236 -170l-78 -86l-223 98 l-223 -98zM350 541q0 -61 8.5 -120t29 -104t56 -72.5t91.5 -27.5q59 0 99 27.5t64.5 74t34.5 105.5t10 125q0 61 -8 119.5t-29.5 102.5t-58.5 71.5t-92 27.5q-61 0 -100 -28.5t-62.5 -74.5t-33 -105.5t-9.5 -120.5z" />
<glyph horiz-adv-x="1095" d="M41 539q0 131 35 235.5t101.5 177t164.5 111.5t225 39q242 0 365 -147.5t123 -409.5q0 -129 -35 -233.5t-102.5 -178.5t-166 -112.5t-223.5 -38.5q-244 0 -365.5 146.5t-121.5 410.5zM322 1194v266h176v-266h-176zM350 541q0 -61 8.5 -120t29 -104t56 -72.5t91.5 -27.5 q59 0 99 27.5t64.5 74t34.5 105.5t10 125q0 61 -8 119.5t-29.5 102.5t-58.5 71.5t-92 27.5q-61 0 -100 -28.5t-62.5 -74.5t-33 -105.5t-9.5 -120.5zM602 1194v266h176v-266h-176z" />
<glyph horiz-adv-x="1458" d="M41 530q0 264 136 408.5t390 144.5h838v-221h-447v-225h418v-195h-418v-219h463v-223h-909q-240 0 -355.5 137t-115.5 393zM348 537q0 -68 9.5 -125.5t33 -99.5t64.5 -65.5t102 -23.5h100v639h-75q-68 0 -113 -25.5t-71.5 -69.5t-38 -103.5t-11.5 -126.5z" />
<glyph horiz-adv-x="1095" d="M41 539q0 131 35 235.5t101.5 177t164.5 111.5t225 39q242 0 365 -147.5t123 -409.5q0 -129 -35 -233.5t-102.5 -178.5t-166 -112.5t-223.5 -38.5q-244 0 -365.5 146.5t-121.5 410.5zM299 1276l86 190l432 -217l-74 -82zM350 541q0 -61 8.5 -120t29 -104t56 -72.5 t91.5 -27.5q59 0 99 27.5t64.5 74t34.5 105.5t10 125q0 61 -8 119.5t-29.5 102.5t-58.5 71.5t-92 27.5q-61 0 -100 -28.5t-62.5 -74.5t-33 -105.5t-9.5 -120.5z" />
<glyph horiz-adv-x="1095" d="M41 532q0 131 35 236.5t101.5 179.5t164.5 114t225 40q53 0 101.5 -10.5t91.5 -26.5l61 106h142l-95 -157q186 -137 187 -461q0 -131 -35 -236.5t-102.5 -180.5t-166 -114.5t-223.5 -39.5q-141 0 -247 51l-68 -115h-143l112 186q-141 141 -141 428zM352 537q0 -35 2 -68 t8 -63l267 444q-31 18 -74 18q-59 0 -98 -28.5t-61.5 -74.5t-33 -106.5t-10.5 -121.5zM420 264q43 -47 115 -47q57 0 97 28.5t64.5 75t34.5 106.5t10 126q0 53 -7 105.5t-23 93.5z" />
<glyph horiz-adv-x="1095" d="M41 539q0 131 35 235.5t101.5 177t164.5 111.5t225 39q242 0 365 -147.5t123 -409.5q0 -129 -35 -233.5t-102.5 -178.5t-166 -112.5t-223.5 -38.5q-244 0 -365.5 146.5t-121.5 410.5zM227 1235l25 154q14 8 61 26.5t123 18.5q27 0 59.5 -5.5t68.5 -11.5t72 -11t66 -5 q61 0 102.5 9t65.5 20l-22 -154q-14 -8 -62.5 -26.5t-119.5 -18.5q-29 0 -63 5t-68.5 11t-70.5 11.5t-67 5.5q-63 0 -102 -10.5t-68 -18.5zM350 541q0 -61 8.5 -120t29 -104t56 -72.5t91.5 -27.5q59 0 99 27.5t64.5 74t34.5 105.5t10 125q0 61 -8 119.5t-29.5 102.5 t-58.5 71.5t-92 27.5q-61 0 -100 -28.5t-62.5 -74.5t-33 -105.5t-9.5 -120.5z" />
<glyph horiz-adv-x="1003" d="M90 0l12 154v929h476q186 0 290.5 -92t104.5 -272q0 -86 -29 -151.5t-79 -108.5t-120.5 -65.5t-154.5 -22.5h-184v-371h-316zM406 590h102q156 0 156 139q0 74 -42 106.5t-116 32.5h-100v-278z" />
<glyph horiz-adv-x="1095" d="M41 535q0 131 36 236.5t103.5 179t164.5 112.5t220 39q244 0 367 -148.5t123 -404.5q0 -203 -81 -345.5t-253 -199.5v-8l98 -195h-260l-80 183q-223 12 -330.5 158.5t-107.5 392.5zM352 543q0 -63 8.5 -122t28 -104t55 -72.5t91.5 -27.5q57 0 97 27.5t64.5 72.5 t34.5 104.5t10 125.5q0 61 -8 119.5t-29.5 102.5t-57.5 71.5t-91 27.5q-59 0 -98 -27.5t-62.5 -72.5t-33 -104.5t-9.5 -120.5z" />
<glyph horiz-adv-x="1052" d="M90 0l14 174v909h510q80 0 147.5 -17t117 -55t77 -96.5t27.5 -138.5q0 -104 -48 -169.5t-128 -90.5v-10q29 -10 49.5 -24.5t35.5 -36t25.5 -52.5t20.5 -76l68 -317h-312l-53 281q-16 78 -47 102.5t-100 24.5h-86v-408h-318zM406 612h122q72 0 110 32t38 95 q0 129 -144 129h-126v-256z" />
<glyph horiz-adv-x="892" d="M35 23l55 231q45 -16 117 -34.5t149 -18.5q76 0 130.5 23.5t54.5 76.5q0 51 -50.5 79t-123.5 56q-55 23 -109.5 48.5t-97.5 62.5t-70 88t-27 123q0 88 39 152.5t104.5 107.5t152.5 63.5t184 20.5q102 0 182 -11.5t121 -19.5l-58 -225q-43 16 -104 28.5t-123 12.5 q-70 0 -125 -24.5t-55 -78.5q0 -49 47 -76.5t119 -56.5q55 -23 111.5 -48t100.5 -62t71.5 -87.5t27.5 -123.5q0 -92 -41 -159t-110.5 -109t-161.5 -61t-195 -19q-111 0 -188.5 13t-126.5 28z" />
<glyph horiz-adv-x="815" d="M14 862v221h787v-221h-242v-862h-315l10 154v708h-240z" />
<glyph horiz-adv-x="1005" d="M90 0l14 154v929h304v-143h172q180 0 287.5 -90t107.5 -272q0 -86 -27.5 -152t-79 -110t-121 -66.5t-155.5 -22.5h-184v-227h-318zM408 446h104q154 0 154 140q0 76 -43 107.5t-115 31.5h-100v-279z" />
<glyph horiz-adv-x="1083" d="M80 1083h321v-690q0 -90 28 -136t106 -46q82 0 115.5 47t33.5 137v533l-12 155h313v-702q0 -100 -32.5 -175t-92 -125t-143.5 -74.5t-189 -24.5q-209 0 -320.5 96t-111.5 301v549z" />
<glyph horiz-adv-x="1083" d="M80 1083h321v-690q0 -90 28 -136t106 -46q82 0 115.5 47t33.5 137v533l-12 155h313v-702q0 -100 -32.5 -175t-92 -125t-143.5 -74.5t-189 -24.5q-209 0 -320.5 96t-111.5 301v549zM281 1251l432 217l86 -190l-445 -109z" />
<glyph horiz-adv-x="1083" d="M80 1083h321v-690q0 -90 28 -136t106 -46q82 0 115.5 47t33.5 137v533l-12 155h313v-702q0 -100 -32.5 -175t-92 -125t-143.5 -74.5t-189 -24.5q-209 0 -320.5 96t-111.5 301v549zM240 1274l237 170q33 20 62 20q14 0 31.5 -4t33.5 -16l236 -170l-78 -86l-223 98 l-224 -98z" />
<glyph horiz-adv-x="1083" d="M80 1083h321v-690q0 -90 28 -136t106 -46q82 0 115.5 47t33.5 137v533l-12 155h313v-702q0 -100 -32.5 -175t-92 -125t-143.5 -74.5t-189 -24.5q-209 0 -320.5 96t-111.5 301v549zM309 1194v266h176v-266h-176zM590 1194v266h176v-266h-176z" />
<glyph horiz-adv-x="1083" d="M80 1083h321v-690q0 -90 28 -136t106 -46q82 0 115.5 47t33.5 137v533l-12 155h313v-702q0 -100 -32.5 -175t-92 -125t-143.5 -74.5t-189 -24.5q-209 0 -320.5 96t-111.5 301v549zM285 1276l86 190l432 -217l-74 -82z" />
<glyph horiz-adv-x="995" d="M8 1083h324l131 -786l6 -72h10l8 72l152 629l8 157h340l-293 -1083h-440z" />
<glyph horiz-adv-x="1568" d="M25 1083h325l107 -858h10v74l125 608l6 176h332l143 -784v-74h10l111 666l10 192h340l-231 -1083h-395l-130 762l-8 76h-10l-6 -76l-146 -762h-393z" />
<glyph horiz-adv-x="1013" d="M8 0l271 569l-248 514h327l129 -323l17 -66h8l14 66l54 149l53 174h352l-250 -514l271 -569h-334l-148 373l-12 57h-8l-12 -57l-74 -197l-49 -176h-361z" />
<glyph horiz-adv-x="942" d="M6 1083h309l136 -430l10 -67h8l10 67l86 254l37 176h334l-330 -706v-377h-305v377z" />
<glyph horiz-adv-x="942" d="M6 1083h309l136 -409l10 -68h8l10 68l86 233l37 176h334l-330 -706v-377h-305v377zM203 1251l432 217l86 -190l-445 -109z" />
<glyph horiz-adv-x="942" d="M6 1083h309l136 -409l10 -68h8l10 68l86 233l37 176h334l-330 -706v-377h-305v377zM240 1194v266h176v-266h-176zM520 1194v266h176v-266h-176z" />
<glyph horiz-adv-x="890" d="M31 0v244l446 581l43 27l-2 10h-471v221h801v-241l-445 -584l-55 -25l2 -10h314l196 15v-238h-829z" />
<glyph horiz-adv-x="608" d="M27 760q0 63 27.5 104t73.5 65.5t108.5 34t134.5 9.5q-2 59 -35 77.5t-96 18.5q-49 0 -99.5 -10t-79.5 -21l37 150q25 4 49 8q23 4 49.5 6t55.5 2q76 0 132 -12t93 -42t54.5 -80t17.5 -126v-254l10 -94h-135l-29 76h-8q-29 -37 -70 -62.5t-104 -25.5q-80 0 -133 45 t-53 131zM203 784q0 -31 18.5 -47t46.5 -16q57 0 80 40.5t23 110.5q-31 0 -61.5 -2t-54.5 -11t-38 -26.5t-14 -48.5z" />
<glyph horiz-adv-x="620" d="M49 604l10 109v723h181v-291h10q6 8 40 32.5t95 24.5q102 0 156.5 -70.5t54.5 -187.5q0 -76 -19.5 -141.5t-62.5 -112.5t-111.5 -74.5t-166.5 -27.5q-47 0 -98.5 5t-88.5 11zM231 825q0 -14 1 -41.5t1 -50.5q6 -2 13 -2h22q41 0 69 15.5t45 42t25.5 61.5t8.5 74 q0 59 -18.5 98t-63.5 39q-31 0 -51.5 -19.5t-31.5 -52.5t-15.5 -76t-4.5 -88z" />
<glyph horiz-adv-x="505" d="M18 879q0 147 82 235t232 88q57 0 97 -8t56 -12l-36 -144q-20 10 -45 17.5t-54 7.5q-76 0 -112.5 -49t-36.5 -123q0 -72 32.5 -117t98.5 -45q45 0 83 19.5t60 46.5l27 -146q-6 -6 -22.5 -16t-43 -20.5t-62.5 -18.5t-79 -8q-129 0 -203 82t-74 211z" />
<glyph horiz-adv-x="622" d="M20 848q0 78 20.5 142.5t62.5 111.5t105.5 73.5t147.5 26.5h25v234h188l-10 -109v-731h-115l-22 74h-10q-23 -31 -62 -57.5t-104 -26.5q-106 0 -166 73.5t-60 188.5zM201 866q0 -57 18.5 -98t63.5 -41q33 0 53 19.5t31.5 52t15.5 76t4 90.5q0 29 -1 51t-3 41h-10 q-4 0 -10.5 1t-10.5 1q-82 0 -115.5 -55.5t-35.5 -137.5z" />
<glyph horiz-adv-x="587" d="M20 887q0 68 19.5 125t56.5 99t91.5 66.5t125.5 24.5q70 0 119 -22.5t78 -62.5t42 -95t13 -119v-49h-297l-59 -8q2 -70 46 -95.5t122 -25.5q49 0 99 8t79 19l-39 -146q-18 -4 -67.5 -13t-102.5 -9q-160 0 -243 77.5t-83 225.5zM209 954h182l6 7q0 47 -19.5 76.5 t-64.5 29.5q-47 0 -73.5 -30.5t-30.5 -82.5z" />
<glyph horiz-adv-x="294" d="M37 1348l115 114l114 -114l-114 -115zM51 596l10 92v510h183v-602h-193z" />
<glyph horiz-adv-x="294" d="M53 598l8 94v746h179v-840h-187z" />
<glyph horiz-adv-x="944" d="M45 1190h135l23 -74h10q23 35 64.5 60.5t103.5 25.5q55 0 97 -22.5t63 -63.5h8q23 35 64.5 60.5t103.5 25.5q88 0 131 -48t43 -140v-420h-180v393q0 33 -15.5 53.5t-46.5 20.5q-53 0 -69.5 -39t-16.5 -100v-328h-180v393q0 33 -15.5 53.5t-45.5 20.5q-51 0 -68.5 -39 t-17.5 -100v-328h-181v489z" />
<glyph horiz-adv-x="608" d="M20 891q0 139 75 225t218 86q145 0 210 -84t65 -223q0 -145 -72 -227t-225 -82q-143 0 -207 84t-64 221zM201 891q0 -68 19.5 -117t78.5 -49t83 49t24 121q0 68 -19.5 117t-79.5 49q-31 0 -51 -14.5t-32.5 -38t-17.5 -54t-5 -63.5z" />
<glyph horiz-adv-x="419" d="M41 1190h141l21 -76h10q23 39 66 63.5t114 24.5l21 -162q-4 0 -17.5 2t-23.5 2q-80 0 -111 -41.5t-31 -119.5v-289h-178v489z" />
<glyph horiz-adv-x="507" d="M16 614l33 134q23 -8 65 -18.5t83 -10.5q39 0 73.5 10t34.5 39q0 23 -23.5 36t-62.5 30q-35 14 -69.5 29.5t-62.5 36t-44 48t-16 68.5q0 49 22.5 85t61.5 57.5t88 31.5t102 10q66 0 108 -6t70 -14l-35 -140q-25 10 -63.5 18.5t-75.5 8.5t-65.5 -7t-28.5 -34 q0 -25 25.5 -36t60.5 -25t69.5 -29.5t62.5 -36t45.5 -50.5t17.5 -71q0 -53 -24 -90t-62.5 -59.5t-90 -32.5t-104.5 -10q-66 0 -120 9t-75 19z" />
<glyph horiz-adv-x="378" d="M8 1051v133l66 6l24 129l156 65v-194h102v-139h-98v-248q0 -82 82 -82q23 0 35 6l-23 -139q-4 -2 -18.5 -3t-24.5 -1q-117 0 -176 48t-59 169v250h-66z" />
<glyph horiz-adv-x="573" d="M27 51q0 143 67.5 228.5t198.5 85.5q135 0 195.5 -80t60.5 -222q0 -141 -71.5 -227t-205.5 -86q-133 0 -189 80t-56 221zM190 53q0 -70 18.5 -122t74.5 -52q27 0 46 15.5t31.5 41t18.5 59.5t6 68q0 68 -19.5 119t-76.5 51q-29 0 -47.5 -15t-29.5 -39.5t-16.5 -57.5 t-5.5 -68z" />
<glyph horiz-adv-x="516" d="M31 236q49 10 104 39.5t92 76.5h152l-12 -463h125v-129h-441v129h152l8 291l-6 2l-19 -37q-23 -18 -61.5 -30.5t-69.5 -20.5z" />
<glyph horiz-adv-x="559" d="M23 203l36 145q10 4 52.5 12.5t101.5 8.5q53 0 102.5 -12.5t88 -39t61 -65.5t22.5 -90q0 -41 -10 -74t-34.5 -63.5t-64.5 -61.5t-99 -65l2 -9h151l86 11v-140h-485v140q88 49 143 83.5t88 62.5t45.5 51.5t12.5 47.5q0 47 -37 70t-97 23q-37 0 -83 -9.5t-82 -25.5z" />
<glyph horiz-adv-x="544" d="M29 -96q41 -12 86 -19.5t100 -7.5q14 0 35.5 2t40 9.5t32 20.5t13.5 36q0 39 -36 51t-89 12h-90v103h90q47 0 82 12t35 51q0 20 -11.5 33.5t-29 22t-37 10.5t-37.5 2q-45 0 -89 -8.5t-89 -22.5l31 139q23 4 64.5 10.5t100.5 6.5q51 0 99.5 -9.5t85.5 -29t58.5 -52 t21.5 -81.5q0 -43 -22.5 -77t-63.5 -52v-9q35 -14 65.5 -44.5t30.5 -86.5q0 -51 -24.5 -86t-65.5 -55.5t-92.5 -28.5t-104.5 -8q-47 0 -92 5t-72 11z" />
<glyph horiz-adv-x="565" d="M31 4l223 348h219v-366h66v-121h-66v-107h-158v107h-284v139zM154 -10l2 -4h161v213l13 37h-8l-140 -232z" />
<glyph horiz-adv-x="520" d="M23 -88q25 -8 53 -16q25 -6 55.5 -10.5t65.5 -4.5q57 0 94 17.5t37 60.5q0 45 -51.5 62.5t-139.5 17.5h-65v315h385v-137l-84 10h-146v-86q49 0 97.5 -11t86.5 -35.5t60.5 -61.5t22.5 -88q0 -53 -22.5 -90t-60.5 -60.5t-88.5 -34t-103.5 -10.5q-57 0 -95 5t-67 14z" />
<glyph horiz-adv-x="567" d="M35 51q0 143 75.5 228.5t237.5 85.5q37 0 75 -6.5t58 -10.5l33 -133q-29 8 -73 15.5t-83 7.5q-137 0 -151 -113q18 2 31.5 3t25.5 1q119 0 198 -44t79 -144q0 -86 -67.5 -138.5t-178.5 -52.5q-68 0 -117 22.5t-80.5 63.5t-47 95.5t-15.5 119.5zM199 27q0 -66 20.5 -111 t79.5 -45q37 0 59.5 20.5t22.5 55.5q0 47 -39 65.5t-92 18.5h-27.5t-23.5 -4z" />
<glyph horiz-adv-x="489" d="M23 217v137h442v-137q-55 -51 -88 -111.5t-50.5 -120t-22.5 -114.5t-5 -96v-15h-168v15q0 111 31 223.5t108 208.5l27 12v8h-178z" />
<glyph horiz-adv-x="575" d="M33 -84q0 47 26.5 81t71.5 54v8q-35 16 -59.5 49t-24.5 80q0 45 21.5 79t55.5 55.5t78 32t91 10.5t91 -9.5t78 -30t53.5 -52t19.5 -74.5q0 -47 -25 -78t-61 -47v-8q39 -18 64.5 -53.5t25.5 -82.5q0 -45 -21.5 -78.5t-57.5 -56t-83 -34t-96 -11.5t-94.5 9.5t-79 28.5 t-54 51t-20.5 77zM176 -63q0 -35 28.5 -50.5t69.5 -15.5q37 0 67 15.5t30 45.5q0 29 -31 46.5t-72 27.5l-22 6q-29 -12 -49.5 -30.5t-20.5 -44.5zM211 190q0 -31 27.5 -46t68.5 -25l17 -4q29 8 48 28.5t19 44.5q0 33 -26.5 47.5t-65.5 14.5q-35 0 -61.5 -14.5t-26.5 -45.5z " />
<glyph horiz-adv-x="567" d="M20 174q0 86 68 138.5t178 52.5q68 0 117 -23t81 -63.5t47 -96t15 -119.5q0 -143 -75.5 -228t-237.5 -85q-37 0 -75 6t-58 11l-33 133q29 -8 73 -15.5t83 -7.5q137 0 151 113q-18 -2 -31.5 -3t-25.5 -1q-59 0 -109.5 10t-87.5 32.5t-58.5 58.5t-21.5 87zM180 168 q0 -47 39 -65.5t92 -18.5h27.5t23.5 4q0 66 -20 111t-80 45q-37 0 -59.5 -20.5t-22.5 -55.5z" />
<glyph horiz-adv-x="313" d="M49 174q0 117 38 229.5t93 198.5l84 -55q-39 -68 -68.5 -162t-29.5 -211t29.5 -210t68.5 -161l-86 -55q-55 86 -92 197.5t-37 228.5z" />
<glyph horiz-adv-x="313" d="M49 -197q39 68 68.5 161t29.5 210t-29.5 211t-68.5 162l84 55q55 -86 93 -198.5t38 -229.5t-37 -228.5t-92 -197.5z" />
<glyph horiz-adv-x="1058" d="M55 535q0 129 31 233t92.5 178t152.5 115t212 41q240 0 351.5 -146.5t111.5 -402.5q0 -129 -34 -233.5t-97.5 -180.5t-157.5 -116.5t-213 -40.5q-121 0 -206 37.5t-138.5 109.5t-79 174.5t-25.5 231.5zM354 539q0 -63 7.5 -122t26 -103t51 -70.5t83.5 -26.5q49 0 84 28.5 t56.5 76t32 106.5t10.5 123q0 61 -7.5 118.5t-27 100.5t-52 68.5t-83.5 25.5t-86 -27.5t-55.5 -72.5t-30 -104.5t-9.5 -120.5z" />
<glyph horiz-adv-x="907" d="M35 868q45 8 94 26.5t96 46.5t90 63.5t78 78.5h281l-23 -847h228v-236h-805v236h274l17 532l-11 4l-32 -67q-43 -33 -114 -55.5t-128 -37.5z" />
<glyph horiz-adv-x="970" d="M47 807l53 258q8 2 35 8t65 12.5t86 11.5t101 5q94 0 184.5 -22.5t159 -69.5t110.5 -118t42 -165q0 -74 -18.5 -133t-62.5 -114.5t-117 -112t-179 -119.5l4 -12h272l156 16v-252h-879v252q158 88 260.5 150.5t161 112.5t81 92t22.5 89q0 86 -66.5 127t-175.5 41 q-68 0 -148.5 -15t-146.5 -42z" />
<glyph horiz-adv-x="974" d="M55 264q74 -25 154 -37t180 -12q27 0 65 4t72.5 16.5t59 37t24.5 65.5q0 37 -18.5 59.5t-49 34.5t-72.5 17.5t-89 5.5h-162v184h162q90 0 152.5 23.5t62.5 91.5q0 39 -21.5 62.5t-53.5 36.5t-68.5 17t-69.5 4q-160 0 -315 -51l51 252q39 8 113.5 17.5t185.5 9.5 q94 0 181 -15.5t152.5 -52.5t105.5 -96t40 -147q0 -78 -41 -138.5t-115 -95.5v-8q33 -12 65 -33.5t56.5 -51.5t38.5 -70t14 -91q0 -92 -45 -153.5t-117.5 -99.5t-165.5 -53t-192 -15q-86 0 -168 9t-129 21z" />
<glyph horiz-adv-x="1013" d="M49 193v266l408 624h399v-669h119v-221h-121v-193h-287v193h-518zM274 422l5 -8h292v389l21 65l-12 2l-254 -421z" />
<glyph horiz-adv-x="929" d="M47 270q39 -16 88 -26q41 -10 95.5 -17.5t117.5 -7.5q104 0 172 32t68 109q0 84 -94.5 116t-253.5 32h-119v575h704v-249l-155 16h-267v-154q92 0 179.5 -21.5t156 -65.5t110.5 -111.5t42 -161.5q0 -98 -41 -166t-110.5 -110t-160 -60t-188.5 -18q-106 0 -175 9t-122 23z " />
<glyph horiz-adv-x="1009" d="M55 530q0 129 34 234.5t104.5 180.5t178 116t255.5 41q66 0 136.5 -10.5t104.5 -20.5l60 -244q-53 16 -133 29.5t-150 13.5q-123 0 -192.5 -49t-83.5 -155q35 4 58.5 5t45.5 1q106 0 198.5 -18.5t160 -60.5t106.5 -107.5t39 -157.5q0 -78 -33 -142.5t-91 -109.5 t-140 -69.5t-183 -24.5q-125 0 -215 40.5t-147 114.5t-85 174.5t-28 218.5zM352 487q0 -59 9.5 -111t30 -91t56 -60.5t91.5 -21.5q66 0 106.5 38t40.5 99q0 43 -19.5 72.5t-52 48t-75.5 26t-90 7.5q-51 0 -97 -7z" />
<glyph horiz-adv-x="860" d="M23 836v247h808v-247q-98 -92 -158.5 -203t-93 -221.5t-43 -212t-10.5 -174.5v-25h-305v25q0 100 13.5 203.5t43 205t77.5 198.5t118 183l49 27l-2 12h-321z" />
<glyph horiz-adv-x="1024" d="M49 281q0 86 48 151.5t128 104.5v10q-63 31 -107 91t-44 140q0 84 39 144.5t101 100.5t143 59.5t167 19.5t166 -17.5t140.5 -54.5t97.5 -93t37 -136q0 -86 -45.5 -144.5t-112.5 -89.5v-10q72 -37 118 -99.5t46 -148.5q0 -84 -39 -145.5t-104.5 -102.5t-150.5 -60 t-175 -19q-92 0 -174 16t-144.5 52t-98.5 93.5t-36 137.5zM311 319q0 -59 52.5 -88.5t125.5 -29.5q70 0 123.5 28.5t53.5 83.5q0 27 -15.5 47.5t-42 37t-59.5 27.5t-70 21l-39 11q-55 -23 -92 -56.5t-37 -81.5zM375 784q0 -55 52 -79.5t124 -47.5l33 -10q49 16 83.5 52 t34.5 79q0 59 -49 86t-116 27q-61 0 -111.5 -26.5t-50.5 -80.5z" />
<glyph horiz-adv-x="1009" d="M33 756q0 78 32.5 142.5t91 109.5t140.5 69.5t182 24.5q125 0 215 -41t147.5 -115t85 -174t27.5 -219q0 -129 -33.5 -234.5t-104.5 -180.5t-178.5 -115.5t-254.5 -40.5q-66 0 -136.5 10t-105.5 20l-59 244q53 -16 133 -29.5t150 -13.5q123 0 192.5 49t83.5 156 q-35 -4 -58.5 -5t-45.5 -1q-109 0 -201 18.5t-159.5 60t-105.5 107.5t-38 158zM324 743q0 -43 19 -72.5t52 -48t76 -25.5t90 -7q29 0 51.5 1t44.5 5q0 59 -9 111.5t-29.5 90.5t-56.5 60.5t-91 22.5q-66 0 -106.5 -38.5t-40.5 -99.5z" />
<glyph horiz-adv-x="573" d="M27 236q0 143 67.5 228t198.5 85q135 0 195.5 -80t60.5 -221t-71.5 -227.5t-205.5 -86.5q-133 0 -189 80.5t-56 221.5zM190 238q0 -70 18.5 -122.5t74.5 -52.5q27 0 46 15.5t31.5 41t18.5 59.5t6 69q0 68 -19.5 119t-76.5 51q-29 0 -47.5 -15.5t-29.5 -40t-16.5 -57 t-5.5 -67.5z" />
<glyph horiz-adv-x="516" d="M31 420q49 10 104 39.5t92 77.5h152l-12 -463h125v-129h-441v129h152l8 291l-6 2l-19 -37q-23 -18 -61.5 -30.5t-69.5 -20.5z" />
<glyph horiz-adv-x="559" d="M23 387l36 145q10 4 52.5 12.5t101.5 8.5q53 0 102.5 -12.5t88 -39t61 -65.5t22.5 -90q0 -41 -10 -73.5t-34.5 -63.5t-64.5 -61.5t-99 -65.5l2 -8h151l86 10v-139h-485v139q88 49 143 84t88 62.5t45.5 51t12.5 48.5q0 47 -37 69.5t-97 22.5q-37 0 -83 -9.5t-82 -25.5z " />
<glyph horiz-adv-x="544" d="M29 88q41 -12 86 -19.5t100 -7.5q14 0 35.5 2.5t40 9.5t32 20t13.5 36q0 39 -36 51.5t-89 12.5h-90v102h90q47 0 82 12t35 51q0 20 -11.5 34t-29 22t-37 10t-37.5 2q-45 0 -89 -8t-89 -23l31 140q23 4 64.5 10t100.5 6q51 0 99.5 -9.5t85.5 -28.5t58.5 -52t21.5 -82 q0 -43 -22.5 -77t-63.5 -52v-8q35 -14 65.5 -45t30.5 -86q0 -51 -24.5 -86t-65.5 -55.5t-92.5 -29t-104.5 -8.5q-47 0 -92 5.5t-72 11.5z" />
<glyph horiz-adv-x="565" d="M31 49v139l223 349h219v-367h66v-121h-66v-106h-158v106h-284zM154 174l2 -4h161v213l13 37h-8l-140 -232z" />
<glyph horiz-adv-x="520" d="M23 96q25 -8 53 -16q25 -6 55.5 -10t65.5 -4q57 0 94 17t37 60q0 45 -51.5 62.5t-139.5 17.5h-65v316h385v-138l-84 11h-146v-86q49 0 97.5 -11.5t86.5 -36t60.5 -61.5t22.5 -88q0 -53 -22.5 -90t-60.5 -60.5t-88.5 -34t-103.5 -10.5q-57 0 -95 5.5t-67 13.5z" />
<glyph horiz-adv-x="567" d="M35 236q0 143 75.5 228t237.5 85q37 0 75 -6t58 -11l33 -133q-29 8 -73 15.5t-83 7.5q-137 0 -151 -113q18 2 31.5 3t25.5 1q119 0 198 -44t79 -144q0 -86 -67.5 -138.5t-178.5 -52.5q-68 0 -117 23t-80.5 63.5t-47 95t-15.5 120.5zM199 211q0 -66 20.5 -111t79.5 -45 q37 0 59.5 20.5t22.5 55.5q0 47 -39 65.5t-92 18.5h-27.5t-23.5 -4z" />
<glyph horiz-adv-x="489" d="M23 401v138h442v-138q-55 -51 -88 -111.5t-50.5 -119.5t-22.5 -114.5t-5 -96.5v-14h-168v14q0 111 31 223.5t108 208.5l27 12v9h-178z" />
<glyph horiz-adv-x="575" d="M33 100q0 47 26.5 81t71.5 55v8q-35 16 -59.5 49t-24.5 80q0 45 21.5 78.5t55.5 55t78 32t91 10.5t91 -9.5t78 -30t53.5 -52t19.5 -74.5q0 -47 -25 -78t-61 -47v-8q39 -18 64.5 -53t25.5 -82q0 -45 -21.5 -79t-57.5 -56.5t-83 -34t-96 -11.5t-94.5 9.5t-79 29t-54 51 t-20.5 76.5zM176 121q0 -35 28.5 -50.5t69.5 -15.5q37 0 67 15.5t30 46.5q0 29 -31 46t-72 27l-22 7q-29 -12 -49.5 -31t-20.5 -45zM211 375q0 -31 27.5 -46.5t68.5 -25.5l17 -4q29 8 48 28.5t19 45.5q0 33 -26.5 47t-65.5 14q-35 0 -61.5 -14t-26.5 -45z" />
<glyph horiz-adv-x="567" d="M20 358q0 86 68 138.5t178 52.5q68 0 117 -22.5t81 -63.5t47 -96.5t15 -118.5q0 -143 -75.5 -228.5t-237.5 -85.5q-37 0 -75 6.5t-58 10.5l-33 133q29 -8 73 -15.5t83 -7.5q137 0 151 113q-18 -2 -31.5 -3t-25.5 -1q-59 0 -109.5 10t-87.5 33t-58.5 58.5t-21.5 86.5z M180 352q0 -47 39 -65.5t92 -18.5h27.5t23.5 4q0 66 -20 111t-80 45q-37 0 -59.5 -20.5t-22.5 -55.5z" />
<glyph horiz-adv-x="585" d="M27 887q0 143 67.5 228t198.5 85q135 0 195.5 -80t60.5 -221t-71.5 -227t-205.5 -86q-133 0 -189 80t-56 221zM190 889q0 -70 18.5 -122t74.5 -52q27 0 46 15t31.5 41t18.5 59.5t6 68.5q0 68 -19.5 119t-76.5 51q-29 0 -47.5 -15.5t-29.5 -40t-16.5 -57t-5.5 -67.5z" />
<glyph horiz-adv-x="516" d="M31 1071q49 10 104 40t92 77h152l-12 -463h125v-129h-441v129h152l8 291l-6 2l-19 -37q-23 -18 -61.5 -30.5t-69.5 -20.5z" />
<glyph horiz-adv-x="540" d="M23 1036l36 146q10 4 52.5 12t101.5 8q53 0 102.5 -12t88 -39t61 -65.5t22.5 -90.5q0 -41 -10 -73.5t-34.5 -63.5t-64.5 -61.5t-99 -65.5l2 -8h151l86 10v-139h-485v139q88 49 143 84t88 62.5t45.5 51t12.5 48.5q0 47 -37 69.5t-97 22.5q-37 0 -83 -9t-82 -26z" />
<glyph horiz-adv-x="544" d="M31 737q41 -12 86 -19t100 -7q14 0 35.5 2t40 9t32 20.5t13.5 35.5q0 39 -36 51.5t-89 12.5h-90v102h90q47 0 82 12.5t35 51.5q0 20 -11.5 33.5t-29 21.5t-37 10t-37.5 2q-45 0 -89 -8t-89 -23l31 140q23 4 64.5 10t100.5 6q51 0 99.5 -9t85.5 -28.5t58.5 -52.5t21.5 -82 q0 -43 -22.5 -76.5t-63.5 -52.5v-8q35 -14 65.5 -45t30.5 -86q0 -51 -24.5 -86t-65.5 -55.5t-92.5 -28.5t-104.5 -8q-47 0 -92 5t-72 11z" />
<glyph horiz-adv-x="565" d="M31 702v140l223 348h219v-367h66v-121h-66v-106h-158v106h-284zM154 827l2 -4h161v213l13 37h-8l-140 -231z" />
<glyph horiz-adv-x="520" d="M23 748q25 -8 53 -17q25 -6 55.5 -10t65.5 -4q57 0 94 17.5t37 60.5q0 45 -51.5 62t-139.5 17h-65v316h385v-137l-84 10h-146v-86q49 0 97.5 -11.5t86.5 -36t60.5 -61.5t22.5 -88q0 -53 -22.5 -90t-60.5 -60.5t-88.5 -33.5t-103.5 -10q-57 0 -95 5t-67 13z" />
<glyph horiz-adv-x="567" d="M35 887q0 143 75.5 228t237.5 85q37 0 75 -6t58 -10l33 -133q-29 8 -73 15t-83 7q-137 0 -151 -112q18 2 31.5 3t25.5 1q119 0 198 -44t79 -145q0 -86 -67.5 -138t-178.5 -52q-68 0 -117 22.5t-80.5 63.5t-47 95t-15.5 120zM199 862q0 -66 20.5 -110.5t79.5 -44.5 q37 0 59.5 20t22.5 55q0 47 -39 65.5t-92 18.5h-27.5t-23.5 -4z" />
<glyph horiz-adv-x="489" d="M23 1053v137h442v-137q-55 -51 -88 -111.5t-50.5 -120t-22.5 -115t-5 -96.5v-14h-168v14q0 111 31 223.5t108 208.5l27 13v8h-178z" />
<glyph horiz-adv-x="575" d="M33 754q0 47 26.5 80.5t71.5 54.5v8q-35 16 -59.5 49t-24.5 80q0 45 21.5 79t55.5 55.5t78 31.5t91 10t91 -9t78 -29.5t53.5 -52.5t19.5 -75q0 -47 -25 -77.5t-61 -47.5v-8q39 -18 64.5 -53t25.5 -82q0 -45 -21.5 -79t-57.5 -56.5t-83 -33.5t-96 -11t-94.5 9t-79 28.5 t-54 51.5t-20.5 77zM176 774q0 -35 28.5 -50t69.5 -15q37 0 67 15t30 46q0 29 -31 46.5t-72 27.5l-22 6q-29 -12 -49.5 -30.5t-20.5 -45.5zM211 1028q0 -31 27.5 -46t68.5 -26l17 -4q29 8 48 28.5t19 45.5q0 33 -26.5 47t-65.5 14q-35 0 -61.5 -14t-26.5 -45z" />
<glyph horiz-adv-x="567" d="M27 1010q0 86 67.5 138t177.5 52q68 0 117 -22.5t81 -63.5t47 -96t15 -119q0 -143 -75.5 -228t-237.5 -85q-37 0 -75 6t-58 10l-33 133q29 -8 73 -15t83 -7q137 0 151 112q-18 -2 -31.5 -3t-25.5 -1q-59 0 -109.5 10.5t-87 33t-58 58t-21.5 87.5zM186 1004 q0 -47 39 -65.5t92 -18.5h27.5t24.5 4q0 66 -20.5 110.5t-80.5 44.5q-37 0 -59.5 -20t-22.5 -55z" />
<glyph horiz-adv-x="415" d="M66 1171q0 66 42 105t111 39q66 0 101.5 -37t35.5 -100q0 -66 -39.5 -104t-105.5 -38q-70 0 -107.5 36t-37.5 99z" />
<glyph horiz-adv-x="1196" d="M51 326q0 92 38 162.5t106 127.5q-39 47 -56.5 97.5t-17.5 99.5q0 63 25.5 116.5t71.5 92.5t110.5 59.5t142.5 20.5q61 0 115.5 -12.5t95.5 -38t66.5 -65.5t29.5 -95h281l176 10l-35 -203h-184q-2 -104 -16.5 -207.5t-49.5 -181.5q47 -27 105.5 -51.5t107.5 -44.5 l-45 -231q-25 8 -61.5 21t-77.5 30.5t-82 37t-78 40.5q-61 -59 -150 -94t-206 -35q-88 0 -163 23.5t-130 67.5t-87 107.5t-32 145.5zM303 328q0 -61 45 -101.5t109 -40.5q80 1 133 52q-57 37 -124 94t-114 108q-49 -39 -49 -112zM387 793q0 -41 31 -87.5t79 -93.5t107.5 -93 t116.5 -85q23 47 32 120t9 144h-211q10 23 17 50.5t7 50.5q0 43 -22.5 67.5t-67.5 24.5q-41 0 -69.5 -25.5t-28.5 -72.5z" />
</font>
</defs>
</svg>
