<?xml version="1.0" standalone="no"?>
<!DOCTYPE svg PUBLIC "-//W3C//DTD SVG 1.1//EN" "http://www.w3.org/Graphics/SVG/1.1/DTD/svg11.dtd" >
<svg xmlns="http://www.w3.org/2000/svg">
<metadata></metadata>
<defs>
<font id="distefanosansbold_italic" horiz-adv-x="966" >
<font-face units-per-em="2048" ascent="1536" descent="-512" />
<missing-glyph horiz-adv-x="360" />
<glyph unicode="&#xfb00;" horiz-adv-x="1107" d="M-131 -125q20 -8 55 -8q125 0 144 133l92 748h-99l27 210l98 19l11 86q18 156 112 246t248 90q41 0 68.5 -3t50.5 -7v-228q-10 4 -28.5 6t-29.5 2q-61 0 -103 -35.5t-42 -107.5q0 -23 2 -33q0 -8 2 -16h228l10 86q18 156 112.5 246t247.5 90q41 0 68.5 -3t50.5 -7v-228 q-10 4 -28.5 6t-28.5 2q-61 0 -103.5 -35.5t-42.5 -107.5q0 -23 2 -33q0 -8 2 -16h152l-27 -229h-164l-98 -795q-18 -147 -102 -231t-240 -84q-47 0 -72.5 4t-56.5 8v225q20 -8 55 -8q125 0 144 133l92 748h-240l-98 -795q-18 -147 -102 -231t-240 -84q-47 0 -72.5 4 t-56.5 8v225z" />
<glyph unicode="&#xfb01;" horiz-adv-x="1030" d="M-131 -125q20 -8 55 -8q125 0 144 133l92 748h-99l27 210l100 19l11 86q18 160 113.5 248t246.5 88q41 0 67.5 -2t49.5 -6v-230q-12 4 -30.5 6t-33.5 2q-61 0 -98 -35.5t-37 -107.5q0 -23 2 -33q0 -8 2 -16h506l-96 -778v-199q-6 -4 -20.5 -7t-33 -6t-36 -5t-27.5 -2 q-78 0 -123 37.5t-45 113.5q0 4 1 15.5t2 24.5t3 24.5t2 17.5l68 535h-242l-98 -795q-18 -154 -107.5 -234.5t-248.5 -80.5q-41 0 -68 4t-49 8v225zM686 1206l209 199l166 -199l-211 -196z" />
<glyph unicode="&#xfb02;" horiz-adv-x="1032" d="M-133 -125q20 -8 55 -8q125 0 144 133l92 748h-99l27 210l100 19l9 74q10 98 49 164.5t98 108.5t138 59.5t171 17.5q45 0 103.5 -5t113 -11.5t99.5 -13.5t65 -11l-145 -1172v-188q-29 -10 -59.5 -15t-53.5 -5q-168 0 -168 149q0 10 1 31.5t3 32.5l121 974q-14 4 -43 6.5 t-55 2.5q-70 0 -115 -32t-45 -114v-17t2 -18q2 -8 4 -18h150l-29 -229h-162l-98 -795q-18 -147 -109.5 -231t-246.5 -84q-41 0 -68 3t-49 7v227z" />
<glyph unicode="&#xfb03;" horiz-adv-x="1548" d="M-131 -125q20 -8 55 -8q125 0 144 133l92 748h-99l27 210l98 19l11 86q18 156 112 246t248 90q41 0 68.5 -3t50.5 -7v-228q-10 4 -28.5 6t-29.5 2q-61 0 -103 -35.5t-42 -107.5q0 -23 2 -33q0 -8 2 -16h230l10 86q18 160 113.5 248t246.5 88q41 0 67.5 -2t49.5 -6v-230 q-12 4 -30.5 6t-33.5 2q-61 0 -98 -35.5t-37 -107.5q0 -23 2 -33q0 -8 2 -16h504l-96 -778v-199q-6 -4 -20.5 -7t-33 -6t-36 -5t-27.5 -2q-78 0 -123 37.5t-45 113.5q0 4 1 15.5t2 24.5t3 24.5t2 17.5l68 535h-240l-98 -795q-18 -154 -107 -234.5t-249 -80.5q-41 0 -67.5 4 t-49.5 8v225q20 -8 55 -8q125 0 144 133l92 748h-240l-98 -795q-18 -147 -102 -231t-240 -84q-47 0 -72.5 4t-56.5 8v225zM1202 1206l209 199l166 -199l-211 -196z" />
<glyph unicode="&#xfb04;" horiz-adv-x="1552" d="M-131 -125q20 -8 55 -8q125 0 144 133l92 748h-99l27 210l98 19l11 86q18 156 112 246t248 90q41 0 68.5 -3t50.5 -7v-228q-10 4 -28.5 6t-29.5 2q-61 0 -103 -35.5t-42 -107.5q0 -23 2 -33q0 -8 2 -16h230l8 74q10 98 49 164.5t98.5 108.5t138 59.5t170.5 17.5 q45 0 103.5 -5t113 -11.5t99.5 -13.5t65 -11l-145 -1172v-188q-29 -10 -59.5 -15t-53.5 -5q-168 0 -168 149q0 10 1 31.5t3 32.5l121 974q-14 4 -42.5 6.5t-55.5 2.5q-70 0 -115 -32t-45 -114v-17t2 -18q2 -8 4 -18h150l-29 -229h-162l-98 -795q-18 -147 -109.5 -231 t-246.5 -84q-41 0 -67.5 3t-49.5 7v227q20 -8 55 -8q125 0 144 133l92 748h-240l-98 -795q-18 -147 -102 -231t-240 -84q-47 0 -72.5 4t-56.5 8v225z" />
<glyph horiz-adv-x="0" />
<glyph unicode="&#xd;" horiz-adv-x="360" />
<glyph unicode=" "  horiz-adv-x="360" />
<glyph unicode="&#x09;" horiz-adv-x="360" />
<glyph unicode="&#xa0;" horiz-adv-x="360" />
<glyph unicode="!" horiz-adv-x="491" d="M72 106q0 74 44 114t113 40q55 0 90 -35t35 -92q0 -68 -39.5 -109.5t-113.5 -41.5q-59 0 -94 34.5t-35 89.5zM129 360l127 936h291l-180 -936h-238z" />
<glyph unicode="&#x22;" horiz-adv-x="579" d="M102 731l58 459h157l-57 -459h-158zM375 731l57 459h160l-57 -459h-160z" />
<glyph unicode="#" horiz-adv-x="970" d="M16 266l21 160h166l90 293h-184l20 162h213l94 309h168l-94 -309h149l95 309h168l-99 -309h150l-21 -162h-178l-86 -293h191l-21 -160h-219l-80 -266h-168l80 266h-149l-80 -266h-168l82 266h-140zM373 426h147l88 293h-149z" />
<glyph unicode="$" d="M20 29l84 223q47 -16 120 -33.5t153 -17.5q76 0 126 23.5t50 82.5q0 33 -29.5 58.5t-75 49t-96.5 50.5t-96 62.5t-74.5 86t-29.5 121.5q0 80 28.5 140.5t77.5 104.5t114.5 71.5t141.5 42.5l25 202h143l-25 -194q72 0 155 -11.5t140 -25.5l-84 -223q-45 16 -101 29.5 t-118 13.5q-35 0 -68.5 -5.5t-60 -17.5t-43 -32.5t-16.5 -51.5q0 -33 29.5 -58.5t74.5 -49t97.5 -50t97.5 -62.5t74.5 -86t29.5 -122q0 -80 -26.5 -139t-72.5 -102t-108.5 -71t-134.5 -44l-24 -207h-144l23 195h-27q-76 0 -167 12t-163 35z" />
<glyph unicode="%" horiz-adv-x="1103" d="M90 834q0 180 75 273t220 93q104 0 163.5 -67.5t59.5 -178.5q0 -180 -79.5 -274t-221.5 -94q-104 0 -160.5 68.5t-56.5 179.5zM109 0l819 1190h137l-819 -1190h-137zM258 844q0 -51 15.5 -87t56.5 -36q29 0 49 19.5t32.5 50t18.5 70.5t6 81q0 51 -15 86t-54 35 q-31 0 -51.5 -18.5t-33 -49t-18.5 -69.5t-6 -82zM571 240q0 180 75 273t220 93q104 0 164 -67.5t60 -178.5q0 -180 -80 -274t-222 -94q-104 0 -160.5 68.5t-56.5 179.5zM739 250q0 -51 15.5 -87t56.5 -36q29 0 49.5 19.5t32.5 50t18.5 70.5t6.5 81q0 51 -15.5 86t-54.5 35 q-31 0 -51.5 -18.5t-32.5 -49t-18.5 -69.5t-6.5 -82z" />
<glyph unicode="&#x26;" horiz-adv-x="1329" d="M31 326q0 119 50 201.5t142 148.5q-29 43 -41 91t-12 93q0 82 29.5 147.5t83 109.5t126 67.5t158.5 23.5q125 0 212 -57t91 -174h336l154 16l-68 -227h-198q-16 -117 -44 -228.5t-75 -197.5q53 -33 108.5 -57.5t104.5 -44.5l-82 -256q-25 8 -61.5 22t-76.5 33.5t-81 41 t-74 44.5q-74 -66 -166 -103.5t-219 -37.5q-86 0 -158.5 24.5t-126 68.5t-83 107.5t-29.5 143.5zM297 346q0 -61 43 -101t102 -40q85 0 144 57q-53 41 -116.5 103.5t-104.5 119.5q-29 -23 -48.5 -60.5t-19.5 -78.5zM444 860q0 -43 29 -93t73 -101.5t98 -99.5t108 -89 q29 53 48 132t27 157h-221q12 20 27.5 54t15.5 71q0 41 -25.5 63.5t-64.5 22.5q-45 0 -80 -29.5t-35 -87.5z" />
<glyph unicode="'" horiz-adv-x="311" d="M102 731l58 459h164l-58 -459h-164z" />
<glyph unicode="(" horiz-adv-x="442" d="M53 350q0 35 2 71t6 71q25 219 107 392t184 310l115 -84q-47 -68 -93 -152t-81 -182t-56.5 -209.5t-21.5 -236.5q0 -141 27.5 -257t66.5 -202l-127 -82q-59 113 -94 257t-35 304z" />
<glyph unicode=")" horiz-adv-x="442" d="M-25 -127q47 68 92.5 152t81 182t57 209.5t21.5 236.5q0 141 -27.5 257t-66.5 202l127 82q59 -113 94 -257t35 -304q0 -35 -2 -71t-6 -70q-25 -219 -106.5 -392.5t-184.5 -310.5z" />
<glyph unicode="*" horiz-adv-x="718" d="M86 825l207 84l-184 88l102 150l149 -129v215h181l-54 -213l183 127l63 -154l-203 -84l183 -84l-103 -151l-147 123v-207h-180l51 209l-180 -123z" />
<glyph unicode="+" d="M94 508l21 164h307l39 325h166l-39 -325h307l-21 -164h-307l-41 -336h-166l41 336h-307z" />
<glyph unicode="," horiz-adv-x="403" d="M16 111q0 4 1 10t1 10q10 57 49 96t103 39q55 0 91 -35.5t36 -91.5q0 -41 -15.5 -75.5t-43.5 -73.5l-113 -148l-98 13l63 145q-29 6 -51.5 34.5t-22.5 76.5z" />
<glyph unicode="-" horiz-adv-x="630" d="M63 412l21 163h483l-20 -163h-484z" />
<glyph unicode="." horiz-adv-x="403" d="M16 106q0 70 44 112t114 42q55 0 90 -35t35 -92q0 -63 -42 -107t-112 -44q-59 0 -94 34.5t-35 89.5z" />
<glyph unicode="/" horiz-adv-x="636" d="M-45 0l565 1190h180l-565 -1190h-180z" />
<glyph unicode="0" d="M31 473q0 162 33.5 298t100 232.5t166 150.5t232.5 54q100 0 174 -36.5t122 -101t71.5 -154t23.5 -193.5q0 -166 -33.5 -302t-100 -234.5t-166 -151.5t-230.5 -53q-102 0 -176 36.5t-122 101t-71.5 154.5t-23.5 199zM319 457q0 -111 27 -174.5t107 -63.5q47 0 82.5 30 t60.5 82t40 121.5t23 149.5q4 33 6.5 64.5t2.5 66.5q0 111 -28 175.5t-108 64.5q-45 0 -78.5 -25.5t-58 -72t-41 -108.5t-24.5 -134q-4 -41 -7.5 -85t-3.5 -91z" />
<glyph unicode="1" d="M39 0l31 238h280l96 639l-6 2l-45 -64q-47 -35 -113.5 -58.5t-123.5 -37.5l-17 256q43 8 93.5 26.5t100.5 46t96 63.5t83 79h268l-143 -952h238l-31 -238h-807z" />
<glyph unicode="2" d="M-6 0l26 244q170 111 282 191.5t178.5 145t94 117t27.5 105.5q0 80 -60.5 124t-158.5 44q-47 0 -91 -8.5t-81 -18.5t-65.5 -20.5t-45.5 -16.5l84 258q53 16 123 29.5t142 13.5q92 0 172.5 -23.5t141 -70.5t96.5 -115.5t36 -158.5q0 -88 -28.5 -163t-85 -144.5 t-142.5 -139t-201 -145.5q0 -4 1 -6t1 -6h289l154 16l-31 -252h-858z" />
<glyph unicode="3" d="M35 20v259q12 -4 40.5 -14.5t68.5 -19.5t89.5 -16.5t102.5 -7.5q45 0 89 6t78 22.5t54.5 44.5t20.5 71q0 72 -60.5 99.5t-148.5 27.5h-156l27 219h145q49 0 92 8t75 25.5t51.5 44t19.5 63.5q0 68 -49.5 94.5t-133.5 26.5q-78 0 -156.5 -17.5t-154.5 -40.5l86 259 q14 4 44 10t68 11t80 9t80 4q88 0 166 -18.5t136.5 -57t93.5 -98t35 -139.5q0 -111 -53.5 -178.5t-139.5 -108.5l-2 -12q57 -33 102 -93.5t45 -150.5q0 -104 -48 -176t-122.5 -115t-169 -61t-186.5 -18q-43 0 -88 3t-86 8t-76 12t-59 15z" />
<glyph unicode="4" d="M10 201l35 270l498 719h352l-94 -766h112l-28 -223h-115l-25 -201h-272l25 201h-488zM262 434l4 -10h269l49 401l30 82q-2 0 -5 1t-5 1l-293 -440z" />
<glyph unicode="5" d="M41 25v249q53 -18 133 -36.5t182 -18.5q51 0 97.5 8.5t81 27.5t55 50t20.5 76q0 82 -84 115.5t-229 33.5h-145l79 660h684l-30 -254l-150 16h-248l-24 -202q82 -2 159.5 -25t139 -67t98.5 -109.5t37 -153.5q0 -111 -45 -188.5t-119 -127.5t-169 -73.5t-195 -23.5 q-88 0 -180.5 12t-147.5 31z" />
<glyph unicode="6" d="M59 471q0 158 37 293t114 233.5t192.5 154.5t273.5 56q41 0 82 -4t74.5 -9t57 -11t32.5 -8v-246q-51 16 -110.5 27.5t-125.5 11.5q-125 0 -199.5 -59.5t-97.5 -170.5q27 4 56.5 5t52.5 1q94 0 173 -20t135 -62t87 -108t31 -156q0 -98 -33 -176t-91.5 -132t-139 -81.5 t-179.5 -27.5q-111 0 -190.5 37.5t-130.5 104t-76 156t-25 191.5zM342 436q0 -47 8 -87t26.5 -68.5t48.5 -46t75 -17.5q63 0 103 40t40 116q0 80 -53 121t-141 41q-27 0 -55.5 -3.5t-45.5 -5.5q-6 -49 -6 -90z" />
<glyph unicode="7" d="M123 934l33 256h819l-33 -256q-121 -109 -198.5 -231.5t-125 -244.5t-70 -233.5t-32.5 -197.5l-4 -27h-289l4 29q27 229 115 457.5t260 426.5l62 27l-2 12h-392z" />
<glyph unicode="8" d="M20 283q0 115 62.5 188.5t157.5 124.5l2 12q-53 35 -89 94.5t-36 139.5q0 90 36.5 158.5t98 114.5t141.5 69.5t168 23.5q74 0 146.5 -18.5t131 -55t94.5 -94t36 -133.5q0 -55 -16.5 -99t-43 -80t-62.5 -63.5t-75 -48.5v-10q59 -41 97 -101.5t38 -146.5q0 -96 -40 -166.5 t-106.5 -117.5t-152.5 -69.5t-178 -22.5q-84 0 -157.5 17t-130 54t-89.5 93.5t-33 136.5zM279 328q0 -57 45 -86t110 -29q37 0 70 7t59.5 23.5t42 42t15.5 62.5q0 49 -44.5 84t-107.5 53l-35 11q-66 -23 -110.5 -65t-44.5 -103zM399 858q0 -49 37 -82t96 -49l31 -8 q23 6 48.5 18.5t47 30.5t36 43t14.5 57q0 55 -42 86t-108 31t-113 -31.5t-47 -95.5z" />
<glyph unicode="9" d="M76 791q0 98 32.5 175.5t91 132t139.5 82t179 27.5q111 0 190.5 -37.5t131 -104.5t76 -156t24.5 -191q0 -158 -37 -293t-113.5 -233.5t-192.5 -154.5t-273 -56q-41 0 -82 4t-75 9t-57.5 10t-31.5 9v246q51 -16 110.5 -27.5t124.5 -11.5q125 0 200 59.5t97 170.5 q-27 -4 -56.5 -5.5t-51.5 -1.5q-94 0 -173 20.5t-135.5 62.5t-87 107.5t-30.5 156.5zM356 817q0 -80 53.5 -121t141.5 -41q27 0 55.5 3.5t44.5 5.5q6 49 6 90q0 92 -34.5 155.5t-122.5 63.5q-63 0 -103.5 -40t-40.5 -116z" />
<glyph unicode=":" horiz-adv-x="403" d="M16 106q0 70 44 112t114 42q55 0 90 -35t35 -92q0 -63 -42 -107t-112 -44q-59 0 -94 34.5t-35 89.5zM98 772q0 70 44 112t114 42q55 0 90 -35t35 -92q0 -63 -42 -107.5t-112 -44.5q-59 0 -94 35t-35 90z" />
<glyph unicode=";" horiz-adv-x="403" d="M16 111q0 4 1 10t1 10q10 57 49 96t103 39q55 0 91 -35.5t36 -91.5q0 -41 -15.5 -75.5t-43.5 -73.5l-113 -148l-98 13l63 145q-29 6 -51.5 34.5t-22.5 76.5zM98 772q0 70 44 112t114 42q55 0 90 -35t35 -92q0 -63 -42 -107.5t-112 -44.5q-59 0 -94 35t-35 90z" />
<glyph unicode="&#x3c;" d="M135 600l668 479l76 -153l-469 -326l391 -342l-119 -137z" />
<glyph unicode="=" d="M74 330l20 164h780l-20 -164h-780zM115 664l20 163h780l-20 -163h-780z" />
<glyph unicode="&#x3e;" d="M111 274l473 326l-387 342l112 137l551 -479l-667 -479z" />
<glyph unicode="?" horiz-adv-x="833" d="M123 1034l65 240q43 14 103.5 27.5t136.5 13.5q90 0 167 -24.5t132 -72t87 -114t32 -148.5q0 -86 -31 -156.5t-85 -127t-127 -98.5t-154 -68l-35 -146h-221l32 299q59 8 118.5 28t107 50.5t76 74.5t28.5 103q0 78 -55.5 122t-141.5 44q-76 0 -129 -14t-106 -33zM131 109 q0 74 44 113.5t114 39.5q55 0 90 -34.5t35 -92.5q0 -68 -40 -109.5t-114 -41.5q-59 0 -94 34.5t-35 90.5z" />
<glyph unicode="@" horiz-adv-x="1153" d="M12 248q0 150 45 285t128 238t202 163.5t266 60.5q106 0 191.5 -35.5t146 -98t92 -146.5t31.5 -180q0 -104 -30.5 -199.5t-90 -168.5t-145.5 -117t-197 -48l-22 102h-8q-18 -35 -56.5 -69.5t-109.5 -34.5q-45 0 -78 20.5t-53.5 56.5t-30.5 81t-10 94q0 98 26.5 180 t74.5 140.5t116.5 90t154.5 31.5q59 0 103.5 -4t72.5 -8l-28 -135l-37 -291l4 -80q88 33 135 129t47 227q0 150 -80.5 232t-234.5 82q-109 0 -194 -48t-143 -130t-90 -189.5t-32 -226.5q0 -88 20.5 -163t63.5 -129t107.5 -85t150.5 -31q119 0 205 32t156 69v-162 q-74 -35 -167 -60.5t-204 -25.5q-123 0 -216 42t-155.5 115.5t-94.5 175t-32 218.5zM451 274q0 -53 14 -86.5t47 -33.5q53 0 76.5 62.5t40.5 186.5l16 140h-8q-4 0 -9 1t-12 1q-41 0 -71.5 -20.5t-51 -57.5t-31.5 -86t-11 -107z" />
<glyph unicode="A" horiz-adv-x="1130" d="M-45 0l489 1296h467l144 -1296h-357l11 172l-7 145h-307l-112 -317h-328zM471 549h215l-29 461v82h-8l-18 -82z" />
<glyph unicode="B" horiz-adv-x="1107" d="M35 0l37 170l139 1126h459q205 0 310 -85t105 -238q0 -117 -57 -195t-133 -108l-2 -8q59 -35 101 -97.5t42 -167.5q0 -193 -120.5 -295t-323.5 -102h-557zM391 250h146q88 0 138 41t50 125q0 63 -40 100t-112 37h-145zM453 760h153q72 0 116 43t44 115q0 55 -34 90.5 t-99 35.5h-146z" />
<glyph unicode="C" horiz-adv-x="1007" d="M53 535q0 176 49.5 320t139.5 246.5t216 158t279 55.5q100 0 186.5 -18.5t139.5 -34.5l-105 -265q-35 18 -92 35t-114 17q-84 0 -152 -34t-115 -95.5t-72.5 -150.5t-25.5 -200q0 -68 13.5 -126t42 -100t76.5 -66.5t116 -24.5q94 0 173 46t126 99v-305 q-53 -37 -143.5 -73.5t-225.5 -36.5q-121 0 -215 37.5t-160.5 109.5t-101.5 174.5t-35 231.5z" />
<glyph unicode="D" horiz-adv-x="1157" d="M33 0l39 170l141 1126h377q268 0 406.5 -138t138.5 -406q0 -375 -168 -563.5t-480 -188.5h-454zM393 260h92q162 0 244 119t82 366q0 145 -56.5 218t-179.5 73h-86z" />
<glyph unicode="E" horiz-adv-x="989" d="M35 0l37 170l139 1126h811l-33 -260h-502l-30 -258h458l-30 -241h-459l-33 -277h520l-32 -260h-846z" />
<glyph unicode="F" horiz-adv-x="917" d="M35 0l37 170l139 1126h774l-33 -260h-465l-34 -284h415l-28 -242h-416l-64 -510h-325z" />
<glyph unicode="G" horiz-adv-x="1107" d="M41 522q0 180 47 326.5t137 250t221.5 160t298.5 56.5q76 0 176.5 -14.5t186.5 -40.5l-88 -259q-55 18 -116.5 33t-145.5 15q-100 0 -172 -40t-119 -107.5t-69.5 -157t-22.5 -189.5q0 -68 11 -123t38 -96t70 -63.5t106 -22.5q29 0 53.5 5t42.5 11l27 221h-168l29 236h471 l-80 -635q-86 -43 -195.5 -75.5t-244.5 -32.5q-106 0 -196.5 34.5t-157 103t-103.5 170t-37 234.5z" />
<glyph unicode="H" horiz-adv-x="1153" d="M35 0l37 170l139 1126h309l-61 -499h311l61 499h324l-37 -170l-139 -1126h-307l67 543h-311l-68 -543h-325z" />
<glyph unicode="I" horiz-adv-x="534" d="M35 0l37 170l139 1126h309l-160 -1296h-325z" />
<glyph unicode="J" horiz-adv-x="702" d="M-20 -8v266q16 -4 40.5 -7t36.5 -3q96 0 156.5 43t73.5 153l71 592l-247 25l28 235h576l-37 -170l-90 -727q-16 -121 -61.5 -201.5t-112 -129t-151.5 -67.5t-179 -19q-25 0 -57.5 3t-46.5 7z" />
<glyph unicode="K" horiz-adv-x="1073" d="M35 0l37 170l139 1126h309l-61 -483h12l29 82l272 401h361l-392 -514l256 -782h-350l-143 514h-8l-86 -111l-50 -403h-325z" />
<glyph unicode="L" horiz-adv-x="837" d="M35 0l39 170l139 1126h307l-127 -1036h408l-33 -260h-733z" />
<glyph unicode="M" horiz-adv-x="1576" d="M18 0l41 170l189 1126h473l53 -802v-70h10l15 70l272 802h488l-31 -170l-111 -1126h-313l121 1022h-11l-14 -66l-344 -956h-262l-88 954v70h-10l-156 -1024h-322z" />
<glyph unicode="N" horiz-adv-x="1177" d="M35 0l39 168l139 1128h379l192 -911h11v80l59 831h324l-37 -170l-140 -1126h-376l-191 932h-12v-78l-64 -854h-323z" />
<glyph unicode="O" horiz-adv-x="1175" d="M53 518q0 184 43 331.5t124 251t199 159t265 55.5q119 0 208 -38t148.5 -107.5t89 -168t29.5 -219.5q0 -186 -43 -334.5t-124 -252t-197.5 -158.5t-266.5 -55q-238 0 -356.5 144t-118.5 392zM387 520q0 -55 8 -105t26.5 -88t50.5 -60.5t81 -22.5q74 0 125 44t84 116.5 t48 168t15 197.5q0 57 -8 108.5t-27.5 90.5t-51 61.5t-81.5 22.5q-74 0 -126 -45t-83.5 -119t-46 -170.5t-14.5 -198.5z" />
<glyph unicode="P" horiz-adv-x="1064" d="M35 0l39 170l139 1126h479q186 0 286.5 -99t100.5 -282q0 -121 -37.5 -207.5t-103.5 -144t-156 -85t-194 -27.5h-168l-58 -451h-327zM451 709h112q86 0 141.5 42t55.5 140q0 147 -160 147h-108z" />
<glyph unicode="Q" horiz-adv-x="1175" d="M53 518q0 184 43 331.5t124 251t199 159t265 55.5q119 0 208 -38t148.5 -107.5t89 -168t29.5 -219.5q0 -307 -111.5 -506.5t-320.5 -265.5l-4 -12l88 -231h-291l-63 217q-201 23 -302.5 165t-101.5 369zM387 520q0 -55 8 -105t26.5 -88t50.5 -60.5t81 -22.5q74 0 125 44 t84 116.5t48 168t15 197.5q0 57 -8 108.5t-27.5 90.5t-51 61.5t-81.5 22.5q-74 0 -126 -45t-83.5 -119t-46 -170.5t-14.5 -198.5z" />
<glyph unicode="R" horiz-adv-x="1112" d="M35 0l35 170l141 1126h485q174 0 279.5 -84t105.5 -251q0 -141 -66.5 -225.5t-170.5 -117.5l-2 -8q59 -25 83.5 -81t35.5 -156l36 -373h-319l-23 348q-6 96 -38.5 129t-114.5 33h-78l-64 -510h-325zM451 727h124q35 0 68 11.5t59.5 34t42 56t15.5 80.5q0 133 -148 133 h-123z" />
<glyph unicode="S" horiz-adv-x="956" d="M-23 27l93 268q18 -8 50 -17.5t71.5 -17.5t86 -14t93.5 -6q92 0 153.5 29.5t61.5 101.5q0 43 -36 73.5t-89 60.5t-116.5 61.5t-117 74.5t-89.5 103.5t-36 148.5q0 113 44 192.5t121 131t180.5 75t222.5 23.5q47 0 96 -4t93 -10.5t82 -14.5t63 -16l-89 -254 q-68 18 -129 30.5t-139 12.5q-43 0 -83 -6t-70.5 -21.5t-49 -39t-18.5 -60.5q0 -43 36 -73t90 -57.5t116.5 -59t117 -74.5t90 -105.5t35.5 -150.5q0 -121 -47 -203t-126 -133t-180 -72.5t-212 -21.5q-123 0 -219 15t-150 30z" />
<glyph unicode="T" horiz-adv-x="866" d="M88 1036l33 260h821l-33 -260h-256l-127 -1036h-325l37 170l106 866h-256z" />
<glyph unicode="U" horiz-adv-x="1144" d="M90 356q0 47 6 97l84 663v180h332l-102 -831q-4 -27 -4 -45.5v-28.5q0 -139 139 -139q92 0 131 53t51 160l82 661v170h334l-105 -841q-31 -242 -154.5 -357.5t-361.5 -115.5q-215 0 -323.5 91t-108.5 283z" />
<glyph unicode="V" horiz-adv-x="1071" d="M113 1296h333l52 -942l-4 -90h12l16 90l250 768l31 174h352l-475 -1296h-432z" />
<glyph unicode="W" horiz-adv-x="1705" d="M131 1296h342l12 -1028h15l14 82l209 772l27 174h389l12 -946l-6 -82h12l232 854l26 174h357l-416 -1296h-416l-14 944v84h-13l-14 -84l-270 -944h-414z" />
<glyph unicode="X" horiz-adv-x="1110" d="M-45 0l395 678l-200 618h346l90 -401l6 -78h12l21 76l110 231l66 172h377l-369 -618l225 -678h-364l-101 444l-6 70h-10l-21 -70l-120 -254l-70 -190h-387z" />
<glyph unicode="Y" horiz-adv-x="1038" d="M113 1296h329l93 -495l-5 -82h11l22 84l154 323l55 170h350l-458 -843l-56 -453h-317l55 453z" />
<glyph unicode="Z" horiz-adv-x="985" d="M-23 0l31 256l590 737l55 31l-4 12h-530l33 260h878l-31 -252l-589 -739l-68 -33l2 -12h358l220 23l-35 -283h-910z" />
<glyph unicode="[" horiz-adv-x="471" d="M4 -211l172 1401h326l-21 -164h-159l-134 -1075h160l-18 -162h-326z" />
<glyph unicode="\" horiz-adv-x="616" d="M74 1190h172l305 -1190h-176z" />
<glyph unicode="]" horiz-adv-x="471" d="M-59 -211l18 162h158l133 1075h-160l21 164h325l-172 -1401h-323z" />
<glyph unicode="^" d="M2 377l533 633l376 -633l-145 -105l-266 451l-369 -447z" />
<glyph unicode="_" horiz-adv-x="1071" d="M-102 -358l20 163h1069l-20 -163h-1069z" />
<glyph unicode="`" horiz-adv-x="1034" d="M358 1206l105 191l385 -217l-82 -82z" />
<glyph unicode="a" horiz-adv-x="985" d="M31 350q0 145 39 264t114.5 204t188 131t260.5 46q86 0 178 -6t145 -10l-36 -168l-72 -594v-217q-16 -6 -42 -13t-61 -7q-80 0 -108.5 37.5t-38.5 99.5l-6 43h-10q-14 -33 -37 -65t-54.5 -57.5t-74.5 -40.5t-99 -15q-139 0 -212.5 101t-73.5 267zM319 385q0 -70 24 -114 t81 -44q51 0 86 30t57.5 81t35.5 119.5t24 146.5l18 152q-10 0 -18 2q-8 0 -16.5 1t-16.5 1q-72 0 -123 -29t-85 -79t-50.5 -118.5t-16.5 -148.5z" />
<glyph unicode="b" horiz-adv-x="989" d="M29 10l41 178l145 1184l281 19l-58 -488h13q6 6 23.5 21.5t45 31t66.5 27.5t88 12q70 0 124 -26.5t91 -74.5t56.5 -113.5t19.5 -143.5q0 -143 -37 -263t-115 -207t-197.5 -136t-283.5 -49q-74 0 -159 9t-144 19zM346 221q10 -2 19 -2q8 -2 17 -2h17q70 0 121 29.5t85 81 t50.5 119t16.5 143.5q0 78 -28 125t-87 47q-49 0 -84 -31t-57.5 -83t-34.5 -122.5t-21 -150.5z" />
<glyph unicode="c" horiz-adv-x="811" d="M35 408q0 135 41 243.5t115.5 185t179 117.5t231.5 41q86 0 145.5 -13t81.5 -19l-77 -236q-14 10 -60.5 24.5t-101.5 14.5q-72 0 -122 -26.5t-83 -72.5t-48 -105.5t-15 -125.5q0 -100 46 -160.5t140 -60.5q70 0 132 30.5t103 71.5v-241q-12 -12 -40.5 -27.5t-68.5 -31 t-91 -25.5t-109 -10q-193 0 -296 116.5t-103 309.5z" />
<glyph unicode="d" horiz-adv-x="987" d="M29 352q0 147 40 266t118.5 203t193.5 129t264 45h25l45 377l293 21l-35 -179l-125 -997v-217q-16 -6 -42 -13t-61 -7q-80 0 -108.5 37.5t-38.5 99.5l-6 35h-10q-18 -31 -41 -62t-54.5 -55.5t-72.5 -38.5t-95 -14q-139 0 -214.5 102t-75.5 268zM317 391q0 -78 27 -121 t86 -43q49 0 82 30t56.5 81t36.5 119.5t22 146.5l16 152q-8 0 -16 2q-8 0 -16.5 1t-16.5 1q-72 0 -123 -29t-86 -79t-51.5 -117.5t-16.5 -143.5z" />
<glyph unicode="e" horiz-adv-x="933" d="M37 412q0 125 39 231.5t111.5 185t175 122.5t231.5 44q156 0 248 -75.5t92 -204.5q0 -90 -47 -150.5t-118 -99.5t-154 -59.5t-156 -26.5l-125 -12q2 -45 19.5 -75t48 -47.5t73.5 -24.5t92 -7q94 0 167 16.5t108 26.5l-76 -236q-4 -2 -27.5 -8t-60.5 -13t-83 -12t-91 -5 q-229 0 -348 112.5t-119 317.5zM346 539q164 16 238.5 54t74.5 103q0 35 -24.5 56.5t-69.5 21.5q-82 0 -138 -58.5t-75 -148.5z" />
<glyph unicode="f" horiz-adv-x="589" d="M-131 -125q20 -8 55 -8q125 0 144 133l92 748h-99l27 210l98 19l11 86q18 156 112 246t248 90q41 0 68.5 -3t50.5 -7v-228q-10 4 -28.5 6t-29.5 2q-61 0 -103 -35.5t-42 -107.5q0 -23 2 -33q0 -8 2 -16h152l-27 -229h-164l-98 -795q-18 -147 -102 -231t-240 -84 q-47 0 -72.5 4t-56.5 8v225z" />
<glyph unicode="g" horiz-adv-x="989" d="M-25 -311l76 221q53 -14 116.5 -25.5t145.5 -11.5q221 0 277 242l10 45h-10q-35 -45 -102.5 -79t-157.5 -34q-137 0 -217 92t-80 258q0 285 163.5 441.5t465.5 156.5q86 0 165.5 -6t133.5 -10l-37 -168l-84 -717q-16 -129 -64.5 -216t-121 -139t-166 -74.5t-197.5 -22.5 q-43 0 -89 4t-88 10t-78 14t-61 19zM322 428q0 -68 28.5 -114t89.5 -46q49 0 81 24.5t53.5 70t34 106.5t22.5 135l16 154h-12q-6 0 -12.5 1t-14.5 1q-135 0 -210.5 -92.5t-75.5 -239.5z" />
<glyph unicode="h" horiz-adv-x="1009" d="M49 0l168 1372l295 21l-35 -172l-43 -344h10q37 47 101.5 83.5t148.5 36.5q123 0 186.5 -70.5t63.5 -191.5q0 -23 -2 -48t-6 -48l-82 -639q-18 -8 -46 -14t-56 -6q-90 0 -126 41.5t-36 117.5q0 10 1 27.5t3 28.5l49 415q2 10 3 23.5t1 23.5q0 47 -21.5 76t-70.5 29 q-43 0 -70.5 -19.5t-46 -53.5t-30 -80t-17.5 -101l-61 -508h-281z" />
<glyph unicode="i" horiz-adv-x="493" d="M70 139q0 10 1 27.5t3 28.5l96 776l279 16l-99 -799v-188q-18 -8 -49 -14t-59 -6q-90 0 -131 41.5t-41 117.5zM147 1206l209 199l166 -199l-211 -196z" />
<glyph unicode="j" horiz-adv-x="577" d="M-88 -115q12 -4 31.5 -6t33.5 -2q63 0 93 33t41 100l92 738l-144 24l25 195l453 20l-45 -188l-103 -826q-20 -168 -104 -251.5t-244 -83.5q-35 0 -73 6t-56 12v229zM215 1206l209 199l166 -199l-211 -196z" />
<glyph unicode="k" horiz-adv-x="974" d="M27 0l41 176l145 1198l283 19l-90 -734l12 -2l20 60l205 260h363l-344 -356l231 -619q-35 -10 -83 -16t-71 -6q-76 0 -121 29.5t-69 99.5l-103 286h-10l-74 -78l-38 -317h-297z" />
<glyph unicode="l" horiz-adv-x="499" d="M70 139q0 10 1 27.5t3 28.5l147 1177l279 17l-150 -1201v-188q-18 -8 -49 -14t-59 -6q-90 0 -131 41.5t-41 117.5z" />
<glyph unicode="m" horiz-adv-x="1507" d="M49 0l98 799v178q18 8 45 14t50 6q66 0 96.5 -30.5t40.5 -89.5l4 -21h10q43 55 111.5 97t165.5 42q88 0 152.5 -37.5t88.5 -101.5h11q47 55 111.5 97t160.5 42q123 0 185.5 -64.5t62.5 -185.5q0 -16 -1 -31.5t-3 -31.5l-82 -682q-18 -8 -46 -14t-57 -6q-90 0 -125.5 41.5 t-35.5 117.5q0 10 1 27.5t3 28.5l51 426q2 12 3 27.5t1 21.5q0 41 -23.5 66.5t-66.5 25.5q-41 0 -67.5 -17.5t-44 -48t-27 -71.5t-15.5 -88l-65 -537h-281l74 621q2 6 3 24.5t1 24.5q0 41 -23.5 66.5t-66.5 25.5q-41 0 -67.5 -17.5t-44 -48t-27 -71.5t-15.5 -88l-63 -537 h-283z" />
<glyph unicode="n" horiz-adv-x="1007" d="M49 0l98 799v178q18 8 45 14t50 6q66 0 99.5 -30.5t43.5 -89.5l4 -21h10q43 55 112 97t165 42q123 0 194.5 -69.5t71.5 -190.5q0 -16 -1 -38.5t-5 -41.5l-84 -655q-18 -8 -49 -14t-53 -6q-90 0 -126 41.5t-36 117.5q0 10 1 27.5t3 28.5l51 432q2 12 2 24.5v18.5 q0 41 -26.5 66.5t-69.5 25.5q-41 0 -67.5 -17.5t-44 -48t-27 -71.5t-15.5 -88l-63 -537h-283z" />
<glyph unicode="o" horiz-adv-x="972" d="M35 393q0 135 33.5 246t99 189.5t162 122.5t219.5 44q195 0 291 -112.5t96 -296.5q0 -139 -34 -252t-98.5 -190.5t-161.5 -119.5t-222 -42q-197 0 -291 113.5t-94 297.5zM324 406q0 -84 26.5 -139.5t100.5 -55.5q55 0 93 30.5t61.5 80t33.5 114t10 131.5 q0 86 -27.5 141.5t-103.5 55.5q-55 0 -92 -31t-60.5 -81t-32.5 -114t-9 -132z" />
<glyph unicode="p" horiz-adv-x="987" d="M-12 -352l35 178l116 934v217q16 6 42 13t61 7q80 0 108.5 -37.5t38.5 -99.5l4 -37h10q16 33 42 64t60 55.5t75 38.5t88 14q139 0 214.5 -102t75.5 -268q0 -147 -40.5 -266t-118.5 -203t-192.5 -129t-264.5 -45h-25l-36 -314zM344 221q8 -2 16 -2q8 -2 16.5 -2h16.5 q70 0 122 28.5t87 79t51.5 117t16.5 144.5t-27 121t-86 43q-49 0 -82 -30t-56.5 -81t-36.5 -119.5t-22 -146.5z" />
<glyph unicode="q" horiz-adv-x="989" d="M29 340q0 143 36.5 263t114.5 207t198 136t284 49q74 0 158.5 -9t144.5 -19l-41 -179l-138 -1120l-280 -18l49 424h-12q-6 -6 -23.5 -21.5t-45.5 -31t-66.5 -27.5t-88.5 -12q-72 0 -126 26.5t-90.5 73.5t-55 113.5t-18.5 144.5zM322 387q0 -78 27.5 -125t86.5 -47 q49 0 84 30.5t57.5 83t35 123t20.5 150.5l14 154q-10 0 -18 2q-8 0 -17.5 1t-17.5 1q-70 0 -121 -30t-85 -81t-50 -118.5t-16 -143.5z" />
<glyph unicode="r" horiz-adv-x="684" d="M47 0l98 801v176q18 8 45 14t50 6q66 0 99.5 -31.5t43.5 -91.5l4 -20h10q41 61 117 101t186 40v-266q-8 2 -27.5 4t-35.5 2q-127 0 -180.5 -67.5t-69.5 -196.5l-59 -471h-281z" />
<glyph unicode="s" horiz-adv-x="843" d="M-18 31l77 219q37 -14 102.5 -31.5t139.5 -17.5q31 0 61.5 4t56 13t41 25.5t15.5 41.5q0 27 -29.5 48t-73.5 42.5t-96.5 46t-96.5 59.5t-73.5 81t-29.5 112q0 88 39 149.5t102.5 99.5t144 55t164.5 17q45 0 91.5 -4t86 -10t69.5 -12t42 -8l-78 -222q-45 14 -106.5 26.5 t-114.5 12.5q-55 0 -100 -16.5t-45 -59.5q0 -27 29.5 -47t74.5 -41.5t96.5 -45t96.5 -57.5t74.5 -81t29.5 -113q0 -98 -42 -162.5t-109.5 -102.5t-152.5 -54t-171 -16q-43 0 -88 4t-88 11t-80 16.5t-59 17.5z" />
<glyph unicode="t" horiz-adv-x="595" d="M55 748l27 215l102 14l64 213l258 106l-41 -319h158l-29 -229h-152l-49 -390q-2 -12 -3 -30.5t-1 -26.5q0 -53 31 -73.5t84 -20.5q14 0 29.5 2t29.5 6l-61 -215q-16 -6 -50 -12t-87 -6q-135 0 -199 70.5t-64 199.5q0 16 1 39.5t6 46.5l51 410h-105z" />
<glyph unicode="u" horiz-adv-x="1007" d="M68 240q0 16 1 38.5t5 40.5l84 656q18 8 49 14t53 6q90 0 126 -42t36 -117q0 -10 -1 -27.5t-3 -28.5l-51 -432q-2 -12 -2 -24.5v-18.5q0 -41 26.5 -66.5t69.5 -25.5q41 0 67.5 17.5t44 48t26.5 71.5t15 88l64 537h283l-99 -799v-178q-18 -8 -44.5 -14.5t-49.5 -6.5 q-66 0 -99.5 31t-43.5 90l-4 21h-11q-43 -55 -111.5 -97t-164.5 -42q-123 0 -194.5 69.5t-71.5 190.5z" />
<glyph unicode="v" horiz-adv-x="925" d="M72 967l295 20l57 -663l-6 -74h10q18 35 52 113.5t69 181.5q23 72 40 128t21 89v215q25 4 49 10q23 4 49.5 7t53.5 3q86 0 125 -38.5t39 -104.5q0 -76 -39 -187.5t-99 -234.5q-57 -121 -120.5 -234.5t-110.5 -197.5h-346z" />
<glyph unicode="w" horiz-adv-x="1437" d="M78 967l295 20l55 -663l-8 -74h8q16 35 47 97.5t62 160.5q27 80 41 144.5t20 109.5v215q27 4 53 10q23 4 51.5 7t55.5 3q86 0 123 -37.5t37 -103.5q0 -31 -5.5 -55.5t-15.5 -55.5l43 -421l-8 -74h8q16 35 44 94t60 156q29 84 45.5 146.5t26.5 115.5v215l51 10 q23 4 50.5 7t54.5 3q86 0 123 -37.5t37 -103.5q0 -78 -42 -193.5t-102 -242.5q-55 -117 -116.5 -227.5t-108.5 -192.5h-330l-16 293l22 74h-10q-49 -98 -103.5 -198.5t-90.5 -168.5h-330z" />
<glyph unicode="x" horiz-adv-x="944" d="M-45 0l301 524l-170 451q14 4 36.5 8t45 7t43 4t31.5 1q76 0 120 -24.5t64 -96.5l45 -182l8 -63h10l23 63l74 133l65 152h330l-293 -453l180 -524q-29 -10 -74.5 -15t-68.5 -5q-76 0 -119 25.5t-67 94.5l-74 246l-4 66h-10l-21 -66l-92 -196l-51 -150h-332z" />
<glyph unicode="y" horiz-adv-x="925" d="M-51 -121q23 -2 30 -3t29 -1q98 0 178 54.5t136 172.5h-125l-131 865l301 20l61 -643l-8 -74h8q16 35 46 100.5t65 159.5q29 82 42 136.5t25 95.5l-8 215q29 4 59 10q25 4 54.5 7t56.5 3q86 0 122 -36.5t36 -102.5q0 -78 -40 -199.5t-98 -252.5q-51 -113 -108 -220.5 t-111 -185.5q-66 -98 -123 -165.5t-119.5 -109.5t-137 -60.5t-175.5 -20.5q-16 0 -36.5 2t-28.5 4v229z" />
<glyph unicode="z" horiz-adv-x="843" d="M-25 0l29 236l467 471l47 28l2 10h-438l29 232h751l-28 -244l-465 -469l-43 -18l-2 -10h260l204 18q0 -92 -19 -145.5t-58 -81t-98.5 -34.5t-141.5 -7q-57 0 -123.5 2t-134.5 5t-129 5t-109 2z" />
<glyph unicode="{" horiz-adv-x="464" d="M12 485v9l76 77q14 14 22.5 24.5t13.5 22t8 23.5t5 33l41 321q14 104 62.5 149.5t150.5 45.5h129l-20 -164h-94q-35 0 -48.5 -12.5t-17.5 -48.5l-41 -324q-4 -35 -12 -57.5t-39 -55.5l-39 -39l29 -40q16 -23 21 -40.5t5 -35.5v-16.5t-2 -18.5l-39 -324q-2 -8 -2 -22 q0 -41 53 -41h95l-21 -162h-129q-88 0 -129 35t-41 113q0 10 1 22t3 25l39 321q2 10 3 19.5t1 17.5q0 16 -6 29.5t-22 36.5z" />
<glyph unicode="|" horiz-adv-x="378" d="M12 -264l181 1454h165l-180 -1454h-166z" />
<glyph unicode="}" horiz-adv-x="464" d="M-57 -211l20 162h92q35 0 49.5 13t18.5 50l39 324q2 18 5 31.5t8 26t14.5 24.5t25.5 29l39 40l-29 39q-16 23 -23 39.5t-7 34.5q0 10 1 19.5t3 19.5l41 324q0 6 1 11t1 9q0 25 -13.5 33t-42.5 8h-94l21 164h131q88 0 129 -35t41 -113v-22t-2 -25l-37 -290q-2 -10 -4 -35 t-2 -31q0 -16 4 -30.5t20 -37.5l58 -77v-9l-78 -77q-29 -29 -36 -49.5t-11 -53.5l-39 -321q-12 -104 -63.5 -149.5t-151.5 -45.5h-129z" />
<glyph unicode="~" d="M98 479l21 170q8 6 29.5 16.5t50 21.5t63.5 18.5t74 7.5q43 0 87 -13.5t87 -30t86 -29.5t84 -13q66 0 122 24.5t89 44.5l-21 -170q-8 -6 -28.5 -17t-49 -21.5t-64.5 -17.5t-75 -7q-41 0 -84 13t-87 29.5t-87 30t-86 13.5q-63 0 -120.5 -23.5t-90.5 -46.5z" />
<glyph unicode="&#xa1;" horiz-adv-x="491" d="M-55 -319l180 935h237l-126 -935h-291zM137 844q0 68 40 109.5t114 41.5q59 0 94 -34.5t35 -90.5q0 -74 -44 -113.5t-114 -39.5q-55 0 -90 34.5t-35 92.5z" />
<glyph unicode="&#xa2;" d="M88 453q0 141 35 253.5t97.5 193.5t151.5 129t199 65l27 202h143l-24 -196q66 -4 136.5 -18.5t113.5 -28.5l-88 -234q-43 23 -91.5 32t-99.5 9q-74 0 -130 -29.5t-94 -81t-58.5 -120t-20.5 -148.5q0 -121 50 -189.5t165 -68.5q78 0 150.5 35t109.5 78v-264 q-45 -31 -109.5 -54.5t-170.5 -33.5l-25 -197h-143l24 203q-158 25 -253 142.5t-95 320.5z" />
<glyph unicode="&#xa3;" d="M4 0l39 203l119 30l31 242h-154l33 143h137l12 93q25 205 142.5 298t328.5 93q72 0 151 -11.5t134 -27.5l-78 -217q-35 6 -79 12t-103 6q-100 0 -149.5 -41t-59.5 -133l-10 -72h364l-33 -143h-348l-28 -235h266l168 14l-33 -254h-850z" />
<glyph unicode="&#xa4;" d="M51 283l137 125q-16 27 -25 67.5t-9 81.5q0 59 15 114.5t50 102.5l-98 117l127 117l96 -121q41 27 90 37t96 10q94 0 166 -45l138 127l108 -121l-139 -125q18 -35 29.5 -74t11.5 -80q0 -59 -18.5 -115.5t-53.5 -103.5l94 -112l-123 -117l-94 113q-41 -25 -87 -34t-93 -9 q-43 0 -91 12t-83 35l-135 -123zM319 567q0 -70 45.5 -120t116.5 -50q43 0 79 16.5t62.5 44t41 64.5t14.5 80q0 70 -48 121t-116 51q-88 0 -141.5 -60.5t-53.5 -146.5z" />
<glyph unicode="&#xa5;" d="M29 332l37 143h233l-47 137h-189l35 142h113l-102 329h299l88 -376v-64h10l20 64l99 202l59 174h320l-187 -329h133l-35 -142h-172l-79 -137h254l-37 -143h-273l-41 -332h-288l40 332h-290z" />
<glyph unicode="&#xa6;" horiz-adv-x="378" d="M12 -264l76 612h166l-76 -612h-166zM117 580l76 610h165l-75 -610h-166z" />
<glyph unicode="&#xa7;" horiz-adv-x="749" d="M-8 -199l59 164q35 -12 81 -22.5t85 -10.5q35 0 68.5 5.5t59.5 18.5t42 36.5t16 58.5q0 43 -29.5 76t-94.5 74q-102 63 -164 128.5t-62 168.5q0 94 43 156.5t107 115.5q-43 59 -43 141q0 76 30.5 132.5t83 93.5t119 54t137.5 17q78 0 135.5 -9t94.5 -17l-62 -164 q-29 12 -76 22.5t-90 10.5q-37 0 -69.5 -6.5t-59 -20.5t-42 -37.5t-15.5 -58.5q0 -43 32 -76t99 -74q98 -63 157.5 -125.5t59.5 -163.5q0 -94 -42 -159.5t-103 -118.5q18 -29 29.5 -63.5t11.5 -75.5q0 -76 -29 -132.5t-79 -93t-115.5 -55t-139.5 -18.5t-135 9t-100 19z M231 516q0 -49 39 -85t111 -83l55 -37q35 33 57.5 70t22.5 82q0 47 -35 85t-104 81l-64 39q-39 -35 -60.5 -71t-21.5 -81z" />
<glyph unicode="&#xa8;" horiz-adv-x="1034" d="M377 1120l33 266h165l-32 -266h-166zM643 1120l33 266h166l-33 -266h-166z" />
<glyph unicode="&#xa9;" horiz-adv-x="1042" d="M80 899q0 104 38 195.5t102.5 159t150.5 106.5t184 39q100 0 187 -38t151.5 -105.5t102.5 -158.5t38 -198q0 -106 -38 -197.5t-102.5 -158t-151.5 -104.5t-187 -38q-102 0 -189 38t-150.5 104.5t-99.5 158t-36 197.5zM184 899q0 -86 29 -158.5t78 -126t116.5 -84 t147.5 -30.5q78 0 146.5 31.5t118.5 85t80 126t30 156.5t-29 156.5t-79 127t-118.5 85t-148.5 30.5q-78 0 -144.5 -31.5t-117.5 -86t-80 -127t-29 -154.5zM330 850q0 154 79.5 240t215.5 86q33 0 73.5 -6.5t65.5 -14.5l-41 -125q-16 10 -41 17.5t-51 7.5q-78 0 -115 -55.5 t-37 -135.5q0 -55 25.5 -93t81.5 -38q33 0 68.5 16.5t54.5 38.5v-133q-25 -16 -64 -29.5t-100 -13.5q-92 0 -153.5 63.5t-61.5 174.5z" />
<glyph unicode="&#xaa;" horiz-adv-x="593" d="M66 811q0 180 99 285.5t281 105.5q53 0 101.5 -3t77.5 -7l-58 -481v-115q-10 -4 -29.5 -8t-37.5 -4q-37 0 -60.5 18.5t-27.5 52.5l-2 25h-9q-20 -39 -55 -67.5t-102 -28.5q-86 0 -132 62.5t-46 164.5zM242 836q0 -102 69 -103q29 0 49.5 18.5t34 49t21.5 72.5t14 92 l10 92h-10q-4 0 -10 1t-10 1q-86 0 -127 -65.5t-41 -157.5z" />
<glyph unicode="&#xab;" horiz-adv-x="1021" d="M61 553l465 465l103 -127l-348 -338l266 -354l-137 -113zM446 553l463 465l105 -127l-350 -338l268 -354l-137 -113z" />
<glyph unicode="&#xac;" d="M109 653l20 164h762l-57 -465h-164l37 301h-598z" />
<glyph unicode="&#xad;" horiz-adv-x="630" d="M63 412l21 163h483l-20 -163h-484z" />
<glyph unicode="&#xae;" horiz-adv-x="1042" d="M80 899q0 104 38 195.5t102.5 159t150.5 106.5t184 39q100 0 187 -38t151.5 -105.5t102.5 -158.5t38 -198q0 -106 -38 -197.5t-102.5 -158t-151.5 -104.5t-187 -38t-186 38t-150.5 104.5t-101.5 158t-37 197.5zM184 899q0 -86 29 -158.5t78 -126t116.5 -84t147.5 -30.5 q78 0 146.5 31.5t118.5 85t80 126t30 156.5t-29 156.5t-79 127t-118.5 85t-148.5 30.5q-78 0 -144.5 -31.5t-117.5 -86t-80 -127t-29 -154.5zM326 627l18 86l55 454h240q72 0 116 -33.5t44 -101.5q0 -63 -29 -98t-72 -49l-2 -6q27 -10 38 -29t14 -66l12 -157h-148l-8 139 q-2 41 -16.5 52t-46.5 11h-39l-27 -202h-149zM512 932h57q35 0 57.5 17.5t22.5 54.5q0 57 -61 57h-62z" />
<glyph unicode="&#xaf;" horiz-adv-x="1034" d="M324 1180l20 170h555l-20 -170h-555z" />
<glyph unicode="&#xb0;" horiz-adv-x="557" d="M84 881q0 143 73.5 232t207.5 89q104 0 155 -59.5t51 -157.5q0 -152 -73.5 -239t-208.5 -87q-106 0 -155.5 62t-49.5 160zM141 465l146 141l119 -141l-148 -133zM240 885q0 -43 15 -73t54 -30q31 0 51.5 16.5t33 44t17.5 61.5t5 71q0 45 -15.5 74.5t-54.5 29.5 q-31 0 -51.5 -17.5t-32.5 -45t-17 -62t-5 -69.5z" />
<glyph unicode="&#xb1;" d="M43 0l20 164h758l-20 -164h-758zM117 604l20 164h295l39 307h166l-39 -307h295l-21 -164h-294l-39 -323h-166l39 323h-295z" />
<glyph unicode="&#xb2;" horiz-adv-x="514" d="M43 594l16 139q92 49 151.5 86t93.5 65.5t46 54.5t12 52q0 41 -32.5 60.5t-81.5 19.5q-53 0 -90 -11t-66 -22l45 144q16 4 56 12t83 8q49 0 93.5 -13t79 -39t55 -62.5t20.5 -86.5q0 -86 -53 -146t-180 -126l2 -6h133l94 8l-16 -137h-461z" />
<glyph unicode="&#xb3;" horiz-adv-x="520" d="M63 604v135q35 -12 78 -20t88 -8q14 0 36 2t41.5 8t33.5 20.5t14 38.5q0 37 -31.5 49.5t-80.5 12.5h-84l12 102h84q47 0 83 13.5t38 54.5q0 20 -10.5 32.5t-26.5 18.5t-34.5 8t-37.5 2q-43 0 -82 -8t-80 -21l43 142q20 4 59.5 9t92.5 5q47 0 91 -9t77 -28.5t52.5 -50.5 t19.5 -74q0 -51 -27 -84.5t-74 -54.5v-4q29 -16 52.5 -48t23.5 -79q0 -53 -24.5 -88t-64.5 -57.5t-90 -31.5t-104 -9q-47 0 -96 8t-72 14z" />
<glyph unicode="&#xb4;" horiz-adv-x="1034" d="M354 1182l439 217l59 -191l-436 -108z" />
<glyph unicode="&#xb5;" horiz-adv-x="1009" d="M-12 -342l35 174l141 1145q20 6 54 12t56 6q82 0 118 -41t36 -114v-16.5t-2 -18.5l-53 -457q-2 -6 -3 -22.5t-1 -20.5q0 -43 23.5 -67.5t68.5 -24.5q43 0 71.5 20.5t47 54.5t28.5 80t17 99l59 508h279l-99 -799v-176q-10 -6 -34.5 -14.5t-53.5 -8.5q-135 0 -149 119 l-4 25h-9q-31 -53 -85 -96t-134 -43q-20 0 -33.5 2t-35.5 8l-43 -334h-295z" />
<glyph unicode="&#xb6;" horiz-adv-x="989" d="M94 737q0 186 114 298t318 112h486l-19 -148l-100 -14l-164 -1343h-156l164 1343h-139l-164 -1343h-174l35 161l80 643q-141 10 -211 87t-70 204z" />
<glyph unicode="&#xb7;" horiz-adv-x="403" d="M72 561q0 74 42 114t111 40q55 0 92 -35t37 -92q0 -68 -39.5 -110t-113.5 -42q-59 0 -94 35t-35 90z" />
<glyph unicode="&#xb8;" horiz-adv-x="1034" d="M233 -340l37 107q16 -4 41 -7.5t49 -3.5q35 0 60.5 8.5t25.5 40.5q0 20 -16 31.5t-45 11.5q-18 0 -36.5 -2t-31.5 -4l48 158h131l-9 -66q53 -4 91 -36.5t38 -85.5q0 -43 -18 -75t-50 -53.5t-75 -31.5t-90 -10q-59 0 -96 7t-54 11z" />
<glyph unicode="&#xb9;" horiz-adv-x="495" d="M63 596l15 129h141l41 293l-6 2l-21 -37q-27 -18 -65.5 -30.5t-67.5 -20.5l-6 139q47 10 104.5 41t98.5 78h147l-65 -465h121l-15 -129h-422z" />
<glyph unicode="&#xba;" horiz-adv-x="587" d="M66 836q0 162 83.5 263t233.5 101q121 0 178 -67.5t57 -180.5q0 -172 -83.5 -269t-237.5 -97q-121 0 -176 68.5t-55 181.5zM242 840q0 -49 17 -82t63 -33q33 0 56 18.5t38.5 49t21.5 69.5t6 80q0 51 -18 84t-64 33q-35 0 -57 -18.5t-36.5 -49t-20.5 -70.5t-6 -81z" />
<glyph unicode="&#xbb;" horiz-adv-x="1021" d="M20 211l351 342l-265 350l134 115l348 -465l-463 -467zM406 211l348 342l-262 350l131 115l350 -465l-463 -467z" />
<glyph unicode="&#xbc;" horiz-adv-x="1179" d="M61 596l15 129h141l41 293l-6 2l-21 -37q-27 -18 -65.5 -30.5t-67.5 -20.5l-6 139q47 10 104.5 41t98.5 78h147l-65 -465h121l-15 -129h-422zM119 0l811 1190h137l-811 -1190h-137zM604 106l19 148l254 340h210l-45 -367h64l-14 -121h-64l-12 -106h-152l13 106h-273z M737 227h156l27 213l16 37h-8l-160 -231l-31 -13v-6z" />
<glyph unicode="&#xbd;" horiz-adv-x="1193" d="M63 596l17 129h143l43 291l-6 2l-20 -37q-25 -18 -63 -30.5t-68 -20.5l-9 141q49 10 105.5 40t97.5 77h143l-67 -463h119l-17 -129h-418zM121 0l811 1190h135l-813 -1190h-133zM633 0l16 139q92 49 151.5 86t93.5 65.5t46 54.5t12 52q0 41 -32.5 60.5t-81.5 19.5 q-53 0 -90 -11t-66 -22l45 144q16 4 56 12t83 8q49 0 93.5 -13t79 -39t55 -62.5t20.5 -85.5q0 -86 -53 -146.5t-180 -126.5l2 -6h133l94 8l-16 -137h-461z" />
<glyph unicode="&#xbe;" horiz-adv-x="1101" d="M63 604v135q35 -12 78 -20t88 -8q14 0 36 2t41.5 8t33.5 20.5t14 38.5q0 37 -31.5 49.5t-80.5 12.5h-84l12 102h84q47 0 83 13.5t38 54.5q0 20 -10.5 32.5t-26.5 18.5t-34.5 8t-37.5 2q-43 0 -82 -8t-80 -21l43 142q20 4 59.5 9t92.5 5q47 0 91 -9t77 -28.5t52.5 -50.5 t19.5 -74q0 -51 -27 -84.5t-74 -54.5v-4q29 -16 52.5 -48t23.5 -79q0 -53 -24.5 -88t-64.5 -57.5t-90 -31.5t-104 -9q-47 0 -96 8t-72 14zM109 0l813 1190h133l-813 -1190h-133zM522 106l19 148l256 340h209l-45 -367h63l-14 -121h-64l-12 -106h-150l13 106h-275zM657 227 h156l27 213l14 37h-8l-160 -231l-29 -13v-6z" />
<glyph unicode="&#xbf;" horiz-adv-x="833" d="M-14 20q0 86 30.5 157t85 127t126 97t155.5 70l35 145h221l-33 -299q-59 -10 -118.5 -28.5t-106.5 -49t-76 -74.5t-29 -104q0 -78 55.5 -121.5t141.5 -43.5q76 0 129 14t107 33l-66 -240q-43 -14 -103.5 -27.5t-136.5 -13.5q-90 0 -166.5 24.5t-132 71.5t-87 113 t-31.5 149zM418 842q0 68 39.5 109.5t113.5 41.5q59 0 94 -34.5t35 -90.5q0 -74 -44 -113.5t-113 -39.5q-55 0 -90 34.5t-35 92.5z" />
<glyph unicode="&#xc0;" horiz-adv-x="1130" d="M-45 0l489 1296h467l144 -1296h-357l11 172l-7 145h-307l-112 -317h-328zM465 1485l106 190l383 -217l-80 -82zM471 549h215l-29 461v82h-8l-18 -82z" />
<glyph unicode="&#xc1;" horiz-adv-x="1130" d="M-45 0l489 1296h467l144 -1296h-357l11 172l-7 145h-307l-112 -317h-328zM430 1458l436 217l58 -190l-435 -109zM471 549h215l-29 461v82h-8l-18 -82z" />
<glyph unicode="&#xc2;" horiz-adv-x="1130" d="M-45 0l489 1296h467l144 -1296h-357l11 172l-7 145h-307l-112 -317h-328zM401 1468l248 170q29 20 62 21q12 0 27.5 -4t31.5 -17l201 -170l-84 -86l-199 99l-225 -99zM471 549h215l-29 461v82h-8l-18 -82z" />
<glyph unicode="&#xc3;" horiz-adv-x="1128" d="M-47 0l489 1296h467l144 -1296h-357l11 172l-7 145h-307l-112 -317h-328zM387 1448l43 154q14 8 61.5 26.5t118.5 18.5q27 0 57.5 -5.5t63.5 -11.5t65.5 -11t63.5 -5q59 0 98 9t66 19l-41 -153q-14 -8 -62.5 -26.5t-115.5 -18.5q-53 0 -123 16.5t-129 16.5t-98 -10.5 t-68 -18.5zM469 549h215l-29 461v82h-8l-18 -82z" />
<glyph unicode="&#xc4;" horiz-adv-x="1130" d="M-45 0l489 1296h467l144 -1296h-357l11 172l-7 145h-307l-112 -317h-328zM467 1399l33 266h168l-33 -266h-168zM471 549h215l-29 461v82h-8l-18 -82zM733 1399l33 266h168l-33 -266h-168z" />
<glyph unicode="&#xc5;" horiz-adv-x="1130" d="M-45 0l489 1296h467l144 -1296h-357l11 172l-7 145h-307l-112 -317h-328zM471 549h215l-29 461v82h-8l-18 -82zM483 1503q0 88 60.5 140.5t167.5 52.5q94 0 147 -43t53 -115q0 -88 -60 -137t-167 -49q-94 0 -147.5 43t-53.5 108zM641 1516q0 -20 13.5 -36t37.5 -16 q35 0 50.5 20.5t15.5 43.5t-13.5 39t-42.5 16q-31 0 -46 -19t-15 -48z" />
<glyph unicode="&#xc6;" horiz-adv-x="1599" d="M-45 0l485 1296h1104l-10 -260h-487l-11 -258h453l-12 -241h-453l-10 -277h502l-13 -260h-817l25 162l8 176h-322l-123 -338h-319zM485 590h246l25 444h-113z" />
<glyph unicode="&#xc7;" horiz-adv-x="1007" d="M53 535q0 176 49.5 320t139.5 246.5t216 158t279 55.5q100 0 186.5 -18.5t139.5 -34.5l-105 -265q-35 18 -92 35t-114 17q-84 0 -152 -34t-115 -95.5t-72.5 -150.5t-25.5 -200q0 -68 13.5 -126t42 -100t76.5 -66.5t116 -24.5q94 0 173 46t126 99v-305q-49 -35 -130 -69.5 t-202 -38.5l-6 -50q53 -4 91 -36.5t38 -85.5q0 -43 -18.5 -75t-50 -53.5t-74.5 -31.5t-90 -10q-59 0 -96.5 7t-53.5 11l37 107q16 -4 40.5 -7.5t49.5 -3.5q35 0 60.5 8.5t25.5 40.5q0 20 -16.5 31.5t-44.5 11.5q-18 0 -37 -2t-31 -4l43 148q-199 29 -307.5 171t-108.5 374z " />
<glyph unicode="&#xc8;" horiz-adv-x="989" d="M35 0l37 170l139 1126h811l-33 -260h-502l-30 -258h458l-30 -241h-459l-33 -277h520l-32 -260h-846zM416 1485l106 190l383 -217l-80 -82z" />
<glyph unicode="&#xc9;" horiz-adv-x="989" d="M35 0l37 170l139 1126h811l-33 -260h-502l-30 -258h458l-30 -241h-459l-33 -277h520l-32 -260h-846zM420 1458l436 217l57 -190l-434 -109z" />
<glyph unicode="&#xca;" horiz-adv-x="989" d="M35 0l37 170l139 1126h811l-33 -260h-502l-30 -258h458l-30 -241h-459l-33 -277h520l-32 -260h-846zM352 1468l248 170q33 20 62 21q12 0 27.5 -4t31.5 -17l201 -170l-84 -86l-199 99l-225 -99z" />
<glyph unicode="&#xcb;" horiz-adv-x="989" d="M35 0l37 170l139 1126h811l-33 -260h-502l-30 -258h458l-30 -241h-459l-33 -277h520l-32 -260h-846zM420 1399l33 266h168l-33 -266h-168zM686 1399l33 266h168l-33 -266h-168z" />
<glyph unicode="&#xcc;" horiz-adv-x="534" d="M35 0l37 170l139 1126h309l-160 -1296h-325zM137 1485l107 190l385 -217l-82 -82z" />
<glyph unicode="&#xcd;" horiz-adv-x="534" d="M35 0l37 170l139 1126h309l-160 -1296h-325zM135 1458l438 217l58 -190l-434 -109z" />
<glyph unicode="&#xce;" horiz-adv-x="534" d="M35 0l37 170l139 1126h309l-160 -1296h-325zM94 1468l250 170q29 20 59 21q14 0 28.5 -4t31.5 -17l203 -170l-84 -86l-201 99l-225 -99z" />
<glyph unicode="&#xcf;" horiz-adv-x="534" d="M35 0l37 170l139 1126h309l-160 -1296h-325zM164 1401l33 266h163l-32 -266h-164zM430 1401l33 266h164l-33 -266h-164z" />
<glyph unicode="&#xd0;" horiz-adv-x="1159" d="M12 657l125 27l78 612h377q268 0 406.5 -138t138.5 -406q0 -375 -168 -563.5t-480 -188.5h-454l39 170l41 334l-90 -19zM395 260h92q162 0 244 119t82 366q0 145 -56.5 218t-178.5 73h-86l-35 -284l153 32l15 -170l-191 -41z" />
<glyph unicode="&#xd1;" horiz-adv-x="1177" d="M35 0l39 168l139 1128h379l192 -911h11v80l59 831h324l-37 -170l-140 -1126h-376l-191 932h-12v-78l-64 -854h-323zM414 1448l41 154q14 8 61 26.5t119 18.5q27 0 57.5 -5.5t63 -11.5t65.5 -11t64 -5q59 0 99 9t65 19l-41 -153q-14 -8 -62.5 -26.5t-116.5 -18.5 q-53 0 -122.5 16.5t-128.5 16.5t-97.5 -10.5t-66.5 -18.5z" />
<glyph unicode="&#xd2;" horiz-adv-x="1175" d="M53 518q0 184 43 331.5t124 251t199 159t265 55.5q119 0 208 -38t148.5 -107.5t89 -168t29.5 -219.5q0 -186 -43 -334.5t-124 -252t-197.5 -158.5t-266.5 -55q-238 0 -356.5 144t-118.5 392zM387 520q0 -55 8 -105t26.5 -88t50.5 -60.5t81 -22.5q74 0 125 44t84 116.5 t48 168t15 197.5q0 57 -8 108.5t-27.5 90.5t-51 61.5t-81.5 22.5q-74 0 -126 -45t-83.5 -119t-46 -170.5t-14.5 -198.5zM461 1485l106 190l383 -217l-80 -82z" />
<glyph unicode="&#xd3;" horiz-adv-x="1175" d="M53 518q0 184 43 331.5t124 251t199 159t265 55.5q119 0 208 -38t148.5 -107.5t89 -168t29.5 -219.5q0 -186 -43 -334.5t-124 -252t-197.5 -158.5t-266.5 -55q-238 0 -356.5 144t-118.5 392zM387 520q0 -55 8 -105t26.5 -88t50.5 -60.5t81 -22.5q74 0 125 44t84 116.5 t48 168t15 197.5q0 57 -8 108.5t-27.5 90.5t-51 61.5t-81.5 22.5q-74 0 -126 -45t-83.5 -119t-46 -170.5t-14.5 -198.5zM459 1458l436 217l57 -190l-434 -109z" />
<glyph unicode="&#xd4;" horiz-adv-x="1175" d="M53 518q0 184 43 331.5t124 251t199 159t265 55.5q119 0 208 -38t148.5 -107.5t89 -168t29.5 -219.5q0 -186 -43 -334.5t-124 -252t-197.5 -158.5t-266.5 -55q-238 0 -356.5 144t-118.5 392zM387 520q0 -55 8 -105t26.5 -88t50.5 -60.5t81 -22.5q74 0 125 44t84 116.5 t48 168t15 197.5q0 57 -8 108.5t-27.5 90.5t-51 61.5t-81.5 22.5q-74 0 -126 -45t-83.5 -119t-46 -170.5t-14.5 -198.5zM401 1468l248 170q33 20 62 21q14 0 28.5 -4t30.5 -17l203 -170l-84 -86l-201 99l-225 -99z" />
<glyph unicode="&#xd5;" horiz-adv-x="1175" d="M53 518q0 184 43 331.5t124 251t199 159t265 55.5q119 0 208 -38t148.5 -107.5t89 -168t29.5 -219.5q0 -186 -43 -334.5t-124 -252t-197.5 -158.5t-266.5 -55q-238 0 -356.5 144t-118.5 392zM387 520q0 -55 8 -105t26.5 -88t50.5 -60.5t81 -22.5q74 0 125 44t84 116.5 t48 168t15 197.5q0 57 -8 108.5t-27.5 90.5t-51 61.5t-81.5 22.5q-74 0 -126 -45t-83.5 -119t-46 -170.5t-14.5 -198.5zM397 1448l41 154q14 8 62.5 26.5t120.5 18.5q25 0 55.5 -5.5t63 -11.5t65.5 -11t63 -5q59 0 99.5 9t64.5 19l-39 -153q-16 -8 -63 -26.5t-117 -18.5 q-53 0 -121.5 16.5t-128.5 16.5q-59 0 -98 -10.5t-68 -18.5z" />
<glyph unicode="&#xd6;" horiz-adv-x="1175" d="M53 518q0 184 43 331.5t124 251t199 159t265 55.5q119 0 208 -38t148.5 -107.5t89 -168t29.5 -219.5q0 -186 -43 -334.5t-124 -252t-197.5 -158.5t-266.5 -55q-238 0 -356.5 144t-118.5 392zM387 520q0 -55 8 -105t26.5 -88t50.5 -60.5t81 -22.5q74 0 125 44t84 116.5 t48 168t15 197.5q0 57 -8 108.5t-27.5 90.5t-51 61.5t-81.5 22.5q-74 0 -126 -45t-83.5 -119t-46 -170.5t-14.5 -198.5zM475 1399l33 266h168l-33 -266h-168zM741 1399l33 266h168l-33 -266h-168z" />
<glyph unicode="&#xd7;" d="M94 319l285 265l-217 262l133 123l219 -262l279 264l96 -119l-281 -260l221 -266l-133 -125l-221 266l-280 -262z" />
<glyph unicode="&#xd8;" horiz-adv-x="1175" d="M16 -82l150 215q-57 70 -85 167t-28 218q0 184 43 331.5t124 251t199 159t265 55.5q76 0 139.5 -16.5t116.5 -45.5l74 107h133l-121 -174q133 -143 133 -404q0 -186 -43 -334.5t-124 -252t-197.5 -158.5t-266.5 -55q-168 0 -280 75l-96 -139h-136zM387 488.5 q0 -15.5 2 -31.5l377 547q-39 49 -109 49q-74 0 -126 -45t-83.5 -119t-46 -170t-14.5 -199v-31.5zM426 315q20 -35 50 -53t77 -18q74 0 125 44t84 116.5t48 168t15 197.5q0 53 -10 111z" />
<glyph unicode="&#xd9;" horiz-adv-x="1144" d="M90 356q0 47 6 97l84 663v180h332l-102 -831q-4 -27 -4 -45.5v-28.5q0 -139 139 -139q92 0 131 53t51 160l82 661v170h334l-105 -841q-31 -242 -154.5 -357.5t-361.5 -115.5q-215 0 -323.5 91t-108.5 283zM465 1485l106 190l383 -217l-80 -82z" />
<glyph unicode="&#xda;" horiz-adv-x="1144" d="M90 356q0 47 6 97l84 663v180h332l-102 -831q-4 -27 -4 -45.5v-28.5q0 -139 139 -139q92 0 131 53t51 160l82 661v170h334l-105 -841q-31 -242 -154.5 -357.5t-361.5 -115.5q-215 0 -323.5 91t-108.5 283zM451 1458l436 217l57 -190l-434 -109z" />
<glyph unicode="&#xdb;" horiz-adv-x="1144" d="M90 356q0 47 6 97l84 663v180h332l-102 -831q-4 -27 -4 -45.5v-28.5q0 -139 139 -139q92 0 131 53t51 160l82 661v170h334l-105 -841q-31 -242 -154.5 -357.5t-361.5 -115.5q-215 0 -323.5 91t-108.5 283zM408 1468l247 170q33 20 62 21q12 0 27.5 -4t31.5 -17l201 -170 l-84 -86l-199 99l-225 -99z" />
<glyph unicode="&#xdc;" horiz-adv-x="1144" d="M90 356q0 47 6 97l84 663v180h332l-102 -831q-4 -27 -4 -45.5v-28.5q0 -139 139 -139q92 0 131 53t51 160l82 661v170h334l-105 -841q-31 -242 -154.5 -357.5t-361.5 -115.5q-215 0 -323.5 91t-108.5 283zM471 1399l33 266h168l-33 -266h-168zM737 1399l33 266h168 l-33 -266h-168z" />
<glyph unicode="&#xdd;" horiz-adv-x="1038" d="M113 1296h329l93 -495l-5 -82h11l22 84l154 323l55 170h350l-458 -843l-56 -453h-317l55 453zM389 1458l436 217l58 -190l-434 -109z" />
<glyph unicode="&#xde;" horiz-adv-x="1069" d="M35 0l39 174l139 1122h315l-22 -170h164q182 0 287.5 -99t105.5 -279q0 -123 -38 -210t-104.5 -142.5t-155.5 -81t-194 -25.5h-168l-34 -289h-334zM436 547h113q86 0 141 39t55 141q0 74 -43 107.5t-120 33.5h-107z" />
<glyph unicode="&#xdf;" horiz-adv-x="1071" d="M53 0l37 176l72 572h-99l27 215l98 14l9 51q33 193 143.5 283t298.5 90q76 0 144.5 -22.5t119.5 -63.5t81 -100.5t30 -133.5q0 -84 -35 -145.5t-88 -114.5l-49 -49v-10l49 -64q45 -59 88 -142t43 -179q0 -100 -34 -174t-92 -123t-136 -73.5t-164 -24.5q-16 0 -40 1 t-48.5 4t-48 6t-37.5 7l67 229q8 -4 36 -8t48 -4q66 0 113 41t47 119q0 66 -40 124t-93 134q-20 29 -37.5 55.5t-17.5 61.5q0 37 27.5 73.5t72.5 83.5q41 41 62.5 80t21.5 82q0 47 -31.5 76t-81.5 29q-70 0 -100.5 -49.5t-40.5 -129.5l-123 -997h-299z" />
<glyph unicode="&#xe0;" horiz-adv-x="985" d="M31 350q0 145 39 264t114.5 204t188 131t260.5 46q86 0 178 -6t145 -10l-36 -168l-72 -594v-217q-16 -6 -42 -13t-61 -7q-80 0 -108.5 37.5t-38.5 99.5l-6 43h-10q-14 -33 -37 -65t-54.5 -57.5t-74.5 -40.5t-99 -15q-139 0 -212.5 101t-73.5 267zM319 385q0 -70 24 -114 t81 -44q51 0 86 30t57.5 81t35.5 119.5t24 146.5l18 152q-10 0 -18 2q-8 0 -16.5 1t-16.5 1q-72 0 -123 -29t-85 -79t-50.5 -118.5t-16.5 -148.5zM373 1206l104 191l383 -217l-80 -82z" />
<glyph unicode="&#xe1;" horiz-adv-x="985" d="M31 350q0 145 39 264t114.5 204t188 131t260.5 46q86 0 178 -6t145 -10l-36 -168l-72 -594v-217q-16 -6 -42 -13t-61 -7q-80 0 -108.5 37.5t-38.5 99.5l-6 43h-10q-14 -33 -37 -65t-54.5 -57.5t-74.5 -40.5t-99 -15q-139 0 -212.5 101t-73.5 267zM319 385q0 -70 24 -114 t81 -44q51 0 86 30t57.5 81t35.5 119.5t24 146.5l18 152q-10 0 -18 2q-8 0 -16.5 1t-16.5 1q-72 0 -123 -29t-85 -79t-50.5 -118.5t-16.5 -148.5zM373 1192l436 217l57 -190l-434 -109z" />
<glyph unicode="&#xe2;" horiz-adv-x="985" d="M31 350q0 145 39 264t114.5 204t188 131t260.5 46q86 0 178 -6t145 -10l-36 -168l-72 -594v-217q-16 -6 -42 -13t-61 -7q-80 0 -108.5 37.5t-38.5 99.5l-6 43h-10q-14 -33 -37 -65t-54.5 -57.5t-74.5 -40.5t-99 -15q-139 0 -212.5 101t-73.5 267zM319 385q0 -70 24 -114 t81 -44q51 0 86 30t57.5 81t35.5 119.5t24 146.5l18 152q-10 0 -18 2q-8 0 -16.5 1t-16.5 1q-72 0 -123 -29t-85 -79t-50.5 -118.5t-16.5 -148.5zM328 1212l245 170q33 20 60 21q14 0 29.5 -4t31.5 -17l203 -170l-84 -86l-201 99l-223 -99z" />
<glyph unicode="&#xe3;" horiz-adv-x="985" d="M31 350q0 145 39 264t114.5 204t188 131t260.5 46q86 0 178 -6t145 -10l-36 -168l-72 -594v-217q-16 -6 -42 -13t-61 -7q-80 0 -108.5 37.5t-38.5 99.5l-6 43h-10q-14 -33 -37 -65t-54.5 -57.5t-74.5 -40.5t-99 -15q-139 0 -212.5 101t-73.5 267zM293 1167l43 154 q14 8 61 26.5t119 18.5q25 0 56.5 -5t64.5 -11.5t65.5 -11.5t63.5 -5q59 0 97 9.5t65 19.5l-39 -154q-16 -8 -63.5 -26.5t-116.5 -18.5q-53 0 -122 16.5t-128 16.5t-98 -10t-68 -19zM319 385q0 -70 24 -114t81 -44q51 0 86 30t57.5 81t35.5 119.5t24 146.5l18 152 q-10 0 -18 2q-8 0 -16.5 1t-16.5 1q-72 0 -123 -29t-85 -79t-50.5 -118.5t-16.5 -148.5z" />
<glyph unicode="&#xe4;" horiz-adv-x="985" d="M31 350q0 145 39 264t114.5 204t188 131t260.5 46q86 0 178 -6t145 -10l-36 -168l-72 -594v-217q-16 -6 -42 -13t-61 -7q-80 0 -108.5 37.5t-38.5 99.5l-6 43h-10q-14 -33 -37 -65t-54.5 -57.5t-74.5 -40.5t-99 -15q-139 0 -212.5 101t-73.5 267zM319 385q0 -70 24 -114 t81 -44q51 0 86 30t57.5 81t35.5 119.5t24 146.5l18 152q-10 0 -18 2q-8 0 -16.5 1t-16.5 1q-72 0 -123 -29t-85 -79t-50.5 -118.5t-16.5 -148.5zM383 1133l33 266h168l-33 -266h-168zM651 1133l33 266h166l-33 -266h-166z" />
<glyph unicode="&#xe5;" horiz-adv-x="985" d="M31 350q0 145 39 264t114.5 204t188 131t260.5 46q86 0 178 -6t145 -10l-36 -168l-72 -594v-217q-16 -6 -42 -13t-61 -7q-80 0 -108.5 37.5t-38.5 99.5l-6 43h-10q-14 -33 -37 -65t-54.5 -57.5t-74.5 -40.5t-99 -15q-139 0 -212.5 101t-73.5 267zM319 385q0 -70 24 -114 t81 -44q51 0 86 30t57.5 81t35.5 119.5t24 146.5l18 152q-10 0 -18 2q-8 0 -16.5 1t-16.5 1q-72 0 -123 -29t-85 -79t-50.5 -118.5t-16.5 -148.5zM418 1225q0 88 60.5 140t166.5 52q94 0 147.5 -42.5t53.5 -114.5q0 -88 -60.5 -137.5t-167.5 -49.5q-94 0 -147 43t-53 109z M575 1237q0 -20 13.5 -35.5t38.5 -15.5q35 0 50 20.5t15 42.5q0 23 -13 39.5t-42 16.5q-31 0 -46.5 -19.5t-15.5 -48.5z" />
<glyph unicode="&#xe6;" horiz-adv-x="1443" d="M14 254q0 109 52.5 182.5t137.5 119.5t191.5 68.5t216.5 28.5q66 170 197 256t299 86q154 0 245 -74.5t91 -203.5q0 -92 -42 -160t-107.5 -115t-145.5 -72.5t-156 -33.5l-137 -14q2 -35 21.5 -55.5t52.5 -33t75 -16.5t89 -4q35 0 76.5 5t82.5 12.5t74 14.5t49 11 l-78 -231q-10 -4 -36.5 -10.5t-64.5 -14.5t-84 -13t-97 -5q-254 0 -365 147h-14q-55 -66 -132 -107.5t-188 -41.5q-68 0 -124 20t-96 57t-61.5 87.5t-21.5 109.5zM297 299q0 -43 22.5 -69.5t69.5 -26.5q86 0 132.5 76.5t56.5 195.5q-49 0 -98.5 -9t-90.5 -30.5t-66.5 -54.5 t-25.5 -82zM881 500q49 0 98 9t90 29.5t66.5 53.5t25.5 80q0 43 -22.5 71.5t-69.5 28.5q-86 0 -132 -76.5t-56 -195.5z" />
<glyph unicode="&#xe7;" horiz-adv-x="811" d="M35 408q0 135 41 243.5t115.5 185t179 117.5t231.5 41q86 0 145.5 -13t81.5 -19l-77 -236q-14 10 -60.5 24.5t-101.5 14.5q-72 0 -122 -26.5t-83 -72.5t-48 -105.5t-15 -125.5q0 -100 46 -160.5t140 -60.5q70 0 132 30.5t103 71.5v-241q-25 -23 -99.5 -55.5t-180.5 -38.5 l-6 -48q53 -4 91 -36.5t38 -85.5q0 -43 -18.5 -75t-50.5 -53.5t-75 -31.5t-90 -10q-59 0 -96 7t-53 11l37 107q16 -4 40.5 -7.5t49.5 -3.5q35 0 60.5 8.5t25.5 40.5q0 20 -16.5 31.5t-45.5 11.5q-18 0 -36.5 -2t-30.5 -4l45 150q-145 29 -221 139.5t-76 276.5z" />
<glyph unicode="&#xe8;" horiz-adv-x="933" d="M37 412q0 125 39 231.5t111.5 185t175 122.5t231.5 44q156 0 248 -75.5t92 -204.5q0 -90 -47 -150.5t-118 -99.5t-154 -59.5t-156 -26.5l-125 -12q2 -45 19.5 -75t48 -47.5t73.5 -24.5t92 -7q94 0 167 16.5t108 26.5l-76 -236q-4 -2 -27.5 -8t-60.5 -13t-83 -12t-91 -5 q-229 0 -348 112.5t-119 317.5zM334 1206l104 191l383 -217l-80 -82zM346 539q164 16 238.5 54t74.5 103q0 35 -24.5 56.5t-69.5 21.5q-82 0 -138 -58.5t-75 -148.5z" />
<glyph unicode="&#xe9;" horiz-adv-x="933" d="M37 412q0 125 39 231.5t111.5 185t175 122.5t231.5 44q156 0 248 -75.5t92 -204.5q0 -90 -47 -150.5t-118 -99.5t-154 -59.5t-156 -26.5l-125 -12q2 -45 19.5 -75t48 -47.5t73.5 -24.5t92 -7q94 0 167 16.5t108 26.5l-76 -236q-4 -2 -27.5 -8t-60.5 -13t-83 -12t-91 -5 q-229 0 -348 112.5t-119 317.5zM346 539q164 16 238.5 54t74.5 103q0 35 -24.5 56.5t-69.5 21.5q-82 0 -138 -58.5t-75 -148.5zM348 1180l438 217l60 -191l-438 -108z" />
<glyph unicode="&#xea;" horiz-adv-x="933" d="M37 412q0 125 39 231.5t111.5 185t175 122.5t231.5 44q156 0 248 -75.5t92 -204.5q0 -90 -47 -150.5t-118 -99.5t-154 -59.5t-156 -26.5l-125 -12q2 -45 19.5 -75t48 -47.5t73.5 -24.5t92 -7q94 0 167 16.5t108 26.5l-76 -236q-4 -2 -27.5 -8t-60.5 -13t-83 -12t-91 -5 q-229 0 -348 112.5t-119 317.5zM295 1212l246 170q33 20 59 21q14 0 29.5 -4t32.5 -17l202 -170l-84 -86l-200 99l-224 -99zM346 539q164 16 238.5 54t74.5 103q0 35 -24.5 56.5t-69.5 21.5q-82 0 -138 -58.5t-75 -148.5z" />
<glyph unicode="&#xeb;" horiz-adv-x="931" d="M35 412q0 125 39 231.5t111.5 185t175 122.5t231.5 44q156 0 248 -75.5t92 -204.5q0 -90 -47 -150.5t-118 -99.5t-154 -59.5t-156 -26.5l-125 -12q2 -45 19.5 -75t48 -47.5t73.5 -24.5t92 -7q94 0 167 16.5t108 26.5l-76 -236q-4 -2 -27.5 -8t-60.5 -13t-83 -12t-91 -5 q-229 0 -348 112.5t-119 317.5zM344 539q164 16 238.5 54t74.5 103q0 35 -24.5 56.5t-69.5 21.5q-82 0 -138 -58.5t-75 -148.5zM352 1133l33 266h168l-33 -266h-168zM618 1133l33 266h168l-33 -266h-168z" />
<glyph unicode="&#xec;" horiz-adv-x="493" d="M70 139q0 10 1 27.5t3 28.5l96 776l279 16l-99 -799v-188q-18 -8 -49 -14t-59 -6q-90 0 -131 41.5t-41 117.5zM92 1206l105 191l385 -217l-82 -82z" />
<glyph unicode="&#xed;" horiz-adv-x="493" d="M70 139q0 10 1 27.5t3 28.5l96 776l279 16l-99 -799v-188q-18 -8 -49 -14t-59 -6q-90 0 -131 41.5t-41 117.5zM74 1180l438 217l59 -191l-436 -108z" />
<glyph unicode="&#xee;" horiz-adv-x="493" d="M53 1210l248 170q33 20 59 21q14 0 30 -4t30 -17l205 -170l-84 -86l-201 99l-225 -99zM70 139q0 10 1 27.5t3 28.5l96 776l279 16l-99 -799v-188q-18 -8 -49 -14t-59 -6q-90 0 -131 41.5t-41 117.5z" />
<glyph unicode="&#xef;" horiz-adv-x="493" d="M70 139q0 10 1 27.5t3 28.5l96 776l279 16l-99 -799v-188q-18 -8 -49 -14t-59 -6q-90 0 -131 41.5t-41 117.5zM113 1133l32 266h166l-32 -266h-166zM379 1133l33 266h166l-33 -266h-166z" />
<glyph unicode="&#xf0;" horiz-adv-x="968" d="M35 391q0 111 32.5 201t90 155.5t135.5 103.5t166 44l33 2l32 -14l6 6l-79 155l-172 -38l-17 170l113 24l-72 135l301 68l74 -137l176 39l12 -170l-121 -27q33 -70 67 -142.5t60.5 -147.5t43 -148.5t16.5 -143.5q0 -264 -134 -404t-376 -140q-98 0 -171 31.5t-121 87 t-71.5 130t-23.5 160.5zM319 399q0 -76 31 -131t109 -55q53 0 90 23.5t58.5 62.5t30.5 89t9 104q0 72 -29.5 125t-107.5 53q-51 0 -87 -21.5t-59.5 -58.5t-34 -86.5t-10.5 -104.5z" />
<glyph unicode="&#xf1;" horiz-adv-x="1007" d="M49 0l98 799v178q18 8 45 14t50 6q66 0 99.5 -30.5t43.5 -89.5l4 -21h10q43 55 112 97t165 42q123 0 194.5 -69.5t71.5 -190.5q0 -16 -1 -38.5t-5 -41.5l-84 -655q-18 -8 -49 -14t-53 -6q-90 0 -126 41.5t-36 117.5q0 10 1 27.5t3 28.5l51 432q2 12 2 24.5v18.5 q0 41 -26.5 66.5t-69.5 25.5q-41 0 -67.5 -17.5t-44 -48t-27 -71.5t-15.5 -88l-63 -537h-283zM287 1165l41 154q14 8 61 26.5t119 18.5q27 0 57.5 -5t63.5 -11.5t65.5 -11.5t63.5 -5q59 0 97 9.5t67 19.5l-41 -154q-14 -8 -61.5 -26.5t-117.5 -18.5q-53 0 -122.5 16.5 t-128.5 16.5t-97.5 -10t-66.5 -19z" />
<glyph unicode="&#xf2;" horiz-adv-x="972" d="M35 393q0 135 33.5 246t99 189.5t162 122.5t219.5 44q195 0 291 -112.5t96 -296.5q0 -139 -34 -252t-98.5 -190.5t-161.5 -119.5t-222 -42q-197 0 -291 113.5t-94 297.5zM317 1208l105 191l383 -217l-80 -82zM324 406q0 -84 26.5 -139.5t100.5 -55.5q55 0 93 30.5 t61.5 80t33.5 114t10 131.5q0 86 -27.5 141.5t-103.5 55.5q-55 0 -92 -31t-60.5 -81t-32.5 -114t-9 -132z" />
<glyph unicode="&#xf3;" horiz-adv-x="972" d="M35 393q0 135 33.5 246t99 189.5t162 122.5t219.5 44q195 0 291 -112.5t96 -296.5q0 -139 -34 -252t-98.5 -190.5t-161.5 -119.5t-222 -42q-197 0 -291 113.5t-94 297.5zM313 1182l439 217l57 -191l-436 -108zM324 406q0 -84 26.5 -139.5t100.5 -55.5q55 0 93 30.5 t61.5 80t33.5 114t10 131.5q0 86 -27.5 141.5t-103.5 55.5q-55 0 -92 -31t-60.5 -81t-32.5 -114t-9 -132z" />
<glyph unicode="&#xf4;" horiz-adv-x="974" d="M37 393q0 135 33.5 246t99.5 189.5t162 122.5t219 44q195 0 291 -112.5t96 -296.5q0 -139 -34 -252t-98.5 -190.5t-161.5 -119.5t-222 -42q-197 0 -291 113.5t-94 297.5zM256 1212l246 170q35 20 61 21q12 0 28.5 -4t31.5 -17l204 -170l-86 -86l-198 99l-226 -99z M326 406q0 -84 26.5 -139.5t100.5 -55.5q55 0 93 30.5t61.5 80t33.5 114t10 131.5q0 86 -27.5 141.5t-103.5 55.5q-55 0 -92 -31t-60.5 -81t-32.5 -114t-9 -132z" />
<glyph unicode="&#xf5;" horiz-adv-x="972" d="M35 393q0 135 33.5 246t99 189.5t162 122.5t219.5 44q195 0 291 -112.5t96 -296.5q0 -139 -34 -252t-98.5 -190.5t-161.5 -119.5t-222 -42q-197 0 -291 113.5t-94 297.5zM240 1167l41 154q14 8 61 26.5t119 18.5q27 0 57.5 -5t63 -11.5t65.5 -11.5t64 -5q59 0 99 9.5 t64 19.5l-40 -154q-14 -8 -61.5 -26.5t-117.5 -18.5q-53 0 -122.5 16.5t-129.5 16.5q-59 0 -97 -10t-66 -19zM324 406q0 -84 26.5 -139.5t100.5 -55.5q55 0 93 30.5t61.5 80t33.5 114t10 131.5q0 86 -27.5 141.5t-103.5 55.5q-55 0 -92 -31t-60.5 -81t-32.5 -114t-9 -132z " />
<glyph unicode="&#xf6;" horiz-adv-x="972" d="M35 393q0 135 33.5 246t99 189.5t162 122.5t219.5 44q195 0 291 -112.5t96 -296.5q0 -139 -34 -252t-98.5 -190.5t-161.5 -119.5t-222 -42q-197 0 -291 113.5t-94 297.5zM324 406q0 -84 26.5 -139.5t100.5 -55.5q55 0 93 30.5t61.5 80t33.5 114t10 131.5 q0 86 -27.5 141.5t-103.5 55.5q-55 0 -92 -31t-60.5 -81t-32.5 -114t-9 -132zM336 1133l33 266h168l-33 -266h-168zM602 1133l33 266h168l-33 -266h-168z" />
<glyph unicode="&#xf7;" d="M94 496l21 163h780l-21 -163h-780zM309 229q0 74 44 114t114 40q55 0 90 -38t35 -95q0 -63 -42 -104.5t-112 -41.5q-59 0 -94 35t-35 90zM393 891q0 74 44 113.5t114 39.5q55 0 90 -37.5t35 -95.5q0 -63 -42 -104t-112 -41q-59 0 -94 35t-35 90z" />
<glyph unicode="&#xf8;" horiz-adv-x="972" d="M2 -82l125 178q-47 53 -69.5 129t-22.5 168q0 135 33.5 246t99 189.5t162 122.5t219.5 44q102 0 182 -34l72 102h137l-117 -166q57 -53 85 -133t28 -178q0 -139 -34 -252t-98.5 -190.5t-161.5 -119.5t-222 -42q-121 0 -207 45l-76 -109h-135zM324 379l258 369 q-27 16 -64 16q-55 0 -92 -31t-60.5 -81t-32.5 -114.5t-9 -131.5v-27zM367 244q29 -33 84 -33t93 30.5t61.5 80t33.5 114t10 131.5q0 37 -6 72z" />
<glyph unicode="&#xf9;" horiz-adv-x="1007" d="M68 240q0 16 1 38.5t5 40.5l84 656q18 8 49 14t53 6q90 0 126 -42t36 -117q0 -10 -1 -27.5t-3 -28.5l-51 -432q-2 -12 -2 -24.5v-18.5q0 -41 26.5 -66.5t69.5 -25.5q41 0 67.5 17.5t44 48t26.5 71.5t15 88l64 537h283l-99 -799v-178q-18 -8 -44.5 -14.5t-49.5 -6.5 q-66 0 -99.5 31t-43.5 90l-4 21h-11q-43 -55 -111.5 -97t-164.5 -42q-123 0 -194.5 69.5t-71.5 190.5zM344 1206l102 191l385 -217l-79 -82z" />
<glyph unicode="&#xfa;" horiz-adv-x="1007" d="M68 240q0 16 1 38.5t5 40.5l84 656q18 8 49 14t53 6q90 0 126 -42t36 -117q0 -10 -1 -27.5t-3 -28.5l-51 -432q-2 -12 -2 -24.5v-18.5q0 -41 26.5 -66.5t69.5 -25.5q41 0 67.5 17.5t44 48t26.5 71.5t15 88l64 537h283l-99 -799v-178q-18 -8 -44.5 -14.5t-49.5 -6.5 q-66 0 -99.5 31t-43.5 90l-4 21h-11q-43 -55 -111.5 -97t-164.5 -42q-123 0 -194.5 69.5t-71.5 190.5zM340 1182l438 217l60 -191l-437 -108z" />
<glyph unicode="&#xfb;" horiz-adv-x="1007" d="M68 240q0 16 1 38.5t5 40.5l84 656q18 8 49 14t53 6q90 0 126 -42t36 -117q0 -10 -1 -27.5t-3 -28.5l-51 -432q-2 -12 -2 -24.5v-18.5q0 -41 26.5 -66.5t69.5 -25.5q41 0 67.5 17.5t44 48t26.5 71.5t15 88l64 537h283l-99 -799v-178q-18 -8 -44.5 -14.5t-49.5 -6.5 q-66 0 -99.5 31t-43.5 90l-4 21h-11q-43 -55 -111.5 -97t-164.5 -42q-123 0 -194.5 69.5t-71.5 190.5zM299 1212l246 170q33 20 59 21q14 0 29.5 -4t32.5 -17l202 -170l-84 -86l-200 99l-224 -99z" />
<glyph unicode="&#xfc;" horiz-adv-x="1007" d="M68 240q0 16 1 38.5t5 40.5l84 656q18 8 49 14t53 6q90 0 126 -42t36 -117q0 -10 -1 -27.5t-3 -28.5l-51 -432q-2 -12 -2 -24.5v-18.5q0 -41 26.5 -66.5t69.5 -25.5q41 0 67.5 17.5t44 48t26.5 71.5t15 88l64 537h283l-99 -799v-178q-18 -8 -44.5 -14.5t-49.5 -6.5 q-66 0 -99.5 31t-43.5 90l-4 21h-11q-43 -55 -111.5 -97t-164.5 -42q-123 0 -194.5 69.5t-71.5 190.5zM356 1133l33 266h168l-33 -266h-168zM623 1133l32 266h168l-32 -266h-168z" />
<glyph unicode="&#xfd;" horiz-adv-x="925" d="M-51 -121q23 -2 30 -3t29 -1q98 0 178 54.5t136 172.5h-125l-131 865l301 20l61 -643l-8 -74h8q16 35 45 102.5t64 162.5q29 82 43 134t26 93l-8 215q29 4 59 10q25 4 54.5 7t56.5 3q86 0 122 -36.5t36 -102.5q0 -78 -40 -199.5t-98 -252.5q-51 -113 -108 -220.5 t-111 -185.5q-66 -98 -123 -165.5t-119.5 -109.5t-137 -60.5t-175.5 -20.5q-16 0 -36.5 2t-28.5 4v229zM295 1180l438 217l58 -191l-437 -108z" />
<glyph unicode="&#xfe;" horiz-adv-x="989" d="M-12 -350l37 178l190 1556q18 2 51 4.5t56 2.5q80 0 115.5 -40t35.5 -110q0 -10 -2 -31.5t-4 -31.5l-35 -275h8q41 37 100.5 64.5t127.5 27.5q76 0 131 -29.5t91 -80.5t53.5 -119t17.5 -143q0 -156 -42 -276t-120 -200.5t-188.5 -122.5t-248.5 -42h-43l-38 -314zM346 221 q10 -2 19 -2q8 -2 16 -2h16q68 0 119 29.5t87 80t53.5 118t17.5 143.5t-25.5 125t-85.5 49q-53 0 -87 -33t-56.5 -87t-35.5 -123.5t-22 -145.5q-4 -45 -9 -86t-7 -66z" />
<glyph unicode="&#xff;" horiz-adv-x="925" d="M-51 -121q23 -2 30 -3t29 -1q98 0 178 54.5t136 172.5h-125l-131 865l301 20l61 -643l-8 -74h8q16 35 45 102.5t64 162.5q29 82 43 134t26 93l-8 215q29 4 59 10q25 4 54.5 7t56.5 3q86 0 122 -36.5t36 -102.5q0 -78 -40 -199.5t-98 -252.5q-51 -113 -108 -220.5 t-111 -185.5q-66 -98 -123 -165.5t-119.5 -109.5t-137 -60.5t-175.5 -20.5q-16 0 -36.5 2t-28.5 4v229zM315 1133l33 266h166l-33 -266h-166zM582 1133l32 266h166l-32 -266h-166z" />
<glyph unicode="&#x152;" horiz-adv-x="1599" d="M53 508q0 184 42 330.5t126 248t207 155.5t287 54h925l-32 -260h-508l-33 -262h469l-29 -242h-469l-34 -272h520l-33 -260h-959q-246 0 -362.5 133t-116.5 375zM381 528q0 -123 46 -197.5t159 -74.5h108l97 784h-82q-88 0 -150.5 -38.5t-101.5 -107.5t-57.5 -163 t-18.5 -203z" />
<glyph unicode="&#x153;" horiz-adv-x="1519" d="M37 391q0 133 34.5 243.5t100.5 190.5t162 125t219 45q92 0 167 -33.5t116 -89.5h14q63 59 144 91t180 32q154 0 250 -73.5t96 -204.5q0 -92 -47.5 -154.5t-118 -100.5t-153.5 -57.5t-157 -25.5l-124 -12q2 -90 69.5 -122t179.5 -32q72 0 148 15.5t121 27.5l-76 -233 q-41 -12 -113.5 -26.5t-163.5 -14.5q-123 0 -205.5 30.5t-138.5 91.5h-12q-53 -53 -133 -87.5t-172 -34.5q-201 0 -294 112.5t-93 296.5zM328 406q0 -84 28.5 -139.5t102.5 -55.5q55 0 94 30.5t62.5 80t35 114t11.5 131.5q0 86 -30 141.5t-106 55.5q-55 0 -93 -31t-61.5 -81 t-33.5 -114t-10 -132zM932 539q166 16 239.5 54t73.5 105q0 37 -26.5 56.5t-67.5 19.5q-82 0 -138.5 -58.5t-74.5 -148.5z" />
<glyph unicode="&#x178;" horiz-adv-x="1038" d="M113 1296h329l93 -495l-5 -82h11l22 84l154 323l55 170h350l-458 -843l-56 -453h-317l55 453zM403 1403l33 266h168l-33 -266h-168zM670 1403l32 266h168l-32 -266h-168z" />
<glyph unicode="&#x2c6;" horiz-adv-x="1034" d="M317 1198l248 170q33 20 62 21q14 0 28.5 -4.5t28.5 -16.5l205 -170l-84 -86l-201 98l-225 -98z" />
<glyph unicode="&#x2dc;" horiz-adv-x="1034" d="M295 1165l41 154q16 8 63 26.5t119 18.5q25 0 55.5 -5t63.5 -11.5t65.5 -11.5t63.5 -5q59 0 98 9.5t66 19.5l-39 -154q-16 -8 -63.5 -26.5t-116.5 -18.5q-53 0 -122 16.5t-128 16.5t-98 -10t-68 -19z" />
<glyph unicode="&#x2000;" horiz-adv-x="848" />
<glyph unicode="&#x2001;" horiz-adv-x="1696" />
<glyph unicode="&#x2002;" horiz-adv-x="848" />
<glyph unicode="&#x2003;" horiz-adv-x="1696" />
<glyph unicode="&#x2004;" horiz-adv-x="565" />
<glyph unicode="&#x2005;" horiz-adv-x="424" />
<glyph unicode="&#x2006;" horiz-adv-x="282" />
<glyph unicode="&#x2007;" horiz-adv-x="282" />
<glyph unicode="&#x2008;" horiz-adv-x="212" />
<glyph unicode="&#x2009;" horiz-adv-x="339" />
<glyph unicode="&#x200a;" horiz-adv-x="94" />
<glyph unicode="&#x2010;" horiz-adv-x="630" d="M63 412l21 163h483l-20 -163h-484z" />
<glyph unicode="&#x2011;" horiz-adv-x="630" d="M63 412l21 163h483l-20 -163h-484z" />
<glyph unicode="&#x2012;" horiz-adv-x="630" d="M63 412l21 163h483l-20 -163h-484z" />
<glyph unicode="&#x2013;" horiz-adv-x="1024" d="M-8 412l18 163h1024l-20 -163h-1022z" />
<glyph unicode="&#x2014;" horiz-adv-x="2048" d="M-8 412l18 163h2048l-20 -163h-2046z" />
<glyph unicode="&#x2018;" horiz-adv-x="403" d="M123 1083q0 41 12 73t47 77l113 147l98 -12l-63 -145q29 -6 51 -35t22 -76q0 -4 -1 -10t-1 -10q-10 -57 -49 -96.5t-102 -39.5q-55 0 -91 36t-36 91z" />
<glyph unicode="&#x2019;" horiz-adv-x="403" d="M135 1094q0 4 1 10t1 10q10 57 49 96t103 39q55 0 91 -35.5t36 -91.5q0 -41 -12.5 -72.5t-47.5 -76.5l-112 -148l-99 13l64 145q-29 6 -51.5 35t-22.5 76z" />
<glyph unicode="&#x201a;" horiz-adv-x="403" d="M16 111q0 4 1 10t1 10q10 57 49 96t103 39q55 0 91 -35.5t36 -91.5q0 -41 -15.5 -75.5t-43.5 -73.5l-113 -148l-98 13l63 145q-29 6 -51.5 34.5t-22.5 76.5z" />
<glyph unicode="&#x201c;" horiz-adv-x="765" d="M137 1083q0 41 15.5 76t44.5 74l112 147l99 -12l-64 -145q29 -6 51.5 -35t22.5 -76q0 -4 -1 -10t-1 -10q-10 -57 -49 -96.5t-103 -39.5q-55 0 -91 36t-36 91zM500 1083q0 41 15 76t44 74l113 147l98 -12l-63 -145q29 -6 51 -35t22 -76q0 -4 -1 -10t-1 -10 q-10 -57 -49 -96.5t-102 -39.5q-55 0 -91 36t-36 91z" />
<glyph unicode="&#x201d;" horiz-adv-x="772" d="M147 1094q0 4 1.5 10t1.5 10q10 57 49 96t102 39q55 0 91 -35.5t36 -91.5q0 -41 -15.5 -75.5t-43.5 -73.5l-113 -148l-98 13l63 145q-29 6 -51.5 35t-22.5 76zM510 1094q0 4 1 10t1 10q10 57 49 96t103 39q55 0 91 -35.5t36 -91.5q0 -41 -15.5 -75.5t-44.5 -73.5 l-113 -148l-98 13l64 145q-29 6 -51.5 35t-22.5 76z" />
<glyph unicode="&#x201e;" horiz-adv-x="772" d="M25 111q0 4 1 10t1 10q10 57 49 96t102 39q55 0 91 -35.5t36 -91.5q0 -41 -15.5 -75.5t-43.5 -73.5l-113 -148l-98 13l63 145q-29 6 -51 34.5t-22 76.5zM387 111q0 4 1 10t1 10q10 57 49 96t103 39q55 0 91 -35.5t36 -91.5q0 -41 -15.5 -75.5t-44.5 -73.5l-112 -148 l-99 13l64 145q-29 6 -51.5 34.5t-22.5 76.5z" />
<glyph unicode="&#x2022;" horiz-adv-x="581" d="M90 545q0 98 56 163.5t167 65.5q86 0 139.5 -52t53.5 -132q0 -111 -61.5 -169.5t-161.5 -58.5q-88 0 -140.5 51.5t-52.5 131.5z" />
<glyph unicode="&#x2026;" horiz-adv-x="1136" d="M16 106q0 70 44 112t114 42q55 0 90 -35t35 -92q0 -63 -42 -107t-112 -44q-59 0 -94 34.5t-35 89.5zM385 106q0 70 44 112t114 42q55 0 90 -35t35 -92q0 -63 -42 -107t-112 -44q-59 0 -94 34.5t-35 89.5zM750 106q0 70 44 112t113 42q55 0 90 -35t35 -92 q0 -63 -41.5 -107t-111.5 -44q-59 0 -94 34.5t-35 89.5z" />
<glyph unicode="&#x202f;" horiz-adv-x="339" />
<glyph unicode="&#x2039;" horiz-adv-x="636" d="M61 553l465 465l103 -127l-348 -338l266 -354l-137 -113z" />
<glyph unicode="&#x203a;" horiz-adv-x="636" d="M20 211l351 342l-265 350l134 115l348 -465l-463 -467z" />
<glyph unicode="&#x2044;" horiz-adv-x="307" d="M-252 0l733 1190h135l-733 -1190h-135z" />
<glyph unicode="&#x205f;" horiz-adv-x="424" />
<glyph unicode="&#x2070;" horiz-adv-x="550" d="M70 829q0 174 71.5 272.5t210.5 98.5q111 0 169.5 -66.5t58.5 -181.5q0 -170 -76 -268t-213 -98q-111 0 -166 66t-55 177zM229 846q0 -53 15.5 -92t58.5 -39q29 0 51.5 18.5t37 50t21.5 72.5t7 84q0 53 -16.5 91t-57.5 38q-31 0 -53.5 -18.5t-36.5 -49t-20.5 -71.5 t-6.5 -84z" />
<glyph unicode="&#x2074;" horiz-adv-x="540" d="M55 702l19 140l256 348h207l-45 -367h63l-16 -121h-64l-12 -106h-150l13 106h-271zM188 827l2 -4h154l25 213l18 37h-8l-162 -231z" />
<glyph unicode="&#x2075;" horiz-adv-x="495" d="M66 606v135q25 -10 66.5 -17t80.5 -7q57 0 95 15.5t38 62.5q0 41 -45 60t-127 19h-61l39 316h366l-16 -137l-92 8h-127l-11 -84q45 0 87 -12.5t74 -35t51.5 -57t19.5 -81.5q0 -55 -24.5 -94.5t-64.5 -64t-91.5 -35.5t-104.5 -11q-47 0 -89 7t-64 13z" />
<glyph unicode="&#x2076;" horiz-adv-x="542" d="M78 838q0 78 19.5 144.5t59.5 114.5t100 75.5t142 27.5q51 0 95.5 -10t56.5 -14v-125q-16 4 -53 13t-84 9q-131 0 -158 -112q18 2 30.5 3t24.5 1q106 0 173 -43t67 -131q0 -98 -67.5 -151.5t-176.5 -53.5q-117 0 -173 71.5t-56 180.5zM233 823q0 -51 19.5 -83.5 t66.5 -32.5q37 0 58.5 22t21.5 59q0 45 -32.5 61.5t-79.5 16.5q-16 0 -27.5 -1t-23.5 -3q-2 -10 -2.5 -19t-0.5 -20z" />
<glyph unicode="&#x2077;" horiz-adv-x="464" d="M92 1055l17 135h421l-16 -135q-57 -51 -96 -111.5t-62.5 -121t-36 -116t-18.5 -96.5l-2 -14h-160l2 20q14 111 56.5 220.5t128.5 205.5l28 15l-2 8h-166z" />
<glyph unicode="&#x2078;" horiz-adv-x="546" d="M57 741q0 53 30 92t79 62v8q-29 16 -45.5 45t-16.5 64q0 51 23 87t59.5 59.5t81.5 33.5t92 10q43 0 82 -9t69 -27.5t48.5 -47t18.5 -67.5q0 -55 -30 -89t-71 -53v-8q29 -18 49.5 -50t20.5 -73q0 -51 -23.5 -87t-60.5 -59.5t-84 -33.5t-96 -10q-92 0 -159 35.5t-67 117.5z M199 764q0 -33 27.5 -44t62.5 -11q39 0 67.5 15t28.5 48q0 29 -23.5 45.5t-64.5 26.5l-23 6q-31 -14 -53 -34.5t-22 -51.5zM262 1024q0 -27 25.5 -41t60.5 -25l19 -6q20 10 44.5 29.5t24.5 50.5q0 29 -24.5 42t-59.5 13t-62.5 -16t-27.5 -47z" />
<glyph unicode="&#x2079;" horiz-adv-x="534" d="M88 608v127q16 -4 53 -13t84 -9q131 0 158 112q-18 -2 -30.5 -3t-24.5 -1q-106 0 -173 43t-67 131q0 98 67.5 151.5t176.5 53.5q117 0 173 -71.5t56 -180.5q0 -80 -19.5 -146.5t-59.5 -114.5t-100 -74.5t-142 -26.5q-51 0 -95.5 9t-56.5 13zM240 997q0 -45 32.5 -61 t79.5 -16h27.5t23.5 2q2 10 2.5 20t0.5 21q0 51 -19.5 83.5t-67.5 32.5q-37 0 -58 -22.5t-21 -59.5z" />
<glyph unicode="&#x207d;" horiz-adv-x="301" d="M94 817q0 45 6 92q14 117 63.5 223.5t112.5 192.5l76 -55q-25 -41 -50.5 -89t-47 -106.5t-34.5 -126t-13 -147.5q0 -84 15.5 -152.5t37.5 -122.5l-88 -55q-35 68 -56.5 159t-21.5 187z" />
<glyph unicode="&#x207e;" horiz-adv-x="301" d="M51 526q25 39 50.5 88.5t47 107.5t35 125.5t13.5 145.5q0 86 -15.5 155t-38.5 122l88 55q35 -68 56.5 -159t21.5 -187q0 -47 -6 -92q-14 -117 -63.5 -223.5t-112.5 -192.5z" />
<glyph unicode="&#x207f;" horiz-adv-x="598" d="M72 596l59 487v109q12 4 28.5 8t28.5 4q41 0 61.5 -18.5t26.5 -55.5l3 -12h6q27 35 68.5 59.5t101.5 24.5q74 0 117.5 -43t43.5 -115q0 -10 -1 -24t-3 -25l-51 -399q-10 -4 -28.5 -8t-32.5 -4q-55 0 -78 24.5t-23 71.5q0 18 4 35l31 264q2 6 2 13v12q0 27 -16.5 42 t-42.5 15q-49 0 -68.5 -40t-25.5 -97l-39 -328h-172z" />
<glyph unicode="&#x20ac;" d="M18 344l48 131h77q0 63 13 135h-107l47 129h97q66 172 204 267.5t338 95.5q92 0 156.5 -14.5t99.5 -24.5l-73 -203q-27 10 -73 19.5t-87 9.5q-195 0 -273 -150h349l-48 -129h-346q-8 -27 -11 -63.5t-3 -71.5h375l-45 -131h-305q16 -66 61 -106.5t135 -40.5 q68 0 127.5 23.5t102.5 58.5l24 -207q-45 -27 -125 -58.5t-198 -31.5q-168 0 -280 95t-142 267h-138z" />
<glyph unicode="&#x2122;" horiz-adv-x="1028" d="M109 1288l14 115h586l26 -313l-2 -35h8l7 35l104 313h209l-17 -76l-45 -471h-141l55 422h-8l-4 -29l-137 -393h-107l-39 393v29h-8l-47 -422h-149l18 76l53 356h-125l-53 -430h-147l14 76l43 354h-108z" />
<glyph unicode="&#x2153;" horiz-adv-x="1181" d="M72 596l16 129h143l43 291l-6 2l-22 -37q-23 -18 -62 -30.5t-69 -20.5l-6 141q47 10 103 40t97 77h146l-68 -463h119l-17 -129h-417zM127 0l811 1190h137l-813 -1190h-135zM637 14v136q35 -12 78 -20.5t88 -8.5q14 0 35.5 2t41 8t34 20.5t14.5 38.5q0 37 -32 49.5 t-81 12.5h-84l12 102h84q47 0 83 13.5t38 54.5q0 20 -10 32.5t-26.5 18.5t-35 8t-36.5 2q-43 0 -82 -8t-80 -20l43 141q20 4 59 9t92 5q47 0 91.5 -9t77 -28.5t52 -50t19.5 -73.5q0 -51 -26.5 -85t-73.5 -55v-4q29 -16 52 -48t23 -79q0 -53 -24.5 -88t-64.5 -57.5t-90 -31.5 t-103 -9q-47 0 -96.5 8t-71.5 14z" />
<glyph unicode="&#x2154;" horiz-adv-x="1183" d="M43 594l16 139q92 49 151.5 86t93.5 65.5t46 54.5t12 52q0 41 -32.5 60.5t-81.5 19.5q-53 0 -90 -11t-66 -22l45 144q16 4 56 12t83 8q49 0 93.5 -13t79 -39t55 -62.5t20.5 -86.5q0 -86 -53 -146t-180 -126l2 -6h133l94 8l-16 -137h-461zM156 0l811 1190h137l-813 -1190 h-135zM639 14v136q35 -12 78 -20.5t88 -8.5q14 0 35.5 2t41 8t34 20.5t14.5 38.5q0 37 -32 49.5t-81 12.5h-84l12 102h84q47 0 83 13.5t38 54.5q0 20 -10 32.5t-26.5 18.5t-35 8t-36.5 2q-43 0 -82 -8t-80 -20l43 141q20 4 59 9t92 5q47 0 91.5 -9t77 -28.5t52 -50 t19.5 -73.5q0 -51 -26.5 -85t-73.5 -55v-4q29 -16 52.5 -48t23.5 -79q0 -53 -25 -88t-64.5 -57.5t-90 -31.5t-103.5 -9q-47 0 -96 8t-72 14z" />
<glyph unicode="&#x215b;" horiz-adv-x="1179" d="M70 596l16 129h145l43 291l-6 2l-22 -37q-23 -18 -62 -30.5t-69 -20.5l-6 141q47 10 103 40t97 77h144l-66 -463h119l-17 -129h-419zM127 0l811 1192h137l-813 -1192h-135zM600 145q0 53 29.5 92t79.5 62v8q-29 16 -45.5 45t-16.5 64q0 51 22.5 87t59.5 59.5t82 33.5 t92 10q43 0 82 -9t68.5 -27.5t48 -47t18.5 -67.5q0 -55 -29.5 -89t-70.5 -53v-8q29 -18 49.5 -50t20.5 -73q0 -51 -24 -87t-60.5 -59.5t-84 -33.5t-96.5 -10q-92 0 -158.5 35.5t-66.5 117.5zM741 168q0 -33 28 -44t62 -11q39 0 68 15t29 48q0 29 -23.5 45.5t-64.5 26.5 l-23 6q-31 -14 -53.5 -34.5t-22.5 -51.5zM805 428q0 -27 25.5 -41t60.5 -25l18 -6q20 10 45 30t25 50q0 29 -24.5 42.5t-59.5 13.5t-62.5 -16.5t-27.5 -47.5z" />
<glyph unicode="&#x215c;" horiz-adv-x="1161" d="M63 604v135q35 -12 78 -20t88 -8q14 0 36 2t41.5 8t33.5 20.5t14 38.5q0 37 -31.5 49.5t-80.5 12.5h-84l12 102h84q47 0 83 13.5t38 54.5q0 20 -10.5 32.5t-26.5 18.5t-34.5 8t-37.5 2q-43 0 -82 -8t-80 -21l43 142q20 4 59.5 9t92.5 5q47 0 91 -9t77 -28.5t52.5 -50.5 t19.5 -74q0 -51 -27 -84.5t-74 -54.5v-4q29 -16 52.5 -48t23.5 -79q0 -53 -24.5 -88t-64.5 -57.5t-90 -31.5t-104 -9q-47 0 -96 8t-72 14zM111 0l813 1190h135l-813 -1190h-135zM580 145q0 53 29.5 92t78.5 62v8q-29 16 -45 45t-16 64q0 51 22.5 87t59 59.5t82 33.5t92.5 10 q43 0 82 -9t68.5 -27.5t48 -47t18.5 -67.5q0 -55 -30 -89t-71 -53v-8q29 -18 49.5 -50t20.5 -73q0 -51 -23.5 -87t-60.5 -59.5t-84 -33.5t-96 -10q-92 0 -158.5 35.5t-66.5 117.5zM721 168q0 -33 27.5 -44t62.5 -11q39 0 67.5 15t28.5 48q0 29 -23.5 45.5t-64.5 26.5l-22 6 q-31 -14 -53.5 -34.5t-22.5 -51.5zM784 428q0 -27 26 -41t60 -25l19 -6q20 10 44.5 30t24.5 50q0 29 -24.5 42.5t-59.5 13.5t-62.5 -16.5t-27.5 -47.5z" />
<glyph unicode="&#x215d;" horiz-adv-x="1161" d="M74 606v135q25 -10 66.5 -17t80.5 -7q57 0 95 15.5t38 62.5q0 41 -45 60t-127 19h-61l39 316h366l-16 -137l-92 8h-127l-10 -84q45 0 87 -12.5t73.5 -35t51 -57t19.5 -81.5q0 -55 -24.5 -94.5t-64.5 -64t-91 -35.5t-105 -11q-47 0 -89 7t-64 13zM100 0l813 1190h136 l-813 -1190h-136zM580 145q0 53 29.5 92t78.5 62v8q-29 16 -45 45t-16 64q0 51 22.5 87t59 59.5t82 33.5t92.5 10q43 0 82 -9t68.5 -27.5t48 -47t18.5 -67.5q0 -55 -30 -89t-71 -53v-8q29 -18 49.5 -50t20.5 -73q0 -51 -23.5 -87t-60.5 -59.5t-84 -33.5t-96 -10 q-92 0 -158.5 35.5t-66.5 117.5zM721 168q0 -33 27.5 -44t62.5 -11q39 0 67.5 15t28.5 48q0 29 -23.5 45.5t-64.5 26.5l-22 6q-31 -14 -53.5 -34.5t-22.5 -51.5zM784 428q0 -27 26 -41t60 -25l19 -6q20 10 44.5 30t24.5 50q0 29 -24.5 42.5t-59.5 13.5t-62.5 -16.5 t-27.5 -47.5z" />
<glyph unicode="&#x215e;" horiz-adv-x="1058" d="M-2 0l809 1192h133l-813 -1192h-129zM96 1055l17 135h422l-17 -135q-57 -51 -96 -111.5t-62.5 -121t-36 -116t-18.5 -96.5l-2 -14h-160l2 20q14 111 56.5 220.5t128.5 205.5l28 15l-2 8h-166zM481 145q0 53 30 92t79 62v8q-29 16 -45.5 45t-16.5 64q0 51 22.5 87 t59.5 59.5t82 33.5t92 10q43 0 82 -9t69 -27.5t48 -47t18 -67.5q0 -55 -29.5 -89t-70.5 -53v-8q29 -18 49.5 -50t20.5 -73q0 -51 -23.5 -87t-60.5 -59.5t-84 -33.5t-96 -10q-92 0 -159 35.5t-67 117.5zM623 168q0 -33 27.5 -44t62.5 -11q39 0 67.5 15t28.5 48 q0 29 -23.5 45.5t-64.5 26.5l-23 6q-31 -14 -53 -34.5t-22 -51.5zM686 428q0 -27 25.5 -41t60.5 -25l19 -6q20 10 44.5 30t24.5 50q0 29 -24.5 42.5t-59.5 13.5t-62.5 -16.5t-27.5 -47.5z" />
<glyph unicode="&#x2160;" horiz-adv-x="509" d="M-63 0l10 74h104l19 86l104 850h-115l9 73h518l-8 -73h-115l-115 -936h115l-10 -74h-516z" />
<glyph unicode="&#x2164;" horiz-adv-x="997" d="M-68 0l11 74h278l-108 936h-58l8 73h1014l-8 -73h-59l-344 -936h288l-10 -74h-1012zM414 1010l45 -713v-72h10l14 72l203 631l12 82h-284z" />
<glyph unicode="&#x2169;" horiz-adv-x="1003" d="M-63 0l10 74h45l301 483l-166 453h-68l9 73h1011l-8 -73h-72l-276 -453l186 -483h47l-10 -74h-1009zM313 74h279l-90 270l-8 59h-11l-18 -59l-125 -205zM434 1010l78 -262l6 -64h10l23 64l111 196l20 66h-248z" />
<glyph unicode="&#x216c;" horiz-adv-x="761" d="M-63 0l10 74h110l17 80l106 856h-121l9 73h770l-9 -73h-362l-96 -774h307l-19 -162h56l-10 -74h-768z" />
<glyph unicode="&#x216d;" horiz-adv-x="899" d="M-70 0l9 74h268q-70 49 -119 152.5t-49 232.5q0 100 24.5 187t66.5 156.5t98.5 122t119.5 85.5h-297l10 73h918l-10 -73h-82l-70 -203q-29 14 -76 27.5t-106 13.5q-72 0 -128 -27.5t-94 -77t-58.5 -115t-20.5 -139.5q0 -104 51 -178.5t162 -74.5q88 0 145.5 38.5 t95.5 83.5l33 -237q-12 -10 -37.5 -25.5t-42.5 -21.5h113l-8 -74h-916z" />
<glyph unicode="&#x216e;" horiz-adv-x="1136" d="M-63 0l10 74h155l21 100l100 836h-164l9 73h1153l-9 -73h-311q168 -113 168 -381q0 -209 -63.5 -346.5t-180.5 -208.5h273l-11 -74h-1150zM422 229h94q131 0 194.5 100.5t63.5 299.5q0 115 -45 170t-149 55h-82z" />
<glyph unicode="&#x216f;" horiz-adv-x="1431" d="M-63 0l10 74h76l20 80l158 856h-142l9 73h1439l-8 -73h-135l-14 -80l-52 -856h86l-10 -74h-1437zM315 74h222l-95 706v58h-10zM623 1010l67 -631v-57h10l11 57l225 631h-313zM793 74h223l67 762h-10l-10 -56z" />
<glyph unicode="&#x25fc;" horiz-adv-x="993" d="M0 0v993h993v-993h-993z" />
<glyph horiz-adv-x="2013" d="M53 569q0 174 48.5 313.5t136.5 234.5t212.5 146.5t278.5 51.5q82 0 150.5 -13.5t101.5 -23.5l-92 -262q-29 10 -72 20.5t-84 10.5q-94 0 -160.5 -38t-108.5 -98.5t-61.5 -137.5t-19.5 -157t16.5 -147.5t53 -116.5t95 -76.5t142.5 -27.5q66 0 133.5 11t120.5 34l125 1003 h309l-61 -499h311l64 499h323l-37 -170l-139 -1126h-309l67 543h-313l-55 -461q-125 -37 -269.5 -68.5t-324.5 -31.5q-137 0 -244.5 42t-182.5 118.5t-115 185t-40 241.5z" />
<glyph horiz-adv-x="1869" d="M53 569q0 174 48.5 313.5t136.5 234.5t212.5 146.5t278.5 51.5q82 0 150.5 -13.5t101.5 -23.5l-92 -262q-29 10 -72 20.5t-84 10.5q-94 0 -160.5 -38t-108.5 -98.5t-61.5 -137.5t-19.5 -157t16.5 -147.5t53 -116.5t95 -76.5t142.5 -27.5q66 0 133.5 11t120.5 34l133 1079 l295 21l-35 -172l-43 -344h11q37 47 101 83.5t148 36.5q123 0 186.5 -70.5t63.5 -191.5q0 -16 -1 -38.5t-5 -41.5l-84 -655q-18 -8 -46 -14t-56 -6q-90 0 -126 41.5t-36 117.5q0 10 1 27.5t3 28.5l51 432q2 10 2 30q0 47 -21.5 76t-70.5 29q-43 0 -70.5 -19.5t-46 -53.5 t-30 -80t-17.5 -101l-53 -434q-121 -35 -256 -63.5t-307 -28.5q-137 0 -244.5 42t-182.5 118.5t-115 185t-40 241.5z" />
<glyph horiz-adv-x="1716" d="M35 442q0 129 38 231.5t107.5 174.5t170 109.5t224.5 37.5q35 0 70 -4t64.5 -8t51 -9t30.5 -7l-80 -228q-25 10 -54.5 18.5t-74.5 8.5q-127 0 -189.5 -85t-62.5 -216q0 -109 56 -180.5t181 -71.5q59 0 118.5 11.5t102.5 25.5l138 1122l295 21l-35 -172l-43 -344h10 q37 47 101.5 83.5t148.5 36.5q123 0 185.5 -70.5t62.5 -191.5q0 -35 -6 -84l-82 -651q-18 -8 -46 -14t-57 -6q-90 0 -126 41.5t-36 117.5q0 10 1 27.5t4 28.5l49 417q2 12 3 24.5t1 20.5q0 47 -21.5 76t-70.5 29q-43 0 -71 -19.5t-46.5 -53.5t-29.5 -80t-17 -101l-53 -445 q-39 -10 -94.5 -24t-124 -26.5t-147.5 -21.5t-163 -9q-227 0 -355 116.5t-128 343.5z" />
<glyph horiz-adv-x="1912" d="M53 569q0 174 48.5 313.5t136.5 234.5t212.5 146.5t278.5 51.5q82 0 150.5 -13.5t101.5 -23.5l-92 -262q-29 10 -72 20.5t-84 10.5q-94 0 -160.5 -38t-108.5 -98.5t-61.5 -137.5t-19.5 -157t16.5 -147.5t53 -116.5t95 -76.5t142.5 -27.5q59 0 123 9t117 30l98 796h289 l-51 -419h266l51 419h303l-33 -155l-114 -928h-289l55 446h-266l-47 -372q-119 -35 -253 -63.5t-304 -28.5q-137 0 -244.5 42t-182.5 118.5t-115 185t-40 241.5z" />
<glyph horiz-adv-x="1828" d="M45 471q0 156 43 273.5t121 197.5t185.5 120t236.5 40q33 0 68.5 -3t67.5 -8.5t58.5 -11.5t40.5 -12l-86 -238q-23 10 -61.5 19.5t-85.5 9.5q-66 0 -118 -25.5t-90 -71.5t-58.5 -109.5t-20.5 -141.5q0 -129 59.5 -210t192.5 -81q66 0 129.5 13.5t116.5 33.5l100 817h287 l-51 -415h266l53 415h303l-33 -149l-114 -934h-291l55 451h-266l-47 -381q-111 -29 -249 -57.5t-296 -28.5q-123 0 -219 34.5t-162.5 98t-100.5 153.5t-34 201z" />
<glyph horiz-adv-x="1019" d="M-43 0l438 1083h439l108 -1083h-332l17 174l-6 119h-256l-113 -293h-295zM440 500h166l-18 338v69h-8l-19 -69z" />
<glyph horiz-adv-x="1019" d="M-43 0l438 1083h439l108 -1083h-332l17 174l-6 119h-256l-113 -293h-295zM362 1251l439 217l57 -190l-436 -109zM440 500h166l-18 338v69h-8l-19 -69z" />
<glyph horiz-adv-x="1019" d="M-43 0l438 1083h439l108 -1083h-332l17 174l-6 119h-256l-113 -293h-295zM352 1274l246 170q33 20 59 20q14 0 29.5 -4t32.5 -16l203 -170l-86 -86l-201 98l-223 -98zM440 500h166l-18 338v69h-8l-19 -69z" />
<glyph horiz-adv-x="1019" d="M-43 0l438 1083h439l108 -1083h-332l17 174l-6 119h-256l-113 -293h-295zM412 1194l32 266h166l-32 -266h-166zM440 500h166l-18 338v69h-8l-19 -69zM678 1194l33 266h168l-33 -266h-168z" />
<glyph horiz-adv-x="1376" d="M-43 0l432 1083h928l-8 -221h-391l-9 -209h363l-6 -207h-367l-6 -225h403l-8 -221h-710l22 147l8 146h-241l-109 -293h-301zM440 500h176l19 372h-57z" />
<glyph horiz-adv-x="1019" d="M-43 0l438 1083h439l108 -1083h-332l17 174l-6 119h-256l-113 -293h-295zM397 1276l105 190l385 -217l-82 -82zM440 500h166l-18 338v69h-8l-19 -69z" />
<glyph horiz-adv-x="1019" d="M-43 0l438 1083h439l108 -1083h-332l17 174l-6 119h-256l-113 -293h-295zM432 1309q0 88 60.5 140t166.5 52q94 0 147.5 -43t53.5 -115q0 -88 -60.5 -137t-166.5 -49q-94 0 -147.5 43t-53.5 109zM440 500h166l-18 338v69h-8l-19 -69zM590 1321q0 -20 13 -35.5t38 -15.5 q35 0 50.5 20.5t15.5 42.5q0 23 -13.5 39.5t-42.5 16.5q-31 0 -46 -19.5t-15 -48.5z" />
<glyph horiz-adv-x="1019" d="M-43 0l438 1083h439l108 -1083h-332l17 174l-6 119h-256l-113 -293h-295zM324 1237l43 154q14 8 61 26.5t119 18.5q51 0 119.5 -16.5t128.5 -16.5q59 0 99 9t64 20l-38 -154q-16 -8 -63.5 -26.5t-117.5 -18.5q-53 0 -121.5 16.5t-128.5 16.5q-59 0 -98 -10.5t-67 -18.5z M440 500h166l-18 338v69h-8l-19 -69z" />
<glyph horiz-adv-x="1024" d="M37 0l35 174l110 909h490q66 0 122 -16t98 -48t65.5 -81t23.5 -113q0 -106 -48 -167.5t-116 -90.5l-2 -10q53 -29 88 -88t35 -139q0 -166 -101.5 -248t-269.5 -82h-530zM369 221h123q72 0 113.5 30t41.5 107q0 51 -31.5 81t-91.5 30h-125zM418 637h133q59 0 95 32.5 t36 98.5q0 45 -26.5 72.5t-84.5 27.5h-125z" />
<glyph horiz-adv-x="878" d="M45 453q0 152 42 271.5t119 203.5t184.5 129t240.5 45q33 0 71.5 -3t76.5 -9.5t72 -13.5t58 -15l-82 -250q-33 20 -82 34.5t-100 14.5q-76 0 -133 -29.5t-95 -81t-56.5 -120t-18.5 -148.5q0 -111 50 -184.5t161 -73.5q33 0 68.5 8.5t69.5 22.5t62.5 33.5t47.5 42.5v-264 q-51 -33 -128 -58.5t-200 -25.5q-94 0 -173 31.5t-135 91t-88 147.5t-32 201z" />
<glyph horiz-adv-x="878" d="M45 453q0 152 42 271.5t119 203.5t184.5 129t240.5 45q33 0 71.5 -3t76.5 -9.5t72 -13.5t58 -15l-82 -250q-33 20 -82 34.5t-100 14.5q-76 0 -133 -29.5t-95 -81t-56.5 -120t-18.5 -148.5q0 -111 50 -184.5t161 -73.5q33 0 68.5 8.5t69.5 22.5t62.5 33.5t47.5 42.5v-264 q-47 -29 -112.5 -53.5t-168.5 -28.5l-6 -50q53 -4 91 -36.5t38 -85.5q0 -43 -18.5 -75t-50 -53.5t-74.5 -31.5t-90 -10q-59 0 -96.5 7t-53.5 11l37 107q16 -4 40.5 -7.5t49.5 -3.5q35 0 60.5 8.5t25.5 40.5q0 20 -16.5 31.5t-44.5 11.5q-18 0 -37 -2t-31 -4l43 148 q-154 25 -248 143.5t-94 319.5z" />
<glyph horiz-adv-x="1054" d="M37 0l35 174l110 909h381q223 0 339 -115.5t116 -338.5q0 -315 -144.5 -472t-394.5 -157h-442zM371 229h94q131 0 194.5 100.5t63.5 299.5q0 115 -45 170t-150 55h-82z" />
<glyph horiz-adv-x="899" d="M37 0l33 158l112 925h727l-26 -221h-437l-26 -209h407l-24 -207h-408l-26 -223h448l-29 -223h-751z" />
<glyph horiz-adv-x="899" d="M37 0l33 158l112 925h727l-26 -221h-437l-26 -209h407l-24 -207h-408l-26 -223h448l-29 -223h-751zM340 1249l436 217l60 -190l-437 -109z" />
<glyph horiz-adv-x="899" d="M37 0l33 158l112 925h727l-26 -221h-437l-26 -209h407l-24 -207h-408l-26 -223h448l-29 -223h-751zM276 1274l246 170q35 20 62 20q12 0 28.5 -4t30.5 -16l203 -170l-86 -86l-199 98l-225 -98z" />
<glyph horiz-adv-x="899" d="M37 0l33 158l112 925h727l-26 -221h-437l-26 -209h407l-24 -207h-408l-26 -223h448l-29 -223h-751zM352 1194l33 266h168l-33 -266h-168zM618 1194l33 266h168l-33 -266h-168z" />
<glyph horiz-adv-x="899" d="M37 0l33 158l112 925h727l-26 -221h-437l-26 -209h407l-24 -207h-408l-26 -223h448l-29 -223h-751zM344 1276l105 190l382 -217l-79 -82z" />
<glyph horiz-adv-x="1054" d="M6 573l117 25l59 485h381q223 0 339 -115.5t116 -338.5q0 -315 -144.5 -472t-394.5 -157h-442l35 174l28 248l-86 -19zM371 229h94q131 0 194.5 100.5t63.5 299.5q0 115 -45 170t-150 55h-82l-24 -192l121 26l14 -168l-156 -35z" />
<glyph horiz-adv-x="864" d="M37 0l33 152l114 931h703l-27 -221h-414l-28 -237h385l-27 -217h-385l-51 -408h-303z" />
<glyph horiz-adv-x="1024" d="M45 438q0 154 43 277t125 209t202 132t273 46q68 0 150 -13.5t161 -37.5l-81 -230q-59 23 -116 35t-132 12q-82 0 -144.5 -31.5t-103.5 -88t-62.5 -132t-21.5 -163.5q0 -51 10 -96.5t34 -79t61.5 -53t93.5 -19.5q33 0 57 5t41 11l24 199h-129l25 196h393l-65 -557 q-82 -35 -175.5 -56t-213.5 -21q-96 0 -178.5 27.5t-141.5 84t-94 142.5t-35 202z" />
<glyph horiz-adv-x="1069" d="M37 0l33 154l114 929h289l-51 -419h266l51 419h303l-32 -155l-115 -928h-289l56 446h-267l-55 -446h-303z" />
<glyph horiz-adv-x="499" d="M37 0l33 154l114 929h289l-133 -1083h-303z" />
<glyph horiz-adv-x="499" d="M37 0l33 154l114 929h289l-133 -1083h-303zM104 1249l439 217l59 -190l-436 -109z" />
<glyph horiz-adv-x="499" d="M37 0l33 154l114 929h287l-133 -1083h-301zM66 1274l247 170q33 20 60 20q14 0 29.5 -4t29.5 -16l205 -170l-86 -86l-201 98l-225 -98z" />
<glyph horiz-adv-x="499" d="M39 0l31 154l114 929h289l-133 -1083h-301zM129 1194l33 266h166l-33 -266h-166zM395 1194l33 266h166l-33 -266h-166z" />
<glyph horiz-adv-x="499" d="M37 0l33 154l114 929h289l-133 -1083h-303zM100 1276l105 190l385 -217l-82 -82z" />
<glyph horiz-adv-x="649" d="M-16 -12v227q14 -4 37.5 -5t35.5 -1q82 0 127 38t56 128l59 483l-213 19l27 206h514l-31 -153l-70 -574q-25 -203 -136 -288.5t-318 -85.5q-4 0 -16.5 1t-27 2t-26.5 2t-18 1z" />
<glyph horiz-adv-x="997" d="M37 0l39 174l110 909h289l-49 -399h8l23 59l248 340h325l-338 -438l228 -645h-314l-143 432h-8l-70 -94l-43 -338h-305z" />
<glyph horiz-adv-x="757" d="M37 0l33 154l114 929h289l-104 -847h344l-29 -236h-647z" />
<glyph horiz-adv-x="1421" d="M14 0l45 174l156 909h399l76 -671v-58h8l13 58l235 671h424l-33 -174l-55 -909h-285l74 852h-12l-10 -55l-289 -797h-213l-92 797v57h-13l-133 -854h-295z" />
<glyph horiz-adv-x="1081" d="M37 0l35 152l114 931h332l176 -743h8v70l54 673h299l-35 -151l-115 -932h-330l-176 762h-8v-72l-55 -690h-299z" />
<glyph horiz-adv-x="1081" d="M37 0l35 152l114 931h332l176 -743h8v70l54 673h299l-35 -151l-115 -932h-330l-176 762h-8v-72l-55 -690h-299zM328 1235l43 154q14 8 61 26.5t119 18.5q25 0 55.5 -5.5t63 -11.5t65.5 -11t64 -5q59 0 98 9t66 20l-39 -154q-16 -8 -63.5 -26.5t-117.5 -18.5 q-53 0 -121.5 16.5t-127.5 16.5t-98.5 -10.5t-67.5 -18.5z" />
<glyph horiz-adv-x="1062" d="M45 449q0 313 147.5 483t409.5 170q207 0 315.5 -126t108.5 -337q0 -322 -146.5 -489.5t-410.5 -167.5q-209 0 -316.5 125t-107.5 342zM344 451q0 -47 8 -90.5t26.5 -75t47.5 -50t72 -18.5q61 0 105 34t70.5 91t39 133t12.5 160q0 47 -8 90t-27.5 74.5t-49.5 50t-73 18.5 q-66 0 -107.5 -37.5t-68 -98t-37 -134t-10.5 -147.5z" />
<glyph horiz-adv-x="1062" d="M45 449q0 313 147.5 483t409.5 170q207 0 315.5 -126t108.5 -337q0 -322 -146.5 -489.5t-410.5 -167.5q-209 0 -316.5 125t-107.5 342zM344 451q0 -47 8 -90.5t26.5 -75t47.5 -50t72 -18.5q61 0 105 34t70.5 91t39 133t12.5 160q0 47 -8 90t-27.5 74.5t-49.5 50t-73 18.5 q-66 0 -107.5 -37.5t-68 -98t-37 -134t-10.5 -147.5zM369 1249l436 217l59 -190l-436 -109z" />
<glyph horiz-adv-x="1062" d="M45 449q0 313 147.5 483t409.5 170q207 0 315.5 -126t108.5 -337q0 -322 -146.5 -489.5t-410.5 -167.5q-209 0 -316.5 125t-107.5 342zM324 1274l245 170q35 20 62 20q14 0 29.5 -4t29.5 -16l205 -170l-86 -86l-201 98l-225 -98zM344 451q0 -47 8 -90.5t26.5 -75 t47.5 -50t72 -18.5q61 0 105 34t70.5 91t39 133t12.5 160q0 47 -8 90t-27.5 74.5t-49.5 50t-73 18.5q-66 0 -107.5 -37.5t-68 -98t-37 -134t-10.5 -147.5z" />
<glyph horiz-adv-x="1062" d="M45 449q0 313 147.5 483t409.5 170q207 0 315.5 -126t108.5 -337q0 -322 -146.5 -489.5t-410.5 -167.5q-209 0 -316.5 125t-107.5 342zM344 451q0 -47 8 -90.5t26.5 -75t47.5 -50t72 -18.5q61 0 105 34t70.5 91t39 133t12.5 160q0 47 -8 90t-27.5 74.5t-49.5 50t-73 18.5 q-66 0 -107.5 -37.5t-68 -98t-37 -134t-10.5 -147.5zM391 1194l33 266h166l-33 -266h-166zM657 1194l33 266h166l-33 -266h-166z" />
<glyph horiz-adv-x="1409" d="M45 410q0 29 2 58.5t6 61.5q33 264 179.5 408.5t388.5 144.5h796l-26 -221h-426l-29 -225h397l-22 -195h-398l-26 -219h440l-29 -223h-864q-199 0 -294 105.5t-95 304.5zM338 438q0 -98 36 -156.5t132 -58.5h96l78 639h-72q-66 0 -111.5 -25.5t-76.5 -69.5t-49.5 -103.5 t-26.5 -126.5q-6 -53 -6 -99z" />
<glyph horiz-adv-x="1062" d="M45 449q0 313 147.5 483t409.5 170q207 0 315.5 -126t108.5 -337q0 -322 -146.5 -489.5t-410.5 -167.5q-209 0 -316.5 125t-107.5 342zM344 451q0 -47 8 -90.5t26.5 -75t47.5 -50t72 -18.5q61 0 105 34t70.5 91t39 133t12.5 160q0 47 -8 90t-27.5 74.5t-49.5 50t-73 18.5 q-66 0 -107.5 -37.5t-68 -98t-37 -134t-10.5 -147.5zM391 1276l105 190l383 -217l-80 -82z" />
<glyph horiz-adv-x="1062" d="M8 -82l129 186q-92 111 -92 308q0 29 2 58.5t6 61.5q16 131 62.5 236.5t119 179.5t171 114t219.5 40q51 0 94 -10.5t84 -26.5l71 106h136l-111 -157q129 -109 129 -342q0 -29 -2 -57.5t-6 -61.5q-16 -131 -62.5 -236.5t-119 -180.5t-172 -114.5t-217.5 -39.5 q-135 0 -228 51l-80 -115h-133zM344 424q0 -8 2 -18l305 444q-25 18 -67 18q-55 0 -96.5 -28.5t-69 -74.5t-44 -106.5t-24.5 -121.5q-2 -25 -4 -48.5t-2 -46.5v-18zM381 264q35 -47 102 -47q55 0 97.5 28.5t71 75t45 106.5t24.5 126q4 25 6 49.5t2 46.5q0 55 -12 103z" />
<glyph horiz-adv-x="1062" d="M45 449q0 313 147.5 483t409.5 170q207 0 315.5 -126t108.5 -337q0 -322 -146.5 -489.5t-410.5 -167.5q-209 0 -316.5 125t-107.5 342zM285 1235l43 154q14 8 61 26.5t119 18.5q25 0 55.5 -5.5t63 -11.5t65.5 -11t64 -5q59 0 99 9t65 20l-39 -154q-16 -8 -63.5 -26.5 t-117.5 -18.5q-53 0 -121.5 16.5t-127.5 16.5t-98.5 -10.5t-67.5 -18.5zM344 451q0 -47 8 -90.5t26.5 -75t47.5 -50t72 -18.5q61 0 105 34t70.5 91t39 133t12.5 160q0 47 -8 90t-27.5 74.5t-49.5 50t-73 18.5q-66 0 -107.5 -37.5t-68 -98t-37 -134t-10.5 -147.5z" />
<glyph horiz-adv-x="974" d="M37 0l31 162l114 921h447q162 0 251 -82.5t89 -232.5q0 -102 -31 -177t-85 -124t-129 -72.5t-161 -23.5h-180l-45 -371h-301zM410 590h94q78 0 124 38t46 117q0 61 -36 92t-101 31h-93z" />
<glyph horiz-adv-x="1062" d="M45 453q0 158 39 279.5t110.5 203.5t174 124t229.5 42q104 0 184 -34t134.5 -96.5t82 -148.5t27.5 -190q0 -246 -100.5 -413t-292.5 -218v-8l72 -193h-250l-54 185q-88 6 -154.5 41.5t-111.5 97t-67.5 144.5t-22.5 184zM344 451q0 -47 7 -90.5t24.5 -75t45.5 -50 t71 -18.5q61 0 106 34t72.5 91t41 133t13.5 160q0 47 -7 90t-25.5 74.5t-47.5 50t-72 18.5q-66 0 -108.5 -37.5t-70 -98t-39 -134t-11.5 -147.5z" />
<glyph horiz-adv-x="1024" d="M37 0l37 174l110 909h482q141 0 230 -67.5t89 -202.5q0 -129 -57.5 -198.5t-145.5 -98.5l-2 -10q25 -10 43.5 -24.5t30.5 -36t19.5 -52.5t9.5 -76l22 -317h-295l-14 281q-4 78 -34 102.5t-95 24.5h-78l-51 -408h-301zM410 612h116q66 0 113 35t47 107q0 53 -31.5 83.5 t-93.5 30.5h-121z" />
<glyph horiz-adv-x="856" d="M-20 23l79 231q43 -20 106.5 -36.5t135.5 -16.5q76 0 133.5 24.5t57.5 79.5q0 35 -30 60.5t-75 49t-96 50.5t-96 63.5t-75 88t-30 124.5q0 96 40 165t107.5 112t155.5 63.5t185 20.5q104 0 176.5 -10.5t119.5 -20.5l-79 -225q-35 16 -89.5 27.5t-121.5 13.5q-33 0 -66 -5 t-58.5 -17.5t-42 -33t-16.5 -51.5q0 -35 30 -60.5t74 -49t96 -50t96 -62.5t74 -87t30 -125q0 -98 -41 -167.5t-109.5 -114t-159 -63.5t-188.5 -19q-92 0 -179 12t-144 29z" />
<glyph horiz-adv-x="794" d="M70 862l26 221h746l-27 -221h-229l-107 -862h-299l29 154l88 708h-227z" />
<glyph horiz-adv-x="974" d="M37 0l31 162l114 921h289l-16 -143h155q162 0 251 -83t89 -232q0 -102 -30.5 -177t-85 -124.5t-129 -73t-160.5 -23.5h-180l-27 -227h-301zM391 446h94q78 0 124 38t46 118q0 61 -35.5 92t-101.5 31h-92z" />
<glyph horiz-adv-x="1054" d="M86 307q0 37 6 86l66 535v155h309l-86 -690q-2 -12 -3 -31.5t-1 -29.5q0 -66 28.5 -93.5t92.5 -27.5q76 0 108.5 45t42.5 139l66 545v143h305l-86 -712q-27 -207 -135.5 -298t-321.5 -91q-182 0 -286.5 79.5t-104.5 245.5z" />
<glyph horiz-adv-x="1054" d="M86 307q0 37 6 86l66 535v155h309l-86 -690q-2 -12 -3 -31.5t-1 -29.5q0 -66 28.5 -93.5t92.5 -27.5q76 0 108.5 45t42.5 139l66 545v143h305l-86 -712q-27 -207 -135.5 -298t-321.5 -91q-182 0 -286.5 79.5t-104.5 245.5zM371 1251l438 217l57 -190l-436 -109z" />
<glyph horiz-adv-x="1054" d="M86 307q0 37 6 86l66 535v155h309l-86 -690q-2 -12 -3 -31.5t-1 -29.5q0 -66 28.5 -93.5t92.5 -27.5q76 0 108.5 45t42.5 139l66 545v143h305l-86 -712q-27 -207 -135.5 -298t-321.5 -91q-182 0 -286.5 79.5t-104.5 245.5zM336 1274l246 170q35 20 61 20q12 0 28.5 -4 t30.5 -16l203 -170l-86 -86l-198 98l-226 -98z" />
<glyph horiz-adv-x="1054" d="M86 307q0 37 6 86l66 535v155h309l-86 -690q-2 -12 -3 -31.5t-1 -29.5q0 -66 28.5 -93.5t92.5 -27.5q76 0 108.5 45t42.5 139l66 545v143h305l-86 -712q-27 -207 -135.5 -298t-321.5 -91q-182 0 -286.5 79.5t-104.5 245.5zM391 1194l33 266h168l-33 -266h-168zM659 1194 l33 266h166l-33 -266h-166z" />
<glyph horiz-adv-x="1054" d="M86 307q0 37 6 86l66 535v155h309l-86 -690q-2 -12 -3 -31.5t-1 -29.5q0 -66 28.5 -93.5t92.5 -27.5q76 0 108.5 45t42.5 139l66 545v143h305l-86 -712q-27 -207 -135.5 -298t-321.5 -91q-182 0 -286.5 79.5t-104.5 245.5zM379 1276l104 190l383 -217l-80 -82z" />
<glyph horiz-adv-x="960" d="M88 1083h307l27 -786v-72h10l14 72l224 629l24 157h324l-412 -1083h-418z" />
<glyph horiz-adv-x="1511" d="M106 1083h314v-858h10l8 74l180 608l29 176h324l24 -784l-10 -74h10l195 666l31 192h327l-352 -1083h-383l-14 784v76h-11l-14 -76l-229 -784h-381z" />
<glyph horiz-adv-x="980" d="M-43 0l326 569l-172 514h311l82 -321l8 -66h8l23 66l67 147l72 174h334l-301 -514l188 -569h-317l-97 358l-4 58h-10l-14 -58l-90 -182l-74 -176h-340z" />
<glyph horiz-adv-x="917" d="M88 1083h295l72 -413v-68h10l18 68l115 237l57 176h318l-400 -706l-47 -377h-290l47 377z" />
<glyph horiz-adv-x="917" d="M88 1083h295l72 -413v-68h10l18 68l115 237l57 176h318l-400 -706l-47 -377h-290l47 377zM297 1251l436 217l60 -190l-437 -109z" />
<glyph horiz-adv-x="917" d="M88 1083h295l72 -413v-68h10l18 68l115 237l57 176h318l-400 -706l-47 -377h-290l47 377zM326 1194l32 266h166l-32 -266h-166zM592 1194l33 266h166l-33 -266h-166z" />
<glyph horiz-adv-x="866" d="M-20 0l28 244l496 581l43 27v10h-447l27 221h760l-29 -241l-493 -584l-58 -25l2 -10h299l189 15l-31 -238h-786z" />
<glyph horiz-adv-x="591" d="M66 811q0 180 99 285.5t281 105.5q53 0 100.5 -3t76.5 -7l-60 -481v-115q-10 -4 -28.5 -8t-34.5 -4q-37 0 -60.5 18.5t-27.5 52.5l-2 25h-7q-20 -39 -56 -67.5t-103 -28.5q-86 0 -132 62.5t-46 164.5zM242 834q0 -100 69 -101q29 0 49.5 18.5t34 49t21.5 72.5t14 92 l10 92h-10q-4 0 -10 1t-10 1q-86 0 -127 -65.5t-41 -159.5z" />
<glyph horiz-adv-x="598" d="M61 604l25 107l88 719l170 10l-33 -295h6q8 8 42 32.5t94 24.5q86 0 131 -61.5t45 -157.5q0 -86 -22.5 -159.5t-70 -126t-119 -82t-171.5 -29.5q-47 0 -98.5 5t-86.5 13zM254 731q6 -2 12 -2h21q43 0 73.5 18.5t51 49t31 71.5t10.5 86q0 47 -17.5 76t-54.5 29 q-31 0 -51.5 -18.5t-33.5 -50.5t-21.5 -74t-12.5 -91z" />
<glyph horiz-adv-x="499" d="M66 846q0 82 24.5 148.5t70.5 112.5t109.5 71.5t141.5 25.5q53 0 89 -8t50 -12l-47 -144q-10 6 -37 15.5t-61 9.5q-43 0 -75 -16.5t-51.5 -45t-28.5 -65.5t-9 -76q0 -59 27.5 -97t84.5 -38q43 0 81 19.5t63 44.5v-148q-16 -14 -66.5 -35.5t-122.5 -21.5q-117 0 -180 70.5 t-63 189.5z" />
<glyph horiz-adv-x="593" d="M66 809q0 184 96 288.5t278 104.5h15l26 228l181 12l-23 -109l-88 -737q-10 -4 -27.5 -8t-40.5 -4q-35 0 -54 19.5t-23 51.5l-3 17h-6q-23 -37 -57.5 -61.5t-97.5 -24.5q-84 0 -130 60.5t-46 162.5zM242 834q0 -47 15 -74t52 -27q31 0 50.5 18.5t34 49t22.5 72.5t14 90 l8 94q-4 0 -10 2q-4 0 -9 1t-9 1q-88 0 -128 -66.5t-40 -160.5z" />
<glyph horiz-adv-x="579" d="M66 846q0 76 23.5 141.5t67.5 113.5t107.5 74.5t141.5 26.5q94 0 150 -46t56 -126q0 -53 -28.5 -90t-71.5 -60.5t-94 -36t-94 -16.5l-78 -8q4 -55 43 -74.5t100 -19.5q57 0 101.5 10t66.5 17l-47 -144q-4 -4 -53 -14t-107 -10q-139 0 -211.5 68.5t-72.5 193.5zM254 924 q100 10 145 32.5t45 63.5q0 20 -14 33.5t-43 13.5q-49 0 -84 -36t-45 -89z" />
<glyph horiz-adv-x="294" d="M84 686q0 6 1 16.5t1 16.5l59 479l170 10l-59 -491v-117q-10 -4 -29.5 -8t-38.5 -4q-53 0 -78.5 25.5t-25.5 72.5zM141 1348l119 114l94 -114l-121 -113z" />
<glyph horiz-adv-x="286" d="M84 684q0 6 1 16.5t1 18.5l90 713l170 10l-92 -727v-115q-10 -4 -28.5 -8t-35.5 -4q-106 0 -106 96z" />
<glyph horiz-adv-x="903" d="M72 596l59 487v109q12 4 28.5 8t28.5 4q41 0 59.5 -18.5t24.5 -55.5l2 -12h7q27 35 68.5 59.5t101.5 24.5q53 0 92 -22.5t55 -61.5h6q29 35 68 59.5t98 24.5q152 0 152 -151q0 -10 -1 -19.5t-3 -19.5l-50 -416q-10 -4 -27.5 -8t-35.5 -4q-53 0 -75.5 25.5t-22.5 72.5 q0 16 4 33l30 260q0 8 1 16t1 13q0 57 -55 57q-49 0 -67.5 -40t-26.5 -97l-39 -328h-172l45 379q2 4 3 14t1 15q0 57 -55 57q-51 0 -69.5 -40t-24.5 -97l-39 -328h-172z" />
<glyph horiz-adv-x="583" d="M66 836q0 166 82.5 266t234.5 100q119 0 177 -68.5t58 -181.5q0 -170 -83.5 -268t-237.5 -98q-121 0 -176 68.5t-55 181.5zM242 844q0 -51 16 -85t64 -34q33 0 56 18.5t37.5 49t21.5 69.5t7 80q0 51 -17 85t-65 34q-35 0 -57 -18.5t-36.5 -49t-20.5 -69.5t-6 -80z" />
<glyph horiz-adv-x="430" d="M72 596l59 489v107q10 4 27.5 8t29.5 4q41 0 60.5 -19.5t27.5 -54.5l3 -14h6q25 39 71.5 62.5t114.5 23.5v-162q-4 2 -16.5 3t-22.5 1q-78 0 -110.5 -41.5t-42.5 -119.5l-37 -287h-170z" />
<glyph horiz-adv-x="512" d="M41 616l47 134q23 -10 62.5 -20.5t85.5 -10.5q37 0 71.5 11t34.5 40q0 25 -38 42t-84 41t-84 58.5t-38 94.5q0 53 23.5 90t61.5 60.5t87 33.5t101 10q55 0 107 -8t67 -12l-47 -136q-27 10 -64 17.5t-69 7.5q-29 0 -57.5 -9t-28.5 -38q0 -25 37.5 -42t82.5 -39.5t83 -56.5 t38 -93t-25.5 -99.5t-66.5 -64t-92 -32.5t-103 -9q-53 0 -108 10t-84 20z" />
<glyph horiz-adv-x="362" d="M78 1053l16 131l62 6l39 133l157 63l-24 -196h96l-16 -137h-95l-30 -238q0 -10 -1 -20.5t-1 -14.5q0 -35 19 -46t52 -11h18.5t16.5 4l-37 -131q-10 -4 -30.5 -8t-53.5 -4q-82 0 -121 44t-39 122q0 10 1.5 24t3.5 27l32 252h-65z" />
<glyph horiz-adv-x="550" d="M-33 -6q0 174 72 272.5t211 98.5q111 0 169 -67t58 -181q0 -170 -75.5 -268.5t-213.5 -98.5q-111 0 -166 66.5t-55 177.5zM127 10q0 -53 15.5 -92t58.5 -39q29 0 51 18.5t36.5 50.5t21.5 72.5t7 83.5q0 53 -16 91t-57 38q-31 0 -53.5 -18t-37 -49t-20.5 -72t-6 -84z" />
<glyph horiz-adv-x="491" d="M-39 -240l16 129h142l43 291l-6 2l-21 -37q-23 -18 -61.5 -30.5t-69.5 -20.5l-4 142q47 10 102.5 39.5t96.5 76.5h143l-68 -463h119l-16 -129h-416z" />
<glyph horiz-adv-x="524" d="M-55 -240l16 140q92 49 151.5 86t93.5 65.5t46 54t12 52.5q0 41 -32.5 60.5t-81.5 19.5q-53 0 -90 -11.5t-66 -21.5l45 143q16 4 56 12.5t83 8.5q49 0 93 -13.5t79 -39t55.5 -62.5t20.5 -86q0 -86 -53.5 -146.5t-179.5 -125.5l2 -7h133l94 9l-16 -138h-461z" />
<glyph horiz-adv-x="514" d="M-39 -90q35 -12 78 -20.5t88 -8.5q14 0 35.5 2t41 8.5t34 20.5t14.5 39q0 37 -32 49t-81 12h-84l13 103h84q47 0 82.5 13t37.5 54q0 20 -10 32.5t-26.5 19t-35 8.5t-36.5 2q-43 0 -82 -8.5t-80 -20.5l43 141q20 4 59 9.5t93 5.5q47 0 91 -9.5t76.5 -29t52 -50t19.5 -73.5 q0 -51 -26.5 -85t-73.5 -54v-4q29 -16 52.5 -48t23.5 -79q0 -53 -25 -88t-64.5 -57.5t-90 -32t-103.5 -9.5q-47 0 -96 8.5t-72 14.5v135z" />
<glyph horiz-adv-x="540" d="M-45 -135l18 139l252 348h207l-45 -366h64l-15 -121h-63l-13 -107h-149l12 107h-268zM86 -10v-4h154l26 213l17 37h-9l-159 -232z" />
<glyph horiz-adv-x="495" d="M-37 -94q25 -10 67 -17.5t81 -7.5q57 0 95 15.5t38 62.5q0 41 -45 60.5t-127 19.5h-62l39 315h367l-17 -137l-92 8h-127l-10 -84q45 0 87 -12t73.5 -34.5t51 -57.5t19.5 -82q0 -55 -24.5 -94t-64.5 -63.5t-91 -36t-104 -11.5q-47 0 -89 7t-65 14v135z" />
<glyph horiz-adv-x="542" d="M-23 4q0 78 19.5 144.5t59.5 114.5t100.5 76t142.5 28q51 0 95 -10.5t57 -14.5v-125q-16 4 -53.5 13.5t-84.5 9.5q-131 0 -157 -113q18 2 30.5 3t24.5 1q106 0 173 -43t67 -131q0 -98 -68 -151.5t-176 -53.5q-117 0 -173.5 72t-56.5 180zM133 9.5v-19.5q0 -51 19.5 -84 t66.5 -33q37 0 58.5 22.5t21.5 59.5q0 45 -33 61.5t-80 16.5q-16 0 -27.5 -1t-23.5 -3q-2 -10 -2 -19.5z" />
<glyph horiz-adv-x="464" d="M-12 219l16 135h422l-16 -135q-57 -51 -96.5 -111.5t-63 -121t-35.5 -115.5t-18 -96l-2 -15h-160l2 21q14 111 56 220.5t128 205.5l29 14l-2 8h-166z" />
<glyph horiz-adv-x="546" d="M-45 -96q0 53 29.5 92t78.5 61v9q-29 16 -45 44.5t-16 63.5q0 51 22.5 87t59.5 59.5t82 34t92 10.5q43 0 82 -9.5t68.5 -28t48 -47t18.5 -67.5q0 -55 -29.5 -89t-70.5 -52v-9q29 -18 49 -49.5t20 -72.5q0 -51 -23.5 -87t-60 -59.5t-84 -34t-96.5 -10.5q-92 0 -158.5 36 t-66.5 118zM96 -74q0 -33 28 -44t62 -11q39 0 68 15.5t29 47.5q0 29 -23.5 45.5t-64.5 26.5l-23 6q-31 -14 -53.5 -34.5t-22.5 -51.5zM160 186q0 -27 25.5 -41t60.5 -24l18 -6q20 10 45 29.5t25 50.5q0 29 -24.5 42t-59.5 13t-62.5 -16.5t-27.5 -47.5z" />
<glyph horiz-adv-x="528" d="M-20 -100q16 -4 53 -13.5t84 -9.5q131 0 157 113q-18 -2 -30.5 -3t-24.5 -1q-106 0 -172.5 43t-66.5 131q0 98 67.5 151.5t175.5 53.5q117 0 173.5 -72t56.5 -180q0 -80 -19.5 -146.5t-59.5 -115t-100.5 -75t-142.5 -26.5q-51 0 -95 9.5t-56 13.5v127zM131 162 q0 -45 33 -61.5t80 -16.5h27.5t23.5 2q2 10 2 20.5v20.5q0 51 -19.5 84t-66.5 33q-37 0 -58.5 -22.5t-21.5 -59.5z" />
<glyph horiz-adv-x="301" d="M6 94q0 45 6 92q14 117 63.5 223.5t112.5 192.5l76 -55q-25 -41 -50.5 -89t-47 -106.5t-34.5 -126t-13 -147.5q0 -84 15.5 -152.5t37.5 -122.5l-88 -55q-35 68 -56.5 159t-21.5 187z" />
<glyph horiz-adv-x="301" d="M-35 -195q25 39 50.5 88.5t47 107.5t35 126t13.5 145q0 86 -15.5 155t-38.5 122l88 55q35 -68 56.5 -159t21.5 -187q0 -47 -6 -92q-14 -117 -63.5 -223.5t-112.5 -192.5z" />
<glyph horiz-adv-x="1011" d="M51 426q0 156 35 282t100.5 213t162.5 134t222 47q100 0 176 -32t126.5 -90t75 -142t24.5 -187q0 -156 -37 -279.5t-105.5 -210.5t-168 -133t-224.5 -46q-201 0 -294 120.5t-93 323.5zM340 453q0 -49 6 -91.5t21.5 -75t41 -51t64.5 -18.5q53 0 93 34t65.5 91t38 132 t12.5 157q0 47 -6 90t-21.5 74.5t-41 50t-64.5 18.5q-57 0 -97 -33.5t-65 -90t-36 -131t-11 -156.5z" />
<glyph horiz-adv-x="882" d="M14 0l29 236h262l76 532l-8 4l-41 -67q-45 -33 -116 -55.5t-126 -37.5l-12 256q88 16 190.5 71.5t180.5 143.5h268l-127 -847h221l-29 -236h-768z" />
<glyph horiz-adv-x="929" d="M-2 0l29 252q168 90 275.5 156.5t168.5 120t84 98.5t23 94q0 72 -59.5 107.5t-149.5 35.5q-94 0 -163 -19.5t-120 -37.5l82 258q31 8 102.5 22.5t151.5 14.5q88 0 169 -23.5t142.5 -69.5t98 -114t36.5 -156q0 -76 -22.5 -140t-73.5 -123.5t-131 -115t-195 -112.5l3 -12 h241l172 14l-31 -250h-833z" />
<glyph horiz-adv-x="933" d="M33 25v245q68 -25 144.5 -40t156.5 -15q27 0 65.5 3t74.5 15.5t61.5 38t25.5 70.5q0 68 -58.5 89.5t-146.5 21.5h-151l22 186h152q43 0 81 5t68.5 19.5t49 37t20.5 59.5q0 39 -19.5 61.5t-48 34.5t-63.5 15t-68 3q-76 0 -145.5 -14t-144.5 -37l79 252q35 8 106 17.5 t167 9.5q86 0 163.5 -16.5t138 -52.5t95.5 -91t35 -133q0 -92 -48 -153.5t-130 -98.5v-8q53 -29 95 -86t42 -144q0 -96 -44 -160.5t-117 -103.5t-165 -56t-188 -17q-41 0 -85 4t-86 11t-77 14t-57 14z" />
<glyph horiz-adv-x="972" d="M12 193l33 266l463 624h381l-82 -669h113l-27 -221h-115l-24 -193h-273l25 193h-494zM256 422l2 -8h279l47 389l26 65l-12 2l-291 -421z" />
<glyph horiz-adv-x="899" d="M37 20v246q45 -16 120.5 -31.5t147.5 -15.5q51 0 96 6t78 22.5t51.5 44t18.5 70.5q0 78 -83 112t-230 34h-113l72 575h667l-31 -249l-167 16h-230l-18 -154q82 -2 157.5 -23.5t134 -63.5t93.5 -105.5t35 -147.5q0 -102 -44 -172.5t-117 -115.5t-166 -65.5t-192 -20.5 q-86 0 -163.5 13t-116.5 25z" />
<glyph horiz-adv-x="972" d="M51 440q0 143 36 265t108.5 210.5t183 137.5t260.5 49q45 0 90 -5t82 -12.5t64.5 -14.5t37.5 -11v-230q-29 8 -97 24.5t-154 16.5q-117 0 -189 -49t-96 -155q33 4 55.5 5t44.5 1q96 0 176 -19.5t138.5 -58.5t90 -99.5t31.5 -140.5q0 -88 -32.5 -156.5t-91 -116.5 t-140.5 -73.5t-180 -25.5q-106 0 -184 34.5t-130.5 96t-78 145.5t-25.5 182zM334 414q0 -92 34.5 -151.5t123.5 -59.5q66 0 105.5 40.5t39.5 106.5q0 82 -59.5 113t-147.5 31q-47 0 -92 -7q-2 -18 -3 -36.5t-1 -36.5z" />
<glyph horiz-adv-x="819" d="M63 836l31 247h768l-31 -247q-104 -92 -173.5 -203t-114.5 -221.5t-67.5 -212t-31.5 -174.5l-4 -25h-290l4 37q25 203 102.5 403.5t232.5 374.5l52 27l-2 12h-306z" />
<glyph horiz-adv-x="974" d="M20 260q0 98 53.5 169t141.5 114l2 8q-49 31 -80 85t-31 120q0 92 40 158.5t105.5 107.5t147.5 60.5t166 19.5q78 0 148.5 -17.5t125 -51.5t87 -87t32.5 -123q0 -100 -54 -161.5t-128 -96.5l-2 -8q53 -35 91 -93t38 -134q0 -92 -42 -158t-109.5 -109t-153.5 -62t-174 -19 q-84 0 -157.5 16t-128 50t-86.5 86t-32 126zM274 305q0 -53 49.5 -78.5t114.5 -25.5q68 0 121 28.5t53 89.5q0 49 -43 78t-114 49l-39 11q-59 -25 -100.5 -62t-41.5 -90zM393 776q0 -47 45 -73.5t107 -45.5l33 -10q18 6 40.5 19.5t42 31t32 41t12.5 52.5q0 53 -44.5 76.5 t-105.5 23.5q-63 0 -112.5 -30t-49.5 -85z" />
<glyph horiz-adv-x="964" d="M59 25v229q29 -8 97.5 -24.5t154.5 -16.5q117 0 188.5 49t96.5 156q-33 -4 -55.5 -5t-44.5 -1q-96 0 -176 19.5t-138.5 58t-90.5 99t-32 140.5q0 88 33 156.5t91.5 117t140.5 74t180 25.5q106 0 184 -35t130 -96.5t78 -145.5t26 -182q0 -143 -36 -265t-108.5 -210 t-183.5 -137t-260 -49q-45 0 -90 5t-82 12t-64.5 14t-38.5 12zM336 733q0 -82 59.5 -112.5t147.5 -30.5q27 0 48 1t44 5q2 18 3 36.5t1 37.5q0 92 -35 151.5t-123 59.5q-66 0 -105.5 -41t-39.5 -107z" />
<glyph horiz-adv-x="550" d="M-33 178q0 174 72 272.5t211 98.5q111 0 169 -66.5t58 -181.5q0 -170 -75.5 -268.5t-213.5 -98.5q-111 0 -166 66.5t-55 177.5zM127 195q0 -53 15.5 -92.5t58.5 -39.5q29 0 51 18.5t36.5 50.5t21.5 73t7 84q0 53 -16 91t-57 38q-31 0 -53.5 -18.5t-37 -49.5t-20.5 -71.5 t-6 -83.5z" />
<glyph horiz-adv-x="491" d="M-39 -55l16 129h142l43 291l-6 2l-21 -37q-23 -18 -61.5 -30.5t-69.5 -20.5l-4 141q47 10 102.5 39.5t96.5 77.5h143l-68 -463h119l-16 -129h-416z" />
<glyph horiz-adv-x="524" d="M-55 -55l16 139q92 49 151.5 86t93.5 65.5t46 54t12 52.5q0 41 -32.5 60.5t-81.5 19.5q-53 0 -90 -11.5t-66 -21.5l45 143q16 4 56 12.5t83 8.5q49 0 93 -13.5t79 -39t55.5 -62.5t20.5 -86q0 -86 -53.5 -146.5t-179.5 -125.5l2 -6h133l94 8l-16 -137h-461z" />
<glyph horiz-adv-x="514" d="M-39 -41v135q35 -12 78 -20t88 -8q14 0 35.5 2t41 8t34 20.5t14.5 38.5q0 37 -32 49.5t-81 12.5h-84l13 102h84q47 0 82.5 13.5t37.5 54.5q0 20 -10 32.5t-26.5 18.5t-35 8t-36.5 2q-43 0 -82 -8t-80 -21l43 142q20 4 59 9t93 5q47 0 91 -9t76.5 -28.5t52 -50.5t19.5 -74 q0 -51 -26.5 -85t-73.5 -54v-4q29 -16 52.5 -48t23.5 -79q0 -53 -25 -88t-64.5 -57.5t-90 -31.5t-103.5 -9q-47 0 -96 8t-72 14z" />
<glyph horiz-adv-x="540" d="M-45 49l18 139l252 349h207l-45 -367h64l-15 -121h-63l-13 -106h-149l12 106h-268zM86 170h154l26 213l17 37h-9l-159 -232l-29 -14v-4z" />
<glyph horiz-adv-x="495" d="M-37 -45v135q25 -10 67 -17t81 -7q57 0 95 15t38 62q0 41 -45 60.5t-127 19.5h-62l39 316h367l-17 -138l-92 9h-127l-10 -84q45 0 87 -12.5t73.5 -35t51 -57.5t19.5 -82q0 -55 -24.5 -94t-64.5 -63.5t-91 -36t-104 -11.5q-47 0 -89 7.5t-65 13.5z" />
<glyph horiz-adv-x="542" d="M-23 188q0 78 19.5 144.5t59.5 115t100.5 76t142.5 27.5q51 0 95 -10.5t57 -14.5v-125q-16 4 -53.5 13.5t-84.5 9.5q-131 0 -157 -113q18 2 30.5 3t24.5 1q106 0 173 -43t67 -131q0 -98 -68 -151t-176 -53q-117 0 -173.5 71.5t-56.5 179.5zM133 174q0 -51 19.5 -84 t66.5 -33q37 0 58.5 22.5t21.5 59.5q0 45 -33 61.5t-80 16.5q-16 0 -27.5 -1t-23.5 -3q-2 -10 -2 -19.5v-19.5z" />
<glyph horiz-adv-x="464" d="M-12 403l16 136h422l-16 -136q-57 -51 -96.5 -111.5t-63 -120.5t-35.5 -115.5t-18 -96.5l-2 -14h-160l2 20q14 111 56 220.5t128 205.5l29 15l-2 8h-166z" />
<glyph horiz-adv-x="546" d="M-45 88q0 53 29.5 92t78.5 62v8q-29 16 -45 45t-16 63q0 51 22.5 87t59.5 59.5t82 34t92 10.5q43 0 82 -9.5t68.5 -27.5t48 -47t18.5 -68q0 -55 -29.5 -89t-70.5 -52v-8q29 -18 49 -50t20 -73q0 -51 -23.5 -87t-60 -59.5t-84 -34t-96.5 -10.5q-92 0 -158.5 36t-66.5 118z M96 111q0 -33 28 -44.5t62 -11.5q39 0 68 15.5t29 48.5q0 29 -23.5 45t-64.5 26l-23 7q-31 -14 -53.5 -35t-22.5 -51zM160 371q0 -27 25.5 -41.5t60.5 -24.5l18 -6q20 10 45 29.5t25 50.5q0 29 -24.5 42t-59.5 13t-62.5 -16.5t-27.5 -46.5z" />
<glyph horiz-adv-x="528" d="M-20 -43v127q16 -4 53 -13.5t84 -9.5q131 0 157 113q-18 -2 -30.5 -3t-24.5 -1q-106 0 -172.5 43t-66.5 131q0 98 67.5 151.5t175.5 53.5q117 0 173.5 -71.5t56.5 -180.5q0 -80 -19.5 -146.5t-59.5 -114.5t-100.5 -75t-142.5 -27q-51 0 -95 9.5t-56 13.5zM131 346 q0 -45 33 -61.5t80 -16.5h27.5t23.5 2q2 10 2 20.5v20.5q0 51 -19.5 84t-66.5 33q-37 0 -58.5 -22.5t-21.5 -59.5z" />
<glyph horiz-adv-x="550" d="M70 829q0 174 71.5 272.5t210.5 98.5q111 0 169.5 -66.5t58.5 -181.5q0 -170 -76 -268t-213 -98q-111 0 -166 66t-55 177zM229 846q0 -53 15.5 -92t58.5 -39q29 0 51.5 18.5t37 50t21.5 72.5t7 84q0 53 -16.5 91t-57.5 38q-31 0 -53.5 -18.5t-36.5 -49t-20.5 -71.5 t-6.5 -84z" />
<glyph horiz-adv-x="495" d="M63 596l15 129h141l41 293l-6 2l-21 -37q-27 -18 -65.5 -30.5t-67.5 -20.5l-6 139q47 10 104.5 41t98.5 78h147l-65 -465h121l-15 -129h-422z" />
<glyph horiz-adv-x="514" d="M43 594l16 139q92 49 151.5 86t93.5 65.5t46 54.5t12 52q0 41 -32.5 60.5t-81.5 19.5q-53 0 -90 -11t-66 -22l45 144q16 4 56 12t83 8q49 0 93.5 -13t79 -39t55 -62.5t20.5 -86.5q0 -86 -53 -146t-180 -126l2 -6h133l94 8l-16 -137h-461z" />
<glyph horiz-adv-x="520" d="M63 604v135q35 -12 78 -20t88 -8q14 0 36 2t41.5 8t33.5 20.5t14 38.5q0 37 -31.5 49.5t-80.5 12.5h-84l12 102h84q47 0 83 13.5t38 54.5q0 20 -10.5 32.5t-26.5 18.5t-34.5 8t-37.5 2q-43 0 -82 -8t-80 -21l43 142q20 4 59.5 9t92.5 5q47 0 91 -9t77 -28.5t52.5 -50.5 t19.5 -74q0 -51 -27 -84.5t-74 -54.5v-4q29 -16 52.5 -48t23.5 -79q0 -53 -24.5 -88t-64.5 -57.5t-90 -31.5t-104 -9q-47 0 -96 8t-72 14z" />
<glyph horiz-adv-x="540" d="M55 702l19 140l256 348h207l-45 -367h63l-16 -121h-64l-12 -106h-150l13 106h-271zM188 827l2 -4h154l25 213l18 37h-8l-162 -231z" />
<glyph horiz-adv-x="495" d="M66 606v135q25 -10 66.5 -17t80.5 -7q57 0 95 15.5t38 62.5q0 41 -45 60t-127 19h-61l39 316h366l-16 -137l-92 8h-127l-11 -84q45 0 87 -12.5t74 -35t51.5 -57t19.5 -81.5q0 -55 -24.5 -94.5t-64.5 -64t-91.5 -35.5t-104.5 -11q-47 0 -89 7t-64 13z" />
<glyph horiz-adv-x="542" d="M78 838q0 78 19.5 144.5t59.5 114.5t100 75.5t142 27.5q51 0 95.5 -10t56.5 -14v-125q-16 4 -53 13t-84 9q-131 0 -158 -112q18 2 30.5 3t24.5 1q106 0 173 -43t67 -131q0 -98 -67.5 -151.5t-176.5 -53.5q-117 0 -173 71.5t-56 180.5zM233 823q0 -51 19.5 -83.5 t66.5 -32.5q37 0 58.5 22t21.5 59q0 45 -32.5 61.5t-79.5 16.5q-16 0 -27.5 -1t-23.5 -3q-2 -10 -2.5 -19t-0.5 -20z" />
<glyph horiz-adv-x="464" d="M92 1055l17 135h421l-16 -135q-57 -51 -96 -111.5t-62.5 -121t-36 -116t-18.5 -96.5l-2 -14h-160l2 20q14 111 56.5 220.5t128.5 205.5l28 15l-2 8h-166z" />
<glyph horiz-adv-x="546" d="M57 741q0 53 30 92t79 62v8q-29 16 -45.5 45t-16.5 64q0 51 23 87t59.5 59.5t81.5 33.5t92 10q43 0 82 -9t69 -27.5t48.5 -47t18.5 -67.5q0 -55 -30 -89t-71 -53v-8q29 -18 49.5 -50t20.5 -73q0 -51 -23.5 -87t-60.5 -59.5t-84 -33.5t-96 -10q-92 0 -159 35.5t-67 117.5z M199 764q0 -33 27.5 -44t62.5 -11q39 0 67.5 15t28.5 48q0 29 -23.5 45.5t-64.5 26.5l-23 6q-31 -14 -53 -34.5t-22 -51.5zM262 1024q0 -27 25.5 -41t60.5 -25l19 -6q20 10 44.5 29.5t24.5 50.5q0 29 -24.5 42t-59.5 13t-62.5 -16t-27.5 -47z" />
<glyph horiz-adv-x="534" d="M88 608v127q16 -4 53 -13t84 -9q131 0 158 112q-18 -2 -30.5 -3t-24.5 -1q-106 0 -173 43t-67 131q0 98 67.5 151.5t176.5 53.5q117 0 173 -71.5t56 -180.5q0 -80 -19.5 -146.5t-59.5 -114.5t-100 -74.5t-142 -26.5q-51 0 -95.5 9t-56.5 13zM240 997q0 -45 32.5 -61 t79.5 -16h27.5t23.5 2q2 10 2.5 20t0.5 21q0 51 -19.5 83.5t-67.5 32.5q-37 0 -58 -22.5t-21 -59.5z" />
<glyph horiz-adv-x="405" d="M145 1161q0 74 44 114t114 40q55 0 90 -35t35 -92q0 -63 -40 -107.5t-114 -44.5q-59 0 -94 35t-35 90z" />
<glyph horiz-adv-x="1212" d="M31 295q0 109 49 184.5t127 136.5q-25 39 -36 84t-11 88q0 70 26.5 128.5t74.5 99.5t113.5 63.5t143.5 22.5q115 0 194 -50.5t89 -160.5h268l172 10l-57 -203h-178q-16 -104 -41 -207.5t-72 -181.5q43 -27 96 -51.5t98 -44.5l-71 -231q-25 8 -57.5 21t-69.5 30.5t-75 37 t-71 40.5q-66 -59 -155.5 -94t-200.5 -35q-78 0 -143.5 22.5t-112.5 63.5t-73.5 98t-26.5 129zM274 309q0 -53 38 -88t94 -35q76 1 133 52q-49 37 -106.5 94t-96.5 108q-27 -23 -44.5 -56.5t-17.5 -74.5zM412 784q0 -41 25.5 -87t65.5 -92t89 -90t98 -81q29 47 45.5 120 t26.5 144h-203q14 23 25.5 51.5t11.5 57.5q0 41 -23.5 62.5t-62.5 21.5q-41 0 -69.5 -26.5t-28.5 -80.5z" />
</font>
</defs>
</svg>
