<?xml version="1.0" standalone="no"?>
<!DOCTYPE svg PUBLIC "-//W3C//DTD SVG 1.1//EN" "http://www.w3.org/Graphics/SVG/1.1/DTD/svg11.dtd" >
<svg xmlns="http://www.w3.org/2000/svg">
<metadata></metadata>
<defs>
<font id="distefanosansitalic" horiz-adv-x="1003" >
<font-face units-per-em="2048" ascent="1536" descent="-512" />
<missing-glyph horiz-adv-x="382" />
<glyph unicode="&#xfb00;" horiz-adv-x="1124" d="M-129 -195q10 -2 23.5 -3t29.5 -1q76 0 124 39t58 119l105 856h-113l17 141l116 21l13 100q18 150 111.5 237t248.5 87q12 0 36 -1t34 -3v-164q-10 2 -23.5 3t-29.5 1q-86 0 -135.5 -48t-49.5 -147q0 -16 1 -26t3 -21q2 -10 4 -18h297l13 100q18 150 111 237t249 87 q12 0 36 -1t34 -3v-164q-10 2 -23.5 3t-30.5 1q-86 0 -135 -48t-49 -147q0 -16 1 -26t3 -21q2 -10 4 -18h174l-20 -162h-188l-105 -854q-18 -150 -112.5 -236.5t-247.5 -86.5q-12 0 -38 2t-36 4v161q10 -2 23.5 -3t29.5 -1q76 0 124 39t58 119l105 856h-311l-105 -854 q-18 -150 -112.5 -236.5t-247.5 -86.5q-12 0 -38 2t-36 4v161z" />
<glyph unicode="&#xfb01;" horiz-adv-x="1011" d="M-129 -190q10 -4 23.5 -6.5t29.5 -2.5q76 0 124 39t58 119l105 856h-113l17 141l116 21l13 100q18 150 111.5 237t248.5 87q12 0 36 -2t34 -4v-162q-10 2 -23.5 3t-29.5 1q-86 0 -135.5 -48t-49.5 -147q0 -16 1 -26t3 -21q2 -10 4 -18h496l-102 -817v-160q-14 -6 -27 -10 q-27 -10 -55 -10q-68 0 -92.5 38.5t-24.5 92.5q0 10 1 24.5t3 28.5l82 651h-315l-105 -854q-18 -150 -112.5 -236.5t-247.5 -86.5q-12 0 -36 2t-38 6v164zM721 1253l160 148l127 -148l-162 -149z" />
<glyph unicode="&#xfb02;" horiz-adv-x="1017" d="M-129 -190q10 -4 23.5 -6.5t29.5 -2.5q76 0 124 39t58 119l105 856h-113l17 141l116 21l13 106q23 174 131 246t274 72q45 0 97.5 -4t99.5 -9.5t86 -11.5t57 -8l-149 -1208v-160q-12 -6 -30.5 -13t-47.5 -7q-72 0 -96.5 35.5t-24.5 99.5q0 10 1 22.5t3 26.5l133 1063 q-23 4 -59.5 7t-85.5 3q-90 0 -143.5 -44t-53.5 -149q0 -16 1 -27t3 -22q2 -10 4 -18h174l-20 -162h-188l-105 -854q-18 -150 -112.5 -236.5t-247.5 -86.5q-12 0 -38 2t-36 6v164z" />
<glyph unicode="&#xfb03;" horiz-adv-x="1527" d="M-129 -195q10 -2 23.5 -3t29.5 -1q76 0 124 39t58 119l105 856h-113l17 141l116 21l13 100q18 150 111.5 237t248.5 87q12 0 36 -1t34 -3v-164q-10 2 -23.5 3t-29.5 1q-86 0 -135.5 -48t-49.5 -147q0 -16 1 -26t3 -21q2 -10 4 -18h297l13 100q18 150 111 237t249 87 q12 0 36 -1t34 -3v-164q-10 2 -23.5 3t-30.5 1q-86 0 -135 -48t-49 -147q0 -16 1 -26t3 -21q2 -10 4 -18h498l-104 -817v-160q-14 -6 -27 -10q-27 -10 -55 -10q-68 0 -92.5 38.5t-24.5 92.5q0 10 1 24.5t3 28.5l84 651h-317l-105 -854q-18 -150 -112.5 -236.5t-247.5 -86.5 q-12 0 -38 2t-36 4v161q10 -2 23.5 -3t29.5 -1q76 0 124 39t58 119l105 856h-311l-105 -854q-18 -150 -112.5 -236.5t-247.5 -86.5q-12 0 -38 2t-36 4v161zM1237 1253l160 148l127 -148l-162 -149z" />
<glyph unicode="&#xfb04;" horiz-adv-x="1529" d="M-129 -193q10 -2 23.5 -4t29.5 -2q76 0 124 39t58 119l105 856h-113l17 141l116 21l13 100q18 150 111.5 237t248.5 87q12 0 36 -2t34 -4v-162q-10 2 -23.5 3t-29.5 1q-86 0 -135.5 -48t-49.5 -147q0 -16 1 -26t3 -21q2 -10 4 -18h299l13 106q23 174 131 246t274 72 q45 0 97.5 -4t99.5 -9.5t86 -11.5t57 -8l-149 -1208v-160q-12 -6 -30.5 -13t-47.5 -7q-72 0 -96.5 35.5t-24.5 99.5q0 10 1 22.5t3 26.5l133 1063q-23 4 -59.5 7t-85.5 3q-90 0 -143.5 -44t-53.5 -149q0 -16 1 -27t3 -22q2 -10 4 -18h174l-20 -162h-188l-105 -854 q-18 -150 -112.5 -236.5t-247.5 -86.5q-12 0 -38 2t-36 6v164q10 -4 23.5 -6.5t29.5 -2.5q76 0 124 39t58 119l105 856h-313l-105 -854q-18 -150 -112.5 -236.5t-247.5 -86.5q-12 0 -37 2t-37 6v161z" />
<glyph horiz-adv-x="0" />
<glyph unicode="&#xd;" horiz-adv-x="382" />
<glyph unicode=" "  horiz-adv-x="382" />
<glyph unicode="&#x09;" horiz-adv-x="382" />
<glyph unicode="&#xa0;" horiz-adv-x="382" />
<glyph unicode="!" horiz-adv-x="493" d="M100 74q0 59 31 92t82 33q41 0 65.5 -27t24.5 -68q0 -49 -28 -85.5t-85 -36.5q-41 0 -65.5 25.5t-24.5 66.5zM156 328l143 968h197l-177 -968h-163z" />
<glyph unicode="&#x22;" horiz-adv-x="575" d="M137 731l58 459h112l-57 -459h-113zM385 731l57 459h113l-57 -459h-113z" />
<glyph unicode="#" d="M57 289l13 110h163l111 346h-194l14 111h213l102 334h119l-102 -334h194l105 334h116l-102 -334h158l-15 -111h-178l-108 -346h208l-12 -110h-225l-90 -289h-121l90 289h-194l-91 -289h-116l90 289h-148zM354 399h195l106 346h-194z" />
<glyph unicode="$" d="M70 20l61 164q57 -23 116.5 -35t129.5 -12q43 0 87 8.5t80 25.5t57.5 46t21.5 72q0 45 -33 77.5t-81 62.5t-104.5 59.5t-104.5 69.5t-81 92t-33 126q0 76 29 132.5t77 95t111.5 61t131.5 33.5l26 198h107l-25 -194q78 0 140.5 -7.5t134.5 -23.5l-60 -160 q-53 16 -111.5 25.5t-125.5 9.5q-43 0 -82 -7t-70 -24.5t-49.5 -45t-18.5 -70.5q0 -45 33 -78t81 -60.5t105.5 -56.5t105.5 -66.5t81 -90t33 -125.5q0 -76 -28 -133.5t-74 -98.5t-106.5 -65.5t-127.5 -34.5l-27 -203h-106l24 195h-37q-74 0 -147.5 10t-140.5 28z" />
<glyph unicode="%" horiz-adv-x="1138" d="M104 831q0 168 72 268.5t201 100.5q109 0 165 -67.5t56 -182.5q0 -174 -73.5 -269t-200.5 -95q-111 0 -165.5 67t-54.5 178zM117 0l825 1190h109l-828 -1190h-106zM229 834q0 -59 21.5 -103.5t75.5 -44.5q39 0 66.5 22.5t45 58.5t25.5 82t8 93q0 63 -20.5 110.5 t-73.5 47.5q-41 0 -68.5 -23.5t-45 -61.5t-26 -85t-8.5 -96zM565 238q0 168 72 268t201 100q109 0 165 -67.5t56 -182.5q0 -174 -74 -269t-201 -95q-111 0 -165 67.5t-54 178.5zM690 240q0 -59 21.5 -103.5t74.5 -44.5q39 0 67 22.5t45 58.5t25.5 82t8.5 93 q0 63 -20.5 110.5t-73.5 47.5q-41 0 -69 -23.5t-45 -61.5t-25.5 -85t-8.5 -96z" />
<glyph unicode="&#x26;" horiz-adv-x="1290" d="M78 309q0 121 57.5 209t140.5 154q-31 47 -44 96t-13 94q0 76 26.5 140.5t76 109.5t117 70.5t151.5 25.5q59 0 111.5 -14t91 -43t61.5 -73t23 -101h348l131 10l-51 -166h-207q-18 -154 -52 -290t-100 -246q59 -41 113.5 -66.5t99.5 -48.5l-61 -188q-23 8 -55.5 22 t-69.5 33.5t-75 42t-75 45.5q-70 -66 -163 -104.5t-209 -38.5q-80 0 -149 22.5t-118 65.5t-77.5 103t-28.5 136zM272 332q0 -80 54.5 -134.5t136.5 -54.5q117 0 207 84q-39 29 -81 67t-82 79t-74 82t-56 75q-47 -35 -76 -82t-29 -116zM418 879q0 -53 31.5 -116t84 -128.5 t118 -130t134.5 -119.5q49 80 77 198.5t40 237.5h-223q8 16 15 43t7 56q0 55 -30.5 87.5t-93.5 32.5q-61 0 -110.5 -42t-49.5 -119z" />
<glyph unicode="'" horiz-adv-x="313" d="M127 731l57 459h115l-57 -459h-115z" />
<glyph unicode="(" horiz-adv-x="468" d="M78 362q0 35 2 71t6 73q27 209 112 378t185 306l80 -60q-49 -72 -98.5 -153.5t-87 -175.5t-61 -204t-23.5 -235q0 -158 33.5 -285.5t78.5 -226.5l-94 -59q-55 115 -94 260.5t-39 310.5z" />
<glyph unicode=")" horiz-adv-x="468" d="M4 -150q47 70 95 150t86 174t61.5 204.5t23.5 242.5q0 154 -33.5 282.5t-76.5 226.5l94 60q53 -113 92 -258.5t39 -310.5q0 -35 -2 -71t-6 -73q-12 -104 -41 -198.5t-69 -179.5t-88 -161.5t-97 -146.5z" />
<glyph unicode="*" horiz-adv-x="757" d="M111 799l225 110l-199 113l70 98l180 -131l16 244h121l-43 -244l213 131l43 -100l-227 -111l201 -110l-68 -99l-180 127l-19 -237h-120l45 239l-213 -129z" />
<glyph unicode="+" d="M119 537l14 112h328l43 342h117l-43 -342h331l-14 -112h-332l-43 -357h-117l43 357h-327z" />
<glyph unicode="," horiz-adv-x="391" d="M25 -168l81 164q-27 8 -43 32.5t-16 57.5q0 47 31 85t84 38q45 0 69.5 -28.5t24.5 -74.5q0 -45 -15.5 -77.5t-41.5 -69.5l-97 -135z" />
<glyph unicode="-" horiz-adv-x="679" d="M106 436l15 113h448l-14 -113h-449z" />
<glyph unicode="." horiz-adv-x="391" d="M51 74q0 59 31 92t82 33q41 0 65.5 -27t24.5 -68q0 -49 -28 -85.5t-85 -36.5q-41 0 -65.5 25.5t-24.5 66.5z" />
<glyph unicode="/" horiz-adv-x="665" d="M-14 0l583 1190h129l-587 -1190h-125z" />
<glyph unicode="0" d="M68 446q0 172 35.5 312.5t103 240t165 154.5t222.5 55q188 0 277.5 -126t89.5 -337q0 -174 -36 -315t-103.5 -240.5t-165 -153.5t-220.5 -54q-96 0 -164.5 32.5t-114.5 93t-67.5 146.5t-21.5 192zM270 455q0 -66 10.5 -121t32 -96t57.5 -64.5t89 -23.5q74 0 129 50 t93 132t57.5 185.5t19.5 211.5q0 66 -10.5 123t-33 99t-58 65.5t-87.5 23.5q-78 0 -134 -51t-93 -134t-54.5 -188.5t-17.5 -211.5z" />
<glyph unicode="1" d="M88 0l21 168h282l111 799q-2 0 -4 1t-4 1l-48 -68q-57 -43 -122.5 -71.5t-133.5 -47.5l-20 185q90 20 188.5 75.5t176.5 147.5h202l-143 -1022h270l-20 -168h-756z" />
<glyph unicode="2" d="M41 0l25 199q166 109 282.5 197.5t191 165.5t109.5 144.5t35 129.5q0 94 -59.5 147t-182.5 53q-72 0 -139 -14t-137 -35l67 189q8 2 34 7t60.5 11t75.5 10t78 4q88 0 164 -22.5t129 -66.5t84 -108.5t31 -148.5q0 -92 -34 -174t-102.5 -163t-173 -166t-245.5 -181v-12h401 l133 14l-22 -180h-805z" />
<glyph unicode="3" d="M74 18v183q4 -2 29.5 -10.5t64.5 -17.5t86 -16t94 -7q55 0 110.5 10t99.5 34.5t70.5 63.5t26.5 96q0 47 -23.5 79t-62.5 52.5t-87 28.5t-97 8h-131l20 160h132q51 0 103 8t94 30.5t68.5 61.5t26.5 99q0 82 -62.5 120.5t-160.5 38.5q-70 0 -142.5 -14t-137.5 -31l61 187 q2 0 24.5 4t57.5 9t78 9t86 4q82 0 154.5 -17t128 -53t87 -92.5t31.5 -134.5q0 -113 -53 -187.5t-152 -115.5l-2 -6q70 -31 117 -94.5t47 -155.5q0 -102 -46 -172.5t-118.5 -115t-164 -63.5t-181.5 -19q-86 0 -163.5 13t-112.5 23z" />
<glyph unicode="4" d="M49 225l23 195l551 770h256l-101 -803h121l-18 -162h-121l-29 -225h-192l28 225h-518zM225 387h363l67 537l27 73h-10l-398 -567l-49 -33v-10z" />
<glyph unicode="5" d="M72 14v185q59 -18 125.5 -33.5t156.5 -15.5q61 0 115.5 12t95.5 38.5t65.5 68.5t24.5 102q0 57 -29.5 96t-78.5 62.5t-112.5 32.5t-131.5 9h-117l76 619h643l-20 -180l-131 12h-312l-34 -291q88 0 171 -20.5t145 -61.5t100 -105.5t38 -156.5q0 -109 -41 -185.5 t-109.5 -125.5t-157.5 -71.5t-185 -22.5q-104 0 -176 10t-121 22z" />
<glyph unicode="6" d="M92 459q0 164 31 302t98.5 237.5t176 154.5t266.5 55q86 0 159.5 -13t100.5 -21v-179q-51 16 -118 29.5t-136 13.5q-150 0 -232 -82t-110 -245q49 6 82.5 9t68.5 3q92 0 170 -20.5t136.5 -62.5t91 -106.5t32.5 -150.5q0 -94 -30.5 -169t-87 -126t-134 -78.5t-170.5 -27.5 q-102 0 -176.5 35.5t-123 99t-72 150.5t-23.5 192zM291 444q0 -61 11 -114.5t37 -94t68 -64.5t103 -24q90 0 146.5 58t56.5 162q0 51 -20.5 89t-56.5 63.5t-84 37.5t-101 12q-45 0 -82 -4t-72 -8q-6 -59 -6 -113z" />
<glyph unicode="7" d="M170 1006l23 184h770l-27 -203q-133 -127 -217 -257t-136.5 -256t-77 -242.5t-36.5 -213.5l-2 -18h-201l4 33q14 111 42 227.5t78 236t125 242.5t183 246l56 27v10h-453z" />
<glyph unicode="8" d="M63 276q0 119 66 197t166 131v8q-61 35 -99 98.5t-38 143.5q0 88 37.5 154.5t99 110.5t139.5 66.5t160 22.5q76 0 142.5 -18.5t116.5 -55t80 -91t30 -128.5q0 -55 -17.5 -101t-47.5 -84t-67.5 -67.5t-78.5 -50.5l-2 -8q72 -43 112.5 -109.5t40.5 -152.5q0 -96 -39 -163.5 t-103.5 -111.5t-145 -64.5t-166.5 -20.5q-82 0 -152 18t-122 55t-82 92.5t-30 128.5zM250 299q0 -72 59.5 -112t143.5 -40q45 0 89 11.5t78.5 34t56 57.5t21.5 84q0 72 -57 111.5t-139 66.5l-45 14q-86 -33 -146.5 -89t-60.5 -138zM360 868q0 -35 14.5 -61.5t39 -46 t56.5 -33.5t67 -25l43 -14q27 8 61.5 25.5t64 43t50 59.5t20.5 75q0 72 -55 112.5t-135 40.5q-41 0 -81 -10t-73 -31.5t-52.5 -55.5t-19.5 -79z" />
<glyph unicode="9" d="M100 16v179q51 -16 118 -29.5t136 -13.5q150 0 232 81.5t110 245.5q-49 -6 -82.5 -9t-68.5 -3q-92 0 -170 20.5t-136.5 62.5t-91 106.5t-32.5 150.5q0 94 30.5 169t87 126t134 78.5t170.5 27.5q102 0 176.5 -35.5t123 -99t72 -150.5t23.5 -192q0 -164 -31 -302 t-98.5 -237.5t-177 -154.5t-265.5 -55q-86 0 -159.5 13t-100.5 21zM311 823q0 -51 20.5 -89t56.5 -63.5t84 -37.5t101 -12q45 0 82 4t72 8q6 57 6 112q0 61 -11 114.5t-37 94.5t-68 64.5t-103 23.5q-90 0 -146.5 -57.5t-56.5 -161.5z" />
<glyph unicode=":" horiz-adv-x="391" d="M51 74q0 59 31 92t82 33q41 0 65.5 -27t24.5 -68q0 -49 -28 -85.5t-85 -36.5q-41 0 -65.5 25.5t-24.5 66.5zM133 739q0 59 31 92t82 33q41 0 65.5 -26.5t24.5 -67.5q0 -49 -28 -86t-85 -37q-41 0 -65.5 25.5t-24.5 66.5z" />
<glyph unicode=";" horiz-adv-x="391" d="M25 -168l81 164q-27 8 -43 32.5t-16 57.5q0 47 31 85t84 38q45 0 70.5 -28.5t25.5 -74.5q0 -45 -16.5 -77.5t-42.5 -69.5l-97 -135zM133 739q0 59 31 92t82 33q41 0 65.5 -26.5t24.5 -67.5q0 -49 -28 -86t-85 -37q-41 0 -65.5 25.5t-24.5 66.5z" />
<glyph unicode="&#x3c;" d="M211 600l631 461l53 -105l-496 -356l410 -362l-80 -97z" />
<glyph unicode="=" d="M98 369l15 114h774l-15 -114h-774zM137 672l13 112h774l-13 -112h-774z" />
<glyph unicode="&#x3e;" d="M133 246l496 354l-406 365l78 96l516 -461l-629 -459z" />
<glyph unicode="?" horiz-adv-x="866" d="M166 1092l49 186q6 2 30.5 8t59.5 12.5t76 11.5t84 5q86 0 158.5 -23.5t125 -68.5t81 -112t28.5 -150q0 -86 -32.5 -159t-89 -130.5t-131.5 -98.5t-156 -63l-37 -182h-168l39 297q70 12 135 35.5t117.5 62.5t84 94t31.5 129q0 92 -58 144.5t-157 52.5q-70 0 -137.5 -14.5 t-132.5 -36.5zM184 84q0 59 35 88t84 29q41 0 68.5 -30t27.5 -73q0 -49 -30.5 -82.5t-83.5 -33.5q-45 0 -73 28.5t-28 73.5z" />
<glyph unicode="@" horiz-adv-x="1187" d="M51 250q0 158 44 294t125 236.5t196.5 157.5t257.5 57q104 0 186 -34.5t139.5 -95t88 -143.5t30.5 -181q0 -94 -25.5 -186.5t-77.5 -167t-132 -125t-189 -60.5l-16 109h-8q-8 -18 -22.5 -38t-37 -36.5t-53.5 -26.5t-68 -10q-88 0 -129 70.5t-41 169.5q0 92 25 175 t72 145.5t115.5 98t154.5 35.5q51 0 89 -3t65 -7l-27 -123l-41 -340l6 -98q104 37 165 143.5t61 265.5q0 166 -87.5 263.5t-254.5 97.5q-119 0 -211.5 -50t-156 -136t-96 -201t-32.5 -244q0 -92 22.5 -176t69.5 -147.5t119 -100.5t172 -37q104 0 190 28t160 65l-14 -115 q-76 -37 -159 -59.5t-196 -22.5q-121 0 -210 42t-149 116.5t-90 176t-30 218.5zM436 248q0 -66 20.5 -106t65.5 -40q76 0 112 82t52 222l21 184q-2 0 -9 2q-4 0 -12 1t-18 1q-55 0 -98.5 -28.5t-73 -77t-45 -111t-15.5 -129.5z" />
<glyph unicode="A" horiz-adv-x="1148" d="M-8 0l561 1296h317l170 -1296h-249v141l-21 197h-405l-140 -338h-233zM434 514h322l-62 545v82h-8l-24 -82z" />
<glyph unicode="B" horiz-adv-x="1134" d="M86 0l35 143l141 1153h477q74 0 137.5 -20.5t108.5 -59t70.5 -97t25.5 -132.5q0 -119 -53 -198.5t-139 -116.5l-2 -8q72 -39 109.5 -110t37.5 -163q0 -98 -33.5 -172t-93 -122t-140.5 -72.5t-175 -24.5h-506zM342 176h219q49 0 95 11.5t81 38t55.5 68.5t20.5 103 q0 86 -48 135.5t-153 49.5h-221zM410 735h231q90 0 153.5 54.5t63.5 156.5q0 82 -42 127t-136 45h-223z" />
<glyph unicode="C" horiz-adv-x="1015" d="M98 514q0 184 46 330.5t132 250t209 159t277 55.5q45 0 89 -4.5t83 -10.5t69.5 -13t49.5 -13l-72 -191q-47 20 -107.5 33.5t-119.5 13.5q-102 0 -181 -43t-134.5 -119.5t-84 -183t-28.5 -235.5q0 -80 17 -149.5t52 -121t90.5 -80t128.5 -28.5q53 0 103.5 14.5t94.5 38 t78 51t54 54.5v-228q-18 -16 -52 -36.5t-81 -39t-107.5 -31t-134.5 -12.5q-111 0 -197.5 38t-147 109t-93.5 170t-33 222z" />
<glyph unicode="D" horiz-adv-x="1214" d="M86 0l35 143l141 1153h389q256 0 377 -136t121 -392q0 -377 -161 -572.5t-466 -195.5h-436zM342 180h193q100 0 174.5 40t123 116t72 182.5t23.5 241.5q0 170 -67.5 262t-217.5 92h-186z" />
<glyph unicode="E" horiz-adv-x="1024" d="M86 0l35 143l141 1153h774l-22 -182h-561l-45 -364h522l-21 -172h-522l-49 -398h580l-23 -180h-809z" />
<glyph unicode="F" horiz-adv-x="956" d="M86 0l33 143l141 1153h729l-22 -182h-516l-48 -387h484l-21 -172h-483l-70 -555h-227z" />
<glyph unicode="G" horiz-adv-x="1148" d="M98 518q0 176 45 322.5t133.5 252t217.5 164t297 58.5q94 0 180 -15.5t149 -35.5l-69 -191q-127 63 -283 64q-111 0 -195 -44t-140 -124t-85 -190.5t-29 -241.5q0 -78 14.5 -146.5t48.5 -121t89 -82t135 -29.5q47 0 100.5 12t88.5 33l39 323h-232l19 166h442l-76 -610 q-80 -41 -186.5 -70.5t-237.5 -29.5q-102 0 -187 33.5t-146.5 101t-96.5 168t-35 233.5z" />
<glyph unicode="H" horiz-adv-x="1206" d="M86 0l35 143l141 1153h213l-65 -534h454l66 534h227l-31 -141l-143 -1155h-213l72 586h-455l-72 -586h-229z" />
<glyph unicode="I" horiz-adv-x="518" d="M86 0l33 143l141 1153h213l-160 -1296h-227z" />
<glyph unicode="J" horiz-adv-x="702" d="M-2 -10v180q10 -2 32.5 -3t39.5 -1q115 0 180 61.5t82 178.5l88 706l-273 18l21 166h502l-33 -145l-92 -748q-27 -211 -142.5 -316t-302.5 -105q-8 0 -23.5 1t-30.5 2t-28.5 2t-19.5 3z" />
<glyph unicode="K" horiz-adv-x="1079" d="M86 0l35 145l143 1151h213l-67 -540h10l41 80l401 460h258l-461 -524l345 -772h-240l-262 584h-8l-123 -142l-54 -442h-231z" />
<glyph unicode="L" horiz-adv-x="864" d="M86 0l35 143l141 1153h209l-137 -1116h497l-22 -180h-723z" />
<glyph unicode="M" horiz-adv-x="1660" d="M70 0l39 143l198 1153h352l146 -966v-70h12l17 70l391 966h358l-27 -145l-83 -1151h-220l99 1110h-11l-20 -76l-430 -1034h-223l-176 1036v76h-11l-176 -1112h-235z" />
<glyph unicode="N" horiz-adv-x="1253" d="M86 0l33 139l149 1157h287l305 -1050h10v82l103 968h231l-35 -143l-145 -1153h-295l-293 1061h-10v-86l-104 -975h-236z" />
<glyph unicode="O" horiz-adv-x="1230" d="M98 514q0 193 42 342.5t122 250.5t194.5 154.5t260.5 53.5q111 0 194.5 -38t140 -107.5t85 -168t28.5 -219.5q0 -381 -157.5 -590.5t-456.5 -209.5q-219 0 -336 143t-117 389zM328 535q0 -76 13 -143.5t44 -119t78 -81t115 -29.5q92 0 160.5 49t112.5 131t66.5 190.5 t22.5 225.5q0 76 -14.5 144.5t-45 119.5t-78.5 81t-116 30q-96 0 -163.5 -51.5t-110.5 -135.5t-63.5 -191t-20.5 -220z" />
<glyph unicode="P" horiz-adv-x="1099" d="M86 0l35 143l141 1153h426q186 0 290.5 -89t104.5 -267q0 -117 -37.5 -201t-104.5 -136t-156 -76.5t-189 -24.5h-215l-64 -502h-231zM403 682h177q57 0 108 12.5t90 40t61.5 73.5t22.5 116q0 106 -61.5 149t-171.5 43h-172z" />
<glyph unicode="Q" horiz-adv-x="1234" d="M98 514q0 387 161 594t452 207q111 0 195.5 -38t142 -107.5t87 -168t29.5 -219.5q0 -307 -101 -503.5t-300 -264.5l63 -247h-204l-56 217q-4 0 -8 -1t-8 -1q-219 0 -336 143t-117 389zM328 535q0 -68 11 -129.5t33.5 -110.5t59.5 -82t90 -45l-47 186h205l39 -155 q55 33 97 89t69.5 130t41 161t13.5 179q0 76 -14.5 144.5t-45 119.5t-78.5 81t-116 30q-96 0 -163.5 -51.5t-110.5 -135.5t-63.5 -191.5t-20.5 -219.5z" />
<glyph unicode="R" horiz-adv-x="1153" d="M86 0l33 143l141 1153h455q174 0 275.5 -81.5t101.5 -241.5q0 -150 -70 -235t-178 -117v-9q29 -14 48 -34.5t32.5 -51t21.5 -73.5t15 -105l40 -348h-229l-39 350q-6 61 -19.5 99t-37 59.5t-61 29t-93.5 7.5h-137l-68 -545h-231zM403 705h211q106 0 178 61t72 176 q0 174 -194 174h-215z" />
<glyph unicode="S" horiz-adv-x="962" d="M-2 27l65 192q45 -18 125 -37.5t179 -19.5q51 0 101 9t91 31.5t66.5 58.5t25.5 89q0 59 -38 100.5t-94 75t-122.5 67.5t-123 77t-94.5 102t-38 146q0 109 44 184.5t118 122.5t170 68.5t201 21.5q94 0 174 -11.5t133 -27.5l-68 -182q-53 16 -120.5 28.5t-153.5 12.5 q-49 0 -97 -8.5t-87 -30t-62.5 -56t-23.5 -90.5q0 -55 37.5 -94t95 -72.5t124 -67.5t124 -78t95.5 -105.5t38 -149.5q0 -115 -46 -191.5t-123 -124t-175.5 -66.5t-202.5 -19q-125 0 -204 14t-134 31z" />
<glyph unicode="T" horiz-adv-x="897" d="M100 1114l23 182h840l-23 -182h-315l-138 -1114h-225l35 143l119 971h-316z" />
<glyph unicode="U" horiz-adv-x="1193" d="M137 346q0 45 6 98l84 676v176h238l-105 -841q-6 -49 -6 -88q0 -102 44 -150.5t159 -48.5q133 0 195.5 72.5t78.5 214.5l82 663v178h238l-104 -852q-29 -242 -149 -352t-355 -110q-406 0 -406 364z" />
<glyph unicode="V" horiz-adv-x="1073" d="M145 1296h238l106 -1015v-93h13l22 93l320 839l45 176h250l-518 -1296h-295z" />
<glyph unicode="W" horiz-adv-x="1751" d="M166 1296h240l73 -1097h10l15 90l276 856l27 151h326l51 -1005l-10 -90h12l313 919l25 176h268l-473 -1296h-318l-49 989v92h-12l-18 -92l-308 -989h-315z" />
<glyph unicode="X" horiz-adv-x="1134" d="M-10 0l436 668l-254 628h252l156 -424l18 -77h12l25 75l186 287l68 139h272l-413 -628l280 -668h-254l-180 465l-14 78h-11l-28 -78l-189 -291l-73 -174h-289z" />
<glyph unicode="Y" horiz-adv-x="1038" d="M145 1296h232l149 -544l11 -74h10l16 76l211 366l76 176h254l-479 -821l-58 -475h-221l57 475z" />
<glyph unicode="Z" horiz-adv-x="980" d="M2 0l25 211l678 850l63 43l-2 10h-612l22 182h830l-27 -211l-680 -849l-61 -46v-10h477l168 13l-25 -193h-856z" />
<glyph unicode="[" horiz-adv-x="483" d="M61 -211l172 1401h281l-14 -113h-166l-146 -1177h166l-12 -111h-281z" />
<glyph unicode="\" horiz-adv-x="634" d="M111 1190h120l320 -1190h-123z" />
<glyph unicode="]" horiz-adv-x="483" d="M-29 -211l13 111h161l146 1177h-164l14 113h281l-172 -1401h-279z" />
<glyph unicode="^" d="M45 369l522 639l361 -639l-101 -74l-284 514l-404 -510z" />
<glyph unicode="_" horiz-adv-x="1134" d="M-84 -358l14 112h1086l-15 -112h-1085z" />
<glyph unicode="`" horiz-adv-x="1034" d="M395 1241l99 150l319 -224l-70 -69z" />
<glyph unicode="a" horiz-adv-x="995" d="M53 344q0 152 42 272.5t121 204.5t189.5 129t249.5 45q111 0 183.5 -6t105.5 -10l-35 -158l-73 -610v-215q-33 -16 -82 -16q-59 0 -82 36.5t-23 83.5v54h-8q-16 -31 -41 -62t-60.5 -55.5t-83.5 -39.5t-110 -15q-72 0 -127 27.5t-92 75.5t-55.5 114.5t-18.5 144.5z M254 362q0 -43 8 -82.5t25.5 -69.5t46 -47.5t69.5 -17.5q70 0 120 38t85 103.5t55.5 154.5t32.5 194l21 188q-14 0 -29 2q-12 2 -27.5 3t-31.5 1q-92 0 -162 -34.5t-117 -96t-71.5 -147.5t-24.5 -189z" />
<glyph unicode="b" horiz-adv-x="1019" d="M76 4l33 143l149 1227l197 15l-62 -525h10q8 12 29 34t54.5 43.5t79.5 37.5t106 16q145 0 220 -99t75 -253q0 -152 -40 -273.5t-119 -207.5t-195.5 -133t-270.5 -47q-29 0 -64.5 2t-72.5 5t-71 7t-58 8zM303 154q12 -2 27 -4q12 -2 27.5 -3.5t31.5 -1.5q92 0 162 36 t117 99.5t70.5 148.5t23.5 183q0 92 -36 155.5t-122 63.5q-66 0 -113 -37.5t-79.5 -103t-53 -155t-32.5 -193.5z" />
<glyph unicode="c" horiz-adv-x="825" d="M57 399q0 129 40 239t113 189.5t174 123.5t226 44q80 0 144.5 -12t91.5 -20l-51 -170q-35 12 -86.5 25t-116.5 13q-80 0 -142.5 -32.5t-104.5 -90t-64.5 -135t-22.5 -165.5q0 -111 56.5 -188t166.5 -77q84 0 150.5 41t105.5 82v-196q-14 -10 -40.5 -25.5t-63.5 -29 t-85 -23.5t-106 -10q-180 0 -282.5 113.5t-102.5 303.5z" />
<glyph unicode="d" horiz-adv-x="999" d="M57 344q0 152 42 272.5t121 204.5t189.5 129t249.5 45q23 0 42.5 -1t37.5 -1l43 381l215 17l-32 -158l-125 -1022v-215q-33 -16 -82 -16q-59 0 -82 36.5t-23 83.5v54h-8q-16 -31 -40.5 -62t-60.5 -55.5t-84 -39.5t-110 -15q-72 0 -127 27.5t-92 75.5t-55.5 114.5 t-18.5 144.5zM258 362q0 -43 8 -82.5t25.5 -69.5t46.5 -47.5t70 -17.5q70 0 120 38t84.5 103.5t55 154.5t32.5 194l21 188q-14 0 -29 2q-12 2 -27.5 3t-31.5 1q-92 0 -162 -34.5t-117 -96t-71.5 -147.5t-24.5 -189z" />
<glyph unicode="e" horiz-adv-x="954" d="M57 403q0 119 38 226.5t107.5 188.5t168 129t219.5 48q147 0 237.5 -68.5t90.5 -187.5q0 -88 -43.5 -147.5t-115 -98t-162.5 -60t-189 -30.5l-146 -14q0 -125 72 -184.5t188 -59.5q80 0 155 18.5t136 43.5l-49 -174q-35 -14 -109.5 -32.5t-173.5 -18.5 q-209 0 -316.5 114.5t-107.5 306.5zM274 526l146 19q123 16 195.5 54t82.5 118q0 53 -33.5 87t-103.5 34q-53 0 -99 -22.5t-84 -63.5t-64.5 -98.5t-39.5 -127.5z" />
<glyph unicode="f" horiz-adv-x="614" d="M-129 -193q10 -2 23.5 -4t29.5 -2q76 0 124 39t58 119l105 856h-113l17 141l116 21l13 100q18 150 111.5 237t248.5 87q12 0 36 -2t34 -4v-162q-10 2 -23.5 3t-29.5 1q-86 0 -135.5 -48t-49.5 -147q0 -16 1 -26t3 -21q2 -10 4 -18h174l-20 -162h-188l-105 -854 q-18 -150 -112.5 -236.5t-247.5 -86.5q-12 0 -37 2t-37 6v161z" />
<glyph unicode="g" horiz-adv-x="1013" d="M10 -313l56 163q35 -12 101 -29.5t144 -17.5q72 0 124 15.5t89 48.5t60.5 86t38.5 131l14 80h-8q-14 -16 -36 -37t-53.5 -38t-75.5 -29.5t-102 -12.5q-147 0 -226 98.5t-79 257.5q0 137 44 247t124 186.5t189.5 117.5t242.5 41q111 0 182.5 -6t104.5 -10l-35 -158 l-86 -710q-31 -246 -153.5 -357.5t-364.5 -111.5q-86 0 -168 15t-127 30zM260 414q0 -86 38 -144.5t120 -58.5q66 0 114 32.5t81.5 91t54 140.5t30.5 180l19 168q-14 0 -29 2q-12 2 -27.5 3t-31.5 1q-84 0 -151.5 -30.5t-116 -85t-75 -131t-26.5 -168.5z" />
<glyph unicode="h" horiz-adv-x="1038" d="M88 0l168 1372l211 10l-33 -168l-41 -335h10q49 53 116 84.5t153 31.5q127 0 192.5 -74.5t65.5 -195.5q0 -14 -1 -28.5t-3 -30.5l-82 -666q-8 -4 -29.5 -12t-48.5 -8q-55 0 -82 34.5t-27 94.5q0 16 2.5 36.5t4.5 32.5l59 477q2 10 2 18.5v18.5q0 66 -35 100.5t-100 34.5 q-57 0 -99 -23.5t-71 -65.5t-47.5 -101t-26.5 -131l-61 -506h-197z" />
<glyph unicode="i" horiz-adv-x="466" d="M92 111q0 10 1 24.5t3 28.5l103 805l196 14l-104 -823v-160q-14 -6 -27 -10q-27 -10 -55 -10q-68 0 -92.5 38.5t-24.5 92.5zM176 1253l160 148l127 -148l-162 -149z" />
<glyph unicode="j" horiz-adv-x="516" d="M-84 -197q6 -2 20.5 -3t24.5 -1q84 0 124 50.5t50 138.5l101 817l-160 26l16 136l381 20l-37 -147l-104 -848q-20 -166 -101 -260t-239 -94q-16 0 -41 2t-35 6v157zM227 1253l160 148l127 -148l-162 -149z" />
<glyph unicode="k" horiz-adv-x="962" d="M74 0l32 145l152 1229l197 19l-95 -772l13 -3l28 56l314 303h252l-361 -350l275 -625q-18 -8 -48 -15t-71 -7q-66 0 -93.5 26.5t-50.5 83.5l-157 393h-10l-121 -118l-45 -365h-211z" />
<glyph unicode="l" horiz-adv-x="468" d="M90 115q0 10 2 27.5t4 31.5l150 1200l194 17l-149 -1231v-160q-14 -6 -37 -13t-45 -7q-63 0 -91 35.5t-28 99.5z" />
<glyph unicode="m" horiz-adv-x="1568" d="M90 0l100 817v160q12 6 34 13t46 7q53 0 77 -33.5t28 -80.5l2 -37h8q41 59 111.5 104t162.5 45q94 0 161 -42t85 -109h8q47 61 121 106t166 45q123 0 188.5 -62.5t65.5 -182.5q0 -14 -1 -35t-3 -35l-82 -680q-8 -4 -29.5 -12t-48.5 -8q-110 0 -110 116q0 19 2 39 q2 21 4 33l59 489q2 16 2 26.5v18.5q0 61 -27.5 95t-91.5 34q-55 0 -96 -24.5t-69.5 -67.5t-47 -103.5t-26.5 -133.5l-62 -502h-196l80 657q2 12 2 23.5v21.5q0 55 -31 92t-96 37q-55 0 -95 -24.5t-69 -67.5t-46.5 -103.5t-25.5 -133.5l-61 -502h-199z" />
<glyph unicode="n" horiz-adv-x="1044" d="M90 0l103 817v160q12 6 33.5 13t45.5 7q53 0 77 -33.5t28 -80.5l2 -37h8q41 63 109.5 106t160.5 43q133 0 203 -69.5t70 -194.5q0 -16 -1 -31.5t-3 -31.5l-80 -668q-8 -4 -29.5 -12t-48.5 -8q-111 0 -111 118q0 16 2.5 37t4.5 33l61 489q2 10 2 18.5v18.5q0 63 -35 100 t-100 37q-61 0 -105.5 -26.5t-73 -72.5t-45 -106.5t-24.5 -127.5l-57 -498h-197z" />
<glyph unicode="o" horiz-adv-x="976" d="M57 391q0 133 33 245t96.5 191.5t154.5 123.5t208 44q92 0 162.5 -29.5t118 -83t71 -128t23.5 -166.5q0 -137 -33 -249t-95.5 -191.5t-154.5 -122.5t-211 -43q-184 0 -278.5 112.5t-94.5 296.5zM256 399q0 -109 45 -182.5t148 -73.5q72 0 124 34t85.5 92.5t50 136 t16.5 167.5q0 55 -11.5 102.5t-35 82.5t-61 54t-89.5 19q-74 0 -126 -35.5t-83.5 -95t-47 -137.5t-15.5 -164z" />
<glyph unicode="p" horiz-adv-x="1019" d="M35 -346l33 158l118 954v213q16 8 38 13t44 5q59 0 82 -36.5t23 -83.5v-54h8q16 31 43 61.5t63.5 55.5t81.5 40t101 15q72 0 128 -27.5t94 -75.5t57.5 -114.5t19.5 -144.5q0 -152 -42 -269.5t-121 -198.5t-190.5 -123t-248.5 -42h-80l-43 -334zM305 162q14 -2 29 -4 q12 -2 27.5 -2h31.5q92 0 162 32.5t117 93t71.5 145.5t24.5 187q0 92 -36 154.5t-122 62.5q-70 0 -119 -37.5t-81.5 -103t-52 -155t-31.5 -193.5z" />
<glyph unicode="q" horiz-adv-x="995" d="M57 340q0 145 40 266t117 207t191.5 134t264.5 48q29 0 66.5 -1t76.5 -4t75 -7t60 -8l-35 -146l-141 -1163l-199 -14l58 461h-10q-8 -12 -29 -35t-54.5 -44.5t-79.5 -36.5t-106 -15q-74 0 -129 26.5t-92 73.5t-55.5 113.5t-18.5 144.5zM260 362q0 -96 36 -156.5 t122 -60.5q66 0 113 38t79.5 103.5t53 154.5t32.5 194l23 188q-12 2 -27 4q-12 2 -26.5 3t-30.5 1q-94 0 -164 -35.5t-117 -99t-70.5 -148.5t-23.5 -186z" />
<glyph unicode="r" horiz-adv-x="663" d="M90 0l103 817v160q12 6 33.5 13t45.5 7q53 0 77 -33.5t28 -80.5l2 -37h8q110 149 297 149h2v-202q-16 4 -36.5 6t-33.5 2q-72 0 -119.5 -23.5t-78.5 -65.5t-47.5 -101.5t-24.5 -131.5l-61 -479h-195z" />
<glyph unicode="s" horiz-adv-x="819" d="M18 29l58 161q53 -23 116.5 -37t120.5 -14q39 0 77 4t67.5 16.5t49 36t21.5 60.5q0 39 -31.5 67.5t-79.5 55.5t-103.5 53.5t-103.5 63t-80 86t-32 118.5q0 82 37 138.5t98.5 91.5t139.5 50t157 15q70 0 139.5 -9t123.5 -23l-62 -164q-45 16 -106.5 27.5t-120.5 11.5 q-37 0 -72 -6.5t-63.5 -18.5t-46 -32.5t-17.5 -49.5q0 -43 32 -72.5t79 -55t103 -51.5t103.5 -60.5t79 -83t31.5 -115.5q0 -90 -39 -150.5t-102.5 -96.5t-145 -50t-167.5 -14q-33 0 -72 4t-75 11t-66.5 15t-47.5 17z" />
<glyph unicode="t" horiz-adv-x="593" d="M84 815l18 148l115 16l49 213l189 104l-39 -319h207l-21 -162h-205l-59 -491q-2 -10 -3 -26.5t-1 -27.5q0 -66 33.5 -97.5t107.5 -31.5q10 0 27.5 1t25.5 5l-47 -147q-6 -4 -39.5 -11t-62.5 -7q-129 0 -187.5 66.5t-58.5 182.5q0 16 2 47t6 50l60 487h-117z" />
<glyph unicode="u" horiz-adv-x="1044" d="M111 246q0 16 1 31.5t3 31.5l80 668q8 4 29.5 12t47.5 8q111 0 111 -118q0 -16 -2 -37t-4 -33l-62 -490q-2 -10 -2 -18v-18q0 -63 35 -100.5t101 -37.5q61 0 105 27t72.5 73t45 106.5t24.5 127.5l58 498h196l-102 -817v-160q-12 -6 -33.5 -13t-46.5 -7q-53 0 -76.5 33.5 t-27.5 80.5l-2 37h-9q-41 -63 -109.5 -106t-160.5 -43q-133 0 -202.5 69.5t-69.5 194.5z" />
<glyph unicode="v" horiz-adv-x="911" d="M82 969l207 18l112 -729v-78h9q41 78 79.5 172t71.5 183.5t55.5 164t30.5 115.5l-6 162q25 10 54.5 15t52.5 5q66 0 94 -34.5t28 -88.5q0 -57 -32.5 -158.5t-102.5 -252.5q-31 -68 -68.5 -139.5t-73.5 -136t-66.5 -113.5t-45.5 -74h-221z" />
<glyph unicode="w" horiz-adv-x="1413" d="M102 969l205 18l86 -729v-78h8q51 80 91 173t69 182.5t46.5 164t23.5 115.5l-6 162q25 10 54.5 15t51.5 5q66 0 94.5 -34.5t28.5 -88.5q0 -23 -5 -50t-11 -62l61 -504v-78h8q51 80 91 173t69 182.5t46 164t24 115.5l-7 162q25 10 54.5 15t52.5 5q66 0 94.5 -34.5 t28.5 -88.5q0 -53 -26.5 -156.5t-94.5 -254.5q-31 -68 -70 -139.5t-75.5 -136t-68.5 -113.5t-46 -74h-225l-45 379l22 70h-10q-31 -66 -68 -135.5t-72.5 -132t-64.5 -110.5t-43 -71h-225z" />
<glyph unicode="x" horiz-adv-x="954" d="M-12 0l354 512l-211 463q20 6 53 12t64 6q63 0 91 -26.5t52 -83.5l94 -221l11 -62h10l24 62l115 180l78 135h235l-325 -471l223 -504q-18 -6 -48 -14t-60 -8q-66 0 -93.5 25.5t-52.5 84.5l-106 270l-11 64h-10l-26 -64l-138 -204l-80 -156h-243z" />
<glyph unicode="y" horiz-adv-x="911" d="M-31 -184q10 -2 29.5 -4t38.5 -2q84 0 148.5 54t111.5 136l45 82h-98l-162 887l207 18l114 -725v-78h9q41 78 79.5 171.5t70.5 182.5t54.5 162.5t30.5 114.5l-6 162q25 10 54.5 15t52.5 5q66 0 94 -34.5t28 -88.5q0 -78 -38.5 -193.5t-94 -240.5t-116 -241.5 t-105.5 -196.5q-45 -78 -94 -144.5t-107.5 -113.5t-127 -73.5t-150.5 -26.5q-10 0 -33.5 2t-34.5 6v164z" />
<glyph unicode="z" horiz-adv-x="870" d="M18 0l21 172l532 596l54 35v10h-494l21 164h704l-22 -180l-531 -590l-49 -33q0 -6 2 -8h350l170 20q0 -63 -14 -102t-48 -60.5t-88.5 -28.5t-133.5 -7q-90 0 -202 6t-272 6z" />
<glyph unicode="{" horiz-adv-x="479" d="M47 489l2 9l76 75q33 33 40 49.5t11 51.5l45 354q20 162 178 162h111l-12 -113h-82q-41 0 -59.5 -17.5t-22.5 -58.5l-43 -348q-4 -39 -11.5 -60.5t-39.5 -51.5l-54 -52l41 -53q16 -23 20.5 -38t6.5 -31q0 -10 -1 -20.5t-3 -22.5l-43 -349q-2 -8 -2 -20q0 -55 65 -55h82 l-14 -111h-111q-141 0 -141 125v17.5t2 17.5l43 362q2 10 2 18.5v16.5q0 16 -5 30.5t-22 37.5z" />
<glyph unicode="|" horiz-adv-x="389" d="M39 -264l178 1454h117l-178 -1454h-117z" />
<glyph unicode="}" horiz-adv-x="479" d="M-31 -211l15 111h77q43 0 60.5 17t21.5 58l43 353q4 37 12.5 58.5t39.5 53.5l53 54l-41 51q-16 20 -20.5 36.5t-6.5 32.5q0 10 1 19.5t3 23.5l43 344q0 6 1 12.5t1 10.5q0 29 -14 41t-51 12h-80l12 113h109q145 0 145 -131q0 -8 -1 -15.5t-1 -15.5l-45 -358 q-2 -10 -2 -17.5v-13.5q0 -16 5 -31.5t22 -38.5l59 -75l-2 -9l-76 -75q-31 -31 -39 -50.5t-12 -52.5l-43 -358q-10 -82 -57 -121t-125 -39h-107z" />
<glyph unicode="~" d="M131 518l14 119q4 2 22.5 12t45.5 20.5t61.5 18.5t73.5 8q45 0 89 -14t89 -31.5t89 -32t87 -14.5q53 0 106.5 19.5t88.5 42.5l-14 -119q-4 -4 -21.5 -13.5t-45.5 -19.5t-61.5 -17.5t-72.5 -7.5q-43 0 -88 14.5t-90 31t-90 31t-90 14.5q-51 0 -104.5 -19.5t-88.5 -42.5z " />
<glyph unicode="&#xa1;" horiz-adv-x="493" d="M-6 -322l176 969h164l-144 -969h-196zM186 870q0 49 28 86t85 37q41 0 65.5 -25.5t24.5 -66.5q0 -59 -30.5 -92t-82.5 -33q-41 0 -65.5 26.5t-24.5 67.5z" />
<glyph unicode="&#xa2;" d="M133 424q0 137 35 253t98.5 203t151.5 142t196 74l25 200h104l-24 -194q61 0 132 -13.5t114 -29.5l-64 -174q-29 16 -77 32.5t-122 16.5q-84 0 -151.5 -37t-114.5 -101.5t-72.5 -152.5t-25.5 -192q0 -63 14.5 -117.5t45 -95.5t76.5 -64.5t108 -23.5q43 0 85 11t80.5 27.5 t68.5 38t48 41.5v-186q-31 -25 -100.5 -58.5t-185.5 -39.5l-23 -197h-104l22 199q-76 8 -138.5 44t-107.5 93t-69.5 134t-24.5 167z" />
<glyph unicode="&#xa3;" d="M53 0l31 139l121 29l41 332h-154l25 102h141l21 154q25 186 135 266t309 80q82 0 150.5 -11.5t101.5 -19.5l-57 -162q-6 2 -28 6.5t-50.5 9.5t-60 9t-58.5 4q-117 0 -172 -44t-72 -155l-18 -137h399l-24 -102h-388l-40 -334h339l136 14l-23 -180h-805z" />
<glyph unicode="&#xa4;" d="M102 281l131 120q-39 68 -38 150q0 59 19 118.5t60 108.5l-104 123l84 82l102 -125q45 33 95.5 45t99.5 12q45 0 91 -15t83 -44l135 125l68 -78l-133 -123q23 -35 33 -78t10 -84q0 -59 -19.5 -116.5t-60.5 -106.5l96 -121l-86 -81l-98 120q-43 -31 -93.5 -42t-97.5 -11 t-94 15.5t-82 46.5l-131 -121zM309 565q0 -84 52.5 -137t132.5 -53q45 0 87 18.5t73.5 51t50 75.5t18.5 92q0 39 -14.5 74t-40 60.5t-59.5 40t-72 14.5q-86 0 -150.5 -59.5t-75.5 -147.5q-2 -11 -2 -29z" />
<glyph unicode="&#xa5;" d="M66 350l24 103h279l-64 176h-205l25 102h147l-120 352h208l134 -446l8 -59h10l23 61l170 303l55 141h227l-207 -352h158l-29 -102h-186l-107 -176h287l-29 -103h-292l-43 -350h-203l43 350h-313z" />
<glyph unicode="&#xa6;" horiz-adv-x="389" d="M39 -264l76 612h116l-75 -612h-117zM143 580l76 610h117l-76 -610h-117z" />
<glyph unicode="&#xa7;" horiz-adv-x="774" d="M27 -203l39 107q31 -10 74.5 -19.5t84.5 -9.5t80 7t68.5 24.5t48 47.5t18.5 75q0 53 -35.5 95t-107.5 89q-96 61 -156.5 124.5t-60.5 162.5q0 96 49 164.5t117 121.5q-25 31 -40.5 71t-15.5 83q0 74 31 125t82 83t114.5 46t129.5 14q59 0 106 -6t90 -16l-41 -109 q-35 12 -79.5 20.5t-85.5 8.5q-92 0 -152.5 -33t-60.5 -117q0 -53 35.5 -97t111.5 -93q92 -61 152.5 -124.5t60.5 -162.5q0 -96 -50 -164.5t-114 -121.5q23 -31 37 -70t14 -80q0 -72 -30.5 -123t-79.5 -84t-112.5 -48t-127.5 -15q-66 0 -116 8t-78 16zM201 520 q0 -59 41 -106t127 -107l71 -49q53 45 89 90t36 111q0 59 -40 105t-128 106l-75 51q-53 -45 -87 -90t-34 -111z" />
<glyph unicode="&#xa8;" horiz-adv-x="1034" d="M412 1133l30 253h136l-31 -253h-135zM647 1133l31 253h133l-31 -253h-133z" />
<glyph unicode="&#xa9;" horiz-adv-x="1140" d="M123 899q0 104 39 195.5t106.5 159t158 106.5t194.5 39t195 -39t158.5 -106.5t106.5 -158.5t39 -196q0 -104 -39 -194.5t-106.5 -158t-158.5 -106.5t-195 -39t-194.5 39t-158 106.5t-106.5 158t-39 194.5zM209 899q0 -86 32.5 -160.5t88 -130t130.5 -88.5t161 -33 t160.5 33t131 88.5t89 130t32.5 160.5t-32.5 161t-89 131t-131 89t-160.5 33t-161 -33t-130.5 -89t-88 -131t-32.5 -161zM387 850q0 147 79 237.5t212 90.5q37 0 67.5 -6.5t51.5 -14.5l-31 -84q-47 20 -98 21q-82 0 -129 -63.5t-47 -170.5q0 -68 33.5 -114t97.5 -46 q43 0 76.5 16.5t54.5 37.5v-99q-23 -12 -54.5 -25.5t-93.5 -13.5q-96 0 -157.5 63.5t-61.5 170.5z" />
<glyph unicode="&#xaa;" horiz-adv-x="579" d="M51 805q0 186 97.5 291.5t267.5 105.5q68 0 107.5 -4t60.5 -6l-62 -500v-98q-8 -4 -21.5 -8t-27.5 -4q-35 0 -46 22.5t-15 50.5l-2 27h-9q-8 -12 -20 -28.5t-32.5 -32t-50.5 -26.5t-69 -11q-88 0 -133 62.5t-45 158.5zM174 815q0 -53 20.5 -92t69.5 -39q43 0 74 22.5 t51.5 62.5t32.5 95.5t18 118.5l15 115q-8 0 -17 2q-8 0 -16 1t-19 1q-113 0 -171 -80t-58 -207z" />
<glyph unicode="&#xab;" horiz-adv-x="1052" d="M106 553l457 448l72 -88l-373 -360l285 -375l-96 -78zM481 553l457 448l76 -88l-375 -360l285 -375l-97 -80z" />
<glyph unicode="&#xac;" d="M119 680l14 115h741l-51 -418h-112l37 303h-629z" />
<glyph unicode="&#xad;" horiz-adv-x="679" d="M106 436l15 113h448l-14 -113h-449z" />
<glyph unicode="&#xae;" horiz-adv-x="1140" d="M123 899q0 104 39 195.5t106.5 159t158 106.5t194.5 39t195 -39t158.5 -106.5t106.5 -158.5t39 -196q0 -104 -39 -194.5t-106.5 -158t-158.5 -106.5t-195 -39t-194.5 39t-158 106.5t-106.5 158t-39 194.5zM209 899q0 -86 32.5 -160.5t88 -130t130.5 -88.5t161 -33 t160.5 33t131 88.5t89 130t32.5 160.5t-32.5 161t-89 131t-131 89t-160.5 33t-161 -33t-130.5 -89t-88 -131t-32.5 -161zM395 627l15 67l57 475h211q72 0 116 -34.5t44 -106.5q0 -59 -32 -94t-75 -49v-8q25 -12 35 -32t16 -71l15 -147h-105l-14 145q-6 49 -24.5 62.5 t-63.5 13.5h-62l-28 -221h-105zM537 924h88q41 0 73.5 20.5t32.5 71.5q0 76 -82 76h-90z" />
<glyph unicode="&#xaf;" horiz-adv-x="1034" d="M354 1210l17 140h503l-16 -140h-504z" />
<glyph unicode="&#xb0;" horiz-adv-x="540" d="M88 877q0 143 68.5 234t197.5 91q100 0 152.5 -62.5t52.5 -160.5q0 -147 -70.5 -233.5t-199.5 -86.5q-100 0 -150.5 61t-50.5 157zM166 498l113 108l88 -108l-115 -105zM197 883q0 -53 24.5 -94t77.5 -41q39 0 66.5 18t46 50t28 73t9.5 86q0 53 -26 94t-79 41 q-41 0 -68.5 -18.5t-45 -50t-25.5 -72.5t-8 -86z" />
<glyph unicode="&#xb1;" d="M57 0l15 113h768l-15 -113h-768zM135 629l15 114h323l41 332h117l-41 -332h325l-14 -114h-326l-43 -348h-116l43 348h-324z" />
<glyph unicode="&#xb2;" horiz-adv-x="528" d="M61 594l13 108q90 53 153.5 94.5t103.5 76t58.5 66.5t18.5 69q0 47 -37 73.5t-97 26.5q-39 0 -75.5 -7t-75.5 -18l37 101q18 4 55 11t78 7q94 0 160.5 -47t66.5 -139q0 -49 -17.5 -89t-53 -77t-91 -75t-133.5 -83l2 -8h209l78 8l-12 -98h-441z" />
<glyph unicode="&#xb3;" horiz-adv-x="534" d="M78 600v98q16 -4 63 -14t95 -10q20 0 48.5 3t54.5 13t43 28.5t17 49.5q0 53 -41 70.5t-100 17.5h-80l8 76h80q59 0 106.5 20.5t47.5 77.5q0 47 -39 63.5t-90 16.5q-39 0 -79 -7t-75 -18l39 101q16 4 54 9t85 5q43 0 82 -9t70 -27.5t48 -48.5t17 -71q0 -51 -27.5 -88.5 t-76.5 -54.5v-8q35 -16 58.5 -47t23.5 -80q0 -53 -24.5 -88t-65.5 -56.5t-92.5 -30.5t-102.5 -9q-43 0 -85 7t-62 11z" />
<glyph unicode="&#xb4;" horiz-adv-x="1034" d="M385 1167l377 224l61 -150l-385 -143z" />
<glyph unicode="&#xb5;" horiz-adv-x="1058" d="M35 -342l33 145l57 461q0 10 1 22.5t3 22.5l80 668q8 4 29.5 12t48.5 8q111 0 110 -118q0 -16 -2 -37t-4 -33l-61 -490q-2 -10 -2 -18v-18q0 -63 34.5 -100.5t100.5 -37.5q61 0 105 27t73 73t45 106.5t25 127.5l57 498h197l-103 -817v-160q-12 -6 -33.5 -13t-46.5 -7 q-53 0 -76.5 33.5t-27.5 80.5l-2 37h-8q-41 -63 -110 -106t-161 -43q-59 0 -112 16l-41 -340h-209z" />
<glyph unicode="&#xb6;" horiz-adv-x="968" d="M117 764q0 88 29.5 158.5t84 121t130 77t165.5 26.5h459l-12 -98l-111 -15l-172 -1392h-112l172 1392h-160l-172 -1392h-125l29 112l86 717q-145 0 -218 78t-73 215z" />
<glyph unicode="&#xb7;" horiz-adv-x="407" d="M109 567q0 59 33.5 88t82.5 29q41 0 67.5 -28.5t26.5 -75.5t-29.5 -81t-82.5 -34q-45 0 -71.5 28.5t-26.5 73.5z" />
<glyph unicode="&#xb8;" horiz-adv-x="1034" d="M244 -342l28 84q12 -4 39 -8t56 -4q35 0 67.5 13t32.5 48q0 53 -72 53q-16 0 -32.5 -2t-28.5 -4l45 162h100l-10 -82q53 0 92 -34t39 -87q0 -39 -19.5 -67.5t-50 -48t-70.5 -29.5t-83 -10q-51 0 -84 6t-49 10z" />
<glyph unicode="&#xb9;" horiz-adv-x="509" d="M86 596l10 90h154l57 379l-6 2l-25 -37q-29 -23 -67.5 -38t-75.5 -25l-6 100q49 10 102.5 41t96.5 82h108l-76 -504h131l-10 -90h-393z" />
<glyph unicode="&#xba;" horiz-adv-x="593" d="M82 836q0 80 21.5 147.5t60.5 115.5t95 74.5t128 26.5q113 0 166 -67.5t53 -180.5q0 -166 -81 -266t-224 -100q-113 0 -166 67.5t-53 182.5zM203 838q0 -66 24.5 -110t87.5 -44q43 0 76 20.5t53.5 56.5t30.5 83t10 102q0 66 -25.5 111t-88.5 45q-45 0 -77 -21.5 t-52.5 -57.5t-29.5 -84t-9 -101z" />
<glyph unicode="&#xbb;" horiz-adv-x="1054" d="M57 182l373 371l-280 365l94 83l340 -448l-453 -455zM430 182l371 371l-279 365l90 83l344 -448l-450 -453z" />
<glyph unicode="&#xbc;" horiz-adv-x="1177" d="M86 596l10 90h154l57 379l-6 2l-25 -37q-29 -23 -67.5 -38t-75.5 -25l-6 100q49 10 102.5 41t96.5 82h108l-76 -504h131l-10 -90h-393zM139 0l822 1190h102l-823 -1190h-101zM604 115l14 108l285 371h154l-49 -391h63l-10 -88h-64l-14 -115h-106l14 115h-287zM698 203 h203l35 272l16 35h-8l-215 -285l-29 -14z" />
<glyph unicode="&#xbd;" horiz-adv-x="1191" d="M86 596l10 90h154l57 379l-6 2l-25 -37q-29 -23 -67.5 -38t-75.5 -25l-6 100q49 10 102.5 41t96.5 82h108l-76 -504h131l-10 -90h-393zM139 0l822 1190h102l-823 -1190h-101zM625 0l12 109q90 53 153.5 94t103.5 75.5t58.5 66.5t18.5 69q0 47 -37 73.5t-96 26.5 q-39 0 -76 -7t-76 -18l37 101q18 4 55 11t78 7q94 0 160.5 -47t66.5 -139q0 -49 -17 -89t-53 -77t-91.5 -75t-133.5 -83l3 -8h208l78 8l-12 -98h-440z" />
<glyph unicode="&#xbe;" horiz-adv-x="1132" d="M78 600v98q16 -4 63 -14t95 -10q20 0 48.5 3t54.5 13t43 28.5t17 49.5q0 53 -41 70.5t-100 17.5h-80l8 76h80q59 0 106.5 20.5t47.5 77.5q0 47 -39 63.5t-90 16.5q-39 0 -79 -7t-75 -18l39 101q16 4 54 9t85 5q43 0 82 -9t70 -27.5t48 -48.5t17 -71q0 -51 -27.5 -88.5 t-76.5 -54.5v-8q35 -16 58.5 -47t23.5 -80q0 -53 -24.5 -88t-65.5 -56.5t-92.5 -30.5t-102.5 -9q-43 0 -85 7t-62 11zM129 0l823 1190h103l-826 -1190h-100zM549 115l14 108l285 371h153l-49 -391h66l-10 -88h-66l-14 -115h-107l15 115h-287zM645 203h201l35 272l16 35h-8 l-215 -287l-27 -14z" />
<glyph unicode="&#xbf;" horiz-adv-x="866" d="M8 16q0 86 33 159t89 130t131 98t157 64l37 182h168l-39 -297q-70 -12 -135.5 -35.5t-117.5 -62.5t-84 -94.5t-32 -128.5q0 -92 58.5 -144.5t156.5 -52.5q70 0 137.5 14.5t132.5 36.5l-49 -186q-6 -2 -30.5 -8t-59.5 -12.5t-76 -11.5t-84 -5q-86 0 -158.5 23.5 t-124.5 68.5t-81 111.5t-29 150.5zM467 879q0 49 31 82.5t84 33.5q45 0 72.5 -28.5t27.5 -73.5q0 -59 -35 -88t-84 -29q-41 0 -68.5 30t-27.5 73z" />
<glyph unicode="&#xc0;" horiz-adv-x="1148" d="M-8 0l561 1296h317l170 -1296h-249v141l-21 197h-405l-140 -338h-233zM434 514h322l-62 545v82h-8l-24 -82zM518 1518l96 149l322 -223l-72 -70z" />
<glyph unicode="&#xc1;" horiz-adv-x="1148" d="M-8 0l561 1296h317l170 -1296h-249v141l-21 197h-405l-140 -338h-233zM434 514h322l-62 545v82h-8l-24 -82zM492 1444l374 223l60 -149l-383 -144z" />
<glyph unicode="&#xc2;" horiz-adv-x="1148" d="M-8 0l561 1296h317l170 -1296h-249v141l-21 197h-405l-140 -338h-233zM434 514h322l-62 545v82h-8l-24 -82zM451 1460l225 172q20 16 37.5 20.5t29.5 4.5t27.5 -4t32.5 -21l184 -172l-69 -69l-195 100l-219 -100z" />
<glyph unicode="&#xc3;" horiz-adv-x="1148" d="M-8 0l561 1296h317l170 -1296h-249v141l-21 197h-405l-140 -338h-233zM422 1470l35 129q2 2 16 9.5t36.5 15.5t51.5 14.5t64 6.5q59 0 126.5 -18.5t139.5 -18.5q43 0 78 7t63 17l-31 -125q-8 -6 -55 -25.5t-112 -19.5q-61 0 -131 17.5t-140 17.5q-43 0 -75.5 -8 t-65.5 -19zM434 514h322l-62 545v82h-8l-24 -82z" />
<glyph unicode="&#xc4;" horiz-adv-x="1148" d="M-8 0l561 1296h317l170 -1296h-249v141l-21 197h-405l-140 -338h-233zM434 514h322l-62 545v82h-8l-24 -82zM532 1411l31 254h135l-30 -254h-136zM768 1411l31 254h135l-31 -254h-135z" />
<glyph unicode="&#xc5;" horiz-adv-x="1148" d="M-8 0l561 1296h317l170 -1296h-249v141l-21 197h-405l-140 -338h-233zM434 514h322l-62 545v82h-8l-24 -82zM524 1513q0 92 64.5 137.5t159.5 45.5q82 0 132 -41t50 -119q0 -90 -63.5 -132t-159.5 -42q-80 0 -131.5 40t-51.5 111zM657 1520q0 -29 16.5 -46.5t47.5 -17.5 q37 0 57.5 20.5t20.5 53.5q0 72 -66 72q-35 0 -55.5 -20.5t-20.5 -61.5z" />
<glyph unicode="&#xc6;" horiz-adv-x="1652" d="M2 0l535 1296h1030l-8 -182h-533l-14 -352h506l-11 -172h-501l-19 -410h549l-6 -180h-780l22 131l12 215h-417l-138 -346h-227zM434 522h359l22 592h-143z" />
<glyph unicode="&#xc7;" horiz-adv-x="1015" d="M98 514q0 184 46 330.5t132 250t209 159t277 55.5q45 0 89 -4.5t83 -10.5t69.5 -13t49.5 -13l-72 -191q-47 20 -107.5 33.5t-119.5 13.5q-102 0 -181 -43t-134.5 -119.5t-84 -183t-28.5 -235.5q0 -80 17 -149.5t52 -121t90.5 -80t128.5 -28.5q53 0 103.5 14.5t94.5 38 t78 51t54 54.5v-228q-18 -16 -49 -34.5t-74 -36t-98 -30.5t-123 -16l-6 -63q53 0 92 -27.5t39 -83.5q0 -41 -19.5 -70.5t-50 -50t-70.5 -30.5t-79 -10q-49 0 -83 7t-50 11l26 80q12 -4 39 -8t58 -4q37 0 68.5 15t31.5 54q0 25 -19.5 36t-54.5 11q-14 0 -30.5 -1t-28.5 -5 l37 142q-94 12 -169 54t-126 111.5t-79 162.5t-28 206z" />
<glyph unicode="&#xc8;" horiz-adv-x="1024" d="M86 0l35 143l141 1153h774l-22 -182h-561l-45 -364h522l-21 -172h-522l-49 -398h580l-23 -180h-809zM457 1518l96 149l321 -223l-69 -70z" />
<glyph unicode="&#xc9;" horiz-adv-x="1024" d="M86 0l35 143l141 1153h774l-22 -182h-561l-45 -364h522l-21 -172h-522l-49 -398h580l-23 -180h-809zM471 1444l373 223l61 -149l-385 -144z" />
<glyph unicode="&#xca;" horiz-adv-x="1024" d="M86 0l35 143l141 1153h774l-22 -182h-561l-45 -364h522l-21 -172h-522l-49 -398h580l-23 -180h-809zM397 1460l226 172q20 16 37.5 20.5t29.5 4.5t27.5 -4t32.5 -21l184 -172l-70 -69l-194 100l-219 -100z" />
<glyph unicode="&#xcb;" horiz-adv-x="1024" d="M86 0l35 143l141 1153h774l-22 -182h-561l-45 -364h522l-21 -172h-522l-49 -398h580l-23 -180h-809zM487 1411l31 254h137l-30 -254h-138zM725 1411l31 254h133l-31 -254h-133z" />
<glyph unicode="&#xcc;" horiz-adv-x="518" d="M86 0l33 143l141 1153h213l-160 -1296h-227zM162 1518l98 149l322 -223l-72 -70z" />
<glyph unicode="&#xcd;" horiz-adv-x="518" d="M86 0l33 143l141 1153h213l-160 -1296h-227zM162 1444l379 223l59 -149l-387 -144z" />
<glyph unicode="&#xce;" horiz-adv-x="518" d="M86 0l33 143l141 1153h213l-160 -1296h-227zM111 1460l225 172q20 16 37.5 20.5t29.5 4.5t27.5 -4t32.5 -21l184 -172l-69 -69l-195 100l-219 -100z" />
<glyph unicode="&#xcf;" horiz-adv-x="518" d="M86 0l33 143l141 1153h213l-160 -1296h-227zM203 1411l30 254h136l-31 -254h-135zM438 1411l31 254h133l-31 -254h-133z" />
<glyph unicode="&#xd0;" horiz-adv-x="1214" d="M51 643l133 27l78 626h389q256 0 377 -136t121 -392q0 -377 -161 -572.5t-466 -195.5h-436l35 143l49 400l-111 -23zM342 180h193q100 0 174.5 40t123 116t72 182.5t23.5 241.5q0 170 -67.5 262t-217.5 92h-186l-49 -397l208 43l9 -119l-234 -51z" />
<glyph unicode="&#xd1;" horiz-adv-x="1253" d="M86 0l33 139l149 1157h287l305 -1050h10v82l103 968h231l-35 -143l-145 -1153h-295l-293 1061h-10v-86l-104 -975h-236zM451 1470l34 129q2 2 16.5 9.5t36 15.5t51 14.5t62.5 6.5q61 0 129 -18.5t140 -18.5q43 0 77.5 7t63.5 17l-33 -125q-8 -6 -55 -25.5t-113 -19.5 q-61 0 -131 17.5t-137 17.5q-45 0 -77 -8t-64 -19z" />
<glyph unicode="&#xd2;" horiz-adv-x="1230" d="M98 514q0 193 42 342.5t122 250.5t194.5 154.5t260.5 53.5q111 0 194.5 -38t140 -107.5t85 -168t28.5 -219.5q0 -381 -157.5 -590.5t-456.5 -209.5q-219 0 -336 143t-117 389zM328 535q0 -76 13 -143.5t44 -119t78 -81t115 -29.5q92 0 160.5 49t112.5 131t66.5 190.5 t22.5 225.5q0 76 -14.5 144.5t-45 119.5t-78.5 81t-116 30q-96 0 -163.5 -51.5t-110.5 -135.5t-63.5 -191t-20.5 -220zM520 1518l98 149l320 -223l-70 -70z" />
<glyph unicode="&#xd3;" horiz-adv-x="1230" d="M98 514q0 193 42 342.5t122 250.5t194.5 154.5t260.5 53.5q111 0 194.5 -38t140 -107.5t85 -168t28.5 -219.5q0 -381 -157.5 -590.5t-456.5 -209.5q-219 0 -336 143t-117 389zM328 535q0 -76 13 -143.5t44 -119t78 -81t115 -29.5q92 0 160.5 49t112.5 131t66.5 190.5 t22.5 225.5q0 76 -14.5 144.5t-45 119.5t-78.5 81t-116 30q-96 0 -163.5 -51.5t-110.5 -135.5t-63.5 -191t-20.5 -220zM506 1444l375 223l61 -149l-385 -144z" />
<glyph unicode="&#xd4;" horiz-adv-x="1230" d="M98 514q0 193 42 342.5t122 250.5t194.5 154.5t260.5 53.5q111 0 194.5 -38t140 -107.5t85 -168t28.5 -219.5q0 -381 -157.5 -590.5t-456.5 -209.5q-219 0 -336 143t-117 389zM328 535q0 -76 13 -143.5t44 -119t78 -81t115 -29.5q92 0 160.5 49t112.5 131t66.5 190.5 t22.5 225.5q0 76 -14.5 144.5t-45 119.5t-78.5 81t-116 30q-96 0 -163.5 -51.5t-110.5 -135.5t-63.5 -191t-20.5 -220zM444 1460l226 172q20 16 37.5 20.5t29.5 4.5t27.5 -4t32.5 -21l184 -172l-70 -69l-194 100l-219 -100z" />
<glyph unicode="&#xd5;" horiz-adv-x="1230" d="M98 514q0 193 42 342.5t122 250.5t194.5 154.5t260.5 53.5q111 0 194.5 -38t140 -107.5t85 -168t28.5 -219.5q0 -381 -157.5 -590.5t-456.5 -209.5q-219 0 -336 143t-117 389zM328 535q0 -76 13 -143.5t44 -119t78 -81t115 -29.5q92 0 160.5 49t112.5 131t66.5 190.5 t22.5 225.5q0 76 -14.5 144.5t-45 119.5t-78.5 81t-116 30q-96 0 -163.5 -51.5t-110.5 -135.5t-63.5 -191t-20.5 -220zM442 1487l29 115q4 4 50 22t108 18q57 0 120.5 -17t129.5 -17q41 0 71.5 7t59.5 17l-27 -112q-12 -4 -55 -22.5t-103 -18.5q-59 0 -123.5 16t-128.5 16 q-41 0 -72.5 -7t-58.5 -17z" />
<glyph unicode="&#xd6;" horiz-adv-x="1230" d="M98 514q0 193 42 342.5t122 250.5t194.5 154.5t260.5 53.5q111 0 194.5 -38t140 -107.5t85 -168t28.5 -219.5q0 -381 -157.5 -590.5t-456.5 -209.5q-219 0 -336 143t-117 389zM328 535q0 -76 13 -143.5t44 -119t78 -81t115 -29.5q92 0 160.5 49t112.5 131t66.5 190.5 t22.5 225.5q0 76 -14.5 144.5t-45 119.5t-78.5 81t-116 30q-96 0 -163.5 -51.5t-110.5 -135.5t-63.5 -191t-20.5 -220zM528 1411l31 254h135l-30 -254h-136zM764 1411l31 254h133l-31 -254h-133z" />
<glyph unicode="&#xd7;" d="M127 309l305 283l-235 280l88 84l235 -282l305 287l74 -84l-309 -281l244 -289l-91 -88l-239 289l-305 -283z" />
<glyph unicode="&#xd8;" horiz-adv-x="1230" d="M57 -82l154 219q-109 139 -109 377q0 188 43 336.5t124 252t196 158t260 54.5q78 0 141.5 -21.5t114.5 -56.5l88 123h109l-129 -184q59 -70 89.5 -169.5t30.5 -224.5q0 -186 -41 -334.5t-118.5 -252t-193.5 -158.5t-265 -55q-86 0 -155.5 23.5t-123.5 66.5l-108 -154 h-107zM332 535q0 -53 5 -101.5t17 -89.5l504 717q-61 72 -168 72q-96 0 -163.5 -51.5t-110.5 -135.5t-63.5 -191.5t-20.5 -219.5zM397 252q63 -90 185 -90q92 0 160.5 49t112.5 131t66.5 190.5t22.5 225.5q0 61 -8 116.5t-27 102.5z" />
<glyph unicode="&#xd9;" horiz-adv-x="1193" d="M137 346q0 45 6 98l84 676v176h238l-105 -841q-6 -49 -6 -88q0 -102 44 -150.5t159 -48.5q133 0 195.5 72.5t78.5 214.5l82 663v178h238l-104 -852q-29 -242 -149 -352t-355 -110q-406 0 -406 364zM506 1518l96 149l322 -223l-70 -70z" />
<glyph unicode="&#xda;" horiz-adv-x="1193" d="M137 346q0 45 6 98l84 676v176h238l-105 -841q-6 -49 -6 -88q0 -102 44 -150.5t159 -48.5q133 0 195.5 72.5t78.5 214.5l82 663v178h238l-104 -852q-29 -242 -149 -352t-355 -110q-406 0 -406 364zM502 1444l375 223l59 -149l-383 -144z" />
<glyph unicode="&#xdb;" horiz-adv-x="1193" d="M137 346q0 45 6 98l84 676v176h238l-105 -841q-6 -49 -6 -88q0 -102 44 -150.5t159 -48.5q133 0 195.5 72.5t78.5 214.5l82 663v178h238l-104 -852q-29 -242 -149 -352t-355 -110q-406 0 -406 364zM438 1460l226 172q20 16 37.5 20.5t29.5 4.5t27.5 -4t32.5 -21l184 -172 l-70 -69l-194 100l-219 -100z" />
<glyph unicode="&#xdc;" horiz-adv-x="1193" d="M137 346q0 45 6 98l84 676v176h238l-105 -841q-6 -49 -6 -88q0 -102 44 -150.5t159 -48.5q133 0 195.5 72.5t78.5 214.5l82 663v178h238l-104 -852q-29 -242 -149 -352t-355 -110q-406 0 -406 364zM518 1411l31 254h135l-31 -254h-135zM754 1411l30 254h134l-31 -254 h-133z" />
<glyph unicode="&#xdd;" horiz-adv-x="1038" d="M145 1296h232l149 -544l11 -74h10l16 76l211 366l76 176h254l-479 -821l-58 -475h-221l57 475zM422 1444l375 223l59 -149l-383 -144z" />
<glyph unicode="&#xde;" horiz-adv-x="1087" d="M86 0l37 145l139 1151h217l-24 -192h202q186 0 294 -90t108 -271q0 -117 -38 -199.5t-103.5 -134t-154.5 -75t-190 -23.5h-215l-41 -311h-231zM379 492h184q59 0 110.5 12t88.5 40.5t57.5 75t20.5 113.5q0 104 -62.5 147.5t-171.5 43.5h-174z" />
<glyph unicode="&#xdf;" horiz-adv-x="1062" d="M96 0l33 145l82 670h-113l21 146l112 16l5 47q16 184 123.5 280.5t287.5 96.5q70 0 132.5 -21.5t109.5 -60.5t74.5 -94.5t27.5 -122.5q0 -96 -42 -158.5t-105 -120.5l-60 -55l-2 -10l66 -86q25 -33 51.5 -69t47 -77t33.5 -87t13 -99q0 -92 -34.5 -159.5t-92 -111.5 t-132.5 -65.5t-154 -21.5q-39 0 -91.5 5t-80.5 13l53 166q23 -6 55.5 -11t61.5 -5q39 0 77.5 11t67.5 33.5t47 59.5t18 86q0 41 -15 79t-39.5 73.5t-55.5 72.5l-62 74q-23 29 -38 55.5t-15 55.5q0 39 23.5 66.5t62.5 62.5q61 59 100 105t39 112q0 63 -43 104t-110 41 q-92 0 -139 -56.5t-62 -170.5l-125 -1014h-213z" />
<glyph unicode="&#xe0;" horiz-adv-x="995" d="M53 344q0 152 42 272.5t121 204.5t189.5 129t249.5 45q111 0 183.5 -6t105.5 -10l-35 -158l-73 -610v-215q-33 -16 -82 -16q-59 0 -82 36.5t-23 83.5v54h-8q-16 -31 -41 -62t-60.5 -55.5t-83.5 -39.5t-110 -15q-72 0 -127 27.5t-92 75.5t-55.5 114.5t-18.5 144.5z M254 362q0 -43 8 -82.5t25.5 -69.5t46 -47.5t69.5 -17.5q70 0 120 38t85 103.5t55.5 154.5t32.5 194l21 188q-14 0 -29 2q-12 2 -27.5 3t-31.5 1q-92 0 -162 -34.5t-117 -96t-71.5 -147.5t-24.5 -189zM397 1241l99 150l319 -224l-70 -69z" />
<glyph unicode="&#xe1;" horiz-adv-x="995" d="M53 344q0 152 42 272.5t121 204.5t189.5 129t249.5 45q111 0 183.5 -6t105.5 -10l-35 -158l-73 -610v-215q-33 -16 -82 -16q-59 0 -82 36.5t-23 83.5v54h-8q-16 -31 -41 -62t-60.5 -55.5t-83.5 -39.5t-110 -15q-72 0 -127 27.5t-92 75.5t-55.5 114.5t-18.5 144.5z M254 362q0 -43 8 -82.5t25.5 -69.5t46 -47.5t69.5 -17.5q70 0 120 38t85 103.5t55.5 154.5t32.5 194l21 188q-14 0 -29 2q-12 2 -27.5 3t-31.5 1q-92 0 -162 -34.5t-117 -96t-71.5 -147.5t-24.5 -189zM389 1167l377 224l61 -150l-385 -143z" />
<glyph unicode="&#xe2;" horiz-adv-x="995" d="M53 344q0 152 42 272.5t121 204.5t189.5 129t249.5 45q111 0 183.5 -6t105.5 -10l-35 -158l-73 -610v-215q-33 -16 -82 -16q-59 0 -82 36.5t-23 83.5v54h-8q-16 -31 -41 -62t-60.5 -55.5t-83.5 -39.5t-110 -15q-72 0 -127 27.5t-92 75.5t-55.5 114.5t-18.5 144.5z M254 362q0 -43 8 -82.5t25.5 -69.5t46 -47.5t69.5 -17.5q70 0 120 38t85 103.5t55.5 154.5t32.5 194l21 188q-14 0 -29 2q-12 2 -27.5 3t-31.5 1q-92 0 -162 -34.5t-117 -96t-71.5 -147.5t-24.5 -189zM322 1194l225 172q20 16 37.5 20.5t29.5 4.5t27.5 -4.5t32.5 -20.5 l184 -172l-70 -70l-194 101l-219 -101z" />
<glyph unicode="&#xe3;" horiz-adv-x="995" d="M53 344q0 152 42 272.5t121 204.5t189.5 129t249.5 45q111 0 183.5 -6t105.5 -10l-35 -158l-73 -610v-215q-33 -16 -82 -16q-59 0 -82 36.5t-23 83.5v54h-8q-16 -31 -41 -62t-60.5 -55.5t-83.5 -39.5t-110 -15q-72 0 -127 27.5t-92 75.5t-55.5 114.5t-18.5 144.5z M254 362q0 -43 8 -82.5t25.5 -69.5t46 -47.5t69.5 -17.5q70 0 120 38t85 103.5t55.5 154.5t32.5 194l21 188q-14 0 -29 2q-12 2 -27.5 3t-31.5 1q-92 0 -162 -34.5t-117 -96t-71.5 -147.5t-24.5 -189zM289 1190l33 129q8 4 56 24.5t114 20.5q59 0 126.5 -18.5t139.5 -18.5 q43 0 77.5 7t61.5 18l-29 -125q-10 -6 -56 -25.5t-112 -19.5q-61 0 -130.5 17.5t-137.5 17.5q-45 0 -77.5 -8.5t-65.5 -18.5z" />
<glyph unicode="&#xe4;" horiz-adv-x="995" d="M53 344q0 152 42 272.5t121 204.5t189.5 129t249.5 45q111 0 183.5 -6t105.5 -10l-35 -158l-73 -610v-215q-33 -16 -82 -16q-59 0 -82 36.5t-23 83.5v54h-8q-16 -31 -41 -62t-60.5 -55.5t-83.5 -39.5t-110 -15q-72 0 -127 27.5t-92 75.5t-55.5 114.5t-18.5 144.5z M254 362q0 -43 8 -82.5t25.5 -69.5t46 -47.5t69.5 -17.5q70 0 120 38t85 103.5t55.5 154.5t32.5 194l21 188q-14 0 -29 2q-12 2 -27.5 3t-31.5 1q-92 0 -162 -34.5t-117 -96t-71.5 -147.5t-24.5 -189zM408 1133l30 253h135l-30 -253h-135zM643 1133l31 253h133l-31 -253 h-133z" />
<glyph unicode="&#xe5;" horiz-adv-x="995" d="M53 344q0 152 42 272.5t121 204.5t189.5 129t249.5 45q111 0 183.5 -6t105.5 -10l-35 -158l-73 -610v-215q-33 -16 -82 -16q-59 0 -82 36.5t-23 83.5v54h-8q-16 -31 -41 -62t-60.5 -55.5t-83.5 -39.5t-110 -15q-72 0 -127 27.5t-92 75.5t-55.5 114.5t-18.5 144.5z M254 362q0 -43 8 -82.5t25.5 -69.5t46 -47.5t69.5 -17.5q70 0 120 38t85 103.5t55.5 154.5t32.5 194l21 188q-14 0 -29 2q-12 2 -27.5 3t-31.5 1q-92 0 -162 -34.5t-117 -96t-71.5 -147.5t-24.5 -189zM401 1227q0 92 64.5 137t159.5 45q82 0 132 -41t50 -119 q0 -90 -63.5 -132t-159.5 -42q-80 0 -131.5 40t-51.5 112zM535 1233q0 -29 16 -46.5t47 -17.5q37 0 57.5 20.5t20.5 53.5q0 72 -66 72q-35 0 -55 -20.5t-20 -61.5z" />
<glyph unicode="&#xe6;" horiz-adv-x="1523" d="M37 254q0 92 42 159.5t115.5 114.5t173 75t214.5 40l114 12q59 152 179 246t299 94q154 0 233.5 -76.5t79.5 -191.5q0 -90 -40 -157.5t-108.5 -115.5t-162 -77t-197.5 -39l-125 -14q8 -98 74.5 -138.5t169.5 -40.5q104 0 177 19.5t116 36.5l-64 -176 q-39 -12 -108.5 -27.5t-174.5 -15.5q-131 0 -221 42t-131 123h-12q-55 -74 -145.5 -119.5t-200.5 -45.5q-141 0 -219 71.5t-78 200.5zM252 272q0 -61 32.5 -97t102.5 -36q59 0 106.5 28t83 78t59 118.5t36.5 148.5l-78 -8q-166 -16 -254 -71.5t-88 -160.5zM852 465l78 8 q166 16 254 71.5t88 160.5q0 61 -33 97t-102 36q-59 0 -106.5 -28t-83.5 -78t-59.5 -118.5t-35.5 -148.5z" />
<glyph unicode="&#xe7;" horiz-adv-x="825" d="M57 399q0 129 40 239t113 189.5t174 123.5t226 44q80 0 144.5 -12t91.5 -20l-51 -170q-35 12 -86.5 25t-116.5 13q-80 0 -142.5 -32.5t-104.5 -90t-64.5 -135t-22.5 -165.5q0 -111 56.5 -188t166.5 -77q84 0 150.5 41t105.5 82v-196q-27 -18 -93 -49t-165 -37l-8 -70 q53 0 92 -27.5t39 -83.5q0 -41 -19.5 -70.5t-50 -50t-70.5 -30.5t-79 -10q-49 0 -83 7t-50 11l26 80q12 -4 40 -8t57 -4q37 0 68.5 15t31.5 54q0 25 -19.5 36t-54.5 11q-14 0 -30.5 -1t-28.5 -5l39 148q-154 20 -238 129.5t-84 283.5z" />
<glyph unicode="&#xe8;" horiz-adv-x="954" d="M57 403q0 119 38 226.5t107.5 188.5t168 129t219.5 48q147 0 237.5 -68.5t90.5 -187.5q0 -88 -43.5 -147.5t-115 -98t-162.5 -60t-189 -30.5l-146 -14q0 -125 72 -184.5t188 -59.5q80 0 155 18.5t136 43.5l-49 -174q-35 -14 -109.5 -32.5t-173.5 -18.5 q-209 0 -316.5 114.5t-107.5 306.5zM274 526l146 19q123 16 195.5 54t82.5 118q0 53 -33.5 87t-103.5 34q-53 0 -99 -22.5t-84 -63.5t-64.5 -98.5t-39.5 -127.5zM399 1241l97 150l319 -224l-70 -69z" />
<glyph unicode="&#xe9;" horiz-adv-x="954" d="M57 403q0 119 38 226.5t107.5 188.5t168 129t219.5 48q147 0 237.5 -68.5t90.5 -187.5q0 -88 -43.5 -147.5t-115 -98t-162.5 -60t-189 -30.5l-146 -14q0 -125 72 -184.5t188 -59.5q80 0 155 18.5t136 43.5l-49 -174q-35 -14 -109.5 -32.5t-173.5 -18.5 q-209 0 -316.5 114.5t-107.5 306.5zM274 526l146 19q123 16 195.5 54t82.5 118q0 53 -33.5 87t-103.5 34q-53 0 -99 -22.5t-84 -63.5t-64.5 -98.5t-39.5 -127.5zM391 1167l375 224l61 -150l-385 -143z" />
<glyph unicode="&#xea;" horiz-adv-x="954" d="M57 403q0 119 38 226.5t107.5 188.5t168 129t219.5 48q147 0 237.5 -68.5t90.5 -187.5q0 -88 -43.5 -147.5t-115 -98t-162.5 -60t-189 -30.5l-146 -14q0 -125 72 -184.5t188 -59.5q80 0 155 18.5t136 43.5l-49 -174q-35 -14 -109.5 -32.5t-173.5 -18.5 q-209 0 -316.5 114.5t-107.5 306.5zM274 526l146 19q123 16 195.5 54t82.5 118q0 53 -33.5 87t-103.5 34q-53 0 -99 -22.5t-84 -63.5t-64.5 -98.5t-39.5 -127.5zM332 1194l225 172q18 14 36.5 19.5t29.5 5.5q12 0 27.5 -4.5t31.5 -20.5l184 -172l-69 -70l-197 95l-215 -95z " />
<glyph unicode="&#xeb;" horiz-adv-x="954" d="M57 403q0 119 38 226.5t107.5 188.5t168 129t219.5 48q147 0 237.5 -68.5t90.5 -187.5q0 -88 -43.5 -147.5t-115 -98t-162.5 -60t-189 -30.5l-146 -14q0 -125 72 -184.5t188 -59.5q80 0 155 18.5t136 43.5l-49 -174q-35 -14 -109.5 -32.5t-173.5 -18.5 q-209 0 -316.5 114.5t-107.5 306.5zM274 526l146 19q123 16 195.5 54t82.5 118q0 53 -33.5 87t-103.5 34q-53 0 -99 -22.5t-84 -63.5t-64.5 -98.5t-39.5 -127.5zM401 1133l31 253h135l-30 -253h-136zM637 1133l31 253h135l-31 -253h-135z" />
<glyph unicode="&#xec;" horiz-adv-x="466" d="M92 111q0 10 1 24.5t3 28.5l103 805l196 14l-104 -823v-160q-14 -6 -27 -10q-27 -10 -55 -10q-68 0 -92.5 38.5t-24.5 92.5zM106 1241l99 150l319 -224l-69 -69z" />
<glyph unicode="&#xed;" horiz-adv-x="466" d="M92 111q0 10 1 24.5t3 28.5l103 805l196 14l-104 -823v-160q-14 -6 -27 -10q-27 -10 -55 -10q-68 0 -92.5 38.5t-24.5 92.5zM94 1167l377 224l61 -150l-385 -143z" />
<glyph unicode="&#xee;" horiz-adv-x="466" d="M49 1194l225 172q18 14 37 19.5t29 5.5q12 0 27.5 -4.5t31.5 -20.5l185 -172l-70 -70l-197 95l-215 -95zM92 111q0 10 1 24.5t3 28.5l103 805l196 14l-104 -823v-160q-14 -6 -27 -10q-27 -10 -55 -10q-68 0 -92.5 38.5t-24.5 92.5z" />
<glyph unicode="&#xef;" horiz-adv-x="466" d="M92 111q0 10 1 24.5t3 28.5l103 805l196 14l-104 -823v-160q-14 -6 -27 -10q-27 -10 -55 -10q-68 0 -92.5 38.5t-24.5 92.5zM127 1133l31 253h135l-31 -253h-135zM362 1133l31 253h133l-30 -253h-134z" />
<glyph unicode="&#xf0;" horiz-adv-x="980" d="M57 389q0 109 33 201t91.5 158.5t138 104.5t174.5 42h37.5t31.5 -2l35 -19l6 7l-98 186l-174 -39l-13 121l132 29l-93 176l209 49l95 -180l174 39l8 -119l-131 -31q6 -12 29.5 -61.5t51 -110.5t54 -122.5t39.5 -98.5q14 -47 23.5 -101.5t9.5 -119.5q0 -246 -127 -381 t-357 -135q-94 0 -164.5 31.5t-119 86t-72 129t-23.5 160.5zM256 399q0 -51 12.5 -97t38 -82t65.5 -56.5t95 -20.5q68 0 116 27t77.5 73t43 108.5t13.5 131.5q0 51 -10.5 96.5t-33 79t-61.5 54t-94 20.5q-68 0 -118 -25.5t-81.5 -70.5t-47 -106.5t-15.5 -131.5z" />
<glyph unicode="&#xf1;" horiz-adv-x="1044" d="M90 0l103 817v160q12 6 33.5 13t45.5 7q53 0 77 -33.5t28 -80.5l2 -37h8q41 63 109.5 106t160.5 43q133 0 203 -69.5t70 -194.5q0 -16 -1 -31.5t-3 -31.5l-80 -668q-8 -4 -29.5 -12t-48.5 -8q-111 0 -111 118q0 16 2.5 37t4.5 33l61 489q2 10 2 18.5v18.5q0 63 -35 100 t-100 37q-61 0 -105.5 -26.5t-73 -72.5t-45 -106.5t-24.5 -127.5l-57 -498h-197zM315 1190l31 129q8 4 56.5 24.5t113.5 20.5q61 0 129 -18.5t139 -18.5q41 0 77 7t63 18l-31 -125q-10 -6 -56 -25.5t-112 -19.5q-61 0 -131 17.5t-137 17.5q-45 0 -78 -8.5t-64 -18.5z" />
<glyph unicode="&#xf2;" horiz-adv-x="976" d="M57 391q0 133 33 245t96.5 191.5t154.5 123.5t208 44q92 0 162.5 -29.5t118 -83t71 -128t23.5 -166.5q0 -137 -33 -249t-95.5 -191.5t-154.5 -122.5t-211 -43q-184 0 -278.5 112.5t-94.5 296.5zM256 399q0 -109 45 -182.5t148 -73.5q72 0 124 34t85.5 92.5t50 136 t16.5 167.5q0 55 -11.5 102.5t-35 82.5t-61 54t-89.5 19q-74 0 -126 -35.5t-83.5 -95t-47 -137.5t-15.5 -164zM371 1241l96 150l319 -224l-67 -69z" />
<glyph unicode="&#xf3;" horiz-adv-x="976" d="M57 391q0 133 33 245t96.5 191.5t154.5 123.5t208 44q92 0 162.5 -29.5t118 -83t71 -128t23.5 -166.5q0 -137 -33 -249t-95.5 -191.5t-154.5 -122.5t-211 -43q-184 0 -278.5 112.5t-94.5 296.5zM256 399q0 -109 45 -182.5t148 -73.5q72 0 124 34t85.5 92.5t50 136 t16.5 167.5q0 55 -11.5 102.5t-35 82.5t-61 54t-89.5 19q-74 0 -126 -35.5t-83.5 -95t-47 -137.5t-15.5 -164zM350 1167l377 224l61 -150l-385 -143z" />
<glyph unicode="&#xf4;" horiz-adv-x="976" d="M57 391q0 133 33 245t96.5 191.5t154.5 123.5t208 44q92 0 162.5 -29.5t118 -83t71 -128t23.5 -166.5q0 -137 -33 -249t-95.5 -191.5t-154.5 -122.5t-211 -43q-184 0 -278.5 112.5t-94.5 296.5zM256 399q0 -109 45 -182.5t148 -73.5q72 0 124 34t85.5 92.5t50 136 t16.5 167.5q0 55 -11.5 102.5t-35 82.5t-61 54t-89.5 19q-74 0 -126 -35.5t-83.5 -95t-47 -137.5t-15.5 -164zM311 1194l226 172q18 14 36.5 19.5t30.5 5.5q10 0 25.5 -4.5t32.5 -20.5l184 -172l-70 -70l-194 95l-217 -95z" />
<glyph unicode="&#xf5;" horiz-adv-x="976" d="M57 391q0 133 33 245t96.5 191.5t154.5 123.5t208 44q92 0 162.5 -29.5t118 -83t71 -128t23.5 -166.5q0 -137 -33 -249t-95.5 -191.5t-154.5 -122.5t-211 -43q-184 0 -278.5 112.5t-94.5 296.5zM256 399q0 -109 45 -182.5t148 -73.5q72 0 124 34t85.5 92.5t50 136 t16.5 167.5q0 55 -11.5 102.5t-35 82.5t-61 54t-89.5 19q-74 0 -126 -35.5t-83.5 -95t-47 -137.5t-15.5 -164zM283 1190l30 129q8 4 56.5 24.5t113.5 20.5q59 0 128 -18.5t141 -18.5q41 0 75.5 7t63.5 18l-31 -125q-10 -6 -56 -25.5t-112 -19.5q-61 0 -130.5 17.5 t-137.5 17.5q-45 0 -78 -8.5t-63 -18.5z" />
<glyph unicode="&#xf6;" horiz-adv-x="976" d="M57 391q0 133 33 245t96.5 191.5t154.5 123.5t208 44q92 0 162.5 -29.5t118 -83t71 -128t23.5 -166.5q0 -137 -33 -249t-95.5 -191.5t-154.5 -122.5t-211 -43q-184 0 -278.5 112.5t-94.5 296.5zM256 399q0 -109 45 -182.5t148 -73.5q72 0 124 34t85.5 92.5t50 136 t16.5 167.5q0 55 -11.5 102.5t-35 82.5t-61 54t-89.5 19q-74 0 -126 -35.5t-83.5 -95t-47 -137.5t-15.5 -164zM379 1133l31 253h135l-31 -253h-135zM614 1133l31 253h133l-30 -253h-134z" />
<glyph unicode="&#xf7;" d="M117 522l12 115h778l-12 -115h-778zM365 221q0 59 30.5 92t81.5 33q41 0 65.5 -26.5t24.5 -67.5q0 -49 -27.5 -86t-84.5 -37q-41 0 -65.5 25.5t-24.5 66.5zM446 887q0 59 31 92t82 33q41 0 65.5 -27t24.5 -67q0 -49 -27.5 -86t-84.5 -37q-41 0 -66 25.5t-25 66.5z" />
<glyph unicode="&#xf8;" horiz-adv-x="976" d="M29 -82l125 170q-96 109 -97 303q0 133 34 245t96.5 191.5t154.5 123.5t209 44q59 0 111.5 -12t91.5 -35l84 115h98l-119 -166q106 -111 107 -309q0 -137 -33 -249t-95.5 -191.5t-154.5 -122.5t-211 -43q-63 0 -119.5 14t-97.5 41l-88 -119h-96zM256 399q0 -78 18 -135 l373 531q-47 37 -119 36q-74 0 -126 -35.5t-83.5 -95t-47 -137.5t-15.5 -164zM322 193q23 -23 54.5 -36.5t72.5 -13.5q72 0 124 34t85.5 92.5t50 136t16.5 167.5q0 43 -6 82t-21 72z" />
<glyph unicode="&#xf9;" horiz-adv-x="1044" d="M111 246q0 16 1 31.5t3 31.5l80 668q8 4 29.5 12t47.5 8q111 0 111 -118q0 -16 -2 -37t-4 -33l-62 -490q-2 -10 -2 -18v-18q0 -63 35 -100.5t101 -37.5q61 0 105 27t72.5 73t45 106.5t24.5 127.5l58 498h196l-102 -817v-160q-12 -6 -33.5 -13t-46.5 -7q-53 0 -76.5 33.5 t-27.5 80.5l-2 37h-9q-41 -63 -109.5 -106t-160.5 -43q-133 0 -202.5 69.5t-69.5 194.5zM399 1241l99 150l319 -224l-69 -69z" />
<glyph unicode="&#xfa;" horiz-adv-x="1044" d="M111 246q0 16 1 31.5t3 31.5l80 668q8 4 29.5 12t47.5 8q111 0 111 -118q0 -16 -2 -37t-4 -33l-62 -490q-2 -10 -2 -18v-18q0 -63 35 -100.5t101 -37.5q61 0 105 27t72.5 73t45 106.5t24.5 127.5l58 498h196l-102 -817v-160q-12 -6 -33.5 -13t-46.5 -7q-53 0 -76.5 33.5 t-27.5 80.5l-2 37h-9q-41 -63 -109.5 -106t-160.5 -43q-133 0 -202.5 69.5t-69.5 194.5zM389 1167l377 224l61 -150l-385 -143z" />
<glyph unicode="&#xfb;" horiz-adv-x="1044" d="M111 246q0 16 1 31.5t3 31.5l80 668q8 4 29.5 12t47.5 8q111 0 111 -118q0 -16 -2 -37t-4 -33l-62 -490q-2 -10 -2 -18v-18q0 -63 35 -100.5t101 -37.5q61 0 105 27t72.5 73t45 106.5t24.5 127.5l58 498h196l-102 -817v-160q-12 -6 -33.5 -13t-46.5 -7q-53 0 -76.5 33.5 t-27.5 80.5l-2 37h-9q-41 -63 -109.5 -106t-160.5 -43q-133 0 -202.5 69.5t-69.5 194.5zM336 1194l223 172q20 16 37.5 20.5t30.5 4.5q12 0 27.5 -4.5t31.5 -20.5l184 -172l-69 -70l-197 95l-217 -95z" />
<glyph unicode="&#xfc;" horiz-adv-x="1044" d="M111 246q0 16 1 31.5t3 31.5l80 668q8 4 29.5 12t47.5 8q111 0 111 -118q0 -16 -2 -37t-4 -33l-62 -490q-2 -10 -2 -18v-18q0 -63 35 -100.5t101 -37.5q61 0 105 27t72.5 73t45 106.5t24.5 127.5l58 498h196l-102 -817v-160q-12 -6 -33.5 -13t-46.5 -7q-53 0 -76.5 33.5 t-27.5 80.5l-2 37h-9q-41 -63 -109.5 -106t-160.5 -43q-133 0 -202.5 69.5t-69.5 194.5zM408 1133l30 253h135l-30 -253h-135zM643 1133l31 253h133l-31 -253h-133z" />
<glyph unicode="&#xfd;" horiz-adv-x="911" d="M-31 -184q10 -2 29.5 -4t38.5 -2q84 0 148.5 54t111.5 136l45 82h-98l-162 887l207 18l114 -704v-78h9q41 78 79.5 168t70.5 175t54.5 155.5t30.5 111.5l-6 162q25 10 54.5 15t52.5 5q66 0 94 -34.5t28 -88.5q0 -78 -38.5 -193.5t-94 -240.5t-116 -241.5t-105.5 -196.5 q-45 -78 -94 -144.5t-107.5 -113.5t-127 -73.5t-150.5 -26.5q-10 0 -33.5 2t-34.5 6v164zM295 1167l377 224l59 -150l-383 -143z" />
<glyph unicode="&#xfe;" horiz-adv-x="1017" d="M35 -346l31 145l170 1383v196q12 6 35.5 12.5t47.5 6.5q53 0 81 -34t28 -77v-21.5t-2 -25.5l-45 -385h8q12 18 34.5 43t55.5 46.5t78 36.5t102 15q74 0 130.5 -27.5t96.5 -76.5t60.5 -116.5t20.5 -149.5q0 -154 -42 -270.5t-121 -195.5t-190.5 -119t-251.5 -40h-75 l-43 -334zM305 162q12 -2 25 -4q10 -2 23.5 -2h29.5q90 0 160.5 32.5t120 93t75 143.5t25.5 185q0 96 -37 158.5t-121 62.5q-70 0 -118 -39.5t-80.5 -107.5t-51 -157t-30.5 -187z" />
<glyph unicode="&#xff;" horiz-adv-x="911" d="M-31 -184q10 -2 29.5 -4t38.5 -2q84 0 148.5 54t111.5 136l45 82h-98l-162 887l207 18l114 -704v-78h9q41 78 79.5 168t70.5 175t54.5 155.5t30.5 111.5l-6 162q25 10 54.5 15t52.5 5q66 0 94 -34.5t28 -88.5q0 -78 -38.5 -193.5t-94 -240.5t-116 -241.5t-105.5 -196.5 q-45 -78 -94 -144.5t-107.5 -113.5t-127 -73.5t-150.5 -26.5q-10 0 -33.5 2t-34.5 6v164zM324 1133l30 253h135l-30 -253h-135zM559 1133l31 253h133l-31 -253h-133z" />
<glyph unicode="&#x152;" horiz-adv-x="1665" d="M98 514q0 195 48.5 341t136.5 244.5t211.5 147.5t273.5 49h893l-23 -182h-536l-45 -371h499l-22 -172h-500l-47 -391h555l-22 -180h-955q-233 0 -350 134t-117 380zM326 528q0 -76 15 -140t48 -110.5t85 -73t128 -26.5h168l115 940h-133q-111 0 -192 -43t-133 -120.5 t-76.5 -186.5t-24.5 -240z" />
<glyph unicode="&#x153;" horiz-adv-x="1556" d="M57 381q0 135 31 247.5t90.5 194.5t149.5 127t207 45q111 0 187.5 -41t113.5 -114h14q59 68 147 111.5t199 43.5q70 0 129 -17t102 -50t68 -80t25 -105q0 -88 -42 -148t-111 -99t-159 -60.5t-188 -32.5l-137 -14q0 -244 258 -244q92 0 162.5 19.5t111.5 36.5l-49 -174 q-49 -18 -108.5 -31.5t-157.5 -13.5q-127 0 -214 39.5t-138 115.5h-13q-59 -74 -136 -114.5t-187 -40.5q-92 0 -160 28.5t-111 80.5t-63.5 126t-20.5 164zM252 391q0 -53 9 -98t29.5 -78t54.5 -52.5t83 -19.5q72 0 124 35t85 94.5t48 140.5t15 171q0 51 -9 97t-30.5 79 t-55.5 52t-85 19q-74 0 -125 -35.5t-82.5 -96t-46 -140.5t-14.5 -168zM891 526l137 17q117 14 192.5 57t75.5 125q0 47 -34.5 80t-92.5 33q-104 0 -179 -84t-99 -228z" />
<glyph unicode="&#x178;" horiz-adv-x="1038" d="M145 1296h232l149 -544l11 -74h10l16 76l211 366l76 176h254l-479 -821l-58 -475h-221l57 475zM440 1411l31 254h135l-31 -254h-135zM676 1411l31 254h133l-31 -254h-133z" />
<glyph unicode="&#x2c6;" horiz-adv-x="1034" d="M336 1194l225 172q20 16 37.5 20.5t30.5 4.5q12 0 27.5 -4.5t31.5 -20.5l184 -172l-69 -70l-195 101l-219 -101z" />
<glyph unicode="&#x2dc;" horiz-adv-x="1034" d="M309 1190l33 129q2 2 16.5 9t37 15.5t52 14.5t62.5 6q61 0 129 -18.5t139 -18.5q43 0 78 7t62 18l-31 -125q-8 -6 -54.5 -25.5t-111.5 -19.5q-63 0 -133 17.5t-137 17.5q-45 0 -78 -8.5t-64 -18.5z" />
<glyph unicode="&#x2000;" horiz-adv-x="848" />
<glyph unicode="&#x2001;" horiz-adv-x="1696" />
<glyph unicode="&#x2002;" horiz-adv-x="848" />
<glyph unicode="&#x2003;" horiz-adv-x="1696" />
<glyph unicode="&#x2004;" horiz-adv-x="565" />
<glyph unicode="&#x2005;" horiz-adv-x="424" />
<glyph unicode="&#x2006;" horiz-adv-x="282" />
<glyph unicode="&#x2007;" horiz-adv-x="282" />
<glyph unicode="&#x2008;" horiz-adv-x="212" />
<glyph unicode="&#x2009;" horiz-adv-x="339" />
<glyph unicode="&#x200a;" horiz-adv-x="94" />
<glyph unicode="&#x2010;" horiz-adv-x="679" d="M106 436l15 113h448l-14 -113h-449z" />
<glyph unicode="&#x2011;" horiz-adv-x="679" d="M106 436l15 113h448l-14 -113h-449z" />
<glyph unicode="&#x2012;" horiz-adv-x="679" d="M106 436l15 113h448l-14 -113h-449z" />
<glyph unicode="&#x2013;" horiz-adv-x="1024" d="M-6 436l14 115h1024l-14 -115h-1024z" />
<glyph unicode="&#x2014;" horiz-adv-x="2048" d="M-6 436l14 115h2048l-14 -115h-2048z" />
<glyph unicode="&#x2018;" horiz-adv-x="391" d="M156 1059q0 45 15 77.5t42 69.5l96 135l78 -8l-82 -164q27 -8 43.5 -32.5t16.5 -57.5q0 -47 -31 -85t-84 -38q-45 0 -69.5 29t-24.5 74z" />
<glyph unicode="&#x2019;" horiz-adv-x="391" d="M147 821l82 164q-27 8 -43 32.5t-16 57.5q0 47 30.5 85t84.5 38q45 0 69.5 -28.5t24.5 -73.5t-15.5 -78t-41.5 -70l-97 -135z" />
<glyph unicode="&#x201a;" horiz-adv-x="391" d="M25 -168l81 164q-27 8 -43 32.5t-16 57.5q0 47 31 85t84 38q45 0 69.5 -28.5t24.5 -74.5q0 -45 -15.5 -77.5t-41.5 -69.5l-97 -135z" />
<glyph unicode="&#x201c;" horiz-adv-x="724" d="M162 1059q0 45 15.5 77.5t41.5 69.5l96 135l78 -8l-82 -164q27 -8 43.5 -32.5t16.5 -57.5q0 -47 -31 -85t-84 -38q-45 0 -69.5 29t-24.5 74zM489 1059q0 45 15.5 77.5t42.5 69.5l96 135l78 -8l-82 -164q27 -8 43 -32.5t16 -57.5q0 -47 -30.5 -85t-83.5 -38q-45 0 -70 29 t-25 74z" />
<glyph unicode="&#x201d;" horiz-adv-x="727" d="M150 819l81 164q-27 8 -43 32.5t-16 57.5q0 47 30.5 85t84.5 38q45 0 69.5 -28.5t24.5 -73.5t-15.5 -78t-41.5 -70l-97 -135zM475 819l82 164q-27 8 -43 32.5t-16 57.5q0 47 30.5 85t83.5 38q45 0 70 -28.5t25 -73.5t-15.5 -78t-42.5 -70l-96 -135z" />
<glyph unicode="&#x201e;" horiz-adv-x="727" d="M29 -168l82 164q-27 8 -43.5 32.5t-16.5 57.5q0 47 31 85t84 38q45 0 69.5 -28.5t24.5 -74.5q0 -45 -15.5 -77.5t-41.5 -69.5l-97 -135zM354 -168l82 164q-27 8 -43 32.5t-16 57.5q0 47 30.5 85t84.5 38q45 0 69.5 -28.5t24.5 -74.5q0 -45 -15.5 -77.5t-42.5 -69.5 l-96 -135z" />
<glyph unicode="&#x2022;" horiz-adv-x="602" d="M125 571q6 86 59.5 135.5t137.5 49.5q78 0 124 -48.5t46 -127.5q0 -94 -54.5 -146.5t-140.5 -52.5q-80 0 -126 49t-46 141z" />
<glyph unicode="&#x2026;" horiz-adv-x="1064" d="M61 84q0 59 34 88t83 29q41 0 67.5 -29t26.5 -76t-29.5 -80.5t-82.5 -33.5q-45 0 -72 28.5t-27 73.5zM385 84q0 59 34 88t83 29q41 0 67.5 -29t26.5 -76t-30 -80.5t-83 -33.5q-45 0 -71.5 28.5t-26.5 73.5zM713 84q0 59 33.5 88t82.5 29q41 0 68 -29t27 -76t-30 -80.5 t-83 -33.5q-45 0 -71.5 28.5t-26.5 73.5z" />
<glyph unicode="&#x202f;" horiz-adv-x="339" />
<glyph unicode="&#x2039;" horiz-adv-x="663" d="M100 553l457 448l72 -88l-373 -360l285 -375l-97 -78z" />
<glyph unicode="&#x203a;" horiz-adv-x="663" d="M43 186l377 367l-285 369l96 79l344 -448l-456 -455z" />
<glyph unicode="&#x2044;" horiz-adv-x="323" d="M-233 0l755 1190h105l-758 -1190h-102z" />
<glyph unicode="&#x205f;" horiz-adv-x="424" />
<glyph unicode="&#x2070;" horiz-adv-x="565" d="M92 823q0 176 72 276.5t207 100.5q102 0 152 -65.5t50 -176.5q0 -178 -71.5 -275t-206.5 -97q-102 0 -152.5 63t-50.5 174zM203 836q0 -66 22.5 -113t81.5 -47q39 0 69 23.5t49 62.5t28.5 88t9.5 98q0 66 -22.5 113t-80.5 47q-43 0 -73.5 -23.5t-49 -62.5t-26.5 -88 t-8 -98z" />
<glyph unicode="&#x2074;" horiz-adv-x="557" d="M80 711l12 108l287 371h153l-49 -391h64l-10 -88h-64l-14 -115h-107l15 115h-287zM174 799h203l33 272l18 35h-8l-217 -285l-27 -14z" />
<glyph unicode="&#x2075;" horiz-adv-x="512" d="M80 602v100q33 -10 67.5 -17t75.5 -7q66 0 117 24.5t51 83.5q0 57 -59.5 79t-134.5 22h-62l37 303h348l-12 -98l-74 8h-168l-16 -133q51 0 97 -10.5t80 -32t54.5 -55t20.5 -81.5q0 -55 -23.5 -93t-62.5 -62.5t-88 -35.5t-101 -11q-45 0 -83 5t-64 11z" />
<glyph unicode="&#x2076;" horiz-adv-x="546" d="M92 831q0 164 80 266.5t242 102.5q39 0 74.5 -5t50.5 -9v-101q-27 10 -61 16.5t-68 6.5q-158 0 -189 -158q27 2 47.5 4t40.5 2q102 0 169 -43t67 -131q0 -98 -66.5 -148t-167.5 -50q-113 0 -166 70.5t-53 176.5zM203 821q0 -66 24.5 -107.5t89.5 -41.5q51 0 84 27.5 t33 78.5q0 53 -42 78t-103 25q-45 0 -82 -7q-4 -14 -4 -27v-26z" />
<glyph unicode="&#x2077;" horiz-adv-x="471" d="M102 1092l11 98h401l-12 -105q-68 -61 -112 -125.5t-70.5 -128t-39 -121t-18.5 -104.5l-2 -10h-110l2 16q12 109 58 229t159 238l28 13v8h-211z" />
<glyph unicode="&#x2078;" horiz-adv-x="569" d="M86 737q0 57 36 97t87 63v8q-31 16 -52.5 45t-21.5 70q0 45 20.5 80t53.5 56.5t75 32.5t85 11q41 0 77.5 -10t65.5 -28.5t46 -46.5t17 -62q0 -59 -31.5 -95t-78.5 -57l-2 -8q39 -23 61.5 -52.5t22.5 -70.5q0 -49 -20.5 -84t-55.5 -57.5t-79 -32.5t-89 -10 q-90 0 -153.5 36.5t-63.5 114.5zM188 752q0 -37 35 -58.5t82 -21.5t87 21.5t40 68.5q0 35 -32.5 55.5t-75.5 36.5l-25 6q-43 -16 -77 -41.5t-34 -66.5zM246 1028q0 -35 30.5 -52.5t71.5 -31.5l23 -8q33 10 68.5 35.5t35.5 68.5q0 37 -33.5 56.5t-76.5 19.5t-81 -20.5 t-38 -67.5z" />
<glyph unicode="&#x2079;" horiz-adv-x="548" d="M100 1001q0 98 66.5 148.5t167.5 50.5q113 0 166 -70.5t53 -177.5q0 -164 -80 -266t-242 -102q-39 0 -74.5 5t-50.5 9v100q27 -10 61 -16t69 -6q158 0 188 158q-27 -2 -47.5 -4.5t-40.5 -2.5q-102 0 -169 43t-67 131zM211 1006q0 -53 42 -78t103 -25q45 0 82 6 q4 14 4 27.5v26.5q0 66 -24.5 107.5t-89.5 41.5q-51 0 -84 -27.5t-33 -78.5z" />
<glyph unicode="&#x207d;" horiz-adv-x="337" d="M115 809q0 43 6 86q16 125 66.5 232.5t109.5 193.5l63 -45q-29 -43 -57.5 -93t-51 -108.5t-36.5 -126t-14 -143.5q0 -86 19.5 -158t45.5 -131l-71 -43q-33 68 -56.5 153t-23.5 183z" />
<glyph unicode="&#x207e;" horiz-adv-x="337" d="M74 516q59 88 108 204t49 269q0 86 -18 157t-45 130l70 45q33 -72 56 -158t23 -184v-40.5t-4 -43.5q-16 -123 -66 -230.5t-110 -191.5z" />
<glyph unicode="&#x207f;" horiz-adv-x="610" d="M98 594l62 500v98q8 4 21.5 8t29.5 4q31 0 46 -21.5t17 -49.5v-23h11q25 39 63.5 65.5t95.5 26.5q82 0 124 -43t42 -119v-19t-2 -22l-49 -405q-4 -4 -17.5 -8t-31.5 -4q-66 0 -66 71q0 10 1 22.5t4 22.5l34 283q2 10 2 21.5v15.5q0 39 -20.5 61.5t-61.5 22.5 q-37 0 -63.5 -16.5t-43.5 -45t-27.5 -65.5t-14.5 -78l-35 -303h-121z" />
<glyph unicode="&#x20ac;" d="M47 358l35 99h86q0 29 6 78t19 92h-113l35 98h104q68 178 201 277.5t328 99.5q82 0 145 -13.5t92 -23.5l-57 -154q-31 14 -82 25.5t-94 11.5q-123 0 -203 -56t-125 -167h403q-10 -25 -18 -49.5t-16 -48.5h-402q-8 -23 -16 -67t-8 -85q0 -10 2 -18h426l-35 -99h-385 q12 -102 73.5 -162.5t172.5 -60.5q86 0 156.5 29t109.5 61v-164q-14 -10 -38 -23t-59.5 -25.5t-83 -21.5t-110.5 -9q-186 0 -294.5 100t-127.5 276h-127z" />
<glyph unicode="&#x2122;" horiz-adv-x="1077" d="M143 1327l9 76h321l-8 -76h-117l-57 -469h-96l12 60l51 409h-115zM459 856l16 62l72 485h149l60 -393l-2 -29h8l6 29l156 393h149l-10 -62l-43 -485h-90l45 459h-8l-6 -31l-175 -428h-88l-69 428l4 33h-8l-68 -461h-98z" />
<glyph unicode="&#x2153;" horiz-adv-x="1179" d="M86 596l10 90h154l57 379l-6 2l-25 -37q-29 -23 -67.5 -38t-75.5 -25l-6 100q49 10 102.5 41t96.5 82h108l-76 -504h131l-10 -90h-393zM137 0l821 1190h103l-821 -1190h-103zM635 6v98q16 -4 63 -14t95 -10q20 0 48.5 3t54.5 13t43 28.5t17 49.5q0 53 -41 70.5t-100 17.5 h-80l8 76h80q59 0 106.5 20.5t47.5 77.5q0 47 -39 63.5t-90 16.5q-39 0 -79 -7t-75 -17l39 100q16 4 54 9t85 5q43 0 82 -9t70 -27.5t48.5 -48t17.5 -70.5q0 -51 -28 -89t-77 -55v-8q35 -16 58.5 -47t23.5 -80q0 -53 -24.5 -88t-65.5 -56.5t-92 -30.5t-103 -9q-43 0 -85 7 t-62 11z" />
<glyph unicode="&#x2154;" horiz-adv-x="1191" d="M61 594l13 108q90 53 153.5 94.5t103.5 76t58.5 66.5t18.5 69q0 47 -37 73.5t-97 26.5q-39 0 -75.5 -7t-75.5 -18l37 101q18 4 55 11t78 7q94 0 160.5 -47t66.5 -139q0 -49 -17.5 -89t-53 -77t-91 -75t-133.5 -83l2 -8h209l78 8l-12 -98h-441zM154 0l821 1190h102 l-823 -1190h-100zM627 6v98q16 -4 63 -14t94 -10q20 0 49 3t54.5 13t43 28.5t17.5 49.5q0 53 -41 70.5t-100 17.5h-80l8 76h80q59 0 106.5 20.5t47.5 77.5q0 47 -39 63.5t-90 16.5q-39 0 -79 -7t-75 -17l39 100q16 4 54 9t85 5q43 0 82 -9t70 -27.5t48 -48t17 -70.5 q0 -51 -27.5 -89t-76.5 -55v-8q35 -16 58.5 -47t23.5 -80q0 -53 -24.5 -88t-65.5 -56.5t-92.5 -30.5t-102.5 -9q-43 0 -85 7t-62 11z" />
<glyph unicode="&#x215b;" horiz-adv-x="1179" d="M86 596l10 90h154l57 379l-6 2l-25 -37q-29 -23 -67.5 -38t-75.5 -25l-6 100q49 10 102.5 41t96.5 82h108l-76 -504h131l-10 -90h-393zM139 0l822 1190h102l-823 -1190h-101zM602 143q0 57 36 97.5t87 62.5v8q-31 16 -52.5 45t-21.5 70q0 45 20.5 80t53.5 56.5t75 32.5 t85 11q41 0 77.5 -10t65.5 -28.5t46.5 -46t17.5 -62.5q0 -59 -32 -95t-79 -57l-2 -8q39 -23 61.5 -52.5t22.5 -70.5q0 -49 -20.5 -84t-55.5 -57.5t-79 -32.5t-89 -10q-90 0 -153.5 37t-63.5 114zM705 158q0 -37 34.5 -58.5t81.5 -21.5t87 21.5t40 68.5q0 35 -32.5 54.5 t-75.5 35.5l-25 8q-43 -16 -76.5 -41.5t-33.5 -66.5zM762 434q0 -35 30.5 -52t71.5 -32l23 -8q33 10 68.5 35.5t35.5 68.5q0 37 -33.5 56.5t-76.5 19.5t-81 -20.5t-38 -67.5z" />
<glyph unicode="&#x215c;" horiz-adv-x="1173" d="M78 600v98q16 -4 63 -14t95 -10q20 0 48.5 3t54.5 13t43 28.5t17 49.5q0 53 -41 70.5t-100 17.5h-80l8 76h80q59 0 106.5 20.5t47.5 77.5q0 47 -39 63.5t-90 16.5q-39 0 -79 -7t-75 -18l39 101q16 4 54 9t85 5q43 0 82 -9t70 -27.5t48 -48.5t17 -71q0 -51 -27.5 -88.5 t-76.5 -54.5v-8q35 -16 58.5 -47t23.5 -80q0 -53 -24.5 -88t-65.5 -56.5t-92.5 -30.5t-102.5 -9q-43 0 -85 7t-62 11zM131 0l821 1190h103l-824 -1190h-100zM590 143q0 57 36 97.5t87 62.5v8q-31 16 -52.5 45t-21.5 70q0 45 20.5 80t53 56.5t74.5 32.5t85 11q41 0 78 -10 t65.5 -28.5t46 -46t17.5 -62.5q0 -59 -31.5 -95t-78.5 -57l-2 -8q39 -23 61.5 -52.5t22.5 -70.5q0 -49 -20.5 -84t-55.5 -57.5t-79 -32.5t-89 -10q-90 0 -153.5 37t-63.5 114zM692 158q0 -37 35 -58.5t82 -21.5t87 21.5t40 68.5q0 35 -33 54.5t-76 35.5l-24 8 q-43 -16 -77 -41.5t-34 -66.5zM750 434q0 -35 30.5 -52t71.5 -32l22 -8q33 10 69 35.5t36 68.5q0 37 -34 56.5t-77 19.5t-80.5 -20.5t-37.5 -67.5z" />
<glyph unicode="&#x215d;" horiz-adv-x="1177" d="M80 602v100q33 -10 67.5 -17t75.5 -7q66 0 117 24.5t51 83.5q0 57 -59.5 79t-134.5 22h-62l37 303h348l-12 -98l-74 8h-168l-16 -133q51 0 97 -10.5t80 -32t54.5 -55t20.5 -81.5q0 -55 -23.5 -93t-62.5 -62.5t-88 -35.5t-101 -11q-45 0 -83 5t-64 11zM125 0l823 1190h101 l-861 -1190h-63zM592 143q0 57 36 97.5t87 62.5v8q-31 16 -52.5 45t-21.5 70q0 45 20.5 80t53.5 56.5t74.5 32.5t84.5 11q41 0 78 -10t66 -28.5t46 -46t17 -62.5q0 -59 -31.5 -95t-78.5 -57l-2 -8q39 -23 61.5 -52.5t22.5 -70.5q0 -49 -20.5 -84t-55.5 -57.5t-79 -32.5 t-89 -10q-90 0 -153.5 37t-63.5 114zM694 158q0 -37 35 -58.5t82 -21.5t87 21.5t40 68.5q0 35 -33 54.5t-76 35.5l-24 8q-43 -16 -77 -41.5t-34 -66.5zM752 434q0 -35 30.5 -52t71.5 -32l23 -8q33 10 68.5 35.5t35.5 68.5q0 37 -34 56.5t-77 19.5t-80.5 -20.5t-37.5 -67.5z " />
<glyph unicode="&#x215e;" horiz-adv-x="1087" d="M16 0l822 1190h102l-823 -1190h-101zM102 1092l11 98h401l-12 -105q-68 -61 -112 -125.5t-70.5 -128t-39 -121t-18.5 -104.5l-2 -10h-110l2 16q12 109 58 229t159 238l28 13v8h-211zM510 143q0 57 36 97.5t87 62.5v8q-31 16 -52.5 45t-21.5 70q0 45 20.5 80t53.5 56.5 t75 32.5t85 11q41 0 77.5 -10t65.5 -28.5t46 -46t17 -62.5q0 -59 -31.5 -95t-78.5 -57l-2 -8q39 -23 61.5 -52.5t22.5 -70.5q0 -49 -20.5 -84t-55.5 -57.5t-79 -32.5t-89 -10q-90 0 -153.5 37t-63.5 114zM612 158q0 -37 35 -58.5t82 -21.5t87 21.5t40 68.5q0 35 -32.5 54.5 t-75.5 35.5l-25 8q-43 -16 -77 -41.5t-34 -66.5zM670 434q0 -35 30.5 -52t71.5 -32l23 -8q33 10 68.5 35.5t35.5 68.5q0 37 -34 56.5t-77 19.5t-80.5 -20.5t-37.5 -67.5z" />
<glyph unicode="&#x2160;" horiz-adv-x="512" d="M-68 0l9 61h149l19 76l108 885h-160l6 61h529l-6 -61h-168l-119 -961h168l-8 -61h-527z" />
<glyph unicode="&#x2164;" horiz-adv-x="962" d="M-70 0l9 61h329l-141 961h-72l6 61h983l-6 -61h-73l-383 -961h338l-9 -61h-981zM336 1022l98 -786v-70h8l19 70l266 712l18 74h-409z" />
<glyph unicode="&#x2169;" horiz-adv-x="1001" d="M-68 0l9 61h79l334 496l-190 465h-107l6 61h1018l-6 -61h-110l-306 -465l213 -496h84l-8 -61h-1016zM252 61h397l-137 330l-12 66h-8l-29 -66l-187 -276zM385 1022l117 -307l12 -66h8l29 64l164 258l22 51h-352z" />
<glyph unicode="&#x216c;" horiz-adv-x="768" d="M-63 0l8 61h143l16 64l111 897h-154l7 61h774l-6 -61h-420l-107 -856h346l-12 -105h74l-8 -61h-772z" />
<glyph unicode="&#x216d;" horiz-adv-x="897" d="M-74 0l8 61h302q-80 51 -126.5 148.5t-46.5 241.5q0 205 85 352t223 219h-322l8 61h928l-8 -61h-105l-51 -145q-37 16 -86 28.5t-104 12.5q-86 0 -152.5 -36t-113 -97.5t-70 -145.5t-23.5 -178q0 -61 13.5 -115.5t43 -94.5t75 -63.5t108.5 -23.5q49 0 89 11t74 29.5 t58.5 41t42.5 43.5l25 -176q-10 -8 -35 -24.5t-51 -27.5h145l-8 -61h-926z" />
<glyph unicode="&#x216e;" horiz-adv-x="1181" d="M-74 0l8 61h218l16 74l108 887h-227l8 61h1235l-8 -61h-397q178 -111 178 -397q0 -215 -66.5 -355.5t-183.5 -208.5h352l-8 -61h-1233zM375 162h168q162 0 238.5 122t76.5 349q0 141 -57.5 215t-188.5 74h-143z" />
<glyph unicode="&#x216f;" horiz-adv-x="1464" d="M-59 0l8 61h129l20 64l162 897h-194l6 61h1464l-6 -61h-195l-8 -66l-57 -895h141l-8 -61h-1462zM287 61h288l-137 799v64h-10zM590 1022l106 -700v-58h11l16 58l281 700h-414zM780 61h289l72 861h-8l-17 -64z" />
<glyph unicode="&#x25fc;" horiz-adv-x="993" d="M0 0v993h993v-993h-993z" />
<glyph horiz-adv-x="2056" d="M98 547q0 166 45 306t130 243.5t207 161t276 57.5q39 0 77.5 -4t73.5 -10.5t61.5 -12.5t39.5 -10l-70 -188q-37 14 -88 25t-119 11q-98 0 -174 -43t-128 -116.5t-79.5 -173t-27.5 -209.5q0 -88 21.5 -165t65.5 -133.5t110.5 -88t158.5 -31.5q86 0 161.5 16.5t143.5 42.5 l131 1071h213l-65 -534h456l66 534h223l-31 -143l-141 -1153h-211l72 586h-457l-61 -504q-111 -35 -248 -67.5t-301 -32.5q-127 0 -225.5 40.5t-166 114.5t-103.5 178.5t-36 231.5z" />
<glyph horiz-adv-x="1921" d="M98 547q0 166 45 306t130 243.5t207 161t276 57.5q39 0 77.5 -4t73.5 -10.5t61.5 -12.5t39.5 -10l-70 -188q-37 14 -88 25t-119 11q-98 0 -174 -43t-128 -116.5t-79.5 -173t-27.5 -209.5q0 -88 21.5 -165t65.5 -133.5t110.5 -88t158.5 -31.5q86 0 169 16.5t150 42.5 l142 1147l211 10l-33 -168l-41 -335h10q49 53 115.5 84.5t152.5 31.5q127 0 192.5 -74.5t65.5 -195.5q0 -14 -1 -28.5t-3 -30.5l-82 -666q-8 -4 -29.5 -12t-47.5 -8q-55 0 -82 34.5t-27 94.5q0 16 2 36.5t4 32.5l60 477q2 10 2 18.5v18.5q0 66 -35 100.5t-100 34.5 q-57 0 -99.5 -23.5t-71 -65.5t-47 -101t-26.5 -131l-51 -424q-111 -35 -248 -67.5t-301 -32.5q-127 0 -225.5 40.5t-166 114.5t-103.5 178.5t-36 231.5z" />
<glyph horiz-adv-x="1740" d="M57 432q0 125 39 229.5t109.5 178t169 114.5t215.5 41q66 0 124 -10t93 -20l-59 -166q-35 14 -80 22t-88 8q-74 0 -133.5 -28.5t-101.5 -78.5t-63.5 -121t-21.5 -155q0 -133 67.5 -218t213.5 -85q74 0 146.5 15.5t127.5 38.5l143 1175l211 10l-32 -168l-41 -335h10 q49 53 115.5 84.5t152.5 31.5q127 0 192.5 -74.5t65.5 -195.5q0 -14 -1 -28.5t-3 -30.5l-82 -666q-8 -4 -29.5 -12t-48.5 -8q-55 0 -81.5 34.5t-26.5 94.5q0 16 2 36.5t4 32.5l59 477q2 10 2 18.5v18.5q0 66 -34.5 100.5t-100.5 34.5q-57 0 -99 -23.5t-70.5 -65.5t-47 -101 t-26.5 -131l-54 -438q-27 -8 -76 -22.5t-113.5 -29t-139 -24.5t-154.5 -10q-213 0 -334 119.5t-121 330.5z" />
<glyph horiz-adv-x="1970" d="M98 547q0 166 45 306t130 243.5t207 161t276 57.5q39 0 77.5 -4t73.5 -10.5t61.5 -12.5t39.5 -10l-70 -188q-37 14 -88 25t-119 11q-98 0 -174 -43t-128 -116.5t-79.5 -173t-27.5 -209.5q0 -88 21.5 -165t65.5 -133.5t110.5 -88t158.5 -31.5q86 0 169 16.5t150 42.5 l105 858h201l-54 -444h383l54 444h212l-26 -125l-119 -958h-201l60 483h-383l-47 -401q-111 -35 -250 -67.5t-303 -32.5q-127 0 -225.5 40.5t-166 114.5t-103.5 178.5t-36 231.5z" />
<glyph horiz-adv-x="1849" d="M84 465q0 150 42 268.5t117.5 200.5t183.5 125t237 43q59 0 121.5 -10.5t99.5 -20.5l-60 -172q-35 16 -77.5 25.5t-94.5 9.5q-88 0 -154.5 -34t-112.5 -93t-69.5 -141t-23.5 -177q0 -156 75.5 -249t227.5 -93q86 0 151.5 15.5t124.5 38.5l107 882h203l-54 -442h383 l54 442h213l-27 -133l-117 -950h-202l59 485h-383l-49 -407q-104 -35 -234.5 -64.5t-271.5 -29.5q-113 0 -200 34.5t-147.5 98t-91 151.5t-30.5 197z" />
<glyph horiz-adv-x="1032" d="M-8 0l475 1083h293l164 -1083h-230v133l-20 172h-344l-129 -305h-209zM395 461h258l-53 418v67h-8l-19 -67z" />
<glyph horiz-adv-x="1032" d="M-8 0l475 1083h293l164 -1083h-230v133l-20 172h-344l-129 -305h-209zM395 461h258l-53 418v67h-8l-19 -67zM401 1237l377 223l60 -149l-383 -144z" />
<glyph horiz-adv-x="1032" d="M-8 0l475 1083h293l164 -1083h-230v133l-20 172h-344l-129 -305h-209zM356 1255l226 172q20 16 37.5 20.5t29.5 4.5t27.5 -4t32.5 -21l184 -172l-70 -69l-194 100l-219 -100zM395 461h258l-53 418v67h-8l-19 -67z" />
<glyph horiz-adv-x="1032" d="M-8 0l475 1083h293l164 -1083h-230v133l-20 172h-344l-129 -305h-209zM395 461h258l-53 418v67h-8l-19 -67zM434 1196l31 254h137l-31 -254h-137zM672 1196l30 254h134l-31 -254h-133z" />
<glyph horiz-adv-x="1425" d="M-8 0l446 1083h901l-6 -155h-440l-12 -295h407l-6 -152h-408l-14 -325h457l-6 -156h-670l25 109l10 165h-373l-108 -274h-203zM365 430h315l25 514h-136z" />
<glyph horiz-adv-x="1032" d="M-8 0l475 1083h293l164 -1083h-230v133l-20 172h-344l-129 -305h-209zM395 461h258l-53 418v67h-8l-19 -67zM440 1311l97 149l319 -223l-70 -70z" />
<glyph horiz-adv-x="1032" d="M-8 0l475 1083h293l164 -1083h-230v133l-20 172h-344l-129 -305h-209zM395 461h258l-53 418v67h-8l-19 -67zM432 1296q0 96 65.5 145.5t159.5 49.5q82 0 130.5 -35.5t48.5 -107.5q0 -96 -64.5 -143.5t-159.5 -47.5q-84 0 -132 35t-48 104zM563 1311q0 -59 62 -60 q37 0 57 22.5t20 63.5q0 59 -59 60q-35 0 -57.5 -22.5t-22.5 -63.5z" />
<glyph horiz-adv-x="1032" d="M-8 0l475 1083h293l164 -1083h-230v133l-20 172h-344l-129 -305h-209zM330 1241l30 129q8 4 56.5 24.5t113.5 20.5q59 0 127 -18.5t140 -18.5q43 0 77.5 7.5t63.5 17.5l-31 -125q-10 -6 -56 -25.5t-112 -19.5q-61 0 -130.5 17.5t-137.5 17.5q-45 0 -77 -8.5t-64 -18.5z M395 461h258l-53 418v67h-8l-19 -67z" />
<glyph horiz-adv-x="1040" d="M86 0l31 135l116 948h435q63 0 116.5 -16t93.5 -48t62.5 -80t22.5 -112q0 -100 -46.5 -167.5t-117.5 -98.5l-2 -8q57 -35 91 -90t34 -139t-28 -144.5t-77 -100.5t-115.5 -59.5t-146.5 -19.5h-469zM324 158h180q98 0 154.5 36.5t56.5 137.5q0 72 -40 113.5t-126 41.5h-184 zM379 618h188q80 0 131.5 41t51.5 127q0 68 -35 105t-117 37h-180z" />
<glyph horiz-adv-x="888" d="M84 436q0 156 41 279t116.5 209t183 132t239.5 46q74 0 136 -12.5t101 -26.5l-63 -172q-43 20 -91.5 31.5t-101.5 11.5q-82 0 -147.5 -35t-110.5 -98.5t-69.5 -151.5t-24.5 -192q0 -135 60.5 -221t189.5 -86q86 0 159.5 33.5t110.5 72.5v-197q-41 -25 -110.5 -51 t-194.5 -26q-94 0 -172 31.5t-134.5 90t-87 142.5t-30.5 190z" />
<glyph horiz-adv-x="888" d="M84 436q0 156 41 279t116.5 209t183 132t239.5 46q74 0 136 -12.5t101 -26.5l-63 -172q-43 20 -91.5 31.5t-101.5 11.5q-82 0 -147.5 -35t-110.5 -98.5t-69.5 -151.5t-24.5 -192q0 -135 60.5 -221t189.5 -86q86 0 159.5 33.5t110.5 72.5v-197q-37 -23 -98.5 -47 t-165.5 -28l-8 -66q51 0 91 -27.5t40 -80.5q0 -41 -19.5 -71t-50.5 -50.5t-70.5 -30.5t-80.5 -10q-51 0 -83 6t-49 10l25 82q16 -4 42 -8t54 -4q37 0 70 15t33 52q0 25 -19.5 36t-54.5 11q-14 0 -30.5 -2t-30.5 -4l41 144q-166 16 -265.5 135t-99.5 315z" />
<glyph horiz-adv-x="1099" d="M86 0l31 135l116 948h353q215 0 321.5 -117.5t106.5 -340.5q0 -311 -136.5 -468t-363.5 -157h-428zM324 162h168q162 0 238.5 122t76.5 349q0 141 -57.5 215t-188.5 74h-143z" />
<glyph horiz-adv-x="882" d="M86 0l33 143l114 940h662l-18 -157h-461l-37 -293h434l-18 -156h-435l-38 -319h473l-21 -158h-688z" />
<glyph horiz-adv-x="882" d="M86 0l33 143l114 940h662l-18 -157h-461l-37 -293h434l-18 -156h-435l-38 -319h473l-21 -158h-688zM387 1237l377 223l61 -149l-385 -144z" />
<glyph horiz-adv-x="882" d="M86 0l33 143l114 940h662l-18 -157h-461l-37 -293h434l-18 -156h-435l-38 -319h473l-21 -158h-688zM324 1255l225 172q20 16 36.5 20.5t28.5 4.5q10 0 26.5 -4t33.5 -21l184 -172l-67 -69l-197 94l-217 -94z" />
<glyph horiz-adv-x="882" d="M86 0l33 143l114 940h662l-18 -157h-461l-37 -293h434l-18 -156h-435l-38 -319h473l-21 -158h-688zM397 1196l31 254h135l-31 -254h-135zM633 1196l31 254h133l-31 -254h-133z" />
<glyph horiz-adv-x="882" d="M86 0l33 143l114 940h662l-18 -157h-461l-37 -293h434l-18 -156h-435l-38 -319h473l-21 -158h-688zM387 1311l96 149l320 -223l-68 -70z" />
<glyph horiz-adv-x="1099" d="M43 551l127 27l63 505h353q215 0 321.5 -117.5t106.5 -340.5q0 -311 -136.5 -468t-363.5 -157h-428l31 135l39 322l-105 -23zM324 162h168q162 0 238.5 122t76.5 349q0 141 -57.5 215t-188.5 74h-143l-37 -301l172 36l10 -114l-198 -43z" />
<glyph horiz-adv-x="849" d="M86 0l27 125l116 958h641l-18 -157h-444l-41 -328h409l-18 -156h-410l-55 -442h-207z" />
<glyph horiz-adv-x="1017" d="M84 442q0 145 40 267t116.5 209.5t189.5 135.5t258 48q80 0 160 -13.5t133 -29.5l-57 -166q-47 16 -116 30.5t-132 14.5q-102 0 -175 -39t-120 -106.5t-68.5 -158.5t-21.5 -196q0 -61 12 -116.5t42 -96.5t76 -64.5t114 -23.5q47 0 84.5 11.5t68.5 27.5l31 262h-176 l18 146h371l-64 -510q-66 -35 -151.5 -63.5t-214.5 -28.5q-94 0 -171 28.5t-132.5 86t-85 143.5t-29.5 202z" />
<glyph horiz-adv-x="1099" d="M86 0l29 127l116 956h201l-53 -444h383l53 444h213l-27 -125l-118 -958h-201l59 483h-383l-59 -483h-213z" />
<glyph horiz-adv-x="503" d="M86 0l29 127l116 956h199l-133 -1083h-211z" />
<glyph horiz-adv-x="503" d="M86 0l29 127l116 956h199l-133 -1083h-211zM121 1237l379 223l61 -149l-387 -144z" />
<glyph horiz-adv-x="503" d="M66 1255l225 172q20 16 36.5 20.5t28.5 4.5t28.5 -4t33.5 -21l184 -172l-70 -69l-196 94l-217 -94zM86 0l29 127l116 956h199l-133 -1083h-211z" />
<glyph horiz-adv-x="503" d="M86 0l29 127l116 956h199l-133 -1083h-211zM160 1196l30 254h136l-31 -254h-135zM395 1196l31 254h133l-31 -254h-133z" />
<glyph horiz-adv-x="503" d="M86 0l29 127l116 956h199l-133 -1083h-211zM121 1311l98 149l320 -223l-70 -70z" />
<glyph horiz-adv-x="641" d="M0 147q10 -2 36.5 -4t35.5 -2q102 0 152 49.5t63 155.5l71 578l-227 16l16 143h443l-27 -127l-78 -639q-23 -176 -125 -255.5t-264 -79.5q-4 0 -17 1t-27.5 2t-27 2t-14.5 1z" />
<glyph horiz-adv-x="1015" d="M86 0l33 137l117 946h198l-55 -442h8l25 59l340 383h254l-394 -424l297 -659h-227l-213 494h-8l-115 -127l-45 -367h-215z" />
<glyph horiz-adv-x="776" d="M86 0l29 125l116 958h201l-113 -925h400l-21 -158h-612z" />
<glyph horiz-adv-x="1437" d="M68 0l32 135l158 948h303l123 -800v-60h10l13 60l335 800h312l-27 -137l-96 -946h-203l105 891h-11l-16 -62l-356 -829h-177l-143 831v62h-10l-139 -893h-213z" />
<glyph horiz-adv-x="1116" d="M86 0l31 133l116 950h263l249 -854h9v70l82 784h208l-30 -135l-117 -948h-256l-252 866h-10v-69l-84 -797h-209z" />
<glyph horiz-adv-x="1116" d="M86 0l31 133l116 950h263l249 -854h9v70l82 784h208l-30 -135l-117 -948h-256l-252 866h-10v-69l-84 -797h-209zM362 1239l33 129q2 2 16.5 9t37 15.5t52 14.5t62.5 6q61 0 129 -18.5t139 -18.5q43 0 78 7.5t62 17.5l-31 -125q-10 -6 -55 -25.5t-111 -19.5 q-63 0 -133 17.5t-137 17.5q-45 0 -78 -8.5t-64 -18.5z" />
<glyph horiz-adv-x="1093" d="M84 436q0 154 36 278t104.5 210t166.5 132t221 46q201 0 301.5 -126t100.5 -337q0 -156 -37 -277.5t-106.5 -206.5t-169 -129t-224.5 -44q-199 0 -296 120.5t-97 333.5zM293 442q0 -61 11 -115.5t36 -94t63.5 -63.5t94.5 -24q80 0 137 41t95 110t56.5 157t18.5 180 q0 63 -12.5 118.5t-38 96.5t-65.5 65.5t-95 24.5q-80 0 -137.5 -43t-94 -113.5t-53 -160t-16.5 -179.5z" />
<glyph horiz-adv-x="1093" d="M84 436q0 154 36 278t104.5 210t166.5 132t221 46q201 0 301.5 -126t100.5 -337q0 -156 -37 -277.5t-106.5 -206.5t-169 -129t-224.5 -44q-199 0 -296 120.5t-97 333.5zM293 442q0 -61 11 -115.5t36 -94t63.5 -63.5t94.5 -24q80 0 137 41t95 110t56.5 157t18.5 180 q0 63 -12.5 118.5t-38 96.5t-65.5 65.5t-95 24.5q-80 0 -137.5 -43t-94 -113.5t-53 -160t-16.5 -179.5zM420 1237l377 223l61 -149l-385 -144z" />
<glyph horiz-adv-x="1093" d="M84 436q0 154 36 278t104.5 210t166.5 132t221 46q201 0 301.5 -126t100.5 -337q0 -156 -37 -277.5t-106.5 -206.5t-169 -129t-224.5 -44q-199 0 -296 120.5t-97 333.5zM293 442q0 -61 11 -115.5t36 -94t63.5 -63.5t94.5 -24q80 0 137 41t95 110t56.5 157t18.5 180 q0 63 -12.5 118.5t-38 96.5t-65.5 65.5t-95 24.5q-80 0 -137.5 -43t-94 -113.5t-53 -160t-16.5 -179.5zM373 1255l225 172q20 16 37.5 20.5t30.5 4.5q12 0 27.5 -4t31.5 -21l184 -172l-69 -69l-195 100l-219 -100z" />
<glyph horiz-adv-x="1093" d="M84 436q0 154 36 278t104.5 210t166.5 132t221 46q201 0 301.5 -126t100.5 -337q0 -156 -37 -277.5t-106.5 -206.5t-169 -129t-224.5 -44q-199 0 -296 120.5t-97 333.5zM293 442q0 -61 11 -115.5t36 -94t63.5 -63.5t94.5 -24q80 0 137 41t95 110t56.5 157t18.5 180 q0 63 -12.5 118.5t-38 96.5t-65.5 65.5t-95 24.5q-80 0 -137.5 -43t-94 -113.5t-53 -160t-16.5 -179.5zM442 1196l31 254h135l-30 -254h-136zM678 1196l31 254h133l-31 -254h-133z" />
<glyph horiz-adv-x="1441" d="M84 424q0 162 38 286t109.5 206.5t173 124.5t228.5 42h821l-18 -157h-475l-35 -293h442l-18 -158h-443l-39 -317h486l-21 -158h-846q-193 2 -298 110.5t-105 313.5zM291 434q0 -123 52 -199.5t179 -76.5h142l94 768h-115q-92 0 -158.5 -37t-109.5 -101.5t-63.5 -155.5 t-20.5 -198z" />
<glyph horiz-adv-x="1093" d="M84 436q0 154 36 278t104.5 210t166.5 132t221 46q201 0 301.5 -126t100.5 -337q0 -156 -37 -277.5t-106.5 -206.5t-169 -129t-224.5 -44q-199 0 -296 120.5t-97 333.5zM293 442q0 -61 11 -115.5t36 -94t63.5 -63.5t94.5 -24q80 0 137 41t95 110t56.5 157t18.5 180 q0 63 -12.5 118.5t-38 96.5t-65.5 65.5t-95 24.5q-80 0 -137.5 -43t-94 -113.5t-53 -160t-16.5 -179.5zM457 1311l96 149l319 -223l-69 -70z" />
<glyph horiz-adv-x="1093" d="M45 -82l133 191q-94 115 -94 327q0 154 37 278t105.5 210t167 132t220.5 46q131 0 222 -55l88 124h104l-125 -180q113 -125 113 -352q0 -156 -38 -277.5t-107.5 -206.5t-169 -129t-224.5 -44q-74 0 -132 17t-105 50q-31 -43 -54.5 -75.5t-38.5 -55.5h-102zM293 442 q0 -82 18 -145l414 592q-53 49 -131 49q-80 0 -137.5 -43t-94 -113.5t-53 -160t-16.5 -179.5zM352 211q25 -31 61 -48.5t85 -17.5q80 0 137 41t96 110t57.5 157t18.5 180q0 49 -7 95t-24 83z" />
<glyph horiz-adv-x="1093" d="M84 436q0 154 36 278t104.5 210t166.5 132t221 46q201 0 301.5 -126t100.5 -337q0 -156 -37 -277.5t-106.5 -206.5t-169 -129t-224.5 -44q-199 0 -296 120.5t-97 333.5zM293 442q0 -61 11 -115.5t36 -94t63.5 -63.5t94.5 -24q80 0 137 41t95 110t56.5 157t18.5 180 q0 63 -12.5 118.5t-38 96.5t-65.5 65.5t-95 24.5q-80 0 -137.5 -43t-94 -113.5t-53 -160t-16.5 -179.5zM350 1241l33 129q2 2 16.5 9t37 15.5t52 14.5t62.5 6q61 0 129 -18.5t139 -18.5q43 0 78 7.5t61 17.5l-30 -125q-10 -6 -56.5 -25.5t-111.5 -19.5q-61 0 -131 17.5 t-137 17.5q-45 0 -77 -8.5t-65 -18.5z" />
<glyph horiz-adv-x="989" d="M86 0l27 135l116 948h392q160 0 246.5 -75.5t86.5 -227.5q0 -98 -29.5 -168.5t-81.5 -114.5t-124 -65.5t-156 -21.5h-213l-53 -410h-211zM369 565h147q98 0 166 47t68 156q0 86 -50.5 123t-140.5 37h-145z" />
<glyph horiz-adv-x="1093" d="M84 436q0 154 38 277t108.5 210t169 133t221.5 46q98 0 171.5 -33t124 -93.5t75 -144t24.5 -186.5q0 -129 -26.5 -237.5t-78 -192.5t-126 -140.5t-171.5 -80.5l-2 -10l70 -183h-182l-60 183q-176 10 -266 133t-90 319zM295 442q0 -61 11 -115.5t36 -94t63.5 -63.5 t94.5 -24q80 0 137 41t95 110t56.5 157t18.5 180q0 63 -12.5 118.5t-38 96.5t-65.5 65.5t-95 24.5q-80 0 -137.5 -43t-94 -113.5t-53 -160t-16.5 -179.5z" />
<glyph horiz-adv-x="1046" d="M86 0l29 135l114 948h424q145 0 231.5 -69.5t86.5 -210.5q0 -121 -62.5 -190.5t-148.5 -98.5l-2 -8q25 -12 42 -27.5t28.5 -39t18.5 -58.5t13 -86l31 -295h-209l-31 289q-6 49 -17 79.5t-31.5 47t-51.5 21.5t-76 5h-123l-55 -442h-211zM371 592h174q39 0 78 10t69.5 31.5 t49 56.5t18.5 86q0 72 -39 112t-125 40h-182z" />
<glyph horiz-adv-x="874" d="M10 20l58 168q51 -20 122.5 -34.5t139.5 -14.5q45 0 88 7.5t75.5 25.5t52 48t19.5 75q0 43 -31.5 73.5t-81 58.5t-104.5 55.5t-104 65.5t-81 89t-32 125q0 92 40 156.5t104.5 105.5t146.5 59.5t168 18.5q66 0 142.5 -10.5t123.5 -22.5l-55 -164q-41 16 -99.5 28.5 t-111.5 12.5q-43 0 -86 -7t-79 -24.5t-58.5 -47t-22.5 -74.5t33 -76t81 -58.5t105.5 -55.5t105.5 -64.5t80.5 -88t32.5 -124.5q0 -92 -37.5 -158t-102 -108t-147.5 -60t-171 -18q-106 0 -185.5 11t-128.5 27z" />
<glyph horiz-adv-x="802" d="M96 926l19 157h716l-18 -157h-258l-115 -926h-213l29 127l98 799h-258z" />
<glyph horiz-adv-x="993" d="M84 0l20 92l123 991h207l-20 -161h190q160 0 249 -74t89 -225q0 -98 -28.5 -170t-81 -117t-124 -66.5t-157.5 -21.5h-219l-33 -248h-215zM350 406h154q121 0 175 49t54 155q0 86 -50 122t-140 36h-148z" />
<glyph horiz-adv-x="1087" d="M131 299q0 16 1 36.5t3 35.5l74 569v143h217l-86 -698q-2 -18 -3 -32.5t-1 -28.5q0 -90 39 -135.5t131 -45.5q113 0 163 63.5t64 182.5l68 549v145h217l-86 -718q-25 -201 -130.5 -292t-312.5 -91q-174 0 -266 78.5t-92 238.5z" />
<glyph horiz-adv-x="1087" d="M131 299q0 16 1 36.5t3 35.5l74 569v143h217l-86 -698q-2 -18 -3 -32.5t-1 -28.5q0 -90 39 -135.5t131 -45.5q113 0 163 63.5t64 182.5l68 549v145h217l-86 -718q-25 -201 -130.5 -292t-312.5 -91q-174 0 -266 78.5t-92 238.5zM430 1237l377 223l59 -149l-383 -144z" />
<glyph horiz-adv-x="1087" d="M131 299q0 16 1 36.5t3 35.5l74 569v143h217l-86 -698q-2 -18 -3 -32.5t-1 -28.5q0 -90 39 -135.5t131 -45.5q113 0 163 63.5t64 182.5l68 549v145h217l-86 -718q-25 -201 -130.5 -292t-312.5 -91q-174 0 -266 78.5t-92 238.5zM362 1255l226 172q20 16 37.5 20.5 t29.5 4.5t27.5 -4t32.5 -21l184 -172l-70 -69l-194 100l-219 -100z" />
<glyph horiz-adv-x="1087" d="M131 299q0 16 1 36.5t3 35.5l74 569v143h217l-86 -698q-2 -18 -3 -32.5t-1 -28.5q0 -90 39 -135.5t131 -45.5q113 0 163 63.5t64 182.5l68 549v145h217l-86 -718q-25 -201 -130.5 -292t-312.5 -91q-174 0 -266 78.5t-92 238.5zM451 1196l30 254h135l-30 -254h-135z M686 1196l31 254h133l-31 -254h-133z" />
<glyph horiz-adv-x="1087" d="M131 299q0 16 1 36.5t3 35.5l74 569v143h217l-86 -698q-2 -18 -3 -32.5t-1 -28.5q0 -90 39 -135.5t131 -45.5q113 0 163 63.5t64 182.5l68 549v145h217l-86 -718q-25 -201 -130.5 -292t-312.5 -91q-174 0 -266 78.5t-92 238.5zM430 1311l98 149l320 -223l-70 -70z" />
<glyph horiz-adv-x="925" d="M113 1083h206l84 -852v-67h9l18 67l285 721l28 131h230l-441 -1083h-282z" />
<glyph horiz-adv-x="1542" d="M137 1083h211l62 -895h8l8 70l236 682l30 143h283l49 -825l-8 -70h10l260 738l33 157h229l-401 -1083h-281l-43 827v76h-10l-16 -76l-283 -827h-272z" />
<glyph horiz-adv-x="993" d="M-10 0l362 557l-202 526h221l127 -352l14 -65h8l27 63l155 223l60 131h239l-344 -526l226 -557h-232l-139 385l-14 66h-9l-28 -66l-154 -238l-74 -147h-243z" />
<glyph horiz-adv-x="901" d="M113 1083h213l114 -446l4 -68h9l20 68l199 321l51 125h225l-420 -688l-49 -395h-203l50 395z" />
<glyph horiz-adv-x="901" d="M113 1083h213l114 -446l4 -68h9l20 68l199 321l51 125h225l-420 -688l-49 -395h-203l50 395zM330 1237l377 223l61 -149l-385 -144z" />
<glyph horiz-adv-x="901" d="M113 1083h213l114 -446l4 -68h9l20 68l199 321l51 125h225l-420 -688l-49 -395h-203l50 395zM352 1196l31 254h135l-31 -254h-135zM588 1196l30 254h134l-31 -254h-133z" />
<glyph horiz-adv-x="858" d="M0 0l20 182l562 701l49 32v11h-504l18 157h713l-22 -180l-564 -702l-53 -33l2 -10h412l129 10l-25 -168h-737z" />
<glyph horiz-adv-x="585" d="M51 805q0 186 97.5 291.5t267.5 105.5q68 0 107.5 -4t60.5 -6l-62 -500v-98q-8 -4 -21.5 -8t-27.5 -4q-35 0 -46 22.5t-15 50.5l-2 27h-9q-8 -12 -20 -28.5t-32.5 -32t-50.5 -26.5t-69 -11q-88 0 -133 62.5t-45 158.5zM174 815q0 -53 20.5 -92t69.5 -39q43 0 74 22.5 t51.5 62.5t32.5 95.5t18 118.5l15 115q-8 0 -17 2q-8 0 -16 1t-19 1q-113 0 -171 -80t-58 -207z" />
<glyph horiz-adv-x="620" d="M94 598l21 88l92 750l121 8l-39 -320h8q6 8 18.5 21.5t32 27t47 22.5t64.5 9q88 0 134 -60.5t46 -156.5q0 -186 -96.5 -294.5t-284.5 -108.5q-35 0 -85 4t-79 10zM233 690q8 -2 17 -4q10 -2 37 -2q55 0 98 22.5t71.5 60.5t43 90t14.5 112q0 57 -22.5 96t-75.5 39 q-39 0 -68 -23.5t-48 -63.5t-31.5 -94.5t-20.5 -117.5z" />
<glyph horiz-adv-x="497" d="M82 838q0 80 24.5 146.5t68.5 115.5t106.5 75.5t138.5 26.5q49 0 88 -8t55 -12l-31 -103q-23 6 -53 14.5t-71 8.5q-49 0 -86 -20.5t-64 -55.5t-40 -82t-13 -100q0 -68 33.5 -115t101.5 -47q53 0 93 24.5t65 51.5v-121q-16 -12 -63.5 -32.5t-117.5 -20.5q-111 0 -173 68.5 t-62 185.5z" />
<glyph horiz-adv-x="598" d="M82 813q0 184 99.5 287.5t273.5 103.5h45l24 230l131 12l-20 -98l-80 -654v-98q-6 -4 -19.5 -8t-29.5 -4q-35 0 -46 21.5t-16 49.5l-2 29h-8q-6 -12 -19.5 -28.5t-35 -32t-51 -26.5t-68.5 -11q-90 0 -134 64.5t-44 162.5zM205 823q0 -57 22.5 -98t71.5 -41 q43 0 73.5 23.5t51 63.5t33 95.5t18.5 118.5l12 115h-16q-8 0 -15 1t-18 1q-113 0 -173 -77t-60 -202z" />
<glyph horiz-adv-x="583" d="M82 840q0 74 22.5 139t65.5 114.5t103.5 79t134.5 29.5q90 0 145 -42t55 -113q0 -53 -26.5 -90t-69.5 -61t-99.5 -37t-115.5 -19l-90 -9q0 -78 44 -113.5t116 -35.5q49 0 94 11.5t84 25.5l-31 -107q-20 -8 -66.5 -19t-105.5 -11q-129 0 -194.5 70.5t-65.5 187.5zM215 915 l88 11q76 10 124 34.5t48 71.5q0 33 -21.5 53.5t-62.5 20.5q-66 0 -113 -52.5t-63 -138.5z" />
<glyph horiz-adv-x="270" d="M102 662q0 8 1 16t1 16l64 494l121 10l-64 -506v-98q-8 -4 -16 -6q-16 -6 -35 -6q-41 0 -56.5 23.5t-15.5 56.5zM160 1368l92 86l74 -86l-95 -86z" />
<glyph horiz-adv-x="270" d="M102 668q0 6 1 16t1 21l93 733l118 10l-92 -754v-96q-8 -4 -21.5 -9t-27.5 -5q-39 0 -55.5 22.5t-16.5 61.5z" />
<glyph horiz-adv-x="931" d="M98 594l62 500v98q6 4 19.5 8t29.5 4q33 0 47 -20.5t16 -48.5l2 -23h9q27 35 67.5 62.5t95.5 27.5q57 0 98.5 -25.5t51.5 -66.5h10q29 39 72 65.5t100 26.5q74 0 114 -38t40 -111v-21.5t-2 -21.5l-49 -416q-4 -4 -18.5 -8t-31.5 -4q-68 0 -67 71q0 10 2 22.5t2 20.5 l37 299q2 10 2 17.5v11.5q0 78 -74 78q-68 0 -101.5 -55.5t-43.5 -145.5l-39 -307h-121l49 401q2 8 2 15.5v13.5q0 35 -18.5 56.5t-59.5 21.5q-68 0 -100.5 -55.5t-42.5 -145.5l-39 -307h-121z" />
<glyph horiz-adv-x="587" d="M82 836q0 80 21.5 147.5t60.5 115.5t95 74.5t128 26.5q113 0 166 -67.5t53 -180.5q0 -166 -81 -266t-224 -100q-113 0 -166 67.5t-53 182.5zM203 838q0 -66 24.5 -110t87.5 -44q43 0 76 20.5t53.5 56.5t30.5 83t10 102q0 66 -25.5 111t-88.5 45q-45 0 -77 -21.5 t-52.5 -57.5t-29.5 -84t-9 -101z" />
<glyph horiz-adv-x="421" d="M98 594l62 502v96q8 4 22.5 8t28.5 4q33 0 47 -19.5t16 -47.5l2 -23h9q63 88 178 88v-121q-10 2 -21.5 3t-19.5 1q-90 0 -123 -55t-43 -141l-37 -295h-121z" />
<glyph horiz-adv-x="507" d="M55 610l35 99q33 -12 72 -21.5t74 -9.5q49 0 87.5 12t43.5 60q0 37 -41 59t-90.5 48t-90.5 62.5t-41 100.5q0 49 23 84t59.5 56.5t84.5 30.5t98 9q41 0 83 -5t76 -15l-39 -101q-29 10 -63.5 17.5t-73.5 7.5q-45 0 -82 -12.5t-41 -53.5q0 -39 41 -61.5t90.5 -47t90.5 -60 t41 -97.5q0 -55 -24 -92t-62.5 -58.5t-89 -30.5t-103.5 -9q-41 0 -89 9t-69 19z" />
<glyph horiz-adv-x="356" d="M94 1092l10 90l72 10l31 129l112 63l-22 -194h125l-12 -98h-125l-39 -308q-2 -8 -2 -22q0 -80 88 -80h20.5t20.5 2l-29 -96q-16 -4 -43 -4q-86 0 -131 35.5t-45 117.5v20.5t2 20.5l39 314h-72z" />
<glyph horiz-adv-x="565" d="M-10 -12q0 176 71.5 276.5t206.5 100.5q102 0 152.5 -66t50.5 -176q0 -178 -71.5 -275.5t-206.5 -97.5q-102 0 -152.5 63.5t-50.5 174.5zM100 0q0 -66 22.5 -113t82.5 -47q39 0 68.5 23.5t49 62.5t28.5 88t9 99q0 66 -22.5 112.5t-79.5 46.5q-43 0 -73.5 -23.5t-49 -62.5 t-27 -88t-8.5 -98z" />
<glyph horiz-adv-x="509" d="M-14 -240l10 90h151l58 379l-6 2l-25 -36q-29 -23 -67.5 -38.5t-75.5 -25.5l-6 100q49 10 101 41t97 82h109l-76 -504h131l-10 -90h-391z" />
<glyph horiz-adv-x="536" d="M-37 -240l12 109q90 53 154 94t103.5 76t58 66.5t18.5 68.5q0 47 -36.5 73.5t-96.5 26.5q-39 0 -76 -7t-75 -17l36 100q18 4 55.5 11.5t78.5 7.5q94 0 160.5 -47.5t66.5 -139.5q0 -49 -17.5 -89t-53.5 -76.5t-91 -74.5t-133 -83l2 -9h209l78 9l-13 -99h-440z" />
<glyph horiz-adv-x="534" d="M-25 -135q16 -4 63.5 -14.5t94.5 -10.5q20 0 49 3t54.5 13.5t43 29t17.5 48.5q0 53 -41 71t-100 18h-80l8 75h80q59 0 106 20.5t47 78.5q0 47 -38.5 63t-90.5 16q-39 0 -78.5 -7t-74.5 -17l39 100q16 4 54 9.5t85 5.5q43 0 82 -9.5t69.5 -28t48 -48t17.5 -70.5 q0 -51 -27.5 -89t-76.5 -54v-9q35 -16 58.5 -46.5t23.5 -80.5q0 -53 -25 -87.5t-66 -56t-92 -31t-102 -9.5q-43 0 -85 7t-63 12v98z" />
<glyph horiz-adv-x="557" d="M-20 -127l12 109l282 370h154l-47 -391h63l-10 -88h-63l-15 -115h-106l14 115h-284zM72 -31v-8h202l33 272l17 35h-9l-217 -284z" />
<glyph horiz-adv-x="512" d="M-23 -135q33 -10 68 -17.5t76 -7.5q66 0 117 24.5t51 84.5q0 57 -59.5 78.5t-135.5 21.5h-61l37 303h348l-12 -98l-74 8h-168l-17 -133q51 0 97.5 -10t80 -31.5t54 -55.5t20.5 -81q0 -55 -23.5 -93t-62.5 -62.5t-88 -36t-100 -11.5q-45 0 -83 5t-65 11v101z" />
<glyph horiz-adv-x="546" d="M-8 -4q0 164 80 266.5t241 102.5q39 0 75 -5.5t50 -9.5v-100q-27 10 -60.5 16t-68.5 6q-158 0 -188 -157q27 2 47 4t41 2q102 0 168.5 -43t66.5 -131q0 -98 -66.5 -148.5t-166.5 -50.5q-113 0 -166 70.5t-53 177.5zM102 11.5v-25.5q0 -66 25 -108t90 -42q51 0 84 28 t33 79q0 53 -42 77.5t-104 24.5q-45 0 -82 -6q-4 -14 -4 -27.5z" />
<glyph horiz-adv-x="471" d="M0 252l10 98h402l-13 -104q-68 -61 -111.5 -126t-70.5 -128.5t-39 -120.5t-18 -104l-2 -11h-111l2 17q12 109 58.5 228.5t158.5 238.5l29 12v8h-211z" />
<glyph horiz-adv-x="569" d="M-16 -102q0 57 35.5 97t86.5 62v9q-31 16 -52 44.5t-21 69.5q0 45 20.5 80t53 56.5t74.5 32.5t85 11q41 0 78 -10t65.5 -28.5t46 -46t17.5 -62.5q0 -59 -31.5 -95t-79.5 -57l-2 -8q39 -23 61.5 -52.5t22.5 -70.5q0 -49 -20.5 -83.5t-55 -57t-78.5 -33t-89 -10.5 q-90 0 -153.5 37t-63.5 115zM86 -88q0 -37 35 -58.5t82 -21.5t87 21.5t40 68.5q0 35 -33 54.5t-76 35.5l-24 8q-43 -16 -77 -41.5t-34 -66.5zM143 188q0 -35 31 -52t72 -32l22 -8q33 10 69 36t36 69q0 37 -34 56t-77 19t-81 -20t-38 -68z" />
<glyph horiz-adv-x="548" d="M-2 168q0 98 66.5 148.5t166.5 50.5q113 0 166.5 -71t53.5 -177q0 -164 -80 -266.5t-242 -102.5q-39 0 -75 5t-50 9v101q27 -10 60.5 -16.5t68.5 -6.5q158 0 189 158q-27 -2 -47.5 -4t-41.5 -2q-102 0 -168.5 43t-66.5 131zM109 172q0 -53 42 -77.5t103 -24.5q45 0 82 6 q4 14 4 27.5v25.5q0 66 -24.5 108t-90.5 42q-51 0 -83.5 -28t-32.5 -79z" />
<glyph horiz-adv-x="337" d="M27 88q0 41 6 88q16 125 67.5 231.5t110.5 192.5l61 -43q-59 -88 -108 -204.5t-49 -270.5q0 -86 18.5 -155.5t44.5 -129.5l-74 -45q-33 70 -55 154t-22 182z" />
<glyph horiz-adv-x="337" d="M-12 -203q57 86 105 200t48 269q0 88 -17.5 160t-43.5 131l70 43q33 -72 56 -157t23 -183v-40.5t-4 -43.5q-16 -123 -67.5 -230.5t-110.5 -193.5z" />
<glyph horiz-adv-x="1011" d="M68 414q0 160 33.5 286.5t99 216t160 137.5t217.5 48q188 0 282 -118t94 -322q0 -324 -133 -502t-381 -178q-186 0 -279 114.5t-93 317.5zM270 436q0 -59 10.5 -112.5t33 -93.5t58.5 -62.5t89 -22.5q74 0 128 43t90 114t54.5 160t18.5 181q0 61 -10.5 114.5t-33 93.5 t-59.5 62.5t-90 22.5q-80 0 -135 -44t-89 -114.5t-49.5 -160t-15.5 -181.5z" />
<glyph horiz-adv-x="866" d="M31 0l20 166h277l92 690l-6 2l-43 -63q-57 -43 -127 -72t-138 -47l-12 184q90 20 187.5 75.5t175.5 147.5h202l-129 -917h246l-20 -166h-725z" />
<glyph horiz-adv-x="937" d="M25 0l22 199q166 96 280.5 168.5t186.5 135t103.5 121t31.5 126.5q0 84 -63.5 132t-173.5 48q-72 0 -139.5 -12.5t-137.5 -32.5l68 184q35 10 102.5 21.5t140.5 11.5q84 0 158 -21.5t129 -63.5t88 -105.5t33 -147.5q0 -90 -30.5 -162t-96 -138.5t-166 -135t-237.5 -150.5 l2 -12h374l144 12l-23 -178h-796z" />
<glyph horiz-adv-x="946" d="M47 14v183q14 -6 45 -14.5t70 -15.5t83 -13.5t89 -6.5q39 0 90 6.5t96 25t76 53t31 90.5q0 45 -20.5 75.5t-54.5 48t-80 24.5t-95 7h-150l17 139h147q51 0 100.5 8.5t87 28t61.5 53t24 85.5q0 43 -19.5 71.5t-51.5 45t-73 22.5t-86 6q-70 0 -144.5 -13.5t-133.5 -29.5 l67 182q31 8 98.5 17.5t151.5 9.5q80 0 151.5 -16.5t126 -51.5t86 -89t31.5 -128q0 -92 -49 -158.5t-139 -101.5v-8q66 -31 106.5 -88.5t40.5 -143.5q0 -96 -45 -159.5t-117.5 -103.5t-163.5 -56t-184 -16q-80 0 -157.5 11t-112.5 21z" />
<glyph horiz-adv-x="968" d="M20 211l25 197l520 675h277l-86 -712h121l-21 -160h-121l-26 -211h-193l27 211h-523zM195 371h368l60 495l26 64h-10l-393 -522l-51 -29v-8z" />
<glyph horiz-adv-x="909" d="M49 12v183q59 -20 124 -32.5t136 -12.5q59 0 114.5 10t98.5 33.5t68.5 61.5t25.5 93q0 53 -29.5 88t-78.5 56.5t-113.5 30.5t-132.5 9h-112l67 551h637l-23 -178l-137 13h-305l-31 -242q94 0 177 -18.5t146.5 -58.5t100.5 -101.5t37 -147.5q0 -98 -43 -168.5 t-113.5 -114.5t-160.5 -64.5t-185 -20.5q-80 0 -150.5 10t-117.5 20z" />
<glyph horiz-adv-x="972" d="M68 432q0 150 36.5 273.5t109.5 212t182.5 136.5t254.5 48q70 0 135.5 -9.5t94.5 -17.5v-180q-49 18 -112.5 29.5t-123.5 11.5q-145 0 -230 -74t-114 -215q49 4 87 7t73 3q92 0 171 -19.5t136 -58t89 -98t32 -137.5q0 -90 -33 -157.5t-89 -113.5t-134 -68.5t-168 -22.5 q-102 0 -177 33.5t-124 94t-72.5 143.5t-23.5 179zM268 412q0 -59 10.5 -108.5t35 -85.5t64.5 -56.5t99 -20.5q92 0 151.5 50.5t59.5 144.5q0 98 -74.5 141t-187.5 43q-43 0 -80 -3t-72 -7q-6 -53 -6 -98z" />
<glyph horiz-adv-x="821" d="M96 905l21 178h731l-23 -192q-123 -111 -202.5 -228.5t-129 -233.5t-73 -221.5t-33.5 -191.5l-2 -16h-203l2 29q12 98 38 203.5t72 214t115.5 218t172.5 218.5l53 26v11h-385z" />
<glyph horiz-adv-x="1001" d="M59 256q0 106 65.5 178t160.5 115v8q-57 29 -96 85t-39 132q0 84 36.5 145.5t97 102.5t136.5 60.5t155 19.5q74 0 142.5 -17.5t121 -52.5t83 -85t30.5 -116q0 -104 -58 -170.5t-144 -103.5l-2 -8q72 -39 111.5 -98.5t39.5 -133.5q0 -90 -38 -153.5t-99.5 -104.5t-141 -59 t-163.5 -18q-82 0 -154 16t-126 50t-86 85t-32 123zM248 285q0 -70 62.5 -108t148.5 -38q43 0 85 9.5t74.5 30t53 50t20.5 72.5q0 33 -16.5 58.5t-44 45t-63.5 36t-74 28.5l-45 14q-39 -14 -76 -32.5t-64.5 -43t-44 -55t-16.5 -67.5zM352 788q0 -33 15.5 -56t41 -40.5 t58.5 -31t70 -25.5l43 -14q29 8 62.5 24.5t61 40t46 54t18.5 69.5q0 33 -16.5 59.5t-44 44t-63.5 26.5t-75 9q-41 0 -79.5 -9t-69.5 -28.5t-49.5 -50.5t-18.5 -72z" />
<glyph horiz-adv-x="972" d="M90 739q0 90 32 158t89 114t135 68.5t168 22.5q102 0 177 -34t124 -94.5t72.5 -143t23.5 -179.5q0 -150 -36.5 -273.5t-109.5 -211.5t-182.5 -136t-254.5 -48q-70 0 -135.5 9t-94.5 17v180q49 -18 112.5 -29.5t123.5 -11.5q145 0 230 74t114 215q-49 -4 -87 -7t-73 -3 q-92 0 -171 19.5t-136 58.5t-89 98.5t-32 136.5zM291 748q0 -98 74.5 -141.5t187.5 -43.5q43 0 80 3t72 7q6 51 6 99q0 57 -10.5 107t-35 86t-64.5 56.5t-99 20.5q-92 0 -151.5 -50t-59.5 -144z" />
<glyph horiz-adv-x="565" d="M-10 172q0 176 71.5 276.5t206.5 100.5q102 0 152.5 -65.5t50.5 -176.5q0 -178 -71.5 -275.5t-206.5 -97.5q-102 0 -152.5 63.5t-50.5 174.5zM100 184q0 -66 22.5 -112.5t82.5 -46.5q39 0 68.5 23.5t49 62.5t28.5 88t9 98q0 66 -22.5 113t-79.5 47q-43 0 -73.5 -23.5 t-49 -62.5t-27 -88.5t-8.5 -98.5z" />
<glyph horiz-adv-x="509" d="M-14 -55l10 90h151l58 379l-6 2l-25 -37q-29 -23 -67.5 -38t-75.5 -26l-6 101q49 10 101 40.5t97 82.5h109l-76 -504h131l-10 -90h-391z" />
<glyph horiz-adv-x="536" d="M-37 -55l12 108q90 53 154 94t103.5 76t58 67t18.5 68q0 47 -36.5 74t-96.5 27q-39 0 -76 -7.5t-75 -17.5l36 101q18 4 55.5 11t78.5 7q94 0 160.5 -47t66.5 -139q0 -49 -17.5 -89t-53.5 -77t-91 -75t-133 -83l2 -8h209l78 8l-13 -98h-440z" />
<glyph horiz-adv-x="534" d="M-25 -49v98q16 -4 63.5 -14t94.5 -10q20 0 49 3t54.5 13t43 28.5t17.5 49.5q0 53 -41 70.5t-100 17.5h-80l8 76h80q59 0 106 20.5t47 77.5q0 47 -38.5 63.5t-90.5 16.5q-39 0 -78.5 -7.5t-74.5 -17.5l39 101q16 4 54 9t85 5q43 0 82 -9.5t69.5 -27.5t48 -48t17.5 -71 q0 -51 -27.5 -89t-76.5 -54v-8q35 -16 58.5 -47t23.5 -80q0 -53 -25 -88t-66 -56.5t-92 -31t-102 -9.5q-43 0 -85 7.5t-63 11.5z" />
<glyph horiz-adv-x="557" d="M-20 57l12 109l282 371h154l-47 -392h63l-10 -88h-63l-15 -114h-106l14 114h-284zM72 145h202l33 273l17 35h-9l-217 -285l-26 -14v-9z" />
<glyph horiz-adv-x="512" d="M-23 49q33 -10 68 -17t76 -7q66 0 117 24.5t51 83.5q0 57 -59.5 78.5t-135.5 21.5h-61l37 304h348l-12 -99l-74 8h-168l-17 -133q51 0 97.5 -10t80 -31.5t54 -55.5t20.5 -81q0 -55 -23.5 -93t-62.5 -62.5t-88 -36t-100 -11.5q-45 0 -83 5.5t-65 11.5v100z" />
<glyph horiz-adv-x="546" d="M-8 180q0 164 80 266.5t241 102.5q39 0 75 -5t50 -9v-101q-27 10 -60.5 16.5t-68.5 6.5q-158 0 -188 -158q27 2 47 4t41 2q102 0 168.5 -43t66.5 -131q0 -98 -66.5 -148.5t-166.5 -50.5q-113 0 -166 71t-53 177zM102 170q0 -66 25 -108t90 -42q51 0 84 28t33 79 q0 53 -42 77.5t-104 24.5q-45 0 -82 -6q-4 -14 -4 -27.5v-25.5z" />
<glyph horiz-adv-x="471" d="M0 436l10 99h402l-13 -105q-68 -61 -111.5 -125.5t-70.5 -128t-39 -121t-18 -104.5l-2 -10h-111l2 16q12 109 58.5 228.5t158.5 238.5l29 12v8h-211z" />
<glyph horiz-adv-x="569" d="M-16 82q0 57 35.5 97t86.5 63v8q-31 16 -52 45t-21 70q0 45 20.5 79.5t53 56t74.5 33t85 11.5q41 0 78 -10.5t65.5 -29t46 -46t17.5 -62.5q0 -59 -31.5 -95t-79.5 -56l-2 -8q39 -23 61.5 -52.5t22.5 -70.5q0 -49 -20.5 -84t-55 -57.5t-78.5 -33t-89 -10.5 q-90 0 -153.5 37t-63.5 115zM86 96q0 -37 35 -58.5t82 -21.5t87 21.5t40 68.5q0 35 -33 54.5t-76 36.5l-24 8q-43 -16 -77 -42t-34 -67zM143 373q0 -35 31 -52.5t72 -31.5l22 -8q33 10 69 35.5t36 68.5q0 37 -34 56.5t-77 19.5t-81 -20.5t-38 -67.5z" />
<glyph horiz-adv-x="548" d="M-2 352q0 98 66.5 148.5t166.5 50.5q113 0 166.5 -70.5t53.5 -177.5q0 -164 -80 -266.5t-242 -102.5q-39 0 -75 5.5t-50 9.5v100q27 -10 60.5 -16t68.5 -6q158 0 189 157q-27 -2 -47.5 -4t-41.5 -2q-102 0 -168.5 43t-66.5 131zM109 356q0 -53 42 -77.5t103 -24.5 q45 0 82 6q4 14 4 27.5v25.5q0 66 -24.5 108t-90.5 42q-51 0 -83.5 -28t-32.5 -79z" />
<glyph horiz-adv-x="565" d="M92 823q0 176 72 276.5t207 100.5q102 0 152 -65.5t50 -176.5q0 -178 -71.5 -275t-206.5 -97q-102 0 -152.5 63t-50.5 174zM203 836q0 -66 22.5 -113t81.5 -47q39 0 69 23.5t49 62.5t28.5 88t9.5 98q0 66 -22.5 113t-80.5 47q-43 0 -73.5 -23.5t-49 -62.5t-26.5 -88 t-8 -98z" />
<glyph horiz-adv-x="509" d="M86 596l10 90h154l57 379l-6 2l-25 -37q-29 -23 -67.5 -38t-75.5 -25l-6 100q49 10 102.5 41t96.5 82h108l-76 -504h131l-10 -90h-393z" />
<glyph horiz-adv-x="528" d="M61 594l13 108q90 53 153.5 94.5t103.5 76t58.5 66.5t18.5 69q0 47 -37 73.5t-97 26.5q-39 0 -75.5 -7t-75.5 -18l37 101q18 4 55 11t78 7q94 0 160.5 -47t66.5 -139q0 -49 -17.5 -89t-53 -77t-91 -75t-133.5 -83l2 -8h209l78 8l-12 -98h-441z" />
<glyph horiz-adv-x="534" d="M78 600v98q16 -4 63 -14t95 -10q20 0 48.5 3t54.5 13t43 28.5t17 49.5q0 53 -41 70.5t-100 17.5h-80l8 76h80q59 0 106.5 20.5t47.5 77.5q0 47 -39 63.5t-90 16.5q-39 0 -79 -7t-75 -18l39 101q16 4 54 9t85 5q43 0 82 -9t70 -27.5t48 -48.5t17 -71q0 -51 -27.5 -88.5 t-76.5 -54.5v-8q35 -16 58.5 -47t23.5 -80q0 -53 -24.5 -88t-65.5 -56.5t-92.5 -30.5t-102.5 -9q-43 0 -85 7t-62 11z" />
<glyph horiz-adv-x="557" d="M80 711l12 108l287 371h153l-49 -391h64l-10 -88h-64l-14 -115h-107l15 115h-287zM174 799h203l33 272l18 35h-8l-217 -285l-27 -14z" />
<glyph horiz-adv-x="512" d="M80 602v100q33 -10 67.5 -17t75.5 -7q66 0 117 24.5t51 83.5q0 57 -59.5 79t-134.5 22h-62l37 303h348l-12 -98l-74 8h-168l-16 -133q51 0 97 -10.5t80 -32t54.5 -55t20.5 -81.5q0 -55 -23.5 -93t-62.5 -62.5t-88 -35.5t-101 -11q-45 0 -83 5t-64 11z" />
<glyph horiz-adv-x="546" d="M92 831q0 164 80 266.5t242 102.5q39 0 74.5 -5t50.5 -9v-101q-27 10 -61 16.5t-68 6.5q-158 0 -189 -158q27 2 47.5 4t40.5 2q102 0 169 -43t67 -131q0 -98 -66.5 -148t-167.5 -50q-113 0 -166 70.5t-53 176.5zM203 821q0 -66 24.5 -107.5t89.5 -41.5q51 0 84 27.5 t33 78.5q0 53 -42 78t-103 25q-45 0 -82 -7q-4 -14 -4 -27v-26z" />
<glyph horiz-adv-x="471" d="M102 1092l11 98h401l-12 -105q-68 -61 -112 -125.5t-70.5 -128t-39 -121t-18.5 -104.5l-2 -10h-110l2 16q12 109 58 229t159 238l28 13v8h-211z" />
<glyph horiz-adv-x="569" d="M86 737q0 57 36 97t87 63v8q-31 16 -52.5 45t-21.5 70q0 45 20.5 80t53.5 56.5t75 32.5t85 11q41 0 77.5 -10t65.5 -28.5t46 -46.5t17 -62q0 -59 -31.5 -95t-78.5 -57l-2 -8q39 -23 61.5 -52.5t22.5 -70.5q0 -49 -20.5 -84t-55.5 -57.5t-79 -32.5t-89 -10 q-90 0 -153.5 36.5t-63.5 114.5zM188 752q0 -37 35 -58.5t82 -21.5t87 21.5t40 68.5q0 35 -32.5 55.5t-75.5 36.5l-25 6q-43 -16 -77 -41.5t-34 -66.5zM246 1028q0 -35 30.5 -52.5t71.5 -31.5l23 -8q33 10 68.5 35.5t35.5 68.5q0 37 -33.5 56.5t-76.5 19.5t-81 -20.5 t-38 -67.5z" />
<glyph horiz-adv-x="548" d="M100 1001q0 98 66.5 148.5t167.5 50.5q113 0 166 -70.5t53 -177.5q0 -164 -80 -266t-242 -102q-39 0 -74.5 5t-50.5 9v100q27 -10 61 -16t69 -6q158 0 188 158q-27 -2 -47.5 -4.5t-40.5 -2.5q-102 0 -169 43t-67 131zM211 1006q0 -53 42 -78t103 -25q45 0 82 6 q4 14 4 27.5v26.5q0 66 -24.5 107.5t-89.5 41.5q-51 0 -84 -27.5t-33 -78.5z" />
<glyph horiz-adv-x="391" d="M184 1198q0 59 34 88t83 29q41 0 67.5 -29t26.5 -76t-29.5 -80.5t-82.5 -33.5q-45 0 -72 28.5t-27 73.5z" />
<glyph horiz-adv-x="1187" d="M76 283q0 104 49 184t135 145q-29 47 -41 91.5t-12 89.5q0 68 24.5 124t69.5 98t108.5 64.5t139.5 22.5q111 0 186.5 -50.5t79.5 -160.5h289l141 8l-41 -149h-192q-16 -135 -49 -263.5t-93 -228.5q43 -29 98.5 -57.5t96.5 -48.5l-55 -170q-43 16 -114 52t-136 79 q-66 -59 -153 -95t-195 -36q-72 0 -133.5 21.5t-106.5 60t-70.5 94t-25.5 125.5zM252 305q0 -76 50 -125t126 -49q53 0 100 16.5t88 57.5q-35 27 -73.5 61.5t-74.5 72.5t-67.5 76t-52.5 68q-43 -33 -69.5 -77t-26.5 -101zM391 799q0 -47 27.5 -103.5t75 -116t106.5 -119 t125 -110.5q45 74 69.5 181.5t39.5 218.5h-209q10 16 17 39.5t7 50.5q0 53 -29.5 80.5t-82.5 27.5q-59 0 -102.5 -39t-43.5 -110z" />
</font>
</defs>
</svg>
