<?xml version="1.0" standalone="no"?>
<!DOCTYPE svg PUBLIC "-//W3C//DTD SVG 1.1//EN" "http://www.w3.org/Graphics/SVG/1.1/DTD/svg11.dtd" >
<svg xmlns="http://www.w3.org/2000/svg">
<metadata></metadata>
<defs>
<font id="distefanosanslight_italic" horiz-adv-x="956" >
<font-face units-per-em="2048" ascent="1536" descent="-512" />
<missing-glyph horiz-adv-x="391" />
<glyph unicode="&#xfb00;" horiz-adv-x="1024" d="M-147 -254q20 -4 49 -4q90 0 144 45t65 137l116 959h-129l11 75l129 21l16 133q16 135 100 212t224 77q12 0 29.5 -1t27.5 -3v-99q-10 2 -26.5 3.5t-33.5 1.5q-219 0 -219 -252v-29.5t2 -24.5q0 -10 2 -20h349l16 135q16 135 100 212t224 77q12 0 29.5 -1t27.5 -3v-99 q-10 2 -26.5 3.5t-32.5 1.5q-219 0 -220 -252v-29.5t2 -24.5q0 -10 2 -20h205l-12 -94h-215l-119 -975q-16 -127 -103 -196.5t-216 -69.5q-12 0 -26.5 1t-20.5 3v100q20 -4 49 -4q90 0 144 45t65 137l116 959h-360l-119 -975q-16 -127 -103 -196.5t-216 -69.5q-12 0 -26.5 1 t-20.5 3v100z" />
<glyph unicode="&#xfb01;" horiz-adv-x="915" d="M-147 -254q20 -4 49 -4q90 0 144 45t65 137l116 959h-129l11 75l129 21l16 133q16 135 100 212t224 77q12 0 29.5 -1t27.5 -3v-99q-10 2 -26.5 3.5t-33.5 1.5q-219 0 -219 -252v-29.5t2 -24.5q0 -10 2 -20h457l-102 -832v-159q-4 -2 -10 -2q-6 -2 -21 -2 q-39 0 -61.5 22.5t-22.5 65.5v16t2 25l94 772h-358l-119 -975q-16 -127 -103 -196.5t-216 -69.5q-12 0 -26.5 1t-20.5 3v100zM711 1307l104 94l82 -94l-104 -99z" />
<glyph unicode="&#xfb02;" horiz-adv-x="917" d="M-147 -254q20 -4 49 -4q90 0 144 45t65 137l116 959h-129l11 75l129 21l16 139q16 150 109.5 216.5t238.5 66.5q37 0 79 -4t80 -8.5t67.5 -9.5t39.5 -7l-151 -1227v-159q-4 -2 -10 -2q-6 -2 -21 -2q-39 0 -61.5 22.5t-22.5 65.5v16t2 25l144 1183q-29 4 -77 7.5t-77 3.5 q-55 0 -99 -11.5t-76 -39t-48.5 -74.5t-16.5 -119v-33.5t2 -26.5l4 -24h205l-12 -94h-215l-119 -975q-16 -127 -103 -196.5t-216 -69.5q-12 0 -26.5 1t-20.5 3v100z" />
<glyph unicode="&#xfb03;" horiz-adv-x="1388" d="M-147 -254q20 -4 49 -4q90 0 144 45t65 137l116 959h-129l11 75l129 21l16 133q16 135 100 212t224 77q12 0 29.5 -1t27.5 -3v-99q-10 2 -26.5 3.5t-33.5 1.5q-219 0 -219 -252v-29.5t2 -24.5q0 -10 2 -20h349l16 135q16 135 100 212t224 77q12 0 29.5 -1t27.5 -3v-99 q-10 2 -26.5 3.5t-32.5 1.5q-219 0 -220 -252v-29.5t2 -24.5q0 -10 2 -20h457l-102 -832v-159q-4 -2 -10 -2q-6 -2 -21 -2q-39 0 -61.5 22.5t-22.5 65.5v16t2 25l94 772h-358l-119 -975q-16 -127 -103 -196.5t-216 -69.5q-12 0 -26.5 1t-20.5 3v100q20 -4 49 -4q90 0 144 45 t65 137l116 959h-360l-119 -975q-16 -127 -103 -196.5t-216 -69.5q-12 0 -26.5 1t-20.5 3v100zM1184 1307l104 94l82 -94l-104 -99z" />
<glyph unicode="&#xfb04;" horiz-adv-x="1388" d="M-147 -254q20 -4 49 -4q90 0 144 45t65 137l116 959h-129l11 75l129 21l16 133q16 135 100 212t224 77q12 0 29.5 -1t27.5 -3v-99q-10 2 -26.5 3.5t-33.5 1.5q-219 0 -219 -252v-29.5t2 -24.5q0 -10 2 -20h349l16 141q16 150 109.5 216.5t238.5 66.5q37 0 79 -4t80 -8.5 t67.5 -9.5t39.5 -7l-151 -1227v-159q-4 -2 -10 -2q-6 -2 -21 -2q-39 0 -61.5 22.5t-22.5 65.5v16t2 25l144 1183q-29 4 -77 7.5t-77 3.5q-55 0 -99 -11.5t-76 -39t-48.5 -74.5t-16.5 -119v-33.5t2 -26.5l4 -24h205l-12 -94h-215l-119 -975q-16 -127 -103 -196.5t-216 -69.5 q-12 0 -26.5 1t-20.5 3v100q20 -4 49 -4q90 0 144 45t65 137l116 959h-360l-119 -975q-16 -127 -103 -196.5t-216 -69.5q-12 0 -26.5 1t-20.5 3v100z" />
<glyph horiz-adv-x="0" />
<glyph unicode="&#xd;" horiz-adv-x="391" />
<glyph unicode=" "  horiz-adv-x="391" />
<glyph unicode="&#x09;" horiz-adv-x="391" />
<glyph unicode="&#xa0;" horiz-adv-x="391" />
<glyph unicode="!" horiz-adv-x="466" d="M68 49q0 43 22.5 68.5t54.5 25.5q59 0 60 -65q0 -33 -17.5 -64.5t-58.5 -31.5q-29 0 -45 17t-16 50zM123 297l160 999h114l-174 -999h-100z" />
<glyph unicode="&#x22;" horiz-adv-x="534" d="M152 731l57 459h76l-58 -459h-75zM367 731l57 459h76l-58 -459h-75z" />
<glyph unicode="#" d="M55 313l8 60h164l127 401h-207l7 60h217l112 356h68l-113 -356h242l113 356h67l-112 -356h174l-7 -60h-184l-123 -401h223l-8 -60h-233l-96 -313h-70l96 313h-241l-97 -313h-69l96 313h-154zM297 373h242l125 401h-242z" />
<glyph unicode="$" d="M80 14l39 101q14 -4 85.5 -21.5t170.5 -17.5q51 0 103 10t95 32.5t71 61.5t28 94q0 39 -19.5 71t-52.5 59.5t-74 52t-84 49.5q-45 25 -88 53.5t-76.5 63t-54 76.5t-20.5 98q0 70 26.5 123t72.5 90t107.5 59.5t131.5 32.5l22 194h66l-25 -194h27q33 0 67.5 -3t66.5 -7.5 t57.5 -8.5t39.5 -8l-37 -102q-4 2 -23.5 7t-50 11t-68.5 11.5t-79 5.5q-51 0 -102 -9.5t-91 -32t-64.5 -60.5t-24.5 -95q0 -37 15 -66.5t42 -55t61.5 -47t73.5 -42.5q49 -27 98.5 -56.5t89 -66.5t64.5 -82t25 -102q0 -72 -27 -126t-72 -91t-105.5 -59.5t-127.5 -30.5 l-25 -199h-65l22 195h-29q-47 0 -93 4t-84 9t-66.5 10t-38.5 9z" />
<glyph unicode="%" horiz-adv-x="1099" d="M109 0l833 1190h76l-834 -1190h-75zM111 834q0 164 70.5 265t193.5 101q100 0 148 -68.5t48 -179.5q0 -82 -19.5 -149.5t-54 -115.5t-83.5 -74.5t-109 -26.5q-100 0 -147 68.5t-47 179.5zM186 834q0 -72 30 -127.5t95 -55.5q45 0 79 25.5t56.5 67.5t35 94.5t12.5 107.5 q0 37 -7.5 71t-22.5 60.5t-39 43t-56 16.5q-51 0 -86 -29t-56.5 -73t-31 -98t-9.5 -103zM551 238q0 164 70.5 265t193.5 101q100 0 148.5 -68.5t48.5 -179.5q0 -82 -19.5 -149.5t-54.5 -115.5t-84 -74.5t-109 -26.5q-100 0 -147 68.5t-47 179.5zM627 238q0 -72 29.5 -127.5 t95.5 -55.5q45 0 78.5 25.5t56 67.5t35 94.5t12.5 107.5q0 37 -7 71t-22.5 60.5t-39 43t-56.5 16.5q-51 0 -86 -29t-56.5 -73t-30.5 -98t-9 -103z" />
<glyph unicode="&#x26;" horiz-adv-x="1232" d="M76 299q0 133 59.5 217t147.5 152q-35 55 -49.5 109t-14.5 100q0 72 23.5 132t67.5 105t108.5 69.5t146.5 24.5q53 0 101.5 -13t84 -40t57 -65.5t21.5 -90.5v-22h353l114 8l-36 -106h-213q-23 -193 -67 -359t-120 -291q68 -47 119 -75.5t94 -51.5l-45 -120 q-41 16 -107.5 56t-138.5 91q-63 -68 -156.5 -107.5t-205.5 -39.5q-74 0 -136.5 22.5t-108.5 63.5t-72.5 100t-26.5 131zM199 315q0 -100 65.5 -165.5t169.5 -65.5q70 0 136.5 27t125.5 82q-49 37 -101 87t-101.5 102t-90.5 103.5t-67 92.5q-68 -47 -102.5 -115t-34.5 -148z M342 895q0 -59 35 -134t94 -156t136 -160.5t163 -149.5q63 106 100 263t58 321h-230q4 14 9.5 40.5t5.5 47.5q0 66 -43 101.5t-115 35.5q-43 0 -81 -13.5t-67.5 -40t-47 -65.5t-17.5 -90z" />
<glyph unicode="'" horiz-adv-x="296" d="M152 731l57 459h76l-58 -459h-75z" />
<glyph unicode="(" horiz-adv-x="462" d="M88 350q0 35 3 70t7 72q12 109 43 205t71 182t88 162.5t95 146.5l49 -35q-53 -78 -105 -165t-93 -187.5t-65.5 -213t-24.5 -239.5q0 -158 38.5 -282.5t88.5 -235.5l-58 -35q-51 117 -94 252t-43 303z" />
<glyph unicode=")" horiz-adv-x="462" d="M16 -170q53 76 104.5 161t92.5 183t66.5 210t25.5 243q0 158 -38 286.5t-89 239.5l58 35q51 -117 94 -254t43 -307q0 -33 -2 -67t-6 -68q-14 -109 -45 -206.5t-71 -183.5t-88 -161.5t-95 -145.5z" />
<glyph unicode="*" horiz-adv-x="741" d="M117 774l241 137l-208 136l34 49l211 -135l33 272h55l-32 -272l245 135l21 -49l-248 -136l215 -137l-33 -47l-213 133l-32 -270h-56l33 270l-244 -133z" />
<glyph unicode="+" d="M100 565l9 62h350l43 358h65l-43 -358h357l-9 -62h-356l-47 -381h-66l48 381h-351z" />
<glyph unicode="," horiz-adv-x="358" d="M16 -166l88 168q-18 4 -27 22.5t-9 41.5q0 37 17 67.5t58 30.5q29 0 45.5 -19.5t16.5 -50.5q0 -33 -10.5 -64.5t-34.5 -68.5l-88 -131z" />
<glyph unicode="-" horiz-adv-x="681" d="M129 461l8 61h416l-8 -61h-416z" />
<glyph unicode="." horiz-adv-x="360" d="M66 49q0 43 22.5 68.5t54.5 25.5q59 0 60 -65q0 -33 -17.5 -64.5t-58.5 -31.5q-29 0 -45 17t-16 50z" />
<glyph unicode="/" horiz-adv-x="645" d="M-23 0l648 1190h69l-647 -1190h-70z" />
<glyph unicode="0" d="M66 432q0 172 34.5 315.5t100 246t159 158.5t209.5 56q180 0 261 -118.5t81 -329.5q0 -172 -34.5 -315.5t-99 -247t-158 -159.5t-207.5 -56q-182 0 -264 118.5t-82 331.5zM180 453q0 -78 12.5 -145.5t40 -118t74.5 -79t115 -28.5q92 0 161.5 58.5t118 151.5t72 207.5 t23.5 229.5q0 78 -12.5 147.5t-41 122t-74.5 82t-114 29.5q-98 0 -169 -60.5t-117 -155.5t-67.5 -211.5t-21.5 -229.5z" />
<glyph unicode="1" d="M100 0l13 98h290l140 961h-11l-43 -70q-72 -53 -139 -86t-145 -57l-15 115q90 23 180.5 79t172.5 150h135l-164 -1092h283l-13 -98h-684z" />
<glyph unicode="2" d="M49 0l19 154q174 123 299 221t202.5 181t114.5 157.5t37 152.5q0 102 -68.5 170t-212.5 68q-90 0 -155.5 -15.5t-100.5 -29.5l43 119q57 14 110.5 22t123.5 8q86 0 155.5 -24.5t118.5 -68.5t76 -106.5t27 -136.5q0 -90 -39 -175t-119 -176t-204 -191.5t-294 -220.5v-11 h514l113 11l-14 -109h-746z" />
<glyph unicode="3" d="M68 18v109q41 -14 88 -25q41 -10 89 -16t99 -6q66 0 128.5 15.5t111.5 47t78.5 80.5t29.5 119q0 57 -26.5 97t-68.5 65.5t-96.5 37t-109.5 11.5h-133l12 100h113q61 0 123.5 12.5t113 42t82 79t31.5 122.5q0 104 -74.5 152.5t-185.5 48.5q-63 0 -136 -13.5t-118 -27.5 l39 115q47 10 106.5 17t120.5 7q74 0 139.5 -17t116 -53t79 -91.5t28.5 -128.5q0 -113 -57.5 -191t-161.5 -119v-8q84 -35 131 -102.5t47 -151.5q0 -98 -41 -167.5t-106.5 -114t-149.5 -63.5t-170 -19q-96 0 -173 15t-99 21z" />
<glyph unicode="4" d="M53 252l17 131l602 807h155l-104 -840h127l-12 -98h-125l-31 -252h-111l31 252h-549zM152 350h458l84 674l21 63h-10l-502 -696l-49 -31z" />
<glyph unicode="5" d="M68 20v111q41 -14 86 -25q39 -10 85 -16t93 -6q70 0 133 16.5t112.5 51t78 89t28.5 130.5q0 70 -35 117t-91 75.5t-124.5 39.5t-136.5 11h-109l72 576h590l-14 -107l-109 11h-367l-47 -379q98 0 187.5 -19.5t157 -61.5t106.5 -107.5t39 -157.5q0 -100 -39 -173 t-103.5 -121t-149.5 -70.5t-177 -22.5q-96 0 -162 14t-104 24z" />
<glyph unicode="6" d="M100 457q0 168 32 306t99.5 237.5t171 153.5t248.5 54q66 0 130.5 -12t88.5 -22v-111q-29 14 -89 29.5t-130 15.5q-172 0 -279.5 -109.5t-129.5 -314.5q55 8 110.5 14.5t102.5 6.5q88 0 163.5 -19.5t131 -59.5t86 -102.5t30.5 -146.5q0 -90 -28.5 -164t-79.5 -125 t-123 -78.5t-158 -27.5q-98 0 -168.5 34.5t-117 98t-69 150.5t-22.5 192zM217 451q0 -72 13.5 -139.5t46 -119t84 -82t128.5 -30.5q117 0 190 78t73 207q0 66 -25 111.5t-68 74.5t-102 42t-127 13q-59 0 -111.5 -6t-93.5 -14q-4 -39 -6 -69t-2 -66z" />
<glyph unicode="7" d="M178 1079l15 111h725l-19 -148q-141 -141 -234.5 -278t-149.5 -267t-85 -251t-41 -228l-2 -18h-111l3 16q14 121 43.5 245t84 252t140.5 262t215 274l57 32l2 11h-526z" />
<glyph unicode="8" d="M70 262q0 121 71.5 209t177.5 141v9q-70 35 -110.5 101t-40.5 144q0 84 35 148.5t93 107.5t132 64.5t154 21.5q72 0 132 -19.5t104 -56t68.5 -88t24.5 -114.5q0 -57 -19.5 -106.5t-52 -89.5t-75.5 -70.5t-90 -51.5l-2 -8q86 -47 132 -116.5t46 -155.5q0 -92 -39 -157.5 t-101.5 -108.5t-141.5 -63.5t-158 -20.5q-76 0 -138.5 19t-107.5 56t-69.5 88.5t-24.5 116.5zM186 279q0 -92 65.5 -144.5t170.5 -52.5q55 0 110.5 14.5t98.5 43t70.5 72.5t27.5 103q0 90 -66.5 143.5t-170.5 90.5l-52 18q-47 -18 -92 -43.5t-81 -61.5t-58.5 -81t-22.5 -102 zM287 889q0 -45 18.5 -80t48 -60.5t68.5 -44t80 -32.5l49 -17q43 14 87 38t79 57.5t56.5 75.5t21.5 96q0 90 -65.5 137t-164.5 47q-49 0 -99 -12.5t-90 -39t-64.5 -67.5t-24.5 -98z" />
<glyph unicode="9" d="M104 16v111q29 -14 89.5 -29.5t130.5 -15.5q172 0 279.5 109.5t129.5 314.5q-55 -8 -110.5 -14.5t-102.5 -6.5q-90 0 -164.5 19.5t-130 59.5t-86 102.5t-30.5 146.5q0 90 28.5 164t79.5 125t123 78.5t158 27.5q98 0 168.5 -34.5t116.5 -98t68.5 -150.5t22.5 -192 q0 -168 -31.5 -306t-99 -237.5t-172 -153.5t-247.5 -54q-66 0 -130.5 12t-89.5 22zM223 825q0 -66 24.5 -111.5t67.5 -74.5t102.5 -42t127.5 -13q59 0 111.5 6t93.5 14q4 39 6 68.5t2 66.5q0 72 -13.5 139.5t-46 119t-85 82t-128.5 30.5q-117 0 -189.5 -78t-72.5 -207z" />
<glyph unicode=":" horiz-adv-x="360" d="M66 49q0 43 22.5 68.5t54.5 25.5q59 0 60 -65q0 -33 -17.5 -64.5t-58.5 -31.5q-29 0 -45 17t-16 50zM147 715q0 43 23 68.5t55 25.5q59 0 60 -66q0 -33 -17.5 -64.5t-58.5 -31.5q-29 0 -45.5 17.5t-16.5 50.5z" />
<glyph unicode=";" horiz-adv-x="358" d="M16 -166l88 168q-18 4 -27 22.5t-9 41.5q0 37 17 67.5t58 30.5q29 0 45.5 -19.5t16.5 -50.5q0 -33 -10.5 -64.5t-34.5 -68.5l-88 -131zM147 715q0 43 23 68.5t55 25.5q59 0 60 -66q0 -33 -17.5 -64.5t-58.5 -31.5q-29 0 -45.5 17.5t-16.5 50.5z" />
<glyph unicode="&#x3c;" d="M197 600l600 442l28 -59l-524 -383l434 -389l-45 -47z" />
<glyph unicode="=" d="M86 410l8 61h766l-8 -61h-766zM119 682l8 61h766l-8 -61h-766z" />
<glyph unicode="&#x3e;" d="M150 223l530 377l-428 395l43 47l487 -442l-598 -436z" />
<glyph unicode="?" horiz-adv-x="849" d="M178 1159l39 117q35 10 99.5 24.5t152.5 14.5q80 0 146.5 -23.5t114.5 -66.5t74.5 -105.5t26.5 -140.5q0 -92 -34.5 -168t-93 -134.5t-136.5 -100t-161 -64.5l-44 -215h-94l37 293q74 12 146.5 42t130 76t93.5 109.5t36 147.5q0 123 -70 185t-199 62q-78 0 -144.5 -15 t-119.5 -38zM211 49q0 43 22.5 68.5t55.5 25.5q59 0 59 -65q0 -33 -17.5 -64.5t-58.5 -31.5q-29 0 -45 17t-16 50z" />
<glyph unicode="@" horiz-adv-x="1142" d="M53 236q0 162 45 301t125 240.5t192.5 159.5t248.5 58q98 0 174.5 -32.5t130 -91t81 -139.5t27.5 -175q0 -86 -20.5 -177t-64.5 -170t-113.5 -136.5t-167.5 -73.5l-27 137h-8q-8 -16 -23.5 -39.5t-40 -45t-57.5 -37t-76 -15.5q-41 0 -71.5 18.5t-51 51t-31 74.5t-10.5 92 q0 92 25 175t69 145t108.5 100t144.5 38q35 0 72.5 -3t68.5 -7l-25 -109l-47 -387l21 -118q127 43 192.5 172t65.5 311q0 82 -21.5 151.5t-65.5 122t-111 82t-157 29.5q-133 0 -233 -58.5t-168 -155.5t-101.5 -224t-33.5 -262q0 -92 20.5 -179.5t66.5 -155t121.5 -108.5 t184.5 -41q106 0 187 23.5t153 56.5v-61q-74 -33 -157 -54.5t-193 -21.5q-113 0 -197 42t-140 113.5t-84 170t-28 213.5zM379 233q0 -74 26.5 -126t86.5 -52q49 0 84.5 32t61.5 85t41 121.5t23 144.5l23 195q-8 2 -18 4t-22.5 3t-27.5 1q-70 0 -122 -36t-86.5 -94t-52 -131 t-17.5 -147z" />
<glyph unicode="A" horiz-adv-x="1056" d="M-23 0l607 1296h170l211 -1296h-146v117l-43 258h-497l-177 -375h-125zM324 477h438l-105 633v80h-10l-29 -80z" />
<glyph unicode="B" horiz-adv-x="1099" d="M100 0l29 119l145 1177h433q143 0 230 -75.5t87 -216.5q0 -129 -52 -208t-147 -124l-2 -10q74 -39 113 -110t39 -157q0 -102 -28.5 -177t-83 -123t-130.5 -71.5t-168 -23.5h-465zM242 102h303q68 0 125 14.5t99 47.5t64.5 88t22.5 135q0 100 -62.5 161.5t-191.5 61.5 h-297zM317 713h308q123 0 201.5 74.5t78.5 203.5q0 98 -60.5 150.5t-176.5 52.5h-291z" />
<glyph unicode="C" horiz-adv-x="970" d="M98 502q0 174 43 322.5t126 257t204 171t274 62.5q72 0 137.5 -12.5t108.5 -28.5l-41 -107q-41 20 -99 33.5t-124 13.5q-123 0 -218 -55t-159.5 -150.5t-98.5 -223.5t-34 -275q0 -84 19.5 -162t60.5 -137t103.5 -94t146.5 -35q55 0 107.5 15.5t96.5 40t78.5 53t55.5 57.5 v-139q-14 -14 -43 -36t-73 -42.5t-103.5 -34.5t-135.5 -14q-104 0 -185 37.5t-135 107.5t-83 165t-29 210z" />
<glyph unicode="D" horiz-adv-x="1163" d="M96 0l29 119l145 1177h361q246 0 356.5 -136t110.5 -382q0 -184 -41 -328.5t-119 -245t-189.5 -152.5t-252.5 -52h-400zM238 102h256q127 0 218 51.5t150.5 141.5t88 212t28.5 261q0 197 -82 311.5t-268 114.5h-256z" />
<glyph unicode="E" horiz-adv-x="976" d="M96 0l29 119l145 1177h738l-13 -102h-622l-60 -477h564l-13 -103h-563l-63 -512h634l-12 -102h-764z" />
<glyph unicode="F" horiz-adv-x="897" d="M96 0l29 119l145 1177h680l-12 -102h-565l-62 -500h512l-12 -102h-512l-74 -592h-129z" />
<glyph unicode="G" horiz-adv-x="1112" d="M98 506q0 172 44 320.5t129 257t210 170t285 61.5q33 0 74 -4t79.5 -11.5t73.5 -15.5t60 -16l-39 -111q-51 23 -127 39t-142 16q-123 0 -220 -50t-165.5 -141t-105.5 -220t-37 -285q0 -86 19.5 -165t62.5 -138t108.5 -95t157.5 -36q78 0 148.5 20.5t117.5 49.5l52 411 h-299l12 103h414l-72 -580q-27 -14 -62.5 -32.5t-83 -34t-107.5 -26.5t-134 -11q-100 0 -183 35.5t-143.5 103t-93.5 165t-33 220.5z" />
<glyph unicode="H" horiz-adv-x="1183" d="M100 0l29 119l145 1177h115l-70 -567h605l69 567h127l-26 -116l-146 -1180h-114l77 629h-604l-78 -629h-129z" />
<glyph unicode="I" horiz-adv-x="462" d="M100 0l29 119l145 1177h115l-160 -1296h-129z" />
<glyph unicode="J" horiz-adv-x="641" d="M-16 -10v102q16 -4 40.5 -4h28.5q131 0 206 72.5t91 208.5l101 819l-295 14l12 94h424l-27 -118l-98 -807q-25 -203 -131.5 -295t-272.5 -92q-12 0 -40.5 2t-38.5 4z" />
<glyph unicode="K" horiz-adv-x="1028" d="M100 0l31 121l143 1175h115l-84 -682h10l35 66l551 616h143l-466 -528l372 -768h-131l-325 668h-9l-202 -232l-54 -436h-129z" />
<glyph unicode="L" horiz-adv-x="860" d="M100 0l29 119l145 1177h115l-147 -1194h551l-13 -102h-680z" />
<glyph unicode="M" horiz-adv-x="1581" d="M88 0l33 119l207 1177h178l233 -1089v-68h11l22 68l524 1089h193l-27 -118l-110 -1178h-117l119 1178h-13l-22 -84l-533 -1094h-118l-240 1098v82h-10l-191 -1180h-139z" />
<glyph unicode="N" horiz-adv-x="1187" d="M100 0l29 113l145 1183h177l403 -1169h10v84l133 1085h127l-28 -116l-146 -1180h-178l-399 1169h-13v-84l-131 -1085h-129z" />
<glyph unicode="O" horiz-adv-x="1177" d="M98 500q0 186 41 336.5t117 257t184.5 164t243.5 57.5q100 0 180 -39t135.5 -107.5t84 -165t28.5 -212.5q0 -184 -41 -334t-117.5 -255.5t-187.5 -162.5t-252 -57q-100 0 -177 36.5t-130 104t-81 164t-28 213.5zM217 526q0 -92 18.5 -174t56.5 -141t97.5 -94t138.5 -35 q113 0 200 56.5t145.5 149.5t88 215t29.5 253q0 94 -19.5 178t-59.5 146.5t-100 98t-140 35.5q-121 0 -207 -60t-141.5 -158.5t-81 -221.5t-25.5 -248z" />
<glyph unicode="P" horiz-adv-x="1060" d="M100 0l29 119l145 1177h359q182 0 289.5 -79.5t107.5 -247.5q0 -117 -37 -196t-100.5 -127t-151.5 -69.5t-188 -21.5h-254l-70 -555h-129zM311 657h248q74 0 137.5 14.5t110.5 49.5t74.5 93t27.5 149q0 123 -77.5 177t-213.5 54h-241z" />
<glyph unicode="Q" horiz-adv-x="1177" d="M98 500q0 186 41 336.5t117 257t184.5 164t243.5 57.5q100 0 180 -39t135.5 -107.5t84 -165t28.5 -212.5q0 -305 -107.5 -509t-306.5 -272l64 -243h-121l-57 219q-16 -2 -34 -3t-36 -1q-100 0 -177 36.5t-130 104t-81 164t-28 213.5zM217 526q0 -92 18.5 -174t56.5 -141 t97.5 -94t138.5 -35h31l-59 235h121l53 -208q78 33 137 97t99 150t60.5 188.5t20.5 211.5q0 94 -19.5 178t-59.5 146.5t-100 98t-140 35.5q-121 0 -207 -60t-141.5 -158.5t-81 -221.5t-25.5 -248z" />
<glyph unicode="R" horiz-adv-x="1118" d="M100 0l29 119l145 1177h402q174 0 269 -80.5t95 -234.5q0 -76 -20.5 -135.5t-55 -104.5t-81.5 -75.5t-101 -44.5l-2 -9q31 -16 49.5 -37.5t29.5 -54.5t19.5 -80t18.5 -114l47 -326h-127l-47 354q-10 74 -27.5 118t-48 67.5t-78 32t-114.5 8.5h-201l-72 -580h-129z M313 684h275q61 0 119.5 16.5t104.5 52t73.5 89t27.5 127.5q0 102 -56 161.5t-189 59.5h-291z" />
<glyph unicode="S" horiz-adv-x="966" d="M37 23l39 108q39 -16 112.5 -31.5t151.5 -15.5q66 0 132.5 15.5t120.5 47t88 79.5t34 116q0 49 -21.5 87t-58.5 69.5t-84 60.5t-96 57q-51 29 -100.5 61t-88.5 70.5t-62.5 87t-23.5 109.5q0 104 42 175t109.5 114t154.5 62.5t180 19.5q86 0 156.5 -11.5t105.5 -19.5 l-41 -113q-43 14 -104.5 26.5t-141.5 12.5q-61 0 -121.5 -13t-107.5 -42t-77 -77t-30 -115q0 -43 17.5 -77t48 -62.5t70.5 -54.5t83 -50q55 -31 111.5 -66t101.5 -76.5t74 -96t29 -126.5q0 -106 -46 -178t-121 -115t-169 -61t-189 -18q-152 0 -278 41z" />
<glyph unicode="T" horiz-adv-x="806" d="M119 1194l12 102h741l-12 -102h-313l-148 -1194h-129l29 119l133 1075h-313z" />
<glyph unicode="U" horiz-adv-x="1179" d="M152 324q0 27 2 57.5t6 54.5l94 748v112h127l-105 -852q-4 -29 -6 -55.5t-2 -50.5q0 -129 64.5 -191.5t206.5 -62.5q170 0 251.5 85t104.5 255l98 758v114h123l-108 -880q-14 -111 -47 -192t-90.5 -135t-140.5 -80.5t-195 -26.5q-383 0 -383 342z" />
<glyph unicode="V" horiz-adv-x="989" d="M135 1296h123l170 -1089v-94h10l25 94l414 973l24 116h152l-561 -1296h-146z" />
<glyph unicode="W" horiz-adv-x="1662" d="M141 1296h129l142 -1169h10l6 90l358 950l21 129h221l100 -1075l-12 -90h8l426 1055l19 110h151l-532 -1296h-148l-114 1124v93h-13l-24 -93l-428 -1124h-148z" />
<glyph unicode="X" horiz-adv-x="1062" d="M-20 0l487 670l-295 626h137l226 -483l18 -78h10l35 76l270 381l58 104h157l-452 -626l327 -670h-135l-260 530l-16 82h-8l-33 -82l-305 -419l-60 -111h-161z" />
<glyph unicode="Y" horiz-adv-x="944" d="M129 1296h135l203 -616l6 -66h12l19 66l309 506l51 110h148l-490 -798l-61 -498h-115l62 498z" />
<glyph unicode="Z" horiz-adv-x="925" d="M-6 0l16 143l774 1002l64 39v10h-690l12 102h782l-16 -141l-774 -1001l-53 -41v-11h596l120 17l-14 -119h-817z" />
<glyph unicode="[" horiz-adv-x="464" d="M80 -211l172 1401h237l-8 -62h-172l-157 -1278h172l-7 -61h-237z" />
<glyph unicode="\" horiz-adv-x="604" d="M115 1190h69l332 -1190h-72z" />
<glyph unicode="]" horiz-adv-x="464" d="M-23 -211l7 61h168l157 1278h-170l8 62h236l-172 -1401h-234z" />
<glyph unicode="^" d="M35 362l510 644l342 -646l-60 -41l-295 572l-442 -574z" />
<glyph unicode="_" horiz-adv-x="1087" d="M-102 -358l8 63h1085l-8 -63h-1085z" />
<glyph unicode="`" horiz-adv-x="1005" d="M406 1272l73 114l297 -221l-45 -45z" />
<glyph unicode="a" horiz-adv-x="989" d="M63 342q0 145 41 266t117 207t183.5 133t242.5 47q78 0 150.5 -6t109.5 -10l-28 -121l-78 -622v-256h-19q-57 2 -77.5 23.5t-20.5 74.5v100h-8q-10 -16 -32.5 -49t-61.5 -65.5t-95.5 -57t-130.5 -24.5q-72 0 -126 27.5t-91 75.5t-56.5 113.5t-19.5 143.5zM180 354 q0 -53 10.5 -103t33 -89t59 -61.5t90.5 -22.5q88 0 152.5 49t108.5 134t71.5 198.5t44.5 242.5l24 189q-23 2 -45 4q-20 2 -43.5 4t-46.5 2q-106 0 -191.5 -39t-144.5 -110.5t-91 -172t-32 -225.5z" />
<glyph unicode="b" horiz-adv-x="974" d="M84 4l25 111l153 1261l111 13l-68 -562h8q6 10 29 38t61.5 56.5t94 51t129.5 22.5q72 0 126 -25.5t90 -71.5t54 -109.5t18 -139.5q0 -324 -158.5 -495.5t-441.5 -171.5q-27 0 -59.5 2t-64 5t-60.5 7t-47 8zM217 92q14 -4 53 -10t72 -6q115 0 201 41t143 113.5t86 174 t29 222.5q0 55 -10.5 105t-34 88t-61.5 59.5t-91 21.5q-82 0 -142.5 -43t-104.5 -121t-72.5 -186.5t-44.5 -239.5q-2 -14 -5.5 -41.5t-6.5 -60.5t-6 -65t-5 -52z" />
<glyph unicode="c" horiz-adv-x="794" d="M63 393q0 131 37 241.5t105.5 190.5t168 125t222.5 45q51 0 102.5 -9t94.5 -19l-35 -101q-35 14 -80 23.5t-100 9.5q-94 0 -169 -39t-127.5 -106.5t-80 -158.5t-27.5 -196q0 -70 17.5 -129t51 -103t84 -68.5t115.5 -24.5q96 0 163 38t112 83v-119q-6 -6 -28.5 -21.5 t-58.5 -32t-85 -28.5t-109 -12q-92 0 -161.5 30.5t-116.5 85t-71 130t-24 165.5z" />
<glyph unicode="d" horiz-adv-x="985" d="M63 342q0 129 36 248t109 209t182.5 143t256.5 53h135l47 385l125 13l-26 -115l-127 -1040v-258h-19q-57 2 -77.5 23.5t-20.5 74.5v100h-8q-10 -16 -32.5 -49t-61.5 -65.5t-95.5 -57t-130.5 -24.5q-141 0 -217 100t-76 260zM180 354q0 -53 10.5 -103t33 -89t59 -61.5 t90.5 -22.5q88 0 151.5 48t107.5 132t70.5 196.5t45.5 241.5l26 195q-18 2 -41 4q-18 2 -39.5 4t-44.5 2q-113 0 -200 -39t-147 -110.5t-91 -172t-31 -225.5z" />
<glyph unicode="e" horiz-adv-x="901" d="M63 383q0 137 40 249.5t110 193.5t164 125t203 44q61 0 112 -16t88 -48t58.5 -76t21.5 -99q0 -96 -51 -158.5t-131 -100.5t-179.5 -57.5t-195.5 -29.5l-119 -13v-8q0 -150 71 -230.5t230 -80.5q78 0 146.5 19.5t124.5 41.5l-37 -114q-39 -12 -108.5 -27.5t-147.5 -15.5 q-201 0 -300.5 107.5t-99.5 293.5zM193 492l96 10q76 8 155.5 22.5t144 42t105.5 71.5t41 112q0 72 -48 112.5t-128 40.5q-72 0 -133 -31.5t-110.5 -88t-81 -131t-41.5 -160.5z" />
<glyph unicode="f" horiz-adv-x="552" d="M-147 -254q20 -4 49 -4q90 0 144 45t65 137l116 959h-129l11 75l129 21l16 133q16 135 100 212t224 77q12 0 29.5 -1t27.5 -3v-99q-10 2 -26.5 3.5t-33.5 1.5q-219 0 -219 -252v-29.5t2 -24.5q0 -10 2 -20h205l-12 -94h-215l-119 -975q-16 -127 -103 -196.5t-216 -69.5 q-12 0 -26.5 1t-20.5 3v100z" />
<glyph unicode="g" horiz-adv-x="980" d="M20 -313l39 104q41 -18 109 -35.5t137 -17.5q168 0 255 95t104 245l18 145h-10q-10 -14 -32 -42.5t-58.5 -58.5t-90 -52.5t-124.5 -22.5q-147 0 -227.5 92t-80.5 246q0 141 43 254t119 192.5t181.5 121.5t228.5 42q35 0 73.5 -2t75.5 -6t69 -8t50 -6l-25 -115l-98 -784 q-27 -211 -143.5 -321.5t-343.5 -110.5q-100 0 -170 17t-99 28zM176 395q0 -104 49 -178t160 -74q82 0 143.5 42t105.5 116t70.5 177.5t40.5 226.5l21 186q-20 2 -43 4q-18 2 -42 4t-46 2q-100 0 -184 -35t-145.5 -100.5t-95.5 -158.5t-34 -212z" />
<glyph unicode="h" horiz-adv-x="1003" d="M98 0l166 1376l123 13l-27 -117l-51 -436h8q43 66 120 112.5t169 46.5q129 0 203 -66.5t74 -191.5q0 -16 -1 -36.5t-3 -38.5l-84 -676q-2 -2 -7 -2q-4 -2 -18 -2q-72 0 -72 88v15t2 17l70 568q2 12 3 32.5t1 30.5q0 78 -48 123t-134 45q-76 0 -132.5 -32.5t-95 -89 t-62 -131.5t-34.5 -159l-61 -489h-109z" />
<glyph unicode="i" horiz-adv-x="423" d="M109 70v16t2 25l106 862l109 8l-103 -836v-159q-4 -2 -10 -2q-6 -2 -20 -2q-39 0 -61.5 22.5t-22.5 65.5zM219 1307l105 94l82 -94l-105 -99z" />
<glyph unicode="j" horiz-adv-x="462" d="M-106 -258q12 -2 25 -3t24 -1q160 0 180 186l129 1053h121l-25 -117l-115 -934q-16 -141 -83.5 -214.5t-198.5 -73.5q-10 0 -23.5 1t-21.5 3zM244 1298l112 103l88 -103l-112 -108z" />
<glyph unicode="k" horiz-adv-x="894" d="M84 0l25 115l155 1261l109 13l-109 -887l10 -2l35 53l443 424h143l-363 -350l287 -617q2 0 -13 -14t-50 -14q-25 0 -48.5 17t-41.5 58l-215 488h-9l-194 -191l-45 -354h-119z" />
<glyph unicode="l" horiz-adv-x="423" d="M109 70v16t2 25l155 1265l109 13l-152 -1244v-159q-4 -2 -10 -2q-6 -2 -20 -2q-39 0 -61.5 22.5t-22.5 65.5z" />
<glyph unicode="m" horiz-adv-x="1533" d="M98 0l103 831v160q2 0 8 2q4 0 10 1t12 1q76 0 82 -88v-57h11q43 63 112.5 104t171.5 41q98 0 162 -46t80 -115h8q49 72 121 116.5t178 44.5q117 0 186.5 -59t69.5 -178q0 -14 -1 -28.5t-3 -29.5l-88 -714q-2 -2 -6 -2q-4 -2 -19 -2q-71 0 -71 86q0 10 1 22t3 23l69 561 q2 16 3.5 30.5t1.5 28.5q0 168 -164 168q-70 0 -122 -29.5t-91 -84t-62.5 -130t-36.5 -168.5l-61 -489h-111l84 674q2 16 3 30.5t1 28.5q0 78 -37.5 123t-125.5 45q-137 0 -213 -113.5t-99 -298.5l-61 -489h-109z" />
<glyph unicode="n" horiz-adv-x="1001" d="M98 0l103 831v160q2 0 8 2q4 0 10 1t12 1q82 0 82 -88v-57h9q47 63 119.5 104t172.5 41q133 0 200 -69.5t67 -194.5v-33.5t-4 -35.5l-84 -676q-2 -2 -7 -2q-4 -2 -18 -2q-72 0 -72 88q0 8 1 20t3 23l68 557q2 14 3 26.5t1 24.5q0 82 -43 131t-133 49q-80 0 -137.5 -33.5 t-96 -91t-61 -131.5t-33.5 -156l-61 -489h-109z" />
<glyph unicode="o" horiz-adv-x="950" d="M63 373q0 135 30 248.5t89.5 196.5t146.5 130t203 47q86 0 152 -29.5t110 -83t67.5 -125t23.5 -157.5q0 -135 -30 -248.5t-88 -195.5t-146.5 -128t-206.5 -46q-86 0 -150.5 28.5t-109.5 80.5t-68 124t-23 158zM174 385q0 -63 13.5 -119.5t43 -98.5t76.5 -66.5t113 -24.5 q90 0 156.5 41t110.5 110.5t65.5 161.5t21.5 195q0 63 -14.5 120.5t-45 101.5t-77.5 69.5t-115 25.5q-92 0 -157.5 -42t-107.5 -112.5t-62.5 -164t-20.5 -197.5z" />
<glyph unicode="p" horiz-adv-x="978" d="M41 -350l27 114l114 977v256h19q57 -2 77.5 -23.5t20.5 -74.5v-100h8q8 16 30.5 49t61.5 65.5t94.5 57t129.5 24.5q76 0 132 -28.5t94 -77.5t56.5 -114.5t18.5 -139.5q0 -145 -38 -263t-114 -201t-192.5 -127t-272.5 -44h-100l-41 -340zM219 104q14 -4 33 -6 q16 -2 35.5 -3t42.5 -1q229 0 354 141.5t125 387.5q0 55 -12.5 106t-37 89t-64.5 60.5t-95 22.5q-86 0 -147.5 -47t-103.5 -128t-68.5 -188.5t-40.5 -228.5z" />
<glyph unicode="q" horiz-adv-x="978" d="M63 328q0 324 159 495.5t442 171.5q27 0 59.5 -2t64 -5t61.5 -6t48 -7l-27 -113l-145 -1196l-111 -12l60 496h-8q-6 -10 -29 -38t-60.5 -56.5t-92 -51t-128.5 -22.5q-72 0 -126 25.5t-91 71.5t-56.5 109.5t-19.5 139.5zM178 350q0 -55 11.5 -105t36 -88t62.5 -59.5 t91 -21.5q82 0 142.5 43t103.5 120.5t70.5 186.5t43.5 240q2 14 5.5 41.5t6.5 59.5t6 63.5t5 54.5q-14 4 -53 10t-72 6q-115 0 -201 -41t-143 -113.5t-86 -174t-29 -222.5z" />
<glyph unicode="r" horiz-adv-x="638" d="M98 0l105 831v160q2 0 8 2q4 0 10 1t12 1q80 0 80 -88v-57h9q35 49 74.5 77.5t83.5 44t91 19.5t97 4v-121q-16 4 -38 5.5t-36 1.5q-82 0 -139.5 -30t-95 -83t-59 -125t-32.5 -154l-61 -489h-109z" />
<glyph unicode="s" horiz-adv-x="790" d="M20 27l39 104q51 -23 116 -38t130 -15q49 0 99.5 8t89 27.5t63.5 53.5t25 83q0 35 -19.5 64.5t-51.5 54t-73 47t-84 45.5t-85 47t-74.5 55t-52 68t-19.5 84q0 82 35 136t92 86t130 45t146 13q23 0 51.5 -2t59.5 -5t59.5 -7t53.5 -10l-37 -105q-35 10 -91.5 20.5 t-117.5 10.5q-45 0 -92 -8t-86 -26.5t-63.5 -50.5t-24.5 -79q0 -59 56 -100t130 -80q47 -25 96 -52.5t89 -61t64.5 -75.5t24.5 -98q0 -76 -32.5 -130t-88 -88t-128 -50t-152.5 -16q-84 0 -160 14t-117 31z" />
<glyph unicode="t" horiz-adv-x="552" d="M100 883l11 82l122 16l43 213l113 102l-39 -319h215l-12 -94h-215l-72 -584q-2 -14 -4 -34.5t-2 -33.5q0 -86 38 -119.5t136 -33.5q8 0 23.5 1t19.5 3l-31 -96q-10 -2 -24 -3t-31 -1q-117 0 -179 53t-62 168q0 12 1 27.5t3 33.5l75 619h-129z" />
<glyph unicode="u" horiz-adv-x="1001" d="M121 246v33.5t4 35.5l84 676q2 0 6 2q4 0 8 1t10 1q72 0 72 -88q0 -8 -1 -20.5t-3 -22.5l-68 -557q-2 -14 -3 -26.5t-1 -24.5q0 -82 43 -131t134 -49q80 0 137 33.5t96 90t61.5 131.5t32.5 156l62 490h108l-102 -832v-159q-4 -2 -10 -2q-6 -2 -21 -2q-82 0 -82 88v57h-8 q-47 -63 -120 -104t-173 -41q-133 0 -199.5 69.5t-66.5 194.5z" />
<glyph unicode="v" horiz-adv-x="843" d="M82 971l113 16l165 -776v-66h9q47 78 96 171.5t91 185.5t71.5 175t38.5 138l-31 162q14 8 33.5 14t36.5 6q47 0 68.5 -29.5t21.5 -74.5q0 -57 -35 -168t-105 -262q-31 -68 -69.5 -139.5t-77.5 -136t-70.5 -113.5t-46.5 -74h-100z" />
<glyph unicode="w" horiz-adv-x="1388" d="M98 971l111 16l166 -776v-66h8q47 78 95 171.5t88 185.5t68 175t36 138l-31 162q14 8 33.5 14t36.5 6q47 0 68.5 -29.5t21.5 -74.5q0 -16 -3 -36.5t-8 -45.5l127 -586v-80h9q47 78 95 171.5t88 185.5t67.5 175t35.5 138l-30 162q14 8 33.5 14t35.5 6q47 0 68.5 -29.5 t21.5 -74.5q0 -57 -34.5 -168t-104.5 -262q-31 -68 -68.5 -139.5t-73.5 -136t-66.5 -113.5t-45.5 -74h-100l-121 559l8 49h-12q-12 -35 -28.5 -70.5t-33.5 -74.5q-31 -68 -68.5 -139.5t-73.5 -136t-66.5 -113.5t-44.5 -74h-101z" />
<glyph unicode="x" horiz-adv-x="905" d="M-20 0l403 512l-258 469q2 0 19.5 6t45.5 6q43 0 68 -29.5t45 -68.5l131 -242l25 -61h10l39 61l170 207l76 117h151l-383 -465l271 -520q-10 -4 -19 -6q-18 -6 -45 -6q-43 0 -67.5 28.5t-45.5 69.5l-147 293l-18 61h-11l-37 -61l-192 -252l-74 -119h-157z" />
<glyph unicode="y" horiz-adv-x="843" d="M-96 -256q6 -2 18 -3t21 -1q57 0 99 14.5t83 52t88 104t113 171.5h-54l-190 889l113 16l165 -762v-80h9q47 78 94 168t88 181.5t71.5 174.5t43.5 146l-31 162q14 8 33.5 14t36.5 6q47 0 68.5 -29.5t21.5 -74.5q0 -57 -37 -168t-107 -262q-31 -68 -68.5 -141.5t-76.5 -141 t-73 -124t-54 -89.5q-53 -82 -100.5 -143.5t-96.5 -101t-105.5 -59t-125.5 -19.5q-12 0 -27.5 2t-19.5 4v94z" />
<glyph unicode="z" horiz-adv-x="768" d="M-10 0l10 111l594 727l55 34v9h-545l11 96h651l-14 -115l-594 -723l-60 -37l2 -8h437l159 25q0 -45 -10 -70.5t-34.5 -38t-63.5 -15.5t-96 -3q-39 0 -79 1t-95.5 3t-133.5 3t-194 1z" />
<glyph unicode="{" horiz-adv-x="458" d="M74 485l2 9l76 73q29 29 37 49.5t12 51.5l49 395q8 59 50 93t97 34h86l-8 -60h-65q-51 0 -71 -22.5t-26 -67.5l-47 -372q-4 -41 -11 -62.5t-38 -52.5l-63 -64l49 -63q14 -20 19 -35.5t5 -34.5q0 -10 -1 -20t-3 -25l-45 -372q-2 -10 -2 -15.5v-11.5q0 -31 17.5 -47.5 t58.5 -16.5h65l-6 -59h-86q-53 0 -86 29.5t-33 81.5v10t3 16l49 385q0 10 1 17.5t1 15.5q0 16 -5 31.5t-22 36.5z" />
<glyph unicode="|" horiz-adv-x="374" d="M59 -264l181 1454h65l-180 -1454h-66z" />
<glyph unicode="}" horiz-adv-x="458" d="M-23 -211l7 59h63q47 0 69.5 23t28.5 68l45 372q4 41 11.5 62.5t38.5 52.5l65 63l-51 64q-16 18 -19.5 34.5t-5.5 33.5q0 10 1 21t3 26l46 364q0 4 1 10.5t1 10.5v8q0 35 -16.5 52t-59.5 17h-66l8 60h86q51 0 84 -28.5t33 -80.5v-10t-2 -18l-49 -385q-2 -10 -2 -27 q2 -18 6 -35.5t21 -38.5l59 -73l-2 -9l-76 -73q-31 -29 -38 -49.5t-11 -51.5l-49 -395q-8 -59 -49 -93t-97 -34h-84z" />
<glyph unicode="~" d="M121 561l8 64q25 14 55 26q25 10 58.5 18.5t72.5 8.5q47 0 93.5 -15.5t91.5 -33t90 -32.5t92 -15q41 0 90 14t86 37l-8 -64q-27 -16 -55 -26q-25 -10 -59 -17.5t-70 -7.5q-47 0 -93.5 15.5t-92.5 33t-92 32.5t-93 15q-39 0 -88 -15t-86 -38z" />
<glyph unicode="&#xa1;" horiz-adv-x="466" d="M68 -319l174 999h100l-160 -999h-114zM260 899q0 33 17.5 64.5t58.5 31.5q29 0 45 -17t16 -50q0 -43 -22.5 -68.5t-55.5 -25.5q-59 0 -59 65z" />
<glyph unicode="&#xa2;" d="M141 391q0 141 34 263t96.5 215.5t150.5 152.5t196 74l25 200h66l-25 -194h18q29 0 61 -4t61.5 -9.5t52 -10.5t34.5 -9l-34 -100q-35 16 -87.5 27.5t-103.5 11.5q-102 0 -182 -45t-135.5 -125t-85 -187.5t-29.5 -232.5q0 -72 16.5 -134.5t49 -108.5t83 -72.5t117.5 -26.5 q51 0 96.5 12t83 31.5t66.5 41t45 40.5v-119q-10 -8 -30.5 -23.5t-54.5 -31t-80 -28.5t-107 -17l-23 -195h-65l22 195q-160 8 -246 116.5t-86 292.5z" />
<glyph unicode="&#xa3;" d="M59 0l17 78l129 24l53 422h-156l17 64h147l19 157q23 188 118 272.5t285 84.5q78 0 147.5 -9.5t100.5 -15.5l-37 -98q-41 10 -99.5 18.5t-119.5 8.5q-133 0 -201.5 -57.5t-83.5 -196.5l-18 -164h440l-16 -64h-432l-54 -430h375l141 15l-14 -109h-758z" />
<glyph unicode="&#xa4;" d="M106 281l127 116q-45 70 -45 156q0 55 24 120.5t71 114.5l-105 117l43 41l103 -121q47 37 98 54.5t104 17.5q47 0 98.5 -17.5t86.5 -52.5l135 125l33 -39l-138 -122q47 -70 47 -162q0 -59 -23.5 -121t-70.5 -111l99 -121l-50 -40l-92 118q-45 -35 -98 -52t-102 -17 t-98.5 17t-84.5 52l-125 -116zM254 563q0 -88 56.5 -150.5t148.5 -62.5q51 0 99 22.5t85 59.5t59.5 87t22.5 106q0 88 -58.5 147t-148.5 59q-49 0 -93 -18t-80 -50t-59.5 -76t-29.5 -93q-2 -11 -2 -31z" />
<glyph unicode="&#xa5;" d="M70 369l16 63h322l-84 215h-220l17 64h180l-139 372h121l182 -503l14 -58h10l23 60l244 395l51 106h133l-231 -372h180l-21 -64h-200l-131 -215h317l-20 -63h-314l-45 -369h-113l46 369h-338z" />
<glyph unicode="&#xa6;" horiz-adv-x="374" d="M59 -264l76 612h66l-76 -612h-66zM164 580l76 610h65l-76 -610h-65z" />
<glyph unicode="&#xa7;" horiz-adv-x="737" d="M33 -209l20 55q29 -10 72 -16t84 -6q47 0 91 11t79 33.5t55.5 58.5t20.5 83q0 63 -43 106.5t-127 102.5q-90 61 -147.5 121.5t-57.5 157.5q0 98 55 179t125 134q-29 31 -45 65.5t-16 79.5q0 66 27.5 113t71.5 78t101.5 46t118.5 15q51 0 95 -6t73 -14l-20 -55 q-29 10 -72 16t-84 6q-47 0 -91 -11t-79 -35t-55.5 -58.5t-20.5 -81.5q0 -63 43 -106.5t127 -102.5q45 -31 82 -60.5t64.5 -61.5t43 -70t15.5 -87q0 -98 -53.5 -179t-122.5 -134q29 -31 43 -65.5t14 -79.5q0 -66 -27.5 -113t-71.5 -78t-101.5 -46t-118.5 -15q-51 0 -95.5 6 t-72.5 14zM143 502q0 -68 43 -118t146 -120l86 -59q70 55 113.5 120.5t43.5 151.5q0 33 -10 61.5t-32.5 56.5t-58.5 56.5t-87 63.5l-86 59q-70 -55 -114 -120.5t-44 -151.5z" />
<glyph unicode="&#xa8;" horiz-adv-x="1005" d="M438 1153l29 231h94l-29 -231h-94zM631 1153l28 231h97l-29 -231h-96z" />
<glyph unicode="&#xa9;" horiz-adv-x="1073" d="M55 899q0 104 38 195.5t103.5 159t153 106.5t187.5 39t187 -39t152.5 -106.5t103.5 -158.5t38 -196q0 -104 -38 -194.5t-103.5 -158t-152.5 -106.5t-187 -39t-187.5 39t-153 106.5t-103.5 158t-38 194.5zM117 899q0 -90 32.5 -170t89 -139.5t133.5 -93t165 -33.5 q86 0 162.5 33.5t134 93t90 139.5t32.5 170t-32.5 170t-90 139.5t-134 93t-162.5 33.5q-88 0 -165 -33.5t-133.5 -93t-89 -139.5t-32.5 -170zM330 838q0 160 75.5 251t204.5 91q29 0 63 -6.5t46 -10.5l-17 -53q-16 8 -43.5 14t-54.5 6q-104 0 -160.5 -77.5t-56.5 -212.5 q0 -74 35 -126t108 -52q53 0 89 22.5t53 40.5v-57q-10 -10 -46 -32t-102 -22q-94 0 -144 62.5t-50 161.5z" />
<glyph unicode="&#xaa;" horiz-adv-x="544" d="M35 799q0 94 26.5 167.5t75.5 126t118 80t151 27.5q41 0 73.5 -4t55.5 -6l-62 -498v-104q-2 -2 -6 -2q-4 -2 -14 -2q-49 0 -50 53v47h-8l-15 -22.5t-32.5 -34t-55.5 -30.5t-81 -13q-86 0 -131 60.5t-45 154.5zM104 805q0 -66 28 -115t91 -49q53 0 90 27.5t61.5 75t40 113 t27.5 142.5l19 138q-10 2 -21 4q-10 2 -22 3t-25 1q-139 0 -214 -95.5t-75 -244.5z" />
<glyph unicode="&#xab;" horiz-adv-x="1005" d="M121 553l440 434l43 -53l-393 -383l299 -395l-59 -41zM481 553l439 432l45 -53l-396 -381l299 -397l-53 -41z" />
<glyph unicode="&#xac;" d="M104 709l7 61h723l-43 -350h-66l37 289h-658z" />
<glyph unicode="&#xad;" horiz-adv-x="681" d="M129 461l8 61h416l-8 -61h-416z" />
<glyph unicode="&#xae;" horiz-adv-x="1073" d="M102 899q0 104 38 195.5t103.5 159t153 106.5t187.5 39t187 -39t152.5 -106.5t103.5 -158.5t38 -196q0 -104 -38 -194.5t-103.5 -158t-152.5 -106.5t-187 -39t-187.5 39t-153 106.5t-103.5 158t-38 194.5zM164 899q0 -90 32.5 -170t89 -139.5t133.5 -93t165 -33.5 q86 0 162.5 33.5t134 93t90.5 139.5t33 170t-33 170t-90.5 139.5t-134 93t-162.5 33.5q-88 0 -165 -33.5t-133.5 -93t-89 -139.5t-32.5 -170zM387 629l12 49l60 491h184q72 0 112 -33.5t40 -99.5q0 -63 -32 -101t-77 -48v-8q25 -14 33 -36t16 -77l19 -137h-62l-18 145 q-8 59 -30.5 76.5t-82.5 17.5h-84l-28 -239h-62zM483 913h115q49 0 92 28t43 89q0 43 -24.5 67.5t-77.5 24.5h-121z" />
<glyph unicode="&#xaf;" horiz-adv-x="1005" d="M352 1253l13 97h483l-12 -97h-484z" />
<glyph unicode="&#xb0;" horiz-adv-x="493" d="M82 864q0 74 17.5 135.5t51 105.5t82 69.5t107.5 25.5q92 0 135 -56.5t43 -150.5q0 -74 -18.5 -135t-52 -105t-83 -69t-108.5 -25q-92 0 -133 55.5t-41 149.5zM147 874q0 -66 26 -111.5t91 -45.5q45 0 80 21.5t58.5 57t36 83t12.5 98.5q0 66 -27 115t-94 49 q-47 0 -81 -22.5t-56.5 -59.5t-34 -85.5t-11.5 -99.5zM174 532l80 74l59 -74l-77 -75z" />
<glyph unicode="&#xb1;" d="M29 0l8 61h778l-8 -61h-778zM113 653l8 64h348l45 358h66l-45 -358h360l-8 -64h-361l-45 -377h-65l45 377h-348z" />
<glyph unicode="&#xb2;" horiz-adv-x="499" d="M68 594l10 84q90 55 155.5 99t107.5 83t62.5 78t20.5 84q0 55 -40 87t-114 32q-35 0 -71.5 -6.5t-65.5 -16.5l23 66q18 4 39 8q16 4 38.5 6t47.5 2q86 0 146 -46t60 -130q0 -59 -29.5 -109.5t-76.5 -94.5t-109.5 -84t-126.5 -79v-8h277l63 6l-8 -61h-409z" />
<glyph unicode="&#xb3;" horiz-adv-x="509" d="M76 602v60q25 -6 62.5 -15.5t84.5 -9.5q37 0 73 5t62.5 19.5t43 39t16.5 61.5q0 59 -49.5 82.5t-114.5 23.5h-78l6 54h76q33 0 65.5 5t57.5 18t40 38t15 61q0 53 -42 78t-101 25q-29 0 -68 -6t-75 -19l26 64q20 6 52 10t71 4q82 0 141.5 -37t59.5 -114q0 -51 -27 -91 t-82 -63l-2 -6q43 -18 67.5 -49t24.5 -78q0 -51 -22.5 -86t-59.5 -55.5t-84 -29.5t-94 -9t-88 8t-57 12z" />
<glyph unicode="&#xb4;" horiz-adv-x="1005" d="M391 1165l350 221l50 -114l-365 -152z" />
<glyph unicode="&#xb5;" horiz-adv-x="1011" d="M47 -344l25 119l147 1216q2 0 6 2q4 0 8.5 1t10.5 1q72 0 71 -88q0 -8 -1 -20.5t-3 -22.5l-67 -557q-2 -14 -3 -26.5t-1 -24.5q0 -82 43 -131t133 -49q80 0 137 33.5t96 90t61.5 131.5t32.5 156l62 490h108l-102 -832v-159q-4 -2 -10 -2q-6 -2 -21 -2q-82 0 -82 88v57h-8 q-47 -63 -119.5 -104t-173.5 -41q-61 0 -110 15t-76 42l-43 -371z" />
<glyph unicode="&#xb6;" horiz-adv-x="921" d="M129 778q0 180 104.5 274.5t282.5 94.5h420l-6 -49l-119 -15l-176 -1441h-66l176 1443h-178l-176 -1443h-76l21 84l94 770q-156 4 -228.5 76.5t-72.5 205.5z" />
<glyph unicode="&#xb7;" horiz-adv-x="380" d="M131 561q0 43 22.5 68.5t55.5 25.5q59 0 59 -65q0 -33 -17 -64.5t-58 -31.5q-29 0 -45.5 17t-16.5 50z" />
<glyph unicode="&#xb8;" horiz-adv-x="1005" d="M242 -342l20 68q12 -4 40 -9.5t60 -5.5q43 0 76 16.5t33 55.5q0 25 -21.5 38t-56.5 13q-14 0 -29.5 -1t-25.5 -3l41 170h70l-13 -98q51 0 94 -29t43 -86q0 -39 -19 -66.5t-50 -45t-69 -25.5t-75 -8q-41 0 -72.5 6t-45.5 10z" />
<glyph unicode="&#xb9;" horiz-adv-x="489" d="M90 596l6 53h160l72 465h-9l-22 -33q-35 -29 -75 -48t-81 -32l-6 64q49 12 99.5 42t93.5 83h73l-84 -541h146l-6 -53h-367z" />
<glyph unicode="&#xba;" horiz-adv-x="548" d="M74 823q0 82 18.5 150.5t53 119t88 79t124.5 28.5q104 0 158.5 -67.5t54.5 -171.5q0 -82 -17 -151t-53 -119t-89.5 -77.5t-124.5 -27.5q-104 0 -158.5 66.5t-54.5 170.5zM141 829q0 -76 34 -131t114 -55q55 0 96 24.5t66.5 66.5t39 98.5t13.5 117.5q0 78 -36 135.5 t-116 57.5q-55 0 -95 -25.5t-65.5 -68.5t-38 -100t-12.5 -120z" />
<glyph unicode="&#xbb;" horiz-adv-x="1005" d="M51 168l395 381l-299 397l54 41l334 -440l-439 -432zM412 166l393 383l-299 395l59 41l330 -438l-440 -434z" />
<glyph unicode="&#xbc;" horiz-adv-x="1107" d="M90 596l6 53h160l72 465h-9l-22 -33q-35 -29 -75 -48t-81 -32l-6 64q49 12 99.5 42t93.5 83h73l-84 -541h146l-6 -53h-367zM113 0l833 1190h68l-834 -1190h-67zM567 127l8 66l312 401h86l-49 -414h80l-7 -53h-79l-17 -127h-59l16 127h-291zM623 180h239l41 330l17 33h-9 l-260 -340l-26 -17z" />
<glyph unicode="&#xbd;" horiz-adv-x="1103" d="M90 596l6 53h160l72 465h-9l-22 -33q-35 -29 -75 -48t-81 -32l-6 64q49 12 99.5 42t93.5 83h73l-84 -541h146l-6 -53h-367zM113 0l833 1190h68l-834 -1190h-67zM580 0l10 84q90 55 155.5 99t107.5 83t62.5 78t20.5 84q0 55 -40 87t-114 32q-35 0 -71.5 -6t-65.5 -17 l23 66q18 4 39 8q16 4 38.5 6t47.5 2q86 0 146 -46t60 -130q0 -59 -29.5 -109.5t-76.5 -94.5t-109.5 -84t-126.5 -79v-8h277l63 6l-8 -61h-409z" />
<glyph unicode="&#xbe;" horiz-adv-x="1091" d="M76 602v60q25 -6 62.5 -15.5t84.5 -9.5q37 0 73 5t62.5 19.5t43 39t16.5 61.5q0 59 -49.5 82.5t-114.5 23.5h-78l6 54h76q33 0 65.5 5t57.5 18t40 38t15 61q0 53 -42 78t-101 25q-29 0 -68 -6t-75 -19l26 64q20 6 52 10t71 4q82 0 141.5 -37t59.5 -114q0 -51 -27 -91 t-82 -63l-2 -6q43 -18 67.5 -49t24.5 -78q0 -51 -22.5 -86t-59.5 -55.5t-84 -29.5t-94 -9t-88 8t-57 12zM113 0l833 1190h68l-834 -1190h-67zM526 127l9 66l311 401h86l-49 -414h80l-7 -53h-79l-17 -127h-59l16 127h-291zM582 180h239l41 330l17 33h-9l-260 -340l-26 -17z " />
<glyph unicode="&#xbf;" horiz-adv-x="849" d="M16 -4q0 92 35 168t93.5 134t136 100t161.5 65l43 215h95l-37 -293q-74 -12 -146.5 -42t-130 -76t-93.5 -110.5t-36 -146.5q0 -123 69.5 -185.5t199.5 -62.5q78 0 144 15.5t120 38.5l-39 -117q-35 -10 -99.5 -24.5t-152.5 -14.5q-80 0 -146.5 23.5t-114.5 66.5t-75 105.5 t-27 140.5zM500 897q0 33 17 64.5t58 31.5q29 0 45.5 -17.5t16.5 -49.5q0 -43 -22.5 -69t-55.5 -26q-59 0 -59 66z" />
<glyph unicode="&#xc0;" horiz-adv-x="1054" d="M-25 0l607 1296h170l211 -1296h-146v117l-43 258h-498l-176 -375h-125zM322 477h438l-105 633v80h-10l-29 -80zM483 1550l74 115l297 -221l-45 -45z" />
<glyph unicode="&#xc1;" horiz-adv-x="1054" d="M-25 0l607 1296h170l211 -1296h-146v117l-43 258h-498l-176 -375h-125zM322 477h438l-105 633v80h-10l-29 -80zM453 1444l350 221l49 -115l-365 -151z" />
<glyph unicode="&#xc2;" horiz-adv-x="1054" d="M-25 0l607 1296h170l211 -1296h-146v117l-43 258h-498l-176 -375h-125zM322 477h438l-105 633v80h-10l-29 -80zM399 1450l232 188q20 16 37.5 17.5t21.5 3.5q6 0 21.5 -2t31.5 -19l185 -188l-45 -45l-209 131l-240 -131z" />
<glyph unicode="&#xc3;" horiz-adv-x="1054" d="M-25 0l607 1296h170l211 -1296h-146v117l-43 258h-498l-176 -375h-125zM322 477h438l-105 633v80h-10l-29 -80zM418 1507l24 84q20 12 45 23q20 8 47 15t56 7q33 0 64.5 -6t63.5 -14t66.5 -14.5t71.5 -6.5q47 0 107 27l-23 -84q-23 -14 -45 -22q-20 -10 -45 -16.5 t-53 -6.5q-68 0 -132.5 20.5t-134.5 20.5q-25 0 -51 -7t-61 -20z" />
<glyph unicode="&#xc4;" horiz-adv-x="1054" d="M-25 0l607 1296h170l211 -1296h-146v117l-43 258h-498l-176 -375h-125zM322 477h438l-105 633v80h-10l-29 -80zM526 1430l29 231h94l-28 -231h-95zM719 1430l29 231h96l-29 -231h-96z" />
<glyph unicode="&#xc5;" horiz-adv-x="1054" d="M-25 0l607 1296h170l211 -1296h-146v117l-43 258h-498l-176 -375h-125zM322 477h438l-105 633v80h-10l-29 -80zM485 1507q0 49 17.5 85t47.5 58.5t66.5 33t75.5 10.5q33 0 66 -9.5t59.5 -29t41.5 -47t15 -64.5q0 -49 -18 -84t-47 -56.5t-66.5 -30.5t-76.5 -9 q-70 0 -125.5 36t-55.5 107zM584 1513q0 -37 25.5 -54t62.5 -17q41 0 72.5 19.5t31.5 72.5q0 41 -25.5 61.5t-62.5 20.5q-43 0 -73.5 -23t-30.5 -80z" />
<glyph unicode="&#xc6;" horiz-adv-x="1564" d="M-23 0l607 1296h929l-4 -102h-565l-16 -477h512l-4 -103h-512l-25 -512h586l-4 -102h-713l14 111l15 264h-516l-177 -375h-127zM326 477h475l30 717h-180z" />
<glyph unicode="&#xc7;" horiz-adv-x="970" d="M98 502q0 174 43 322.5t126 257t204 171t274 62.5q72 0 137.5 -12.5t108.5 -28.5l-41 -107q-41 20 -99 33.5t-124 13.5q-123 0 -218 -55t-159.5 -150.5t-98.5 -223.5t-34 -275q0 -84 19.5 -162t60.5 -137t103.5 -94t146.5 -35q55 0 107.5 15.5t96.5 40t78.5 53t55.5 57.5 v-139q-14 -14 -42 -36t-71 -41.5t-99.5 -33.5t-129.5 -16l-11 -80q51 0 94.5 -29t43.5 -86q0 -39 -19.5 -66.5t-50.5 -45t-68.5 -25.5t-74.5 -8q-41 0 -73 6t-46 10l20 68q12 -4 40 -9.5t61 -5.5q43 0 75.5 16.5t32.5 55.5q0 25 -21.5 38t-56.5 13q-14 0 -29.5 -1t-25.5 -3 l37 156q-90 10 -159.5 52t-117 109.5t-72 157.5t-24.5 197z" />
<glyph unicode="&#xc8;" horiz-adv-x="976" d="M96 0l29 119l145 1177h738l-13 -102h-622l-60 -477h564l-13 -103h-563l-63 -512h634l-12 -102h-764zM489 1550l74 115l297 -221l-45 -45z" />
<glyph unicode="&#xc9;" horiz-adv-x="976" d="M96 0l29 119l145 1177h738l-13 -102h-622l-60 -477h564l-13 -103h-563l-63 -512h634l-12 -102h-764zM483 1444l351 221l49 -115l-365 -151z" />
<glyph unicode="&#xca;" horiz-adv-x="976" d="M96 0l29 119l145 1177h738l-13 -102h-622l-60 -477h564l-13 -103h-563l-63 -512h634l-12 -102h-764zM393 1462l232 189q20 16 37.5 17t21.5 3q6 0 21.5 -2t31.5 -18l185 -189l-45 -45l-209 131l-240 -131z" />
<glyph unicode="&#xcb;" horiz-adv-x="976" d="M96 0l29 119l145 1177h738l-13 -102h-622l-60 -477h564l-13 -103h-563l-63 -512h634l-12 -102h-764zM520 1434l29 231h94l-29 -231h-94zM713 1434l28 231h97l-29 -231h-96z" />
<glyph unicode="&#xcc;" horiz-adv-x="462" d="M102 0l29 119l145 1177h115l-160 -1296h-129zM135 1552l74 115l297 -221l-45 -45z" />
<glyph unicode="&#xcd;" horiz-adv-x="462" d="M100 0l29 119l145 1177h115l-160 -1296h-129zM158 1446l350 221l49 -115l-364 -151z" />
<glyph unicode="&#xce;" horiz-adv-x="462" d="M82 1462l231 189q20 16 38 17t22 3q6 0 21.5 -2t31.5 -18l184 -189l-45 -45l-209 131l-239 -131zM100 0l29 119l145 1177h115l-160 -1296h-129z" />
<glyph unicode="&#xcf;" horiz-adv-x="462" d="M100 0l29 119l145 1177h115l-160 -1296h-129zM207 1434l29 231h94l-29 -231h-94zM399 1434l29 231h96l-28 -231h-97z" />
<glyph unicode="&#xd0;" horiz-adv-x="1163" d="M29 553v76l161 35l80 632h361q246 0 356.5 -136t110.5 -382q0 -184 -41 -328.5t-119 -245t-189.5 -152.5t-252.5 -52h-400l29 119l57 465zM238 102h256q127 0 218 51.5t150.5 141.5t88 212t28.5 261q0 197 -82 311.5t-268 114.5h-256l-64 -506l246 51l6 -75l-262 -56z " />
<glyph unicode="&#xd1;" horiz-adv-x="1187" d="M100 0l29 113l145 1183h177l403 -1169h10v84l133 1085h127l-28 -116l-146 -1180h-178l-399 1169h-13v-84l-131 -1085h-129zM449 1516l24 83q20 12 45 23q20 8 47 15.5t56 7.5q33 0 64.5 -6.5t63 -14.5t66.5 -14t72 -6q47 0 106 26l-22 -84q-23 -14 -45 -22 q-20 -10 -45 -16.5t-54 -6.5q-68 0 -132 20.5t-134 20.5q-25 0 -51.5 -7t-60.5 -19z" />
<glyph unicode="&#xd2;" horiz-adv-x="1177" d="M98 500q0 186 41 336.5t117 257t184.5 164t243.5 57.5q100 0 180 -39t135.5 -107.5t84 -165t28.5 -212.5q0 -184 -41 -334t-117.5 -255.5t-187.5 -162.5t-252 -57q-100 0 -177 36.5t-130 104t-81 164t-28 213.5zM217 526q0 -92 18.5 -174t56.5 -141t97.5 -94t138.5 -35 q113 0 200 56.5t145.5 149.5t88 215t29.5 253q0 94 -19.5 178t-59.5 146.5t-100 98t-140 35.5q-121 0 -207 -60t-141.5 -158.5t-81 -221.5t-25.5 -248zM496 1552l73 115l297 -221l-45 -45z" />
<glyph unicode="&#xd3;" horiz-adv-x="1177" d="M98 500q0 186 41 336.5t117 257t184.5 164t243.5 57.5q100 0 180 -39t135.5 -107.5t84 -165t28.5 -212.5q0 -184 -41 -334t-117.5 -255.5t-187.5 -162.5t-252 -57q-100 0 -177 36.5t-130 104t-81 164t-28 213.5zM217 526q0 -92 18.5 -174t56.5 -141t97.5 -94t138.5 -35 q113 0 200 56.5t145.5 149.5t88 215t29.5 253q0 94 -19.5 178t-59.5 146.5t-100 98t-140 35.5q-121 0 -207 -60t-141.5 -158.5t-81 -221.5t-25.5 -248zM479 1446l350 221l50 -115l-365 -151z" />
<glyph unicode="&#xd4;" horiz-adv-x="1177" d="M98 500q0 186 41 336.5t117 257t184.5 164t243.5 57.5q100 0 180 -39t135.5 -107.5t84 -165t28.5 -212.5q0 -184 -41 -334t-117.5 -255.5t-187.5 -162.5t-252 -57q-100 0 -177 36.5t-130 104t-81 164t-28 213.5zM217 526q0 -92 18.5 -174t56.5 -141t97.5 -94t138.5 -35 q113 0 200 56.5t145.5 149.5t88 215t29.5 253q0 94 -19.5 178t-59.5 146.5t-100 98t-140 35.5q-121 0 -207 -60t-141.5 -158.5t-81 -221.5t-25.5 -248zM414 1462l231 189q20 16 37.5 17t22.5 3q6 0 21 -2t32 -18l184 -189l-45 -45l-209 131l-239 -131z" />
<glyph unicode="&#xd5;" horiz-adv-x="1177" d="M98 500q0 186 41 336.5t117 257t184.5 164t243.5 57.5q100 0 180 -39t135.5 -107.5t84 -165t28.5 -212.5q0 -184 -41 -334t-117.5 -255.5t-187.5 -162.5t-252 -57q-100 0 -177 36.5t-130 104t-81 164t-28 213.5zM217 526q0 -92 18.5 -174t56.5 -141t97.5 -94t138.5 -35 q113 0 200 56.5t145.5 149.5t88 215t29.5 253q0 94 -19.5 178t-59.5 146.5t-100 98t-140 35.5q-121 0 -207 -60t-141.5 -158.5t-81 -221.5t-25.5 -248zM424 1516l25 83q20 12 45 23q20 8 46.5 15.5t55.5 7.5q33 0 64.5 -6.5t63.5 -14.5t66.5 -14t71.5 -6q47 0 107 26 l-23 -84q-23 -14 -45 -22q-20 -10 -45 -16.5t-53 -6.5q-68 0 -132.5 20.5t-133.5 20.5q-25 0 -51.5 -7t-61.5 -19z" />
<glyph unicode="&#xd6;" horiz-adv-x="1177" d="M98 500q0 186 41 336.5t117 257t184.5 164t243.5 57.5q100 0 180 -39t135.5 -107.5t84 -165t28.5 -212.5q0 -184 -41 -334t-117.5 -255.5t-187.5 -162.5t-252 -57q-100 0 -177 36.5t-130 104t-81 164t-28 213.5zM217 526q0 -92 18.5 -174t56.5 -141t97.5 -94t138.5 -35 q113 0 200 56.5t145.5 149.5t88 215t29.5 253q0 94 -19.5 178t-59.5 146.5t-100 98t-140 35.5q-121 0 -207 -60t-141.5 -158.5t-81 -221.5t-25.5 -248zM530 1434l29 231h94l-28 -231h-95zM723 1434l29 231h96l-29 -231h-96z" />
<glyph unicode="&#xd7;" d="M113 289l327 303l-252 299l45 47l254 -303l330 307l47 -47l-334 -305l263 -309l-45 -50l-263 312l-329 -303z" />
<glyph unicode="&#xd8;" horiz-adv-x="1177" d="M16 -82l166 238q-84 133 -84 344q0 186 41 336.5t117 257t184.5 164t243.5 57.5q76 0 138.5 -21.5t113.5 -62.5l92 129h98l-131 -186q117 -141 117 -383q0 -184 -41 -334t-117.5 -255.5t-187.5 -162.5t-252 -57q-172 0 -281 108l-120 -172h-97zM217 526q0 -150 45 -258 l606 867q-37 37 -86 58t-110 21q-121 0 -207 -60t-141.5 -158.5t-81 -221.5t-25.5 -248zM305 193q39 -53 94.5 -82t128.5 -29q113 0 200 56.5t145.5 149.5t88 215t29.5 253q0 90 -18.5 170t-52.5 141z" />
<glyph unicode="&#xd9;" horiz-adv-x="1179" d="M152 324q0 27 2 57.5t6 54.5l94 748v112h127l-105 -852q-4 -29 -6 -55.5t-2 -50.5q0 -129 64.5 -191.5t206.5 -62.5q170 0 251.5 85t104.5 255l98 758v114h123l-108 -880q-14 -111 -47 -192t-90.5 -135t-140.5 -80.5t-195 -26.5q-383 0 -383 342zM520 1552l74 115 l297 -221l-45 -45z" />
<glyph unicode="&#xda;" horiz-adv-x="1179" d="M152 324q0 27 2 57.5t6 54.5l94 748v112h127l-105 -852q-4 -29 -6 -55.5t-2 -50.5q0 -129 64.5 -191.5t206.5 -62.5q170 0 251.5 85t104.5 255l98 758v114h123l-108 -880q-14 -111 -47 -192t-90.5 -135t-140.5 -80.5t-195 -26.5q-383 0 -383 342zM514 1446l350 221 l49 -115l-364 -151z" />
<glyph unicode="&#xdb;" horiz-adv-x="1179" d="M152 324q0 27 2 57.5t6 54.5l94 748v112h127l-105 -852q-4 -29 -6 -55.5t-2 -50.5q0 -129 64.5 -191.5t206.5 -62.5q170 0 251.5 85t104.5 255l98 758v114h123l-108 -880q-14 -111 -47 -192t-90.5 -135t-140.5 -80.5t-195 -26.5q-383 0 -383 342zM440 1462l232 189 q20 16 37.5 17t21.5 3q6 0 21.5 -2t31.5 -18l185 -189l-45 -45l-209 131l-240 -131z" />
<glyph unicode="&#xdc;" horiz-adv-x="1179" d="M152 324q0 27 2 57.5t6 54.5l94 748v112h127l-105 -852q-4 -29 -6 -55.5t-2 -50.5q0 -129 64.5 -191.5t206.5 -62.5q170 0 251.5 85t104.5 255l98 758v114h123l-108 -880q-14 -111 -47 -192t-90.5 -135t-140.5 -80.5t-195 -26.5q-383 0 -383 342zM555 1434l29 231h94 l-29 -231h-94zM748 1434l28 231h96l-28 -231h-96z" />
<glyph unicode="&#xdd;" horiz-adv-x="1011" d="M129 1296h135l203 -616l6 -66h12l19 66l309 506l51 110h148l-490 -798l-61 -498h-115l62 498zM391 1446l350 221l50 -115l-365 -151z" />
<glyph unicode="&#xde;" horiz-adv-x="1060" d="M100 0l29 119l145 1177h115l-27 -213h244q182 0 290 -79.5t108 -247.5q0 -117 -37 -196t-100.5 -127t-151.5 -69.5t-189 -21.5h-254l-43 -342h-129zM285 444h247q74 0 137.5 14.5t110.5 49.5t75 93t28 149q0 123 -78 177t-213 54h-242z" />
<glyph unicode="&#xdf;" horiz-adv-x="1011" d="M98 883l11 75l129 21l8 63q23 174 117 267.5t260 93.5q63 0 117.5 -19.5t94 -54.5t62.5 -84t23 -106q0 -102 -49.5 -175t-120.5 -135l-72 -61l-2 -12l82 -107q25 -31 52.5 -68.5t52 -80.5t40 -89t15.5 -94q0 -90 -33 -154.5t-87.5 -104.5t-125 -58t-146.5 -18 q-45 0 -95 7t-75 17l37 94q23 -10 63 -17t87 -7q45 0 91 13t83 41t60.5 73t23.5 108q0 45 -19.5 91.5t-49.5 90.5t-65.5 84.5t-68.5 79.5q-23 27 -36 45.5t-13 42.5q0 35 20.5 58.5t51.5 48.5q47 39 81.5 70.5t57 64.5t34 68t11.5 78q0 78 -52.5 127t-138.5 49 q-111 0 -176 -66.5t-82 -208.5l-127 -1034h-120l26 117l92 766h-129z" />
<glyph unicode="&#xe0;" horiz-adv-x="989" d="M63 342q0 145 41 266t117 207t183.5 133t242.5 47q78 0 150.5 -6t109.5 -10l-28 -121l-78 -622v-256h-19q-57 2 -77.5 23.5t-20.5 74.5v100h-8q-10 -16 -32.5 -49t-61.5 -65.5t-95.5 -57t-130.5 -24.5q-72 0 -126 27.5t-91 75.5t-56.5 113.5t-19.5 143.5zM180 354 q0 -53 10.5 -103t33 -89t59 -61.5t90.5 -22.5q88 0 152.5 49t108.5 134t71.5 198.5t44.5 242.5l24 189q-23 2 -45 4q-20 2 -43.5 4t-46.5 2q-106 0 -191.5 -39t-144.5 -110.5t-91 -172t-32 -225.5zM406 1272l73 114l297 -221l-45 -45z" />
<glyph unicode="&#xe1;" horiz-adv-x="989" d="M63 342q0 145 41 266t117 207t183.5 133t242.5 47q78 0 150.5 -6t109.5 -10l-28 -121l-78 -622v-256h-19q-57 2 -77.5 23.5t-20.5 74.5v100h-8q-10 -16 -32.5 -49t-61.5 -65.5t-95.5 -57t-130.5 -24.5q-72 0 -126 27.5t-91 75.5t-56.5 113.5t-19.5 143.5zM180 354 q0 -53 10.5 -103t33 -89t59 -61.5t90.5 -22.5q88 0 152.5 49t108.5 134t71.5 198.5t44.5 242.5l24 189q-23 2 -45 4q-20 2 -43.5 4t-46.5 2q-106 0 -191.5 -39t-144.5 -110.5t-91 -172t-32 -225.5zM403 1165l351 221l49 -114l-365 -152z" />
<glyph unicode="&#xe2;" horiz-adv-x="989" d="M63 342q0 145 41 266t117 207t183.5 133t242.5 47q78 0 150.5 -6t109.5 -10l-28 -121l-78 -622v-256h-19q-57 2 -77.5 23.5t-20.5 74.5v100h-8q-10 -16 -32.5 -49t-61.5 -65.5t-95.5 -57t-130.5 -24.5q-72 0 -126 27.5t-91 75.5t-56.5 113.5t-19.5 143.5zM180 354 q0 -53 10.5 -103t33 -89t59 -61.5t90.5 -22.5q88 0 152.5 49t108.5 134t71.5 198.5t44.5 242.5l24 189q-23 2 -45 4q-20 2 -43.5 4t-46.5 2q-106 0 -191.5 -39t-144.5 -110.5t-91 -172t-32 -225.5zM319 1180l232 188q20 16 37.5 17t21.5 4q6 0 21.5 -2.5t32.5 -18.5 l184 -188l-45 -45l-209 131l-240 -131z" />
<glyph unicode="&#xe3;" horiz-adv-x="989" d="M63 342q0 145 41 266t117 207t183.5 133t242.5 47q78 0 150.5 -6t109.5 -10l-28 -121l-78 -622v-256h-19q-57 2 -77.5 23.5t-20.5 74.5v100h-8q-10 -16 -32.5 -49t-61.5 -65.5t-95.5 -57t-130.5 -24.5q-72 0 -126 27.5t-91 75.5t-56.5 113.5t-19.5 143.5zM180 354 q0 -53 10.5 -103t33 -89t59 -61.5t90.5 -22.5q88 0 152.5 49t108.5 134t71.5 198.5t44.5 242.5l24 189q-23 2 -45 4q-20 2 -43.5 4t-46.5 2q-106 0 -191.5 -39t-144.5 -110.5t-91 -172t-32 -225.5zM340 1235l25 84q20 12 45 22q20 8 46.5 15.5t55.5 7.5q33 0 64.5 -6 t63.5 -14.5t66.5 -14.5t71.5 -6q47 0 107 27l-23 -84q-23 -14 -45 -23q-20 -10 -44.5 -16t-53.5 -6q-68 0 -132.5 20.5t-133.5 20.5q-25 0 -51.5 -7.5t-61.5 -19.5z" />
<glyph unicode="&#xe4;" horiz-adv-x="989" d="M63 342q0 145 41 266t117 207t183.5 133t242.5 47q78 0 150.5 -6t109.5 -10l-28 -121l-78 -622v-256h-19q-57 2 -77.5 23.5t-20.5 74.5v100h-8q-10 -16 -32.5 -49t-61.5 -65.5t-95.5 -57t-130.5 -24.5q-72 0 -126 27.5t-91 75.5t-56.5 113.5t-19.5 143.5zM180 354 q0 -53 10.5 -103t33 -89t59 -61.5t90.5 -22.5q88 0 152.5 49t108.5 134t71.5 198.5t44.5 242.5l24 189q-23 2 -45 4q-20 2 -43.5 4t-46.5 2q-106 0 -191.5 -39t-144.5 -110.5t-91 -172t-32 -225.5zM446 1153l29 231h94l-28 -231h-95zM639 1153l29 231h96l-29 -231h-96z" />
<glyph unicode="&#xe5;" horiz-adv-x="989" d="M63 342q0 145 41 266t117 207t183.5 133t242.5 47q78 0 150.5 -6t109.5 -10l-28 -121l-78 -622v-256h-19q-57 2 -77.5 23.5t-20.5 74.5v100h-8q-10 -16 -32.5 -49t-61.5 -65.5t-95.5 -57t-130.5 -24.5q-72 0 -126 27.5t-91 75.5t-56.5 113.5t-19.5 143.5zM180 354 q0 -53 10.5 -103t33 -89t59 -61.5t90.5 -22.5q88 0 152.5 49t108.5 134t71.5 198.5t44.5 242.5l24 189q-23 2 -45 4q-20 2 -43.5 4t-46.5 2q-106 0 -191.5 -39t-144.5 -110.5t-91 -172t-32 -225.5zM422 1223q0 49 17.5 84.5t47 58.5t66.5 33t76 10q33 0 65.5 -9t59 -28.5 t42 -47t15.5 -64.5q0 -49 -18.5 -84t-47 -56.5t-66.5 -31t-77 -9.5q-70 0 -125 36t-55 108zM520 1229q0 -37 25.5 -54.5t62.5 -17.5q41 0 73 19.5t32 72.5q0 41 -25.5 61.5t-62.5 20.5q-43 0 -74 -22.5t-31 -79.5z" />
<glyph unicode="&#xe6;" horiz-adv-x="1478" d="M33 231q0 96 47 166t126 117t179 74.5t207 38.5l123 12q29 76 71.5 141.5t98 112.5t123 74.5t145.5 27.5q127 0 206 -65.5t79 -181.5q0 -98 -47.5 -168t-124 -117t-175 -72.5t-198.5 -36.5l-119 -12v-8q0 -127 79 -191.5t220 -64.5q47 0 112.5 15.5t149.5 49.5l-37 -114 q-29 -10 -95 -28.5t-152 -18.5q-141 0 -227.5 53t-127.5 151h-14q-70 -96 -162 -150t-203 -54q-131 0 -207.5 64.5t-76.5 184.5zM158 238q0 -66 43 -113t118 -47q76 0 139.5 37t111.5 99t79 147t41 182l-94 -11q-86 -8 -165 -27.5t-139.5 -54t-97 -87t-36.5 -125.5zM780 436 l94 10q82 8 161 28t140.5 54.5t99.5 87t38 125.5q0 72 -43 115t-123 43q-76 0 -138.5 -39t-110.5 -103.5t-77.5 -148.5t-40.5 -172z" />
<glyph unicode="&#xe7;" horiz-adv-x="794" d="M63 393q0 131 37 241.5t105.5 190.5t168 125t222.5 45q51 0 102.5 -9t94.5 -19l-35 -101q-35 14 -80 23.5t-100 9.5q-94 0 -169 -39t-127.5 -106.5t-80 -158.5t-27.5 -196q0 -70 17.5 -129t51 -103t84 -68.5t115.5 -24.5q96 0 163 38t112 83v-119q-6 -6 -26.5 -20.5 t-53.5 -30t-78 -27.5t-98 -14l-10 -82q51 0 94 -29t43 -86q0 -39 -19.5 -66.5t-50.5 -45t-68.5 -25.5t-74.5 -8q-41 0 -73 6t-46 10l20 68q12 -4 40 -9.5t61 -5.5q43 0 75.5 16.5t32.5 55.5q0 25 -21.5 38t-55.5 13q-14 0 -30 -1t-26 -3l37 154q-160 16 -243 127.5 t-83 281.5z" />
<glyph unicode="&#xe8;" horiz-adv-x="901" d="M63 383q0 137 40 249.5t110 193.5t164 125t203 44q61 0 112 -16t88 -48t58.5 -76t21.5 -99q0 -96 -51 -158.5t-131 -100.5t-179.5 -57.5t-195.5 -29.5l-119 -13v-8q0 -150 71 -230.5t230 -80.5q78 0 146.5 19.5t124.5 41.5l-37 -114q-39 -12 -108.5 -27.5t-147.5 -15.5 q-201 0 -300.5 107.5t-99.5 293.5zM193 492l96 10q76 8 155.5 22.5t144 42t105.5 71.5t41 112q0 72 -48 112.5t-128 40.5q-72 0 -133 -31.5t-110.5 -88t-81 -131t-41.5 -160.5zM385 1272l74 114l297 -221l-45 -45z" />
<glyph unicode="&#xe9;" horiz-adv-x="901" d="M63 383q0 137 40 249.5t110 193.5t164 125t203 44q61 0 112 -16t88 -48t58.5 -76t21.5 -99q0 -96 -51 -158.5t-131 -100.5t-179.5 -57.5t-195.5 -29.5l-119 -13v-8q0 -150 71 -230.5t230 -80.5q78 0 146.5 19.5t124.5 41.5l-37 -114q-39 -12 -108.5 -27.5t-147.5 -15.5 q-201 0 -300.5 107.5t-99.5 293.5zM193 492l96 10q76 8 155.5 22.5t144 42t105.5 71.5t41 112q0 72 -48 112.5t-128 40.5q-72 0 -133 -31.5t-110.5 -88t-81 -131t-41.5 -160.5zM379 1165l350 221l49 -114l-364 -152z" />
<glyph unicode="&#xea;" horiz-adv-x="901" d="M63 383q0 137 40 249.5t110 193.5t164 125t203 44q61 0 112 -16t88 -48t58.5 -76t21.5 -99q0 -96 -51 -158.5t-131 -100.5t-179.5 -57.5t-195.5 -29.5l-119 -13v-8q0 -150 71 -230.5t230 -80.5q78 0 146.5 19.5t124.5 41.5l-37 -114q-39 -12 -108.5 -27.5t-147.5 -15.5 q-201 0 -300.5 107.5t-99.5 293.5zM193 492l96 10q76 8 155.5 22.5t144 42t105.5 71.5t41 112q0 72 -48 112.5t-128 40.5q-72 0 -133 -31.5t-110.5 -88t-81 -131t-41.5 -160.5zM293 1182l231 188q20 16 38 17.5t22 3.5q6 0 21.5 -2.5t31.5 -18.5l184 -188l-45 -45l-209 131 l-239 -131z" />
<glyph unicode="&#xeb;" horiz-adv-x="901" d="M63 383q0 137 40 249.5t110 193.5t164 125t203 44q61 0 112 -16t88 -48t58.5 -76t21.5 -99q0 -96 -51 -158.5t-131 -100.5t-179.5 -57.5t-195.5 -29.5l-119 -13v-8q0 -150 71 -230.5t230 -80.5q78 0 146.5 19.5t124.5 41.5l-37 -114q-39 -12 -108.5 -27.5t-147.5 -15.5 q-201 0 -300.5 107.5t-99.5 293.5zM193 492l96 10q76 8 155.5 22.5t144 42t105.5 71.5t41 112q0 72 -48 112.5t-128 40.5q-72 0 -133 -31.5t-110.5 -88t-81 -131t-41.5 -160.5zM403 1153l29 231h94l-28 -231h-95zM596 1153l29 231h96l-29 -231h-96z" />
<glyph unicode="&#xec;" horiz-adv-x="423" d="M109 70v16t2 25l106 862l109 8l-103 -836v-159q-4 -2 -10 -2q-6 -2 -20 -2q-39 0 -61.5 22.5t-22.5 65.5zM119 1272l74 114l296 -221l-45 -45z" />
<glyph unicode="&#xed;" horiz-adv-x="423" d="M102 1165l351 221l49 -114l-365 -152zM109 70v16t2 25l106 862l109 8l-103 -836v-159q-4 -2 -10 -2q-6 -2 -20 -2q-39 0 -61.5 22.5t-22.5 65.5z" />
<glyph unicode="&#xee;" horiz-adv-x="423" d="M33 1182l231 188q20 16 37.5 17.5t22.5 3.5q6 0 21 -2.5t32 -18.5l184 -188l-45 -45l-209 131l-239 -131zM109 70v16t2 25l106 862l109 8l-103 -836v-159q-4 -2 -10 -2q-6 -2 -20 -2q-39 0 -61.5 22.5t-22.5 65.5z" />
<glyph unicode="&#xef;" horiz-adv-x="423" d="M109 70v16t2 25l106 862l109 8l-103 -836v-159q-4 -2 -10 -2q-6 -2 -20 -2q-39 0 -61.5 22.5t-22.5 65.5zM147 1153l29 231h94l-28 -231h-95zM340 1153l29 231h96l-29 -231h-96z" />
<glyph unicode="&#xf0;" horiz-adv-x="944" d="M61 367q0 113 33 210t92.5 167.5t142.5 111.5t185 41q20 0 51 -2t43 -6l33 -23l8 6l-139 240l-174 -39l-8 70l147 33l-108 198l110 27l113 -199l172 37l6 -68l-145 -32l29 -53q28 -52 67 -122.5t74.5 -140t48.5 -104.5q16 -43 26.5 -94.5t10.5 -122.5q0 -115 -32 -210 t-90.5 -165t-142.5 -107.5t-188 -37.5q-86 0 -154.5 29.5t-114.5 80.5t-71 122t-25 153zM172 373q0 -59 16.5 -112.5t49 -94.5t83 -65.5t117.5 -24.5q86 0 148.5 34.5t101.5 94t57.5 138.5t18.5 167q0 61 -14.5 114.5t-45 91.5t-78.5 60.5t-116 22.5q-84 0 -147.5 -35 t-105.5 -93.5t-63.5 -135t-21.5 -162.5z" />
<glyph unicode="&#xf1;" horiz-adv-x="1001" d="M98 0l103 831v160q2 0 8 2q4 0 10 1t12 1q82 0 82 -88v-57h9q47 63 119.5 104t172.5 41q133 0 200 -69.5t67 -194.5v-33.5t-4 -35.5l-84 -676q-2 -2 -7 -2q-4 -2 -18 -2q-72 0 -72 88q0 8 1 20t3 23l68 557q2 14 3 26.5t1 24.5q0 82 -43 131t-133 49q-80 0 -137.5 -33.5 t-96 -91t-61 -131.5t-33.5 -156l-61 -489h-109zM330 1235l24 84q20 12 45 22q20 8 47 15.5t56 7.5q33 0 64.5 -6t63.5 -14.5t66.5 -14.5t71.5 -6q47 0 106 27l-22 -84q-23 -14 -45 -23q-20 -10 -45 -16t-53 -6q-68 0 -132.5 20.5t-134.5 20.5q-25 0 -51 -7.5t-61 -19.5z" />
<glyph unicode="&#xf2;" horiz-adv-x="950" d="M63 373q0 135 30 248.5t89.5 196.5t146.5 130t203 47q86 0 152 -29.5t110 -83t67.5 -125t23.5 -157.5q0 -135 -30 -248.5t-88 -195.5t-146.5 -128t-206.5 -46q-86 0 -150.5 28.5t-109.5 80.5t-68 124t-23 158zM174 385q0 -63 13.5 -119.5t43 -98.5t76.5 -66.5t113 -24.5 q90 0 156.5 41t110.5 110.5t65.5 161.5t21.5 195q0 63 -14.5 120.5t-45 101.5t-77.5 69.5t-115 25.5q-92 0 -157.5 -42t-107.5 -112.5t-62.5 -164t-20.5 -197.5zM371 1272l73 114l297 -221l-45 -45z" />
<glyph unicode="&#xf3;" horiz-adv-x="950" d="M63 373q0 135 30 248.5t89.5 196.5t146.5 130t203 47q86 0 152 -29.5t110 -83t67.5 -125t23.5 -157.5q0 -135 -30 -248.5t-88 -195.5t-146.5 -128t-206.5 -46q-86 0 -150.5 28.5t-109.5 80.5t-68 124t-23 158zM174 385q0 -63 13.5 -119.5t43 -98.5t76.5 -66.5t113 -24.5 q90 0 156.5 41t110.5 110.5t65.5 161.5t21.5 195q0 63 -14.5 120.5t-45 101.5t-77.5 69.5t-115 25.5q-92 0 -157.5 -42t-107.5 -112.5t-62.5 -164t-20.5 -197.5zM356 1165l351 221l49 -114l-365 -152z" />
<glyph unicode="&#xf4;" horiz-adv-x="950" d="M63 373q0 135 30 248.5t89.5 196.5t146.5 130t203 47q86 0 152 -29.5t110 -83t67.5 -125t23.5 -157.5q0 -135 -30 -248.5t-88 -195.5t-146.5 -128t-206.5 -46q-86 0 -150.5 28.5t-109.5 80.5t-68 124t-23 158zM174 385q0 -63 13.5 -119.5t43 -98.5t76.5 -66.5t113 -24.5 q90 0 156.5 41t110.5 110.5t65.5 161.5t21.5 195q0 63 -14.5 120.5t-45 101.5t-77.5 69.5t-115 25.5q-92 0 -157.5 -42t-107.5 -112.5t-62.5 -164t-20.5 -197.5zM293 1182l231 188q20 16 38 17.5t22 3.5q6 0 21.5 -2.5t31.5 -18.5l184 -188l-45 -45l-209 131l-239 -131z" />
<glyph unicode="&#xf5;" horiz-adv-x="950" d="M63 373q0 135 30 248.5t89.5 196.5t146.5 130t203 47q86 0 152 -29.5t110 -83t67.5 -125t23.5 -157.5q0 -135 -30 -248.5t-88 -195.5t-146.5 -128t-206.5 -46q-86 0 -150.5 28.5t-109.5 80.5t-68 124t-23 158zM174 385q0 -63 13.5 -119.5t43 -98.5t76.5 -66.5t113 -24.5 q90 0 156.5 41t110.5 110.5t65.5 161.5t21.5 195q0 63 -14.5 120.5t-45 101.5t-77.5 69.5t-115 25.5q-92 0 -157.5 -42t-107.5 -112.5t-62.5 -164t-20.5 -197.5zM297 1235l25 84q20 12 45 22q20 8 46.5 15.5t55.5 7.5q33 0 64.5 -6t63.5 -14.5t66.5 -14.5t71.5 -6 q47 0 107 27l-23 -84q-23 -14 -45 -23q-20 -10 -44.5 -16t-53.5 -6q-68 0 -132.5 20.5t-133.5 20.5q-25 0 -51.5 -7.5t-61.5 -19.5z" />
<glyph unicode="&#xf6;" horiz-adv-x="950" d="M63 373q0 135 30 248.5t89.5 196.5t146.5 130t203 47q86 0 152 -29.5t110 -83t67.5 -125t23.5 -157.5q0 -135 -30 -248.5t-88 -195.5t-146.5 -128t-206.5 -46q-86 0 -150.5 28.5t-109.5 80.5t-68 124t-23 158zM174 385q0 -63 13.5 -119.5t43 -98.5t76.5 -66.5t113 -24.5 q90 0 156.5 41t110.5 110.5t65.5 161.5t21.5 195q0 63 -14.5 120.5t-45 101.5t-77.5 69.5t-115 25.5q-92 0 -157.5 -42t-107.5 -112.5t-62.5 -164t-20.5 -197.5zM416 1153l28 231h95l-29 -231h-94zM608 1153l29 231h96l-28 -231h-97z" />
<glyph unicode="&#xf7;" d="M96 551l8 61h779l-9 -61h-778zM379 236q0 43 22.5 68.5t55.5 25.5q59 0 59 -66q0 -33 -17.5 -64.5t-58.5 -31.5q-29 0 -45 17.5t-16 50.5zM457 883q0 43 22.5 68.5t55.5 25.5q59 0 59 -66q0 -33 -17.5 -64.5t-58.5 -31.5q-29 0 -45 17.5t-16 50.5z" />
<glyph unicode="&#xf8;" horiz-adv-x="950" d="M35 -84l121 172q-92 104 -93 285q0 135 30 248.5t89.5 196.5t146.5 130t203 47q127 0 213 -67l97 137h73l-124 -178q94 -111 94 -287q0 -135 -30 -248.5t-88 -195.5t-146.5 -128t-206.5 -46q-66 0 -120 17t-95 48l-93 -131h-71zM174 385q0 -59 11.5 -110.5t35.5 -92.5 l463 660q-29 29 -69 44t-93 15q-92 0 -157.5 -42t-107.5 -112.5t-62.5 -164t-20.5 -197.5zM260 133q29 -29 68 -43t92 -14q90 0 156.5 41t110.5 110.5t65.5 161.5t21.5 195q0 59 -12 112.5t-39 96.5z" />
<glyph unicode="&#xf9;" horiz-adv-x="1001" d="M121 246v33.5t4 35.5l84 676q2 0 6 2q4 0 8 1t10 1q72 0 72 -88q0 -8 -1 -20.5t-3 -22.5l-68 -557q-2 -14 -3 -26.5t-1 -24.5q0 -82 43 -131t134 -49q80 0 137 33.5t96 90t61.5 131.5t32.5 156l62 490h108l-102 -832v-159q-4 -2 -10 -2q-6 -2 -21 -2q-82 0 -82 88v57h-8 q-47 -63 -120 -104t-173 -41q-133 0 -199.5 69.5t-66.5 194.5zM406 1272l73 114l297 -221l-45 -45z" />
<glyph unicode="&#xfa;" horiz-adv-x="1001" d="M121 246v33.5t4 35.5l84 676q2 0 6 2q4 0 8 1t10 1q72 0 72 -88q0 -8 -1 -20.5t-3 -22.5l-68 -557q-2 -14 -3 -26.5t-1 -24.5q0 -82 43 -131t134 -49q80 0 137 33.5t96 90t61.5 131.5t32.5 156l62 490h108l-102 -832v-159q-4 -2 -10 -2q-6 -2 -21 -2q-82 0 -82 88v57h-8 q-47 -63 -120 -104t-173 -41q-133 0 -199.5 69.5t-66.5 194.5zM391 1165l350 221l50 -114l-365 -152z" />
<glyph unicode="&#xfb;" horiz-adv-x="1001" d="M121 246v33.5t4 35.5l84 676q2 0 6 2q4 0 8 1t10 1q72 0 72 -88q0 -8 -1 -20.5t-3 -22.5l-68 -557q-2 -14 -3 -26.5t-1 -24.5q0 -82 43 -131t134 -49q80 0 137 33.5t96 90t61.5 131.5t32.5 156l62 490h108l-102 -832v-159q-4 -2 -10 -2q-6 -2 -21 -2q-82 0 -82 88v57h-8 q-47 -63 -120 -104t-173 -41q-133 0 -199.5 69.5t-66.5 194.5zM311 1182l232 188q20 16 37.5 17.5t21.5 3.5q6 0 21.5 -2.5t31.5 -18.5l185 -188l-45 -45l-209 131l-240 -131z" />
<glyph unicode="&#xfc;" horiz-adv-x="1001" d="M121 246v33.5t4 35.5l84 676q2 0 6 2q4 0 8 1t10 1q72 0 72 -88q0 -8 -1 -20.5t-3 -22.5l-68 -557q-2 -14 -3 -26.5t-1 -24.5q0 -82 43 -131t134 -49q80 0 137 33.5t96 90t61.5 131.5t32.5 156l62 490h108l-102 -832v-159q-4 -2 -10 -2q-6 -2 -21 -2q-82 0 -82 88v57h-8 q-47 -63 -120 -104t-173 -41q-133 0 -199.5 69.5t-66.5 194.5zM436 1145l29 231h94l-29 -231h-94zM629 1145l28 231h97l-29 -231h-96z" />
<glyph unicode="&#xfd;" horiz-adv-x="843" d="M-96 -256q6 -2 18 -3t21 -1q57 0 99 14.5t83 52t88 104t113 171.5h-54l-190 889l113 16l165 -762v-80h9q47 78 94 168t88 181.5t71.5 174.5t43.5 146l-31 162q14 8 33.5 14t36.5 6q47 0 68.5 -29.5t21.5 -74.5q0 -57 -37 -168t-107 -262q-31 -68 -68.5 -141.5t-76.5 -141 t-73 -124t-54 -89.5q-53 -82 -100.5 -143.5t-96.5 -101t-105.5 -59t-125.5 -19.5q-12 0 -27.5 2t-19.5 4v94zM311 1165l351 221l49 -114l-365 -152z" />
<glyph unicode="&#xfe;" horiz-adv-x="978" d="M47 -344l25 115l196 1605l109 13l-68 -564h8q10 16 34 45t62 56.5t92 48t128 20.5t128 -27.5t89 -76.5t52.5 -114.5t17.5 -141.5q0 -158 -45.5 -278.5t-126 -204.5t-195.5 -127t-252 -43h-94l-39 -314zM221 86q14 -4 33 -6q16 -2 34.5 -3t41.5 -1q111 0 199.5 39 t150 110.5t94.5 171t33 221.5q0 57 -10.5 108.5t-34 90.5t-61 61.5t-93.5 22.5q-90 0 -152.5 -47t-104.5 -128t-67.5 -188.5t-39.5 -228.5q-2 -14 -5 -42.5t-6.5 -61.5t-6.5 -66t-5 -53z" />
<glyph unicode="&#xff;" horiz-adv-x="843" d="M-96 -256q6 -2 18 -3t21 -1q57 0 99 14.5t83 52t88 104t113 171.5h-54l-190 889l113 16l165 -762v-80h9q47 78 94 168t88 181.5t71.5 174.5t43.5 146l-31 162q14 8 33.5 14t36.5 6q47 0 68.5 -29.5t21.5 -74.5q0 -57 -37 -168t-107 -262q-31 -68 -68.5 -141.5t-76.5 -141 t-73 -124t-54 -89.5q-53 -82 -100.5 -143.5t-96.5 -101t-105.5 -59t-125.5 -19.5q-12 0 -27.5 2t-19.5 4v94zM330 1153l28 231h95l-29 -231h-94zM522 1153l29 231h96l-29 -231h-96z" />
<glyph unicode="&#x152;" horiz-adv-x="1583" d="M98 498q0 190 42 338.5t122 251t195.5 155.5t263.5 53h893l-12 -102h-582l-59 -477h522l-13 -103h-522l-63 -512h594l-13 -102h-919q-119 0 -204 36t-139 100.5t-80 156.5t-26 205zM215 514q0 -82 15.5 -156.5t54.5 -132t105.5 -91.5t170.5 -34h209l135 1096h-198 q-129 0 -222.5 -52t-153 -143.5t-88 -216.5t-28.5 -270z" />
<glyph unicode="&#x153;" horiz-adv-x="1574" d="M63 377q0 135 31 248.5t89.5 195.5t145.5 128t199 46q123 0 202 -55t114 -154h12q72 100 171 154.5t212 54.5q61 0 114.5 -16t93.5 -48t63.5 -76t23.5 -99q0 -96 -51 -158.5t-131 -100.5t-179.5 -57.5t-195.5 -29.5l-119 -13v-8q0 -150 70.5 -230.5t230.5 -80.5 q66 0 132.5 16.5t138.5 44.5l-37 -114q-12 -6 -40 -13.5t-64 -13.5t-75.5 -11t-76.5 -5q-135 0 -222.5 48t-132.5 138h-16q-59 -90 -148.5 -138t-209.5 -48q-162 0 -253.5 107.5t-91.5 287.5zM174 387q0 -66 13.5 -122t43 -98t74.5 -66.5t111 -24.5q90 0 155.5 41 t107.5 109.5t62.5 160.5t20.5 195q0 68 -12.5 126t-42 101t-76.5 67.5t-115 24.5q-90 0 -155.5 -43t-106.5 -114.5t-60.5 -164t-19.5 -192.5zM868 492l95 10q76 8 155.5 22.5t144 42t105.5 71.5t41 112q0 72 -50 112.5t-130 40.5q-72 0 -132.5 -31.5t-108.5 -88t-78.5 -131 t-41.5 -160.5z" />
<glyph unicode="&#x178;" horiz-adv-x="944" d="M129 1296h135l203 -616l6 -66h12l19 66l309 506l51 110h148l-490 -798l-61 -498h-115l62 498zM434 1434l29 231h94l-29 -231h-94zM627 1434l28 231h97l-29 -231h-96z" />
<glyph unicode="&#x2c6;" horiz-adv-x="1005" d="M322 1182l231 188q20 16 37.5 17.5t21.5 3.5q6 0 21.5 -2.5t32.5 -18.5l184 -188l-45 -45l-209 131l-240 -131z" />
<glyph unicode="&#x2dc;" horiz-adv-x="1005" d="M326 1235l24 84q20 12 45 22q20 8 47 15.5t56 7.5q33 0 64.5 -6t63 -14.5t66.5 -14.5t72 -6q47 0 106 27l-22 -84q-23 -14 -45 -23q-20 -10 -45 -16t-53 -6q-68 0 -132.5 20.5t-134.5 20.5q-25 0 -51.5 -7.5t-60.5 -19.5z" />
<glyph unicode="&#x2000;" horiz-adv-x="847" />
<glyph unicode="&#x2001;" horiz-adv-x="1694" />
<glyph unicode="&#x2002;" horiz-adv-x="847" />
<glyph unicode="&#x2003;" horiz-adv-x="1694" />
<glyph unicode="&#x2004;" horiz-adv-x="564" />
<glyph unicode="&#x2005;" horiz-adv-x="423" />
<glyph unicode="&#x2006;" horiz-adv-x="282" />
<glyph unicode="&#x2007;" horiz-adv-x="282" />
<glyph unicode="&#x2008;" horiz-adv-x="211" />
<glyph unicode="&#x2009;" horiz-adv-x="338" />
<glyph unicode="&#x200a;" horiz-adv-x="94" />
<glyph unicode="&#x2010;" horiz-adv-x="681" d="M129 461l8 61h416l-8 -61h-416z" />
<glyph unicode="&#x2011;" horiz-adv-x="681" d="M129 461l8 61h416l-8 -61h-416z" />
<glyph unicode="&#x2012;" horiz-adv-x="681" d="M129 461l8 61h416l-8 -61h-416z" />
<glyph unicode="&#x2013;" horiz-adv-x="993" d="M-2 461l6 65h993l-8 -65h-991z" />
<glyph unicode="&#x2014;" horiz-adv-x="2045" d="M-2 461l6 65h2048l-8 -65h-2046z" />
<glyph unicode="&#x2018;" horiz-adv-x="358" d="M168 1047q0 33 10 64.5t35 68.5l88 131l55 -4l-88 -168q18 -4 27.5 -22.5t9.5 -41.5q0 -37 -17.5 -67.5t-58.5 -30.5q-29 0 -45 19.5t-16 50.5z" />
<glyph unicode="&#x2019;" horiz-adv-x="358" d="M137 819l88 168q-18 4 -27.5 22.5t-9.5 41.5q0 37 17.5 67.5t58.5 30.5q29 0 45.5 -19.5t16.5 -50.5q0 -33 -10.5 -64.5t-34.5 -68.5l-88 -131z" />
<glyph unicode="&#x201a;" horiz-adv-x="358" d="M16 -166l88 168q-18 4 -27 22.5t-9 41.5q0 37 17 67.5t58 30.5q29 0 45.5 -19.5t16.5 -50.5q0 -33 -10.5 -64.5t-34.5 -68.5l-88 -131z" />
<glyph unicode="&#x201c;" horiz-adv-x="634" d="M168 1047q0 33 10 64.5t35 68.5l88 131l55 -4l-88 -168q18 -4 27.5 -22.5t9.5 -41.5q0 -37 -17.5 -67.5t-58.5 -30.5q-29 0 -45 19.5t-16 50.5zM444 1047q0 33 10.5 64.5t34.5 68.5l89 131l55 -4l-88 -168q18 -4 27.5 -22.5t9.5 -41.5q0 -37 -17.5 -67.5t-58.5 -30.5 q-29 0 -45.5 19.5t-16.5 50.5z" />
<glyph unicode="&#x201d;" horiz-adv-x="634" d="M137 819l88 168q-18 4 -27.5 22.5t-9.5 41.5q0 37 17.5 67.5t58.5 30.5q29 0 45.5 -19.5t16.5 -50.5q0 -33 -10.5 -64.5t-34.5 -68.5l-88 -131zM416 819l88 168q-18 4 -27.5 22.5t-9.5 41.5q0 37 17.5 67.5t58.5 30.5q29 0 45 -19.5t16 -50.5q0 -33 -10 -64.5t-35 -68.5 l-88 -131z" />
<glyph unicode="&#x201e;" horiz-adv-x="634" d="M16 -166l88 168q-18 4 -27 22.5t-9 41.5q0 37 17 67.5t58 30.5q29 0 45.5 -19.5t16.5 -50.5q0 -33 -10.5 -64.5t-34.5 -68.5l-88 -131zM295 -166l88 168q-18 4 -27.5 22.5t-9.5 41.5q0 37 17.5 67.5t58.5 30.5q29 0 45 -19.5t16 -50.5q0 -33 -10 -64.5t-35 -68.5 l-88 -131z" />
<glyph unicode="&#x2022;" horiz-adv-x="606" d="M154 543q0 37 9 71.5t30.5 62.5t53.5 44t79 16q61 0 102 -39t41 -104q0 -92 -44 -143.5t-130 -51.5q-61 0 -101 39t-40 105z" />
<glyph unicode="&#x2026;" horiz-adv-x="915" d="M66 49q0 43 22.5 68.5t54.5 25.5q59 0 60 -65q0 -33 -17.5 -64.5t-58.5 -31.5q-29 0 -45 17t-16 50zM346 49q0 43 22.5 68.5t55.5 25.5q59 0 59 -65q0 -33 -17 -64.5t-58 -31.5q-29 0 -45.5 17t-16.5 50zM627 49q0 43 22.5 68.5t55.5 25.5q59 0 59 -65q0 -33 -17.5 -64.5 t-58.5 -31.5q-29 0 -45 17t-16 50z" />
<glyph unicode="&#x202f;" horiz-adv-x="338" />
<glyph unicode="&#x2039;" horiz-adv-x="643" d="M121 553l440 434l43 -53l-393 -383l299 -395l-59 -41z" />
<glyph unicode="&#x203a;" horiz-adv-x="643" d="M51 168l395 381l-299 397l54 41l334 -440l-439 -432z" />
<glyph unicode="&#x2044;" horiz-adv-x="274" d="M-252 0l787 1190h73l-788 -1190h-72z" />
<glyph unicode="&#x205f;" horiz-adv-x="423" />
<glyph unicode="&#x2070;" horiz-adv-x="520" d="M78 821q0 174 71.5 276.5t196.5 102.5q92 0 141.5 -62.5t49.5 -168.5q0 -176 -73 -279.5t-196 -103.5q-92 0 -141 62t-49 173zM139 825q0 -78 32 -133t103 -55q49 0 86 29.5t63 75.5t39 103.5t13 115.5q0 78 -32.5 133t-104.5 55q-53 0 -90 -29.5t-61.5 -77t-36 -105 t-11.5 -112.5z" />
<glyph unicode="&#x2074;" horiz-adv-x="534" d="M88 723l8 65l312 402h86l-50 -414h80l-6 -53h-80l-16 -127h-60l17 127h-291zM143 776h240l41 330l16 33h-8l-260 -340l-27 -17z" />
<glyph unicode="&#x2075;" horiz-adv-x="491" d="M78 606v64q25 -12 65.5 -20.5t77.5 -8.5q76 0 133.5 33t57.5 102q0 37 -19.5 61.5t-50.5 39t-68.5 19.5t-74.5 5h-54l35 289h305l-6 -60l-61 7h-187l-20 -181q53 0 101 -11t84 -33.5t57.5 -55.5t21.5 -78q0 -49 -20.5 -86t-54 -60.5t-80 -34.5t-95.5 -11q-47 0 -85 6 t-62 14z" />
<glyph unicode="&#x2076;" horiz-adv-x="514" d="M88 827q0 168 77 270.5t230 102.5q37 0 70 -5t47 -9v-62q-12 4 -48 12.5t-75 8.5q-86 0 -145.5 -52.5t-77.5 -150.5q31 4 57.5 7t52.5 3q104 0 169 -42t65 -132q0 -94 -61.5 -144t-151.5 -50q-104 0 -156.5 68.5t-52.5 174.5zM152 825q0 -84 37.5 -136t109.5 -52 q66 0 105.5 38t39.5 101q0 68 -52 95.5t-130 27.5q-33 0 -57.5 -3t-46.5 -7q-4 -16 -5 -29.5t-1 -34.5z" />
<glyph unicode="&#x2077;" horiz-adv-x="440" d="M100 1130l6 60h381l-10 -74q-78 -72 -126 -139.5t-76.5 -132t-42 -125t-19.5 -113.5l-2 -10h-61l2 10q6 51 19 111.5t41 126t74 135.5t115 141l31 10l2 7h-270z" />
<glyph unicode="&#x2078;" horiz-adv-x="546" d="M94 729q0 59 40 103.5t97 70.5v8q-37 16 -60.5 49t-23.5 70q0 86 66 129t158 43q78 0 131 -38t53 -103q0 -57 -39 -96t-90 -60l-2 -6q47 -23 72.5 -57.5t25.5 -77.5q0 -47 -21.5 -80t-55 -54.5t-77.5 -31.5t-87 -10q-84 0 -135.5 38t-51.5 103zM158 741q0 -45 35.5 -71.5 t93.5 -26.5q31 0 61.5 6t54 20.5t39 36t15.5 52.5q0 43 -37 67.5t-94 42.5l-29 9q-51 -16 -95 -50t-44 -86zM213 1042q0 -39 37 -63.5t82 -40.5l26 -10q47 14 90.5 45t43.5 84q0 45 -38 67.5t-92 22.5q-55 0 -102 -24.5t-47 -80.5z" />
<glyph unicode="&#x2079;" horiz-adv-x="514" d="M96 598v61q12 -4 48 -12t75 -8q86 0 145.5 52t77.5 151q-31 -4 -57.5 -7.5t-52.5 -3.5q-104 0 -169 42t-65 133q0 94 61.5 144t151.5 50q104 0 156.5 -68.5t52.5 -175.5q0 -168 -76.5 -270t-230.5 -102q-37 0 -69.5 5t-47.5 9zM164 1008q0 -68 52 -95.5t130 -27.5 q33 0 57.5 3t47.5 7q4 16 5 29.5t1 33.5q0 84 -38 136.5t-110 52.5q-66 0 -105.5 -38t-39.5 -101z" />
<glyph unicode="&#x207d;" horiz-adv-x="348" d="M127 809q0 39 6 86q16 133 69.5 235.5t110.5 186.5l43 -19q-33 -47 -64.5 -99t-56 -113.5t-40 -130t-15.5 -144.5q0 -96 23.5 -173t54.5 -144l-47 -19q-33 70 -58.5 152t-25.5 182z" />
<glyph unicode="&#x207e;" horiz-adv-x="348" d="M90 494q31 47 62.5 99t56 111.5t40 127t15.5 147.5q0 96 -22.5 175t-53.5 144l48 19q33 -70 57 -153t24 -185v-40.5t-4 -43.5q-16 -131 -69.5 -233.5t-110.5 -186.5z" />
<glyph unicode="&#x207f;" horiz-adv-x="579" d="M55 596l62 506v98h6q4 0 7 1t7 1q43 0 43 -53v-35h8q29 39 75 63.5t106 24.5q82 0 121.5 -42t39.5 -118v-21t-2 -22l-51 -411q-2 -2 -4 -2h-10q-43 0 -43 53q0 4 1 12t1 15l41 338q0 10 1 17t1 15q0 49 -26.5 79t-80.5 30q-49 0 -83.5 -20.5t-58 -55.5t-38 -80t-20.5 -94 l-37 -299h-66z" />
<glyph unicode="&#x20ac;" horiz-adv-x="954" d="M41 375l22 65h97q2 49 10 104.5t18 100.5h-114l22 66h111q63 184 194 287.5t334 103.5q74 0 129.5 -11.5t79.5 -19.5l-39 -100q-35 16 -86 26.5t-102 10.5q-147 0 -246.5 -76t-148.5 -221h466l-22 -66h-463q-14 -47 -21.5 -106.5t-7.5 -98.5h482l-23 -65h-459 q6 -135 76 -217t213 -82q102 0 180 35.5t115 70.5v-119q-12 -6 -37.5 -20t-64.5 -27.5t-91.5 -23.5t-115.5 -10q-180 0 -280.5 103t-110.5 290h-117z" />
<glyph unicode="&#x2122;" horiz-adv-x="1052" d="M125 1337l8 66h330l-10 -66h-129l-58 -481h-80l15 49l51 432h-127zM424 856l14 49l86 498h119l80 -420v-29h8l8 29l187 420h123l-11 -49l-32 -498h-72l37 487h-8l-9 -34l-200 -453h-74l-88 455v35h-8l-80 -490h-80z" />
<glyph unicode="&#x2153;" horiz-adv-x="1110" d="M90 596l6 53h160l72 465h-9l-22 -33q-35 -29 -75 -48t-81 -32l-6 64q49 12 99.5 42t93.5 83h73l-84 -541h146l-6 -53h-367zM111 0l833 1190h68l-834 -1190h-67zM598 10v60q25 -6 62.5 -15.5t84.5 -9.5q37 0 73 5t62.5 19.5t43 39t16.5 61.5q0 59 -49 82.5t-115 23.5h-78 l7 54h75q33 0 66 5t57.5 18.5t39.5 38t15 61.5q0 53 -42 77.5t-101 24.5q-29 0 -67.5 -6t-75.5 -19l26 64q20 6 52 10t71 4q82 0 141.5 -36.5t59.5 -114.5q0 -51 -26.5 -91t-82.5 -63l-2 -6q43 -18 68 -49t25 -78q0 -51 -23 -86t-59.5 -55.5t-83.5 -29.5t-95 -9q-47 0 -88 8 t-57 12z" />
<glyph unicode="&#x2154;" horiz-adv-x="1107" d="M68 594l10 84q90 55 155.5 99t107.5 83t62.5 78t20.5 84q0 55 -40 87t-114 32q-35 0 -71.5 -6.5t-65.5 -16.5l23 66q18 4 39 8q16 4 38.5 6t47.5 2q86 0 146 -46t60 -130q0 -59 -29.5 -109.5t-76.5 -94.5t-109.5 -84t-126.5 -79v-8h277l63 6l-8 -61h-409zM111 0l833 1190 h68l-834 -1190h-67zM598 10v60q25 -6 62.5 -15.5t84.5 -9.5q37 0 73 5t62.5 19.5t43 39t16.5 61.5q0 59 -49 82.5t-115 23.5h-78l7 54h75q33 0 66 5t57.5 18.5t39.5 38t15 61.5q0 53 -42 77.5t-101 24.5q-29 0 -67.5 -6t-75.5 -19l26 64q20 6 52 10t71 4q82 0 141.5 -36.5 t59.5 -114.5q0 -51 -26.5 -91t-82.5 -63l-2 -6q43 -18 68 -49t25 -78q0 -51 -23 -86t-59.5 -55.5t-83.5 -29.5t-95 -9q-47 0 -88 8t-57 12z" />
<glyph unicode="&#x215b;" horiz-adv-x="1107" d="M90 596l6 53h160l72 465h-9l-22 -33q-35 -29 -75 -48t-81 -32l-6 64q49 12 99.5 42t93.5 83h73l-84 -541h146l-6 -53h-367zM113 0l833 1190h68l-834 -1190h-67zM565 133q0 59 40 103.5t97 70.5v8q-37 16 -60.5 49t-23.5 70q0 86 66 129t158 43q78 0 131 -38t53 -103 q0 -57 -39 -96t-90 -60l-2 -6q47 -23 72.5 -57.5t25.5 -77.5q0 -47 -21.5 -80t-55 -54.5t-77.5 -31.5t-87 -10q-84 0 -135.5 38t-51.5 103zM629 145q0 -45 35.5 -71.5t93.5 -26.5q31 0 61.5 6t54 20.5t39 36t15.5 52.5q0 43 -37 67.5t-94 42.5l-29 9q-51 -16 -95 -50 t-44 -86zM684 446q0 -39 37 -63.5t82 -40.5l26 -10q47 14 90.5 45t43.5 84q0 45 -38 67.5t-91 22.5q-55 0 -102.5 -24.5t-47.5 -80.5z" />
<glyph unicode="&#x215c;" horiz-adv-x="1107" d="M76 602v60q25 -6 62.5 -15.5t84.5 -9.5q37 0 73 5t62.5 19.5t43 39t16.5 61.5q0 59 -49.5 82.5t-114.5 23.5h-78l6 54h76q33 0 65.5 5t57.5 18t40 38t15 61q0 53 -42 78t-101 25q-29 0 -68 -6t-75 -19l26 64q20 6 52 10t71 4q82 0 141.5 -37t59.5 -114q0 -51 -27 -91 t-82 -63l-2 -6q43 -18 67.5 -49t24.5 -78q0 -51 -22.5 -86t-59.5 -55.5t-84 -29.5t-94 -9t-88 8t-57 12zM113 0l833 1190h68l-834 -1190h-67zM565 133q0 59 40 103.5t97 70.5v8q-37 16 -60.5 49t-23.5 70q0 86 66 129t158 43q78 0 131 -38t53 -103q0 -57 -39 -96t-90 -60 l-2 -6q47 -23 72.5 -57.5t25.5 -77.5q0 -47 -21.5 -80t-55 -54.5t-77.5 -31.5t-87 -10q-84 0 -135.5 38t-51.5 103zM629 145q0 -45 35.5 -71.5t93.5 -26.5q31 0 61.5 6t54 20.5t39 36t15.5 52.5q0 43 -37 67.5t-94 42.5l-29 9q-51 -16 -95 -50t-44 -86zM684 446 q0 -39 37 -63.5t82 -40.5l26 -10q47 14 90.5 45t43.5 84q0 45 -38 67.5t-91 22.5q-55 0 -102.5 -24.5t-47.5 -80.5z" />
<glyph unicode="&#x215d;" horiz-adv-x="1107" d="M78 606v64q25 -12 65.5 -20.5t77.5 -8.5q76 0 133.5 33t57.5 102q0 37 -19.5 61.5t-50.5 39t-68.5 19.5t-74.5 5h-54l35 289h305l-6 -60l-61 7h-187l-20 -181q53 0 101 -11t84 -33.5t57.5 -55.5t21.5 -78q0 -49 -20.5 -86t-54 -60.5t-80 -34.5t-95.5 -11q-47 0 -85 6 t-62 14zM113 0l833 1190h68l-834 -1190h-67zM565 133q0 59 40 103.5t97 70.5v8q-37 16 -60.5 49t-23.5 70q0 86 66 129t158 43q78 0 131 -38t53 -103q0 -57 -39 -96t-90 -60l-2 -6q47 -23 72.5 -57.5t25.5 -77.5q0 -47 -21.5 -80t-55 -54.5t-77.5 -31.5t-87 -10 q-84 0 -135.5 38t-51.5 103zM629 145q0 -45 35.5 -71.5t93.5 -26.5q31 0 61.5 6t54 20.5t39 36t15.5 52.5q0 43 -37 67.5t-94 42.5l-29 9q-51 -16 -95 -50t-44 -86zM684 446q0 -39 37 -63.5t82 -40.5l26 -10q47 14 90.5 45t43.5 84q0 45 -38 67.5t-91 22.5 q-55 0 -102.5 -24.5t-47.5 -80.5z" />
<glyph unicode="&#x215e;" horiz-adv-x="1028" d="M4 0l834 1190h67l-833 -1190h-68zM100 1130l6 60h381l-10 -74q-78 -72 -126 -139.5t-76.5 -132t-42 -125t-19.5 -113.5l-2 -10h-61l2 10q6 51 19 111.5t41 126t74 135.5t115 141l31 10l2 7h-270zM504 133q0 59 40 103.5t97 70.5v8q-37 16 -60.5 49t-23.5 70 q0 86 65.5 129t157.5 43q78 0 131.5 -38t53.5 -103q0 -57 -39 -96t-90 -60l-2 -6q47 -23 72.5 -57.5t25.5 -77.5q0 -47 -21.5 -80t-55.5 -54.5t-78 -31.5t-87 -10q-84 0 -135 38t-51 103zM567 145q0 -45 36 -71.5t93 -26.5q31 0 61.5 6t54.5 20.5t39 36t15 52.5 q0 43 -36.5 67.5t-94.5 42.5l-28 9q-51 -16 -95.5 -50t-44.5 -86zM623 446q0 -39 36.5 -63.5t81.5 -40.5l27 -10q47 14 90 45t43 84q0 45 -38 67.5t-91 22.5q-55 0 -102 -24.5t-47 -80.5z" />
<glyph unicode="&#x2160;" horiz-adv-x="389" d="M-68 0l7 49h137l16 68l113 917h-148l6 49h406l-6 -49h-150l-120 -985h149l-6 -49h-404z" />
<glyph unicode="&#x2164;" horiz-adv-x="847" d="M-72 0l9 49h346l-185 985h-45l6 49h869l-6 -49h-41l-424 -985h346l-8 -49h-867zM219 1034l150 -860l4 -68h8l18 68l334 797l17 63h-531z" />
<glyph unicode="&#x2169;" horiz-adv-x="917" d="M-68 0l7 49h71l371 510l-221 475h-103l6 49h934l-6 -49h-102l-336 -475l244 -510h73l-6 -49h-932zM150 49h516l-183 391l-20 72h-8l-31 -72l-250 -348zM291 1034l160 -352l18 -66h8l35 64l219 317l19 37h-459z" />
<glyph unicode="&#x216c;" horiz-adv-x="712" d="M-68 0l7 49h151l12 49l115 936h-160l6 49h730l-7 -49h-458l-115 -938h389l-6 -47h70l-7 -49h-727z" />
<glyph unicode="&#x216d;" horiz-adv-x="823" d="M-63 0l6 49h290q-92 49 -138 144.5t-46 230.5q0 229 83 386t233 224h-304l7 49h831l-6 -49h-78l-31 -86q-29 16 -84 27.5t-106 11.5q-205 0 -318.5 -144.5t-113.5 -412.5q0 -150 68.5 -242t215.5 -92q51 0 95.5 12.5t81 32t63.5 41t43 39.5v-112q-10 -10 -29.5 -26.5 t-52.5 -33.5h125l-6 -49h-829z" />
<glyph unicode="&#x216e;" horiz-adv-x="1112" d="M-68 0l7 49h221l12 49l115 936h-230l6 49h1131l-6 -49h-359q94 -51 140.5 -149.5t46.5 -239.5q0 -229 -67.5 -379.5t-196.5 -216.5h315l-6 -49h-1129zM283 94h247q94 0 165 41t116 112.5t67.5 172t22.5 219.5q0 162 -68.5 256t-230.5 94h-209z" />
<glyph unicode="&#x216f;" horiz-adv-x="1380" d="M-68 0l7 49h141l14 49l168 936h-205l6 49h1397l-6 -49h-203l-8 -49l-59 -936h149l-6 -49h-1395zM199 49h358l-182 893v64h-10zM459 1034l174 -872l4 -58h10l15 58l387 872h-590zM711 49h358l72 959h-11l-18 -70z" />
<glyph unicode="&#x25fc;" horiz-adv-x="993" d="M0 0v993h993v-993h-993z" />
<glyph horiz-adv-x="1986" d="M98 528q0 170 41 314.5t121 249t199 164t274 59.5q35 0 73 -4t69.5 -10.5t57 -12.5t36.5 -10l-43 -113q-41 23 -101.5 35t-113.5 12q-127 0 -219.5 -54t-154 -146t-91 -214t-29.5 -257q0 -94 23.5 -177t71.5 -144.5t120 -97.5t170 -36q96 0 175 19.5t159 52.5l139 1138 h117l-70 -567h602l70 567h129l-27 -116l-145 -1180h-117l78 629h-602l-68 -545q-86 -35 -201.5 -68.5t-256.5 -33.5q-121 0 -212 42t-151.5 115.5t-91.5 174t-31 214.5z" />
<glyph horiz-adv-x="1822" d="M98 528q0 170 41 314.5t121 249t199 164t274 59.5q35 0 73 -4t69.5 -10.5t57 -12.5t36.5 -10l-43 -113q-41 23 -101.5 35t-113.5 12q-127 0 -219.5 -54t-154 -146t-91 -214t-29.5 -257q0 -94 23.5 -177t71.5 -144.5t120 -97.5t170 -36q96 0 175 19.5t159 52.5l147 1218 l123 13l-26 -117l-52 -436h9q43 66 119.5 112.5t168.5 46.5q129 0 203 -66.5t74 -191.5q0 -16 -1 -36.5t-3 -38.5l-84 -676q-2 -2 -6 -2q-4 -2 -19 -2q-72 0 -71 88v15t2 17l69 568q2 12 3 32.5t1 30.5q0 78 -48 123t-134 45q-76 0 -132 -32.5t-95 -89t-62.5 -131.5 t-34.5 -159l-51 -405q-86 -35 -198.5 -68.5t-253.5 -33.5q-121 0 -212 42t-151.5 115.5t-91.5 174t-31 214.5z" />
<glyph horiz-adv-x="1642" d="M63 406q0 135 35 243.5t100.5 185t159 118.5t211.5 42q57 0 109.5 -10t81.5 -20l-35 -99q-41 16 -80 25.5t-88 9.5q-94 0 -166 -35t-120 -98t-72.5 -152.5t-24.5 -197.5q0 -72 18.5 -134.5t56.5 -108.5t94 -72.5t132 -26.5q82 0 149.5 19.5t129.5 43.5l149 1237l123 13 l-27 -117l-51 -436h8q43 66 120 112.5t169 46.5q129 0 203 -66.5t74 -191.5q0 -16 -1 -36.5t-3 -38.5l-84 -676q-2 -2 -7 -2q-4 -2 -18 -2q-72 0 -72 88v15t2 17l70 568q2 12 3 32.5t1 30.5q0 78 -48 123t-134 45q-76 0 -132.5 -32.5t-95 -89t-62 -131.5t-34.5 -159 l-53 -415q-14 -6 -49 -21.5t-86 -31t-114.5 -27.5t-137.5 -12q-100 0 -176 31.5t-126 88t-76 134t-26 170.5z" />
<glyph horiz-adv-x="1894" d="M98 528q0 170 41 314.5t121 249t199 164t274 59.5q35 0 73 -4t69.5 -10.5t57 -12.5t36.5 -10l-43 -113q-41 23 -101.5 35t-113.5 12q-127 0 -219.5 -54t-154 -146t-91 -214t-29.5 -257q0 -94 23.5 -177t71.5 -144.5t120 -97.5t170 -36q96 0 177 19.5t161 52.5l113 925 h112l-57 -469h506l57 469h123l-27 -116l-118 -967h-111l64 520h-506l-54 -438q-86 -35 -201.5 -67.5t-256.5 -32.5q-121 0 -212 42t-151.5 115.5t-91.5 174t-31 214.5z" />
<glyph horiz-adv-x="1802" d="M98 455q0 307 141.5 477t397.5 170q31 0 64.5 -3t64.5 -8.5t54.5 -10.5t35.5 -9l-37 -104q-35 18 -88 29.5t-104 11.5q-203 0 -310.5 -139.5t-107.5 -395.5q0 -84 20.5 -155.5t61.5 -125t103.5 -84t146.5 -30.5q86 0 159.5 20.5t145.5 53.5l115 931h110l-57 -469h506 l57 469h125l-27 -116l-119 -967h-112l63 520h-506l-51 -432q-94 -43 -191 -74.5t-231 -31.5q-109 0 -189.5 34.5t-133.5 98t-80 150.5t-27 190z" />
<glyph horiz-adv-x="940" d="M-23 0l523 1083h147l201 -1083h-137v92l-37 221h-428l-146 -313h-123zM291 408h366l-88 512l-4 65h-8l-22 -65z" />
<glyph horiz-adv-x="940" d="M-23 0l523 1083h147l201 -1083h-137v92l-37 221h-428l-146 -313h-123zM291 408h366l-88 512l-4 65h-8l-22 -65zM383 1214l354 222l58 -119l-371 -148z" />
<glyph horiz-adv-x="940" d="M-23 0l523 1083h147l201 -1083h-137v92l-37 221h-428l-146 -313h-123zM291 408h366l-88 512l-4 65h-8l-22 -65zM311 1227l236 188q20 16 35.5 19.5t23.5 3.5t22.5 -3t30.5 -20l187 -188l-45 -45l-213 131l-240 -131z" />
<glyph horiz-adv-x="940" d="M-23 0l523 1083h147l201 -1083h-137v92l-37 221h-428l-146 -313h-123zM291 408h366l-88 512l-4 65h-8l-22 -65zM430 1206l29 232h96l-29 -232h-96zM625 1206l28 232h99l-29 -232h-98z" />
<glyph horiz-adv-x="1361" d="M-23 0l506 1083h828l-4 -94h-492l-14 -389h448l-4 -94h-448l-21 -412h512l-4 -94h-631l13 92l10 221h-430l-148 -313h-121zM285 408h395l27 581h-154z" />
<glyph horiz-adv-x="940" d="M-23 0l523 1083h147l201 -1083h-137v92l-37 221h-428l-146 -313h-123zM291 408h366l-88 512l-4 65h-8l-22 -65zM408 1321l77 115l299 -222l-45 -45z" />
<glyph horiz-adv-x="940" d="M-23 0l523 1083h147l201 -1083h-137v92l-37 221h-428l-146 -313h-123zM291 408h366l-88 512l-4 65h-8l-22 -65zM399 1300q0 49 18.5 83t48.5 55.5t67.5 31t76.5 9.5q78 0 129.5 -40t51.5 -112q0 -49 -18.5 -83t-48.5 -55.5t-68 -30.5t-76 -9q-78 0 -129.5 40t-51.5 111z M498 1307q0 -41 27.5 -61.5t62.5 -20.5q49 0 76.5 23.5t27.5 72.5q0 41 -26.5 61.5t-61.5 20.5q-49 0 -77.5 -23.5t-28.5 -72.5z" />
<glyph horiz-adv-x="964" d="M-23 0l523 1083h147l201 -1083h-137v92l-37 221h-428l-146 -313h-123zM291 408h366l-88 512l-4 65h-8l-22 -65zM322 1264l26 84q23 12 45 22q20 8 47 15.5t56 7.5q33 0 64.5 -6.5t63 -14.5t66.5 -14t74 -6q49 0 108 26l-24 -84q-20 -14 -43 -22q-20 -10 -46 -16.5 t-54 -6.5q-68 0 -133.5 20.5t-137.5 20.5q-23 0 -53.5 -7t-58.5 -19z" />
<glyph horiz-adv-x="978" d="M100 0l25 98l121 985h370q59 0 111.5 -16t91.5 -47t61.5 -77t22.5 -105q0 -111 -44 -176.5t-122 -100.5v-10q61 -33 93 -93.5t32 -125.5q0 -166 -96 -249t-256 -83h-410zM236 94h243q125 0 197 54.5t72 181.5q0 84 -54.5 130t-163.5 46h-243zM297 600h252q111 0 175 56.5 t64 172.5q0 160 -204 160h-238z" />
<glyph horiz-adv-x="847" d="M98 424q0 160 40 285t113 213t175 134t229 46q29 0 62 -3t63.5 -8.5t54 -11.5t35.5 -10l-36 -100q-29 16 -84.5 27.5t-106.5 11.5q-102 0 -182 -40t-135.5 -116t-85 -182.5t-29.5 -239.5q0 -74 17.5 -139.5t52 -112.5t88 -74.5t127.5 -27.5q51 0 95 12t81 31.5t63.5 41 t42.5 40.5v-113q-10 -10 -32.5 -28.5t-58.5 -36t-86 -29.5t-118 -12q-92 0 -163.5 32.5t-120.5 91t-75 139.5t-26 179z" />
<glyph horiz-adv-x="847" d="M98 424q0 160 40 285t113 213t175 134t229 46q29 0 62 -3t63.5 -8.5t54 -11.5t35.5 -10l-36 -100q-29 16 -84.5 27.5t-106.5 11.5q-102 0 -182 -40t-135.5 -116t-85 -182.5t-29.5 -239.5q0 -74 17.5 -139.5t52 -112.5t88 -74.5t127.5 -27.5q51 0 95 12t81 31.5t63.5 41 t42.5 40.5v-113q-10 -10 -31.5 -28.5t-56.5 -35t-84 -29.5t-114 -13l-11 -80q51 0 94 -27t43 -84q0 -39 -19 -67.5t-50 -47t-69 -26.5t-74 -8q-43 0 -75 6t-46 10l20 68q14 -4 41 -9.5t62 -5.5q43 0 74.5 16.5t31.5 55.5q0 25 -21.5 38t-56.5 13q-12 0 -28.5 -1t-26.5 -3 l39 156q-156 23 -239 140.5t-83 297.5z" />
<glyph horiz-adv-x="1030" d="M96 0l25 98l121 985h317q205 0 305.5 -115.5t100.5 -322.5q0 -317 -127 -481t-357 -164h-385zM231 94h248q94 0 165 41t116 112.5t67.5 172t22.5 219.5q0 162 -68.5 256t-230.5 94h-209z" />
<glyph horiz-adv-x="851" d="M96 0l27 111l119 972h610l-10 -94h-500l-49 -389h461l-11 -94h-460l-52 -412h512l-12 -94h-635z" />
<glyph horiz-adv-x="851" d="M96 0l27 111l119 972h610l-10 -94h-500l-49 -389h461l-11 -94h-460l-52 -412h512l-12 -94h-635zM377 1214l354 222l57 -119l-370 -148z" />
<glyph horiz-adv-x="851" d="M96 0l27 111l119 972h610l-10 -94h-500l-49 -389h461l-11 -94h-460l-52 -412h512l-12 -94h-635zM299 1227l236 188q20 16 35.5 19.5t23.5 3.5t22.5 -3t30.5 -20l187 -188l-46 -45l-213 131l-239 -131z" />
<glyph horiz-adv-x="851" d="M96 0l27 111l119 972h610l-10 -94h-500l-49 -389h461l-11 -94h-460l-52 -412h512l-12 -94h-635zM424 1206l29 232h96l-29 -232h-96zM618 1206l29 232h98l-28 -232h-99z" />
<glyph horiz-adv-x="851" d="M96 0l27 111l119 972h610l-10 -94h-500l-49 -389h461l-11 -94h-460l-52 -412h512l-12 -94h-635zM387 1321l78 115l299 -222l-45 -45z" />
<glyph horiz-adv-x="1030" d="M37 545l141 28l64 510h317q205 0 305.5 -115.5t100.5 -322.5q0 -317 -127 -481t-357 -164h-385l25 98l49 404l-129 -27zM231 94h248q94 0 165 41t116 112.5t67.5 172t22.5 219.5q0 162 -68.5 256t-230.5 94h-209l-49 -391l223 47l4 -67l-235 -52z" />
<glyph horiz-adv-x="808" d="M100 0l25 98l121 985h583l-10 -94h-473l-51 -418h444l-12 -94h-444l-60 -477h-123z" />
<glyph horiz-adv-x="995" d="M98 422q0 150 39 274.5t114 216t183.5 141.5t247.5 50q72 0 135.5 -12.5t122.5 -30.5l-35 -105q-29 14 -89 33t-150 19q-102 0 -185.5 -41t-141.5 -117t-90 -182.5t-32 -237.5q0 -72 16.5 -136.5t52.5 -113.5t90 -77.5t130 -28.5q74 0 132 18.5t93 40.5l43 338h-235 l10 94h338l-62 -495q-18 -10 -47.5 -25.5t-69.5 -30t-92.5 -23.5t-115.5 -9q-186 0 -294 115.5t-108 324.5z" />
<glyph horiz-adv-x="1083" d="M100 0l25 100l121 983h110l-57 -469h506l57 469h121l-20 -98l-121 -985h-113l64 520h-506l-64 -520h-123z" />
<glyph horiz-adv-x="458" d="M100 0l25 100l123 983h110l-135 -1083h-123z" />
<glyph horiz-adv-x="458" d="M100 0l25 100l123 983h110l-135 -1083h-123zM129 1214l354 222l58 -119l-371 -148z" />
<glyph horiz-adv-x="458" d="M61 1227l236 188q20 16 35.5 19.5t23.5 3.5t22.5 -3t31.5 -20l186 -188l-45 -45l-213 131l-240 -131zM111 0l24 100l123 983h111l-136 -1083h-122z" />
<glyph horiz-adv-x="458" d="M100 0l25 100l123 983h110l-135 -1083h-123zM166 1206l29 232h96l-29 -232h-96zM360 1206l29 232h98l-28 -232h-99z" />
<glyph horiz-adv-x="458" d="M96 1321l78 115l299 -222l-45 -45zM100 0l25 100l123 983h110l-135 -1083h-123z" />
<glyph horiz-adv-x="583" d="M-16 -16v94q10 -2 28.5 -3t28.5 -1q117 0 176 61.5t76 181.5l84 670l-252 14l10 80h373l-23 -100l-82 -674q-20 -164 -112 -245.5t-242 -81.5q-12 0 -34.5 1t-30.5 3z" />
<glyph horiz-adv-x="944" d="M100 0l25 100l121 983h110l-69 -573h8l33 61l469 512h137l-404 -436l322 -647h-135l-266 551h-9l-174 -189l-45 -362h-123z" />
<glyph horiz-adv-x="751" d="M100 0l25 98l121 985h110l-120 -989h448l-12 -94h-572z" />
<glyph horiz-adv-x="1402" d="M88 0l29 98l168 985h178l188 -909v-59h8l19 59l428 909h188l-18 -98l-94 -985h-115l104 993h-8l-20 -69l-441 -924h-122l-193 928l-4 67h-8l-160 -995h-127z" />
<glyph horiz-adv-x="1087" d="M100 0l25 94l121 989h176l334 -977h8v70l110 907h123l-24 -98l-121 -985h-178l-330 977h-8v-70l-113 -907h-123z" />
<glyph horiz-adv-x="1087" d="M100 0l25 94l121 989h176l334 -977h8v70l110 907h123l-24 -98l-121 -985h-178l-330 977h-8v-70l-113 -907h-123zM360 1264l27 84q23 12 45 22q20 8 47 15.5t56 7.5q33 0 64.5 -6.5t63 -14.5t66.5 -14t74 -6q49 0 108 26l-24 -84q-20 -14 -43 -22q-20 -10 -46 -16.5 t-55 -6.5q-68 0 -133 20.5t-137 20.5q-23 0 -53.5 -7t-59.5 -19z" />
<glyph horiz-adv-x="1040" d="M90 418q0 156 36 282.5t101.5 216t157.5 137.5t207 48q86 0 154.5 -32t116.5 -90t74 -139t26 -179q0 -158 -35 -284t-100.5 -214t-161 -135t-215.5 -47q-170 0 -265.5 118.5t-95.5 317.5zM205 440q0 -78 15.5 -144.5t47 -115.5t80.5 -76.5t117 -27.5q96 0 168 45 t119 121.5t70.5 178t23.5 212.5q0 80 -15.5 148.5t-48 118.5t-83 79t-117.5 29q-100 0 -172 -49.5t-117 -130t-66.5 -182.5t-21.5 -206z" />
<glyph horiz-adv-x="1040" d="M90 418q0 156 36 282.5t101.5 216t157.5 137.5t207 48q86 0 154.5 -32t116.5 -90t74 -139t26 -179q0 -158 -35 -284t-100.5 -214t-161 -135t-215.5 -47q-170 0 -265.5 118.5t-95.5 317.5zM205 440q0 -78 15.5 -144.5t47 -115.5t80.5 -76.5t117 -27.5q96 0 168 45 t119 121.5t70.5 178t23.5 212.5q0 80 -15.5 148.5t-48 118.5t-83 79t-117.5 29q-100 0 -172 -49.5t-117 -130t-66.5 -182.5t-21.5 -206zM406 1214l354 222l57 -119l-371 -148z" />
<glyph horiz-adv-x="1040" d="M90 418q0 156 36 282.5t101.5 216t157.5 137.5t207 48q86 0 154.5 -32t116.5 -90t74 -139t26 -179q0 -158 -35 -284t-100.5 -214t-161 -135t-215.5 -47q-170 0 -265.5 118.5t-95.5 317.5zM205 440q0 -78 15.5 -144.5t47 -115.5t80.5 -76.5t117 -27.5q96 0 168 45 t119 121.5t70.5 178t23.5 212.5q0 80 -15.5 148.5t-48 118.5t-83 79t-117.5 29q-100 0 -172 -49.5t-117 -130t-66.5 -182.5t-21.5 -206zM326 1227l235 188q20 16 35.5 19.5t24.5 3.5q8 0 22 -3t31 -20l186 -188l-45 -45l-213 131l-240 -131z" />
<glyph horiz-adv-x="1040" d="M90 418q0 156 36 282.5t101.5 216t157.5 137.5t207 48q86 0 154.5 -32t116.5 -90t74 -139t26 -179q0 -158 -35 -284t-100.5 -214t-161 -135t-215.5 -47q-170 0 -265.5 118.5t-95.5 317.5zM205 440q0 -78 15.5 -144.5t47 -115.5t80.5 -76.5t117 -27.5q96 0 168 45 t119 121.5t70.5 178t23.5 212.5q0 80 -15.5 148.5t-48 118.5t-83 79t-117.5 29q-100 0 -172 -49.5t-117 -130t-66.5 -182.5t-21.5 -206zM463 1206l29 232h96l-29 -232h-96zM657 1206l29 232h98l-28 -232h-99z" />
<glyph horiz-adv-x="1419" d="M90 418q0 319 137.5 492t384.5 173h807l-10 -94h-508l-49 -385h457l-11 -94h-456l-54 -416h519l-11 -94h-831q-199 0 -287 113.5t-88 304.5zM201 430q0 -68 12 -129t45 -107.5t89 -74t142 -27.5h191l113 899h-181q-109 0 -186.5 -42t-127.5 -116.5t-73.5 -177 t-23.5 -225.5z" />
<glyph horiz-adv-x="1040" d="M90 418q0 156 36 282.5t101.5 216t157.5 137.5t207 48q86 0 154.5 -32t116.5 -90t74 -139t26 -179q0 -158 -35 -284t-100.5 -214t-161 -135t-215.5 -47q-170 0 -265.5 118.5t-95.5 317.5zM205 440q0 -78 15.5 -144.5t47 -115.5t80.5 -76.5t117 -27.5q96 0 168 45 t119 121.5t70.5 178t23.5 212.5q0 80 -15.5 148.5t-48 118.5t-83 79t-117.5 29q-100 0 -172 -49.5t-117 -130t-66.5 -182.5t-21.5 -206zM420 1321l78 115l299 -222l-45 -45z" />
<glyph horiz-adv-x="1040" d="M35 -82l139 199q-84 113 -84 301q0 156 36 282.5t101.5 216t157.5 137.5t207 48q129 0 221 -74l100 143h97l-142 -200q45 -59 70 -137t25 -172q0 -158 -35 -284t-100.5 -214t-161 -135t-215.5 -47q-131 0 -224 75l-96 -139h-96zM205 440q0 -66 9 -121t32 -100l504 721 q-63 68 -168 68q-100 0 -172 -49.5t-117 -130t-66.5 -182t-21.5 -206.5zM291 147q33 -35 75 -53t99 -18q96 0 168 45t119 121.5t70.5 178t23.5 212.5q0 139 -47 237z" />
<glyph horiz-adv-x="1040" d="M90 418q0 156 36 282.5t101.5 216t157.5 137.5t207 48q86 0 154.5 -32t116.5 -90t74 -139t26 -179q0 -158 -35 -284t-100.5 -214t-161 -135t-215.5 -47q-170 0 -265.5 118.5t-95.5 317.5zM205 440q0 -78 15.5 -144.5t47 -115.5t80.5 -76.5t117 -27.5q96 0 168 45 t119 121.5t70.5 178t23.5 212.5q0 80 -15.5 148.5t-48 118.5t-83 79t-117.5 29q-100 0 -172 -49.5t-117 -130t-66.5 -182.5t-21.5 -206zM324 1264l26 84q23 12 45 22q20 8 47 15.5t56 7.5q33 0 64.5 -6.5t63 -14.5t66.5 -14t74 -6q49 0 108 26l-24 -84q-20 -14 -43 -22 q-20 -10 -46 -16.5t-54 -6.5q-68 0 -133.5 20.5t-137.5 20.5q-23 0 -53.5 -7t-58.5 -19z" />
<glyph horiz-adv-x="964" d="M100 0l23 98l121 985h329q152 0 242 -66.5t90 -207.5q0 -96 -30.5 -165t-85 -112t-128 -63t-159.5 -20h-226l-55 -449h-121zM291 543h207q61 0 114.5 13t93 44t62.5 81t23 124q0 102 -66 143t-178 41h-203z" />
<glyph horiz-adv-x="1040" d="M90 418q0 156 36 282.5t101.5 216t157.5 137.5t207 48q86 0 154.5 -32t116.5 -90t74 -139t26 -179q0 -262 -93.5 -433.5t-265.5 -224.5l53 -203h-102l-47 185q-14 -2 -28.5 -3t-28.5 -1q-170 0 -265.5 118.5t-95.5 317.5zM205 440q0 -78 15.5 -144.5t47 -115.5 t80.5 -76.5t117 -27.5h18l-47 188h103l43 -168q66 25 116 78t82.5 124t49 157t16.5 178q0 80 -15.5 148.5t-48 118.5t-83 79t-117.5 29q-100 0 -172 -49.5t-117 -130t-66.5 -182t-21.5 -206.5z" />
<glyph horiz-adv-x="1013" d="M100 0l25 98l121 985h368q147 0 226.5 -67.5t79.5 -196.5q0 -127 -63.5 -200.5t-151.5 -100.5l-3 -6q25 -14 40.5 -32.5t25.5 -46t17.5 -66.5t15.5 -95l39 -272h-125l-37 289q-8 61 -22.5 98t-41 56.5t-66.5 26.5t-97 7h-168l-60 -477h-123zM293 571h229q51 0 100.5 13.5 t88.5 43t62.5 73.5t23.5 106q0 86 -48.5 134t-158.5 48h-244z" />
<glyph horiz-adv-x="886" d="M35 16l35 105q33 -12 99.5 -27.5t141.5 -15.5q57 0 114.5 11t103.5 36t76 64.5t30 95.5q0 41 -19.5 71.5t-52.5 56t-72.5 48t-82.5 47.5q-47 27 -91.5 55.5t-77 62t-52 74.5t-19.5 95q0 86 36 145t95 95t134 51.5t155 15.5q74 0 142.5 -10.5t96.5 -18.5l-36 -106 q-35 12 -95.5 24.5t-128.5 12.5q-51 0 -102 -10.5t-91 -34t-65.5 -60.5t-25.5 -90q0 -35 15 -63.5t42 -53t59.5 -46t69.5 -42.5q61 -31 112.5 -61.5t88.5 -66.5t58.5 -81t21.5 -104q0 -90 -42 -149.5t-110 -95.5t-149.5 -50t-161.5 -14q-63 0 -131 9t-121 25z" />
<glyph horiz-adv-x="731" d="M94 989l10 94h668l-10 -94h-279l-123 -989h-122l22 100l111 889h-277z" />
<glyph horiz-adv-x="964" d="M100 0l23 98l121 985h110l-20 -178h217q152 0 242 -66.5t90 -207.5q0 -96 -31 -165t-85 -112t-128 -63.5t-160 -20.5h-225l-33 -270h-121zM268 365h207q61 0 114.5 13t93.5 44t62.5 81t22.5 124q0 102 -65.5 143t-178.5 41h-202z" />
<glyph horiz-adv-x="1054" d="M135 268q0 23 2 51.5t6 49.5l78 620v94h119l-86 -706q-6 -49 -6 -88q0 -109 54 -161t173 -52q143 0 210 71.5t85 212.5l82 627v96h119l-90 -737q-23 -186 -122.5 -275t-289.5 -89q-160 0 -247 72.5t-87 213.5z" />
<glyph horiz-adv-x="1054" d="M135 268q0 23 2 51.5t6 49.5l78 620v94h119l-86 -706q-6 -49 -6 -88q0 -109 54 -161t173 -52q143 0 210 71.5t85 212.5l82 627v96h119l-90 -737q-23 -186 -122.5 -275t-289.5 -89q-160 0 -247 72.5t-87 213.5zM422 1214l354 222l58 -119l-371 -148z" />
<glyph horiz-adv-x="1054" d="M135 268q0 23 2 51.5t6 49.5l78 620v94h119l-86 -706q-6 -49 -6 -88q0 -109 54 -161t173 -52q143 0 210 71.5t85 212.5l82 627v96h119l-90 -737q-23 -186 -122.5 -275t-289.5 -89q-160 0 -247 72.5t-87 213.5zM342 1227l236 188q20 16 35.5 19.5t23.5 3.5t22.5 -3 t30.5 -20l187 -188l-46 -45l-213 131l-239 -131z" />
<glyph horiz-adv-x="1054" d="M135 268q0 23 2 51.5t6 49.5l78 620v94h119l-86 -706q-6 -49 -6 -88q0 -109 54 -161t173 -52q143 0 210 71.5t85 212.5l82 627v96h119l-90 -737q-23 -186 -122.5 -275t-289.5 -89q-160 0 -247 72.5t-87 213.5zM459 1206l28 232h97l-29 -232h-96zM653 1206l29 232h98 l-28 -232h-99z" />
<glyph horiz-adv-x="1054" d="M135 268q0 23 2 51.5t6 49.5l78 620v94h119l-86 -706q-6 -49 -6 -88q0 -109 54 -161t173 -52q143 0 210 71.5t85 212.5l82 627v96h119l-90 -737q-23 -186 -122.5 -275t-289.5 -89q-160 0 -247 72.5t-87 213.5zM420 1321l78 115l299 -222l-45 -45z" />
<glyph horiz-adv-x="880" d="M109 1083h118l146 -911v-66h8l20 66l351 813l20 98h139l-469 -1083h-149z" />
<glyph horiz-adv-x="1460" d="M117 1083h121l122 -970h11l6 75l303 787l18 108h185l100 -893l-6 -75h10l342 876l19 92h135l-439 -1083h-145l-104 930v65h-11l-14 -65l-356 -930h-144z" />
<glyph horiz-adv-x="942" d="M-12 0l407 561l-245 522h129l188 -403l14 -66h8l29 64l227 317l50 88h145l-379 -522l275 -561h-127l-220 444l-12 68h-8l-27 -68l-254 -352l-49 -92h-151z" />
<glyph horiz-adv-x="829" d="M102 1083h123l166 -516l4 -53h11l16 53l262 424l41 92h135l-414 -667l-51 -416h-114l51 416z" />
<glyph horiz-adv-x="829" d="M102 1083h123l166 -516l4 -53h11l16 53l262 424l41 92h135l-414 -667l-51 -416h-114l51 416zM307 1214l355 222l57 -119l-371 -148z" />
<glyph horiz-adv-x="829" d="M102 1083h123l166 -516l4 -53h11l16 53l262 424l41 92h135l-414 -667l-51 -416h-114l51 416zM342 1206l29 232h96l-29 -232h-96zM537 1206l28 232h99l-29 -232h-98z" />
<glyph horiz-adv-x="800" d="M-6 0l16 121l627 819l55 39l-2 10h-559l10 94h660l-15 -118l-628 -820l-52 -43l3 -8h487l104 15l-14 -109h-692z" />
<glyph horiz-adv-x="591" d="M66 801q0 94 27.5 170t76.5 129t117.5 80.5t152.5 27.5q43 0 76 -4t55 -8l-61 -502v-106q-2 -2 -6 -2q-4 -2 -15 -2q-49 0 -49 55v45h-8q-4 -6 -16.5 -23.5t-34 -34t-55 -29.5t-80.5 -13q-88 0 -134 60.5t-46 156.5zM135 807q0 -66 27.5 -115t93.5 -49q55 0 93 26.5 t63.5 76t41 116t25.5 146.5q2 8 4 25.5t5.5 38t5.5 40t4 33.5q-10 0 -21 2q-10 2 -22.5 3t-26.5 1q-139 0 -216 -95t-77 -249z" />
<glyph horiz-adv-x="604" d="M86 600l14 68l95 772l69 8l-41 -344h8q4 6 17.5 23.5t36 36t55.5 31.5t78 13q90 0 134 -59t44 -154q0 -199 -97.5 -304t-269.5 -105q-35 0 -77.5 5t-65.5 9zM168 653q8 -4 32.5 -7t45.5 -3q139 0 209.5 95.5t70.5 244.5q0 68 -27.5 118t-92.5 50q-100 0 -152.5 -100.5 t-73.5 -262.5q0 -8 -2 -25.5t-4 -37.5l-4 -40t-2 -32z" />
<glyph horiz-adv-x="491" d="M66 840q0 80 22.5 147.5t64.5 116.5t102 76.5t136 27.5q31 0 62.5 -5t58.5 -13l-20 -62q-47 20 -111 21q-59 0 -104.5 -23.5t-78 -65.5t-49 -97.5t-16.5 -118.5q0 -86 42 -143.5t122 -57.5q59 0 100 23.5t68 52.5v-74q-8 -8 -53 -32.5t-119 -24.5q-111 0 -169 70.5 t-58 181.5z" />
<glyph horiz-adv-x="620" d="M66 805q0 94 26.5 168t75.5 125t117.5 77.5t150.5 26.5h64l26 230l74 8l-14 -68l-82 -680v-104q-2 -2 -6 -2h-13q-51 0 -51 53v45h-8q-4 -6 -16.5 -22.5t-35 -34t-56 -29.5t-78.5 -12q-86 0 -130 61.5t-44 157.5zM135 811q0 -33 6 -62.5t19.5 -53t35 -38t54.5 -14.5 q53 0 92 27.5t65.5 76t43 115t26.5 144.5q2 8 4 25.5t3 36.5t3.5 39t4.5 32q-10 0 -21 2q-10 2 -21.5 3t-25.5 1q-137 0 -213 -92t-76 -242z" />
<glyph horiz-adv-x="559" d="M66 829q0 84 24.5 153t67.5 118t100 75.5t123 26.5q74 0 122 -39t48 -106q0 -59 -31 -97t-80 -62t-109.5 -35t-119.5 -17l-72 -8v-11q0 -92 43 -138t142 -46q47 0 88 11.5t75 25.5l-22 -70q-23 -8 -66 -17t-90 -9q-123 0 -183 65.5t-60 179.5zM143 895l60 6q47 6 95 14.5 t88 25.5t64.5 44t24.5 68q0 43 -29.5 68.5t-76.5 25.5q-43 0 -81 -19.5t-69 -54.5t-50 -81t-26 -97z" />
<glyph horiz-adv-x="258" d="M98 641v9t2 16l66 522l63 4l-59 -508v-96q-2 -2 -6 -2h-14q-51 0 -52 55zM166 1391l63 55l50 -55l-64 -62z" />
<glyph horiz-adv-x="258" d="M98 639v10t2 17l97 778l65 8l-94 -764v-100q-2 -2 -6 -2h-12q-51 0 -52 53z" />
<glyph horiz-adv-x="901" d="M55 596l62 506v96h6q4 0 6 1t6 1q41 0 45 -53v-35h10q27 39 70 63.5t102 24.5t98.5 -28.5t49.5 -69.5h8q31 43 73 70.5t105 27.5q72 0 114 -36t42 -107q0 -10 -1 -18.5t-1 -16.5l-53 -434q-2 -2 -4 -2h-13q-43 0 -43 53q0 4 1 12t1 15l43 340q2 10 2 18v18q0 100 -98 101 q-86 0 -131 -68.5t-59 -179.5l-37 -299h-68l51 410q2 10 2 18v18q0 47 -22.5 74t-75.5 27q-84 0 -129 -68.5t-59 -179.5l-37 -299h-66z" />
<glyph horiz-adv-x="571" d="M66 823q0 82 18 150.5t53 119t88.5 79t124.5 28.5q104 0 158.5 -67.5t54.5 -171.5q0 -82 -17.5 -151t-53 -119t-89 -77.5t-124.5 -27.5q-104 0 -158.5 66.5t-54.5 170.5zM133 829q0 -76 34 -131t114 -55q55 0 96 24.5t66.5 66.5t39 98.5t13.5 117.5q0 78 -36 135.5 t-116 57.5q-55 0 -95 -25.5t-65.5 -68.5t-38 -100t-12.5 -120z" />
<glyph horiz-adv-x="391" d="M76 596l63 506v98h6q4 0 6.5 1t6.5 1q49 0 49 -53v-35h8q43 59 95 73.5t112 14.5v-74q-10 2 -22.5 3.5t-22.5 1.5q-49 0 -84 -18.5t-57.5 -50.5t-36 -76t-19.5 -93l-39 -299h-65z" />
<glyph horiz-adv-x="460" d="M39 612l24 62q31 -12 69 -21.5t79 -9.5q31 0 60.5 5t54 17.5t39 32t14.5 50.5q0 45 -40 72.5t-97 56.5q-53 27 -97.5 62.5t-44.5 90.5q0 49 21.5 82t56.5 52.5t79 27.5t89 8q27 0 67 -3t68 -11l-22 -64q-23 6 -56.5 12.5t-70.5 6.5q-29 0 -57.5 -5.5t-51 -16.5t-38 -30.5 t-15.5 -48.5q0 -35 34 -60.5t79 -47.5q29 -14 58.5 -30.5t54 -37t40 -47t15.5 -59.5q0 -47 -19.5 -79t-53.5 -53.5t-78 -30.5t-93 -9q-51 0 -97.5 8t-70.5 18z" />
<glyph horiz-adv-x="317" d="M72 1133l6 49l76 10l26 129l68 63l-25 -194h133l-8 -57h-131l-45 -357q0 -10 -1 -22.5t-1 -20.5q0 -51 23.5 -71.5t82.5 -20.5h13.5t11.5 2l-18 -59q-6 0 -14.5 -1t-18.5 -1q-147 0 -148 135v17t2 20l46 379h-78z" />
<glyph horiz-adv-x="540" d="M-10 -14q0 174 71.5 276.5t196.5 102.5q92 0 141.5 -62.5t49.5 -169.5q0 -176 -73 -279.5t-196 -103.5q-92 0 -141 62.5t-49 173.5zM51 -10q0 -78 32 -133.5t103 -55.5q49 0 86 30t62.5 76t39 103.5t13.5 114.5q0 78 -32.5 133t-104.5 55q-53 0 -90 -29.5t-61.5 -76.5 t-36 -104.5t-11.5 -112.5z" />
<glyph horiz-adv-x="489" d="M-12 -240l6 54h160l71 465h-8l-22 -33q-35 -29 -75 -48.5t-81 -31.5l-6 63q49 12 99 42t93 83h74l-84 -540h145l-6 -54h-366z" />
<glyph horiz-adv-x="499" d="M-29 -240l11 84q90 55 155.5 99.5t107.5 83.5t62.5 77.5t20.5 83.5q0 55 -40 87t-114 32q-35 0 -71.5 -6t-65.5 -16l22 65q18 4 39 8q16 4 39 6.5t47 2.5q86 0 146.5 -46.5t60.5 -130.5q0 -59 -29.5 -109t-76.5 -94t-109.5 -84t-126.5 -79v-8h277l63 6l-8 -62h-410z" />
<glyph horiz-adv-x="509" d="M-29 -172q25 -6 63 -15.5t85 -9.5q37 0 72.5 5.5t62.5 19.5t43 38.5t16 61.5q0 59 -49 83t-114 24h-78l6 53h76q33 0 65.5 5t57 18.5t40 38t15.5 61.5q0 53 -42 77.5t-102 24.5q-29 0 -67.5 -6t-75.5 -18l27 63q20 6 52 10.5t71 4.5q82 0 141 -37t59 -115 q0 -51 -26.5 -91t-81.5 -63l-2 -6q43 -18 67.5 -49t24.5 -78q0 -51 -22.5 -86t-59.5 -55t-84 -29.5t-94 -9.5t-88 8t-58 13v59z" />
<glyph horiz-adv-x="534" d="M-14 -115l8 66l311 401h86l-49 -413h80l-6 -54h-80l-17 -127h-59l16 127h-290zM41 -61h240l41 329l16 33h-8l-260 -340l-27 -16z" />
<glyph horiz-adv-x="491" d="M-25 -166q25 -12 66 -20.5t78 -8.5q76 0 133 33t57 103q0 37 -19.5 61.5t-50 38.5t-68.5 19.5t-75 5.5h-53l35 288h305l-6 -59l-62 6h-186l-20 -180q53 0 101 -11.5t84 -34t57.5 -55t21.5 -77.5q0 -49 -20.5 -86t-54.5 -60.5t-80 -35t-95 -11.5q-47 0 -85 6t-63 15v63z " />
<glyph horiz-adv-x="514" d="M-12 -6q0 168 76.5 270.5t230.5 102.5q37 0 69.5 -5.5t47.5 -9.5v-61q-12 4 -48 12t-75 8q-86 0 -145.5 -52t-77.5 -150q31 4 57.5 7t52.5 3q104 0 169 -42t65 -132q0 -94 -61.5 -144.5t-151.5 -50.5q-104 0 -156.5 68.5t-52.5 175.5zM51 -8q0 -84 38 -136.5t110 -52.5 q66 0 105.5 38.5t39.5 101.5q0 68 -52 95.5t-130 27.5q-33 0 -57.5 -3.5t-47.5 -7.5q-4 -16 -5 -29.5t-1 -33.5z" />
<glyph horiz-adv-x="440" d="M-2 295l6 59h381l-10 -73q-78 -72 -126 -139.5t-77 -132t-42 -125t-19 -113.5l-2 -11h-62l2 11q6 51 19.5 111.5t41 126t73.5 135t116 141.5l31 10l2 6h-271z" />
<glyph horiz-adv-x="546" d="M-6 -109q0 59 40 103.5t97 71.5v8q-37 16 -60.5 49t-23.5 70q0 86 65.5 129t157.5 43q78 0 131.5 -38t53.5 -104q0 -57 -39 -96t-90 -59l-2 -7q47 -23 72.5 -57.5t25.5 -77.5q0 -47 -21.5 -79.5t-55.5 -54t-78 -32t-87 -10.5q-84 0 -135 38t-51 103zM57 -96q0 -45 36 -72 t93 -27q31 0 62 6.5t54.5 20.5t38.5 35.5t15 52.5q0 43 -36.5 67.5t-94.5 43.5l-28 8q-51 -16 -95.5 -50t-44.5 -85zM113 205q0 -39 36.5 -63.5t81.5 -41.5l27 -10q47 14 90 45t43 84q0 45 -38 67.5t-91 22.5q-55 0 -102 -24.5t-47 -79.5z" />
<glyph horiz-adv-x="514" d="M-4 -174q12 -4 48 -12.5t75 -8.5q86 0 145.5 52.5t77.5 150.5q-31 -4 -57.5 -7t-53.5 -3q-104 0 -168.5 42t-64.5 132q0 94 61.5 144.5t151.5 50.5q104 0 156.5 -69t52.5 -175q0 -168 -77 -270.5t-230 -102.5q-37 0 -70 5t-47 9v62zM63 174q0 -68 52.5 -95.5t130.5 -27.5 q33 0 57.5 3t46.5 7q4 16 5 29.5t1 34.5q0 84 -37.5 136t-109.5 52q-66 0 -106 -38t-40 -101z" />
<glyph horiz-adv-x="348" d="M39 96q0 39 6 82q16 133 69.5 235.5t110.5 186.5l43 -18q-33 -47 -64.5 -99.5t-56 -114t-40 -130t-15.5 -144.5q0 -96 23.5 -173t54.5 -144l-47 -19q-33 70 -58.5 153t-25.5 185z" />
<glyph horiz-adv-x="348" d="M2 -223q31 47 62.5 99t56 111.5t40 127t15.5 147.5q0 96 -22.5 175t-53.5 145l47 18q33 -70 58.5 -151.5t25.5 -184.5q0 -41 -6 -86q-16 -131 -69.5 -233.5t-110.5 -186.5z" />
<glyph horiz-adv-x="960" d="M68 410q0 156 33.5 283.5t97 219t153.5 140.5t203 49q168 0 258 -115t90 -307q0 -160 -33.5 -289t-97 -220t-154 -140t-202.5 -49q-168 0 -258 114.5t-90 313.5zM178 420q0 -72 14.5 -134.5t44 -109.5t76.5 -73.5t113 -26.5q88 0 155.5 53t113.5 137t71 188.5t25 209.5 q0 70 -14.5 132t-45.5 109t-78 75t-110 28q-96 0 -165 -54.5t-113 -139.5t-65.5 -189.5t-21.5 -204.5z" />
<glyph horiz-adv-x="804" d="M29 0l12 96h291l129 848h-10l-45 -59q-66 -53 -136.5 -87t-148.5 -59l-10 115q90 23 181 79t171 150h135l-154 -987h265l-13 -96h-667z" />
<glyph horiz-adv-x="862" d="M12 0l19 147q164 100 282.5 180.5t196.5 153t115 143t37 154.5q0 100 -72 158.5t-207 58.5q-66 0 -133.5 -13t-118.5 -30l43 121q33 6 70 14q31 4 71.5 9.5t85.5 5.5q78 0 146.5 -21.5t119 -62.5t80 -100.5t29.5 -135.5q0 -109 -53 -199.5t-140 -171.5t-199 -155 t-228 -147v-11h501l115 13l-14 -111h-746z" />
<glyph horiz-adv-x="894" d="M25 18v109q45 -12 112.5 -29.5t155.5 -17.5q68 0 131 10t111.5 36t78 70t29.5 111q0 53 -24.5 90t-65.5 60.5t-94 34t-113 10.5h-139l12 94h135q61 0 118.5 9t103 35t73 69t27.5 110q0 47 -19.5 82t-54.5 58.5t-82 35t-102 11.5q-53 0 -123 -11.5t-135 -33.5l45 116 q39 10 97 17.5t126 7.5q74 0 140.5 -16.5t115.5 -50.5t79 -86t30 -122q0 -92 -48.5 -163.5t-148.5 -112.5l-2 -10q78 -33 121 -91.5t43 -142.5q0 -92 -41 -154.5t-107.5 -100.5t-150.5 -54t-170 -16t-161 14t-103 22z" />
<glyph horiz-adv-x="901" d="M4 229l14 121l568 733h159l-92 -755h148l-13 -99h-145l-29 -229h-108l29 229h-531zM106 328h437l73 604l25 59h-10l-475 -622l-47 -31z" />
<glyph horiz-adv-x="864" d="M43 18v113q45 -20 119 -35.5t145 -15.5q68 0 131.5 14.5t111.5 45t76.5 77.5t28.5 111q0 68 -35.5 112.5t-92 70.5t-125 37t-136.5 11h-100l63 524h559l-12 -108l-110 12h-338l-39 -330q96 0 183 -20.5t153.5 -61t105.5 -102t39 -143.5q0 -90 -37 -155.5t-99.5 -108.5 t-145 -63.5t-175.5 -20.5q-86 0 -154.5 11t-115.5 25z" />
<glyph horiz-adv-x="909" d="M70 426q0 152 34.5 275.5t104.5 213t175 138.5t245 49q66 0 126 -9.5t85 -17.5v-112q-23 10 -87.5 24t-134.5 14q-154 0 -263 -94t-144 -274q55 8 104.5 14t96.5 6q94 0 172 -19.5t134 -58t87 -99t31 -140.5q0 -86 -30 -152.5t-82 -110.5t-123 -67.5t-152 -23.5 q-96 0 -167 32.5t-118 92t-70.5 141.5t-23.5 178zM186 420q0 -150 68 -245t199 -95q123 0 194.5 67.5t71.5 182.5q0 61 -24.5 104t-69.5 69.5t-105.5 39t-132.5 12.5q-59 0 -105 -6t-87 -14q-4 -29 -6.5 -53.5t-2.5 -61.5z" />
<glyph horiz-adv-x="784" d="M96 975l13 108h692l-17 -135q-141 -129 -229 -254t-141.5 -242.5t-77 -226t-35.5 -207.5l-2 -18h-113l2 18q12 96 37 206t76 229.5t135 246.5t211 256l55 21l3 10h-492z" />
<glyph horiz-adv-x="995" d="M78 250q0 115 69.5 186.5t176.5 116.5v8q-72 35 -112 96.5t-40 137.5t33 133t89 96t130 58.5t154 19.5q70 0 132 -18.5t108 -52.5t73 -83t27 -110q0 -98 -60.5 -167t-171.5 -120v-8q82 -45 128 -104.5t46 -141.5t-36 -141.5t-94 -98.5t-134 -57t-156 -18q-78 0 -144.5 18 t-114.5 54t-75.5 85t-27.5 111zM197 266q0 -86 69.5 -137t177.5 -51q57 0 110.5 12t93.5 37t64.5 63.5t24.5 94.5q0 86 -65.5 133t-167.5 76l-51 14q-49 -16 -95.5 -36.5t-82 -49.5t-57 -67t-21.5 -89zM293 807q0 -43 17.5 -74t46 -52.5t67.5 -36.5t82 -30l51 -16 q39 12 82 31.5t79 47.5t59.5 65.5t23.5 88.5q0 80 -68.5 127.5t-169.5 47.5q-49 0 -98 -11.5t-87 -36t-61.5 -62.5t-23.5 -89z" />
<glyph horiz-adv-x="909" d="M80 8v113q23 -10 87 -24.5t134 -14.5q154 0 263.5 94t144.5 275q-55 -8 -104.5 -14.5t-96.5 -6.5q-94 0 -172 19.5t-134.5 58.5t-87 99.5t-30.5 140.5q0 86 29.5 152.5t82 110.5t123 67.5t152.5 23.5q94 0 166 -33t119 -92t70.5 -141t23.5 -179q0 -152 -36 -275.5 t-105.5 -212.5t-172 -138t-235.5 -49q-33 0 -66.5 3t-64.5 7t-54.5 8t-35.5 8zM201 754q0 -61 24.5 -104.5t69.5 -70t105.5 -39t131.5 -12.5q59 0 105.5 6.5t87.5 14.5q4 29 6 53.5t2 61.5q0 150 -67.5 245t-198.5 95q-123 0 -194.5 -67.5t-71.5 -182.5z" />
<glyph horiz-adv-x="540" d="M-10 170q0 174 71.5 276.5t196.5 102.5q92 0 141.5 -62.5t49.5 -169.5q0 -176 -73 -279.5t-196 -103.5q-92 0 -141 62.5t-49 173.5zM51 174q0 -78 32 -133t103 -55q49 0 86 29.5t62.5 75.5t39 103.5t13.5 114.5q0 78 -32.5 133.5t-104.5 55.5q-53 0 -90 -30t-61.5 -77 t-36 -104.5t-11.5 -112.5z" />
<glyph horiz-adv-x="489" d="M-12 -55l6 53h160l71 465h-8l-22 -33q-35 -29 -75 -48.5t-81 -31.5l-6 64q49 12 99 41.5t93 83.5h74l-84 -541h145l-6 -53h-366z" />
<glyph horiz-adv-x="499" d="M-29 -55l11 84q90 55 155.5 99t107.5 83t62.5 78t20.5 84q0 55 -40 87t-114 32q-35 0 -71.5 -6.5t-65.5 -16.5l22 66q18 4 39 8q16 4 39 6t47 2q86 0 146.5 -46t60.5 -130q0 -59 -29.5 -109.5t-76.5 -94.5t-109.5 -84t-126.5 -79v-8h277l63 6l-8 -61h-410z" />
<glyph horiz-adv-x="509" d="M-29 12q25 -6 63 -15t85 -9q37 0 72.5 5t62.5 19.5t43 39t16 61.5q0 59 -49 82.5t-114 23.5h-78l6 53h76q33 0 65.5 5.5t57 18.5t40 37.5t15.5 61.5q0 53 -42 78t-102 25q-29 0 -67.5 -6.5t-75.5 -18.5l27 64q20 6 52 10t71 4q82 0 141 -37t59 -115q0 -51 -26.5 -91 t-81.5 -62l-2 -6q43 -18 67.5 -49t24.5 -78q0 -51 -22.5 -86t-59.5 -55.5t-84 -30t-94 -9.5t-88 8.5t-58 12.5v59z" />
<glyph horiz-adv-x="534" d="M-14 70l8 65l311 402h86l-49 -414h80l-6 -53h-80l-17 -127h-59l16 127h-290zM41 123h240l41 330l16 32h-8l-260 -340l-27 -16z" />
<glyph horiz-adv-x="491" d="M-25 18q25 -12 66 -20t78 -8q76 0 133 32.5t57 102.5q0 37 -19.5 61.5t-50 39t-68.5 19.5t-75 5h-53l35 289h305l-6 -60l-62 6h-186l-20 -180q53 0 101 -11t84 -33.5t57.5 -55.5t21.5 -78q0 -49 -20.5 -86t-54.5 -60.5t-80 -35t-95 -11.5q-47 0 -85 6.5t-63 14.5v63z" />
<glyph horiz-adv-x="514" d="M-12 178q0 168 76.5 270.5t230.5 102.5q37 0 69.5 -5t47.5 -9v-62q-12 4 -48 12.5t-75 8.5q-86 0 -145.5 -52.5t-77.5 -150.5q31 4 57.5 7t52.5 3q104 0 169 -42t65 -132q0 -94 -61.5 -144.5t-151.5 -50.5q-104 0 -156.5 69t-52.5 175zM51 176q0 -84 38 -136t110 -52 q66 0 105.5 38t39.5 101q0 68 -52 95.5t-130 27.5q-33 0 -57.5 -3t-47.5 -7q-4 -16 -5 -29.5t-1 -34.5z" />
<glyph horiz-adv-x="440" d="M-2 479l6 60h381l-10 -74q-78 -72 -126 -139.5t-77 -132t-42 -125t-19 -113.5l-2 -10h-62l2 10q6 51 19.5 111.5t41 126t73.5 135t116 141.5l31 10l2 6h-271z" />
<glyph horiz-adv-x="546" d="M-6 76q0 59 40 103t97 71v8q-37 16 -60.5 49t-23.5 70q0 86 65.5 129t157.5 43q78 0 131.5 -38t53.5 -103q0 -57 -39 -96.5t-90 -59.5l-2 -6q47 -23 72.5 -57.5t25.5 -77.5q0 -47 -21.5 -80t-55.5 -54.5t-78 -32t-87 -10.5q-84 0 -135 38t-51 104zM57 88q0 -45 36 -71.5 t93 -26.5q31 0 62 6t54.5 20.5t38.5 36t15 51.5q0 43 -36.5 68t-94.5 43l-28 8q-51 -16 -95.5 -50t-44.5 -85zM113 389q0 -39 36.5 -63.5t81.5 -40.5l27 -11q47 14 90 45t43 84q0 45 -38 68t-91 23q-55 0 -102 -25t-47 -80z" />
<glyph horiz-adv-x="514" d="M-4 10q12 -4 48 -12t75 -8q86 0 145.5 52t77.5 151q-31 -4 -57.5 -7.5t-53.5 -3.5q-104 0 -168.5 42t-64.5 132q0 94 61.5 144.5t151.5 50.5q104 0 156.5 -68.5t52.5 -175.5q0 -168 -77 -270.5t-230 -102.5q-37 0 -70 5.5t-47 9.5v61zM63 358q0 -68 52.5 -95t130.5 -27 q33 0 57.5 3t46.5 7q4 16 5 29.5t1 33.5q0 84 -37.5 136.5t-109.5 52.5q-66 0 -106 -38.5t-40 -101.5z" />
<glyph horiz-adv-x="520" d="M78 821q0 174 71.5 276.5t196.5 102.5q92 0 141.5 -62.5t49.5 -168.5q0 -176 -73 -279.5t-196 -103.5q-92 0 -141 62t-49 173zM139 825q0 -78 32 -133t103 -55q49 0 86 29.5t63 75.5t39 103.5t13 115.5q0 78 -32.5 133t-104.5 55q-53 0 -90 -29.5t-61.5 -77t-36 -105 t-11.5 -112.5z" />
<glyph horiz-adv-x="489" d="M90 596l6 53h160l72 465h-9l-22 -33q-35 -29 -75 -48t-81 -32l-6 64q49 12 99.5 42t93.5 83h73l-84 -541h146l-6 -53h-367z" />
<glyph horiz-adv-x="499" d="M68 594l10 84q90 55 155.5 99t107.5 83t62.5 78t20.5 84q0 55 -40 87t-114 32q-35 0 -71.5 -6.5t-65.5 -16.5l23 66q18 4 39 8q16 4 38.5 6t47.5 2q86 0 146 -46t60 -130q0 -59 -29.5 -109.5t-76.5 -94.5t-109.5 -84t-126.5 -79v-8h277l63 6l-8 -61h-409z" />
<glyph horiz-adv-x="509" d="M76 602v60q25 -6 62.5 -15.5t84.5 -9.5q37 0 73 5t62.5 19.5t43 39t16.5 61.5q0 59 -49.5 82.5t-114.5 23.5h-78l6 54h76q33 0 65.5 5t57.5 18t40 38t15 61q0 53 -42 78t-101 25q-29 0 -68 -6t-75 -19l26 64q20 6 52 10t71 4q82 0 141.5 -37t59.5 -114q0 -51 -27 -91 t-82 -63l-2 -6q43 -18 67.5 -49t24.5 -78q0 -51 -22.5 -86t-59.5 -55.5t-84 -29.5t-94 -9t-88 8t-57 12z" />
<glyph horiz-adv-x="534" d="M88 723l8 65l312 402h86l-50 -414h80l-6 -53h-80l-16 -127h-60l17 127h-291zM143 776h240l41 330l16 33h-8l-260 -340l-27 -17z" />
<glyph horiz-adv-x="491" d="M78 606v64q25 -12 65.5 -20.5t77.5 -8.5q76 0 133.5 33t57.5 102q0 37 -19.5 61.5t-50.5 39t-68.5 19.5t-74.5 5h-54l35 289h305l-6 -60l-61 7h-187l-20 -181q53 0 101 -11t84 -33.5t57.5 -55.5t21.5 -78q0 -49 -20.5 -86t-54 -60.5t-80 -34.5t-95.5 -11q-47 0 -85 6 t-62 14z" />
<glyph horiz-adv-x="514" d="M88 827q0 168 77 270.5t230 102.5q37 0 70 -5t47 -9v-62q-12 4 -48 12.5t-75 8.5q-86 0 -145.5 -52.5t-77.5 -150.5q31 4 57.5 7t52.5 3q104 0 169 -42t65 -132q0 -94 -61.5 -144t-151.5 -50q-104 0 -156.5 68.5t-52.5 174.5zM152 825q0 -84 37.5 -136t109.5 -52 q66 0 105.5 38t39.5 101q0 68 -52 95.5t-130 27.5q-33 0 -57.5 -3t-46.5 -7q-4 -16 -5 -29.5t-1 -34.5z" />
<glyph horiz-adv-x="440" d="M100 1130l6 60h381l-10 -74q-78 -72 -126 -139.5t-76.5 -132t-42 -125t-19.5 -113.5l-2 -10h-61l2 10q6 51 19 111.5t41 126t74 135.5t115 141l31 10l2 7h-270z" />
<glyph horiz-adv-x="546" d="M94 729q0 59 40 103.5t97 70.5v8q-37 16 -60.5 49t-23.5 70q0 86 66 129t158 43q78 0 131 -38t53 -103q0 -57 -39 -96t-90 -60l-2 -6q47 -23 72.5 -57.5t25.5 -77.5q0 -47 -21.5 -80t-55 -54.5t-77.5 -31.5t-87 -10q-84 0 -135.5 38t-51.5 103zM158 741q0 -45 35.5 -71.5 t93.5 -26.5q31 0 61.5 6t54 20.5t39 36t15.5 52.5q0 43 -37 67.5t-94 42.5l-29 9q-51 -16 -95 -50t-44 -86zM213 1042q0 -39 37 -63.5t82 -40.5l26 -10q47 14 90.5 45t43.5 84q0 45 -38 67.5t-92 22.5q-55 0 -102 -24.5t-47 -80.5z" />
<glyph horiz-adv-x="514" d="M96 598v61q12 -4 48 -12t75 -8q86 0 145.5 52t77.5 151q-31 -4 -57.5 -7.5t-52.5 -3.5q-104 0 -169 42t-65 133q0 94 61.5 144t151.5 50q104 0 156.5 -68.5t52.5 -175.5q0 -168 -76.5 -270t-230.5 -102q-37 0 -69.5 5t-47.5 9zM164 1008q0 -68 52 -95.5t130 -27.5 q33 0 57.5 3t47.5 7q4 16 5 29.5t1 33.5q0 84 -38 136.5t-110 52.5q-66 0 -105.5 -38t-39.5 -101z" />
<glyph horiz-adv-x="360" d="M211 1221q0 43 22.5 68.5t55.5 25.5q59 0 59 -66q0 -33 -17.5 -64.5t-58.5 -31.5q-29 0 -45 17.5t-16 50.5z" />
<glyph horiz-adv-x="1130" d="M76 270q0 113 51 192t137 148q-31 53 -43 102.5t-12 90.5q0 63 21.5 117.5t62.5 94.5t98.5 63.5t128.5 23.5q98 0 170 -47t72 -142v-22h325l107 8l-37 -98h-194q-12 -98 -25.5 -181t-33 -154t-46.5 -133.5t-63 -123.5q43 -35 97 -66.5t95 -52.5l-39 -108q-35 16 -98.5 52 t-128.5 83q-59 -61 -143 -98t-189 -37q-68 0 -125 20.5t-99 58t-65.5 91t-23.5 118.5zM186 289q0 -92 61.5 -152.5t155.5 -60.5q66 0 126.5 23.5t113.5 74.5q-45 35 -93 80t-93 93t-83 95t-63 84q-59 -45 -92 -105.5t-33 -131.5zM317 821q0 -53 32 -122.5t86 -144.5 t125 -148.5t151 -137.5q33 53 56.5 108.5t38.5 119t26.5 138.5t21.5 167h-207q4 16 7 40.5t3 45.5q0 59 -39.5 90t-109.5 31q-76 0 -133.5 -47.5t-57.5 -139.5z" />
</font>
</defs>
</svg>
