<?xml version="1.0" standalone="no"?>
<!DOCTYPE svg PUBLIC "-//W3C//DTD SVG 1.1//EN" "http://www.w3.org/Graphics/SVG/1.1/DTD/svg11.dtd" >
<svg xmlns="http://www.w3.org/2000/svg">
<metadata></metadata>
<defs>
<font id="distefanosanslight" horiz-adv-x="985" >
<font-face units-per-em="2048" ascent="1536" descent="-512" />
<missing-glyph horiz-adv-x="403" />
<glyph unicode="&#xfb00;" horiz-adv-x="1024" d="M33 883v78l143 16v143q0 129 77 205t206 76q12 0 29.5 -1t29.5 -3l14 -99q-12 2 -22 3.5t-25 1.5q-98 0 -150 -42t-52 -141q0 -29 2 -53.5t6 -44.5q4 -23 10 -45h361v143q0 129 76.5 205t205.5 76q12 0 29.5 -1t30.5 -3l14 -99q-12 2 -22.5 3.5t-24.5 1.5 q-98 0 -150.5 -42t-52.5 -141q0 -29 2 -53.5t6 -44.5q4 -23 10 -45h195v-94h-207v-883h-125l13 117v766h-373v-883h-125l12 117v766h-143z" />
<glyph unicode="&#xfb03;" horiz-adv-x="1409" d="M33 883v78l143 16v143q0 129 77 205t206 76q12 0 29.5 -1t29.5 -3l14 -99q-12 2 -22 3.5t-25 1.5q-98 0 -150 -42t-52 -141q0 -29 2 -53.5t6 -44.5q4 -23 10 -45h361v143q0 129 76.5 205t205.5 76q12 0 29.5 -1t30.5 -3l14 -99q-12 2 -22.5 3.5t-24.5 1.5 q-98 0 -150.5 -42t-52.5 -141q0 -29 2 -53.5t6 -44.5q4 -23 10 -45h471v-977h-124l12 117v766h-371v-883h-125l13 117v766h-373v-883h-125l12 117v766h-143zM1108 1307l96 94l92 -94l-92 -99z" />
<glyph unicode="&#xfb04;" horiz-adv-x="1419" d="M33 883v78l143 16v143q0 129 77 205t206 76q12 0 29.5 -1t29.5 -3l14 -99q-12 2 -22 3.5t-25 1.5q-98 0 -150 -42t-52 -141q0 -29 2 -53.5t6 -44.5q4 -23 10 -45h361v141q0 150 84.5 216.5t234.5 66.5q39 0 83 -4t83 -8.5t69.5 -9.5t40.5 -7v-1372h-124l12 117v1177 q-31 4 -80 7.5t-80 3.5q-102 0 -159.5 -39t-57.5 -146q0 -29 2 -53.5t6 -44.5q4 -23 10 -45h236v-94h-248v-883h-127l15 113v770h-373v-883h-125l12 117v766h-143z" />
<glyph horiz-adv-x="0" />
<glyph unicode="&#xd;" horiz-adv-x="403" />
<glyph horiz-adv-x="0" />
<glyph horiz-adv-x="0" />
<glyph unicode=" "  horiz-adv-x="403" />
<glyph unicode="&#x09;" horiz-adv-x="403" />
<glyph unicode="&#xa0;" horiz-adv-x="403" />
<glyph unicode="!" horiz-adv-x="481" d="M168 63q0 37 19.5 58.5t50.5 21.5q33 0 51 -21.5t18 -58.5q0 -82 -69 -81q-31 0 -50.5 21.5t-19.5 59.5zM195 297l36 999h119l-53 -999h-102z" />
<glyph unicode="&#x22;" horiz-adv-x="550" d="M127 731v459h78v-459h-78zM348 731v459h78v-459h-78z" />
<glyph unicode="#" d="M80 313v60h170l80 401h-213v60h223l70 356h69l-69 -356h249l70 356h70l-70 -356h178v-60h-188l-78 -401h231v-60h-241l-60 -313h-71l59 313h-248l-59 -313h-72l60 313h-160zM322 373h247l80 401h-250z" />
<glyph unicode="$" d="M143 14l27 101q16 -4 88 -21.5t174 -17.5q51 0 102.5 10t92.5 32.5t67.5 58.5t26.5 87q0 45 -20.5 80t-56.5 61.5t-84 50t-103 48.5q-53 25 -104.5 51.5t-91.5 62t-64.5 83t-24.5 112.5q0 66 24.5 115t65.5 84t97.5 55t119.5 29v200h68v-194h26q70 0 140.5 -9.5 t101.5 -17.5l-24 -102q-10 4 -76 19.5t-152 15.5q-51 0 -100 -9.5t-87 -31t-61.5 -57.5t-23.5 -87q0 -41 18.5 -73.5t49 -58t70.5 -47t83 -40.5q57 -25 116.5 -53.5t105.5 -66.5t76 -88t30 -120q0 -66 -23.5 -114.5t-65.5 -84.5t-97.5 -57.5t-116.5 -29.5v-203h-68v195h-31 q-47 0 -95 4t-88 9t-69.5 10t-42.5 9z" />
<glyph unicode="%" horiz-adv-x="1134" d="M68 895q0 141 65.5 223t177.5 82q111 0 167.5 -82t56.5 -223t-66.5 -225t-177.5 -84t-167 84t-56 225zM147 895q0 -47 7.5 -91t25 -78t46 -54.5t69.5 -20.5q39 0 69.5 20.5t50 54.5t30 78t10.5 91q0 45 -8.5 89t-26 78t-46 54.5t-69.5 20.5q-43 0 -72.5 -20.5t-49 -54.5 t-28 -78t-8.5 -89zM176 0l707 1190h78l-707 -1190h-78zM598 299q0 141 65.5 223t178.5 82q111 0 167 -82t56 -223t-66.5 -225t-177.5 -84t-167 84t-56 225zM678 299q0 -47 7 -91t24.5 -78t46 -54.5t69.5 -20.5q39 0 70 20.5t50.5 54.5t29.5 78t10 91q0 45 -8 89t-25.5 78 t-46 54.5t-69.5 20.5q-43 0 -73 -20.5t-49.5 -54.5t-27.5 -78t-8 -89z" />
<glyph unicode="&#x26;" horiz-adv-x="1271" d="M104 336q0 111 44.5 188.5t121.5 143.5q-53 72 -71.5 127t-18.5 114q0 61 23.5 115.5t65.5 95.5t101.5 64.5t133.5 23.5q61 0 113.5 -13t90 -42t60.5 -72t23 -104h366l119 8l-27 -106h-219q0 -193 -23.5 -356t-84.5 -294q76 -47 132 -75.5t103 -51.5l-31 -120 q-43 16 -117.5 56t-154.5 91q-59 -68 -149.5 -107.5t-206.5 -39.5q-82 0 -154 23.5t-125 69.5t-84 111.5t-31 149.5zM225 350q0 -55 21.5 -104t58.5 -85t87.5 -56.5t107.5 -20.5q150 0 256 109q-55 37 -115.5 87t-118 102t-105.5 103.5t-81 92.5q-111 -90 -111 -228z M301 909q0 -57 43 -133t114.5 -158.5t165 -166.5t195.5 -156q27 49 44.5 115.5t27.5 143.5t13 160t3 165h-235q2 10 3 28.5t1 36.5q0 160 -174 160q-86 0 -143.5 -51.5t-57.5 -143.5z" />
<glyph unicode="'" horiz-adv-x="307" d="M127 731v459h78v-459h-78z" />
<glyph unicode="(" horiz-adv-x="477" d="M102 492q0 109 19.5 205t50.5 182t70 162.5t80 146.5l53 -35q-39 -66 -76 -139.5t-65.5 -155.5t-46 -173t-17.5 -193q0 -104 17.5 -196.5t46 -173.5t65.5 -152.5t76 -139.5l-53 -35q-41 70 -80 145.5t-70 161.5t-50.5 183.5t-19.5 206.5z" />
<glyph unicode=")" horiz-adv-x="477" d="M102 -170q39 68 76 139.5t65.5 152.5t46 173t17.5 197q0 102 -17.5 193t-46 173t-65.5 155.5t-76 139.5l54 35q41 -70 79.5 -146.5t69.5 -162.5t50.5 -182t19.5 -205t-19.5 -206.5t-50.5 -183.5t-69.5 -161.5t-79.5 -145.5z" />
<glyph unicode="*" horiz-adv-x="763" d="M84 774l233 137l-233 136l31 49l233 -135v272h58v-272l235 135l29 -49l-240 -136l240 -137l-29 -47l-235 133v-270h-58v270l-233 -133z" />
<glyph unicode="+" d="M104 565v62h363v358h68v-358h366v-62h-366v-381h-68v381h-363z" />
<glyph unicode="," horiz-adv-x="368" d="M102 -166l70 168q-25 6 -36 28.5t-11 51.5q0 35 18.5 58.5t53.5 23.5t51 -22.5t16 -59.5q0 -29 -7 -57.5t-26 -63.5l-73 -131z" />
<glyph unicode="-" horiz-adv-x="702" d="M137 461v61h428v-61h-428z" />
<glyph unicode="." horiz-adv-x="370" d="M125 63q0 37 19.5 58.5t50.5 21.5q33 0 51 -21.5t18 -58.5q0 -82 -69 -81q-31 0 -50.5 21.5t-19.5 59.5z" />
<glyph unicode="/" horiz-adv-x="665" d="M39 0l516 1190h72l-514 -1190h-74z" />
<glyph unicode="0" d="M72 586q0 141 28.5 255.5t85 195.5t138.5 126t188 45q104 0 180 -41t125 -118.5t72.5 -189t23.5 -253.5q0 -141 -28.5 -255.5t-85 -196.5t-138.5 -127t-186 -45t-181 42t-126 119.5t-72.5 189t-23.5 253.5zM186 586q0 -98 14.5 -189.5t49.5 -161t91 -111.5t140 -42 q80 0 140.5 45t99.5 118.5t58.5 168t19.5 192.5t-16.5 189.5t-51.5 161t-92 111.5t-139 42q-84 0 -143.5 -45t-97.5 -119t-55.5 -168t-17.5 -192z" />
<glyph unicode="1" d="M137 961q90 23 176 79t158 150h139l-28 -1092h290v-98h-706v98h301l20 961h-10l-37 -70q-66 -53 -131 -86t-143 -57z" />
<glyph unicode="2" d="M115 0v154q147 111 256.5 203t182.5 173.5t107.5 158.5t34.5 159q0 113 -74.5 184.5t-232.5 71.5q-86 0 -156.5 -15.5t-105.5 -29.5l29 119q57 14 117.5 22t125.5 8q94 0 171 -23.5t131.5 -68.5t84 -112.5t29.5 -155.5q0 -90 -35 -175t-105.5 -173t-180 -184.5 t-258.5 -206.5l2 -11h530l115 11v-109h-768z" />
<glyph unicode="3" d="M111 127q41 -14 86 -25q39 -10 87 -16t101 -6q66 0 129.5 13t112.5 42t78.5 76t29.5 113t-29.5 109.5t-77.5 70t-108.5 38t-122.5 11.5h-137v100h117q59 0 117.5 12.5t105.5 40t76 70.5t29 107q0 61 -23 104t-60.5 70.5t-91 40t-114.5 12.5q-66 0 -141.5 -13.5 t-120.5 -27.5l26 115q47 10 109.5 17t126.5 7q82 0 155.5 -17t130 -56t89 -101.5t32.5 -150.5q0 -98 -49 -166t-141 -103v-8q100 -33 160.5 -103.5t60.5 -187.5q0 -90 -41 -152.5t-106.5 -103.5t-147.5 -59t-166 -18q-90 0 -161.5 11t-100.5 17z" />
<glyph unicode="4" d="M86 252v131l518 807h160v-840h131v-98h-129v-252h-113v252h-567zM176 350h473v674l15 63h-11l-432 -696l-45 -31v-10z" />
<glyph unicode="5" d="M111 127q43 -14 90 -25q41 -10 90 -16t98 -6q68 0 129.5 15.5t107.5 48t72.5 82.5t26.5 118q0 82 -40 134t-103.5 83t-140 42t-150.5 11h-111v576h608v-107l-114 11h-379v-379q111 0 210 -19.5t174 -62.5t120 -113.5t45 -175.5q0 -90 -35 -157.5t-95.5 -113.5t-140 -68.5 t-170.5 -22.5q-98 0 -163.5 9t-108.5 19z" />
<glyph unicode="6" d="M106 588q0 139 33 253.5t99.5 195.5t165 126t231.5 45q68 0 115 -8t77 -16l19 -117q-25 10 -89.5 25.5t-135.5 15.5q-84 0 -154 -27.5t-122 -81t-83 -132.5t-35 -183q72 10 125.5 14t100.5 4q96 0 180 -20t145.5 -63.5t96 -111t34.5 -163.5q0 -80 -26.5 -147.5 t-73.5 -114.5t-114.5 -73.5t-147.5 -26.5q-121 0 -204 42t-136 120.5t-77 191.5t-24 252zM223 586q2 -98 16.5 -189.5t50.5 -162t99.5 -112.5t165.5 -42q109 0 173.5 72.5t64.5 185.5q0 74 -28 125t-76 83t-111.5 45t-137.5 13q-61 0 -113.5 -5t-103.5 -13z" />
<glyph unicode="7" d="M111 1079v111h747v-148q-129 -141 -207 -278t-120 -267t-55 -251t-13 -228v-18h-115v16q0 104 14.5 225t54.5 253.5t111.5 271.5t188.5 281l53 34v11h-543z" />
<glyph unicode="8" d="M100 297q0 104 60.5 184t152.5 127v8q-86 39 -136 110t-50 159q0 78 30.5 138t85 101t126 62.5t151.5 21.5q78 0 144.5 -21.5t114.5 -61.5t76 -99t28 -133q0 -98 -58.5 -171t-140.5 -110v-8q98 -53 155.5 -124.5t57.5 -172.5q0 -82 -34 -143.5t-91 -101t-131 -60 t-154 -20.5q-84 0 -155.5 21.5t-122.5 61t-80 99t-29 133.5zM219 301q0 -104 75.5 -161.5t192.5 -57.5q55 0 107.5 13.5t91.5 41t62.5 69.5t23.5 97q0 51 -22.5 90t-59.5 69t-87 50t-105 37l-56 16q-92 -37 -157.5 -98t-65.5 -166zM248 901q0 -53 20.5 -90t54 -63.5 t78.5 -44t93 -31.5l53 -17q37 10 76 31t70.5 50.5t52 69.5t20.5 89q0 51 -20.5 90t-55.5 65.5t-81 41t-97 14.5q-49 0 -96 -13.5t-84 -39t-60.5 -63.5t-23.5 -89z" />
<glyph unicode="9" d="M76 846q0 80 28.5 147.5t78.5 114.5t119 73.5t149 26.5q119 0 200.5 -42t133 -120.5t73 -191.5t21.5 -252t-33 -254t-99.5 -195.5t-166 -125.5t-230.5 -45q-68 0 -115 8t-77 16l-19 117q25 -10 89.5 -25.5t136.5 -15.5q82 0 152.5 27.5t122.5 81t83 132t35 183.5 q-72 -10 -125 -14.5t-101 -4.5q-96 0 -180 20.5t-145.5 63.5t-96 111t-34.5 164zM193 852q0 -74 27.5 -125t75.5 -83t111.5 -45t137.5 -13q61 0 113.5 5t103.5 13q-2 98 -14.5 189.5t-46 162t-96.5 112.5t-163 42q-53 0 -99 -19.5t-80 -53t-52 -82t-18 -103.5z" />
<glyph unicode=":" horiz-adv-x="370" d="M125 63q0 37 19.5 58.5t50.5 21.5q33 0 51 -21.5t18 -58.5q0 -82 -69 -81q-31 0 -50.5 21.5t-19.5 59.5zM125 729q0 80 70 80q31 0 50 -20.5t19 -59.5q0 -37 -19.5 -58.5t-49.5 -21.5q-33 0 -51.5 21.5t-18.5 58.5z" />
<glyph unicode=";" horiz-adv-x="368" d="M102 -166l70 168q-25 6 -36 28.5t-11 51.5q0 35 18.5 58.5t53.5 23.5t51 -22.5t16 -59.5q0 -29 -7 -57.5t-26 -63.5l-73 -131zM125 731q0 37 19.5 58.5t50.5 21.5q33 0 51 -21.5t18 -58.5q0 -82 -69 -82q-31 0 -50.5 21.5t-19.5 60.5z" />
<glyph unicode="&#x3c;" d="M190 600l562 442l36 -53l-491 -389l498 -383l-41 -53z" />
<glyph unicode="=" d="M98 410v63h791v-63h-791zM98 680v63h791v-63h-791z" />
<glyph unicode="&#x3e;" d="M190 217l498 383l-491 389l36 53l562 -442l-564 -436z" />
<glyph unicode="?" horiz-adv-x="876" d="M98 1159l27 117q39 10 103.5 24.5t146.5 14.5q90 0 166.5 -23.5t134 -69.5t89.5 -116t32 -160q0 -82 -30 -151.5t-82 -125t-121.5 -96.5t-147.5 -61l-17 -215h-98v293q72 12 138.5 39.5t118.5 70.5t84 102.5t32 135.5q0 135 -84 204.5t-225 69.5q-68 0 -137.5 -15 t-129.5 -38zM274 63q0 37 19.5 58.5t50.5 21.5q33 0 51.5 -21.5t18.5 -58.5q0 -82 -70 -81q-31 0 -50.5 21.5t-19.5 59.5z" />
<glyph unicode="@" horiz-adv-x="1177" d="M82 352q0 137 39 255t111.5 204t173 135t223.5 49q113 0 201 -36.5t149 -103.5t93 -160t32 -208q0 -88 -21.5 -173t-62.5 -152.5t-101.5 -111.5t-138.5 -50l-35 137h-8q-6 -16 -17 -39.5t-32.5 -45t-53.5 -37t-77 -15.5q-49 0 -87 23.5t-63.5 63.5t-39 93t-13.5 113 q0 82 19.5 154.5t58.5 128t96.5 87t135.5 31.5q35 0 70.5 -3t70.5 -7l-12 -109v-387l26 -118q113 41 165 152.5t52 264.5q0 98 -24.5 181.5t-75.5 143.5t-128 93t-181 33q-119 0 -208 -48t-149.5 -129t-90 -188.5t-29.5 -224.5q0 -109 22.5 -215t75.5 -190t141 -136.5 t221 -52.5q111 0 194 23.5t154 56.5v-61q-72 -33 -153.5 -54.5t-196.5 -21.5q-133 0 -231 50t-164 138t-98.5 208t-32.5 259zM420 295q0 -100 32.5 -170t108.5 -70q51 0 84 32t52.5 85t26.5 121.5t7 144.5v195l-20 4t-23.5 3t-28.5 1q-66 0 -110.5 -29.5t-73.5 -78t-42 -111 t-13 -127.5z" />
<glyph unicode="A" horiz-adv-x="1089" d="M35 0l463 1296h176l381 -1296h-156l-8 117l-78 258h-514l-133 -375h-131zM334 477h450l-184 633l-14 80h-11l-18 -80z" />
<glyph unicode="B" horiz-adv-x="1132" d="M162 0l14 119v1177h457q76 0 140.5 -20.5t111.5 -62.5t74.5 -104t27.5 -144q0 -98 -40 -172t-124 -115v-10q98 -47 144.5 -129t46.5 -189q0 -176 -105.5 -263t-277.5 -87h-469zM295 102h303q152 0 224.5 57.5t72.5 192.5q0 121 -73.5 189.5t-219.5 68.5h-307v-508z M295 713h317q125 0 189.5 62t64.5 179t-65.5 178.5t-194.5 61.5h-311v-481z" />
<glyph unicode="C" horiz-adv-x="978" d="M96 596q0 160 35 292t106.5 227t181.5 147.5t257 52.5q53 0 121.5 -11.5t124.5 -29.5l-27 -107q-47 20 -105.5 33.5t-123.5 13.5q-117 0 -202 -47t-140.5 -129t-81 -192.5t-25.5 -237.5q0 -104 22.5 -199.5t69.5 -168t120 -115.5t175 -43q59 0 111.5 16.5t94.5 42 t73.5 55t48.5 54.5l31 -121q-10 -12 -40 -36.5t-76 -49.5t-108.5 -43t-142.5 -18q-121 0 -214 43t-156.5 122.5t-96.5 193.5t-33 255z" />
<glyph unicode="D" horiz-adv-x="1198" d="M162 0l14 119v1177h383q285 0 414 -171t129 -500q0 -145 -36 -261t-104.5 -197t-167 -124t-221.5 -43h-411zM295 102h264q106 0 186 40t132.5 111t78 167t25.5 209q0 274 -97.5 419.5t-314.5 145.5h-274v-1092z" />
<glyph unicode="E" horiz-adv-x="1005" d="M162 0l14 119v1177h762v-102h-643v-477h582v-103h-582v-512h655v-102h-788z" />
<glyph unicode="F" horiz-adv-x="913" d="M162 0l14 119v1177h703v-102h-584v-500h528v-102h-528v-592h-133z" />
<glyph unicode="G" horiz-adv-x="1146" d="M96 600q0 154 36 285t110.5 226t187.5 149.5t266 54.5q98 0 178 -15.5t134 -31.5l-27 -111q-53 23 -124 39t-169 16q-117 0 -206 -43t-147.5 -120.5t-88 -189t-29.5 -247.5q0 -106 21.5 -202.5t70.5 -169t127 -115.5t189 -43q86 0 157.5 20.5t118.5 49.5v411h-307v103 h426v-580q-25 -12 -63.5 -30.5t-91 -35t-118 -27.5t-141.5 -11q-111 0 -204 36.5t-161.5 113.5t-106.5 193.5t-38 274.5z" />
<glyph unicode="H" horiz-adv-x="1210" d="M162 0l14 119v1177h119v-567h623v567h131l-13 -116v-1180h-118v629h-623v-629h-133z" />
<glyph unicode="I" horiz-adv-x="471" d="M162 0l14 119v1177h119v-1296h-133z" />
<glyph unicode="J" horiz-adv-x="649" d="M20 92q18 -4 34 -4h20q135 0 214 72.5t79 208.5v819l-306 14v94h437l-13 -118v-807q0 -98 -30.5 -171t-84 -121t-123 -71.5t-149.5 -23.5q-12 0 -32.5 2t-30.5 4z" />
<glyph unicode="K" horiz-adv-x="1079" d="M162 0l14 121v1175h119v-682h10l37 74l483 608h150l-418 -528l481 -768h-149l-408 666h-8l-178 -230v-436h-133z" />
<glyph unicode="L" horiz-adv-x="886" d="M162 0l14 119v1177h119v-1194h569v-102h-702z" />
<glyph unicode="M" horiz-adv-x="1630" d="M154 0l18 119l64 1177h184l375 -1089l12 -68h10l14 68l408 1089h195l-13 -118l35 -1178h-121l-26 1178h-13l-12 -84l-410 -1094h-122l-383 1098l-15 82h-10l-47 -1180h-143z" />
<glyph unicode="N" horiz-adv-x="1214" d="M162 0l14 113v1183h182l564 -1169h12l-12 84v1085h131l-15 -116v-1180h-184l-559 1169h-12l12 -84v-1085h-133z" />
<glyph unicode="O" horiz-adv-x="1212" d="M96 637q0 154 35 278.5t102.5 214t166 137.5t225.5 48q121 0 213 -47t153.5 -133t93 -207t31.5 -271q0 -154 -36 -277.5t-104.5 -212.5t-167.5 -137t-228 -48q-119 0 -209 45t-151.5 130t-92.5 205.5t-31 274.5zM217 637q0 -109 21.5 -209t66.5 -177t114.5 -123 t168.5 -46q100 0 177 47t128 126t76.5 183.5t25.5 218.5q0 111 -23.5 211.5t-70.5 177t-119 122.5t-168 46q-104 0 -179 -49t-123 -130t-71.5 -184t-23.5 -214z" />
<glyph unicode="P" horiz-adv-x="1083" d="M162 0l14 119v1177h371q102 0 185 -19.5t142.5 -64.5t91 -115.5t31.5 -172.5q0 -100 -33.5 -170t-92 -114t-139.5 -64.5t-175 -20.5h-262v-555h-133zM295 657h256q160 0 243 61t83 208q0 76 -24 127t-67 82.5t-104 45t-137 13.5h-250v-537z" />
<glyph unicode="Q" horiz-adv-x="1212" d="M96 637q0 154 35 278.5t102.5 214t166 137.5t225.5 48q121 0 213 -47t153.5 -133t93 -207t31.5 -271q0 -250 -93 -419.5t-269 -229.5l88 -241h-125l-78 219q-16 -2 -29.5 -3t-29.5 -1q-119 0 -209 45t-151.5 130t-92.5 205.5t-31 274.5zM217 637q0 -109 21.5 -209 t66.5 -177t114.5 -123t168.5 -46h16l-84 235h125l74 -211q68 27 120 81.5t87 127t52 160.5t17 182q0 111 -23.5 211.5t-70.5 177t-119 122.5t-168 46q-104 0 -179 -49t-123 -130t-71.5 -184t-23.5 -214z" />
<glyph unicode="R" horiz-adv-x="1153" d="M162 0l14 119v1177h408q94 0 173 -19.5t134 -62.5t86 -109.5t31 -158.5q0 -133 -62.5 -213t-161.5 -108v-9q33 -16 55.5 -38.5t39 -56.5t31 -81t32.5 -114l90 -326h-131l-94 354q-20 74 -44 118t-58.5 67.5t-84 32t-118.5 8.5h-207v-580h-133zM295 684h283 q145 0 223 67.5t78 186.5q0 123 -72 187.5t-211 64.5h-301v-506z" />
<glyph unicode="S" horiz-adv-x="995" d="M96 23l29 108q20 -8 51 -16.5t68 -15.5t77.5 -11t81.5 -4q61 0 124 15.5t114 45t84 74.5t33 105q0 57 -23.5 99t-65.5 74.5t-98.5 60.5t-121.5 58q-59 29 -117 59t-103 69.5t-72.5 94t-27.5 128.5q0 92 37 157.5t98.5 108.5t143 62.5t174.5 19.5q90 0 163.5 -11.5 t110.5 -19.5l-29 -113q-47 14 -110.5 26.5t-147.5 12.5q-61 0 -117.5 -13t-100.5 -41t-69.5 -72t-25.5 -105q0 -51 21.5 -89t56.5 -66.5t82 -53.5t100 -49q66 -31 131.5 -64.5t118.5 -77.5t86 -104.5t33 -142.5q0 -94 -42 -161t-111.5 -109t-160 -61t-184.5 -19 q-152 0 -291 41z" />
<glyph unicode="T" horiz-adv-x="831" d="M33 1194v102h766v-102h-324v-1194h-133l14 119v1075h-323z" />
<glyph unicode="U" horiz-adv-x="1202" d="M152 1296h131v-852q0 -88 14 -154.5t49 -112.5t93.5 -69.5t144.5 -23.5q178 0 258 93t80 267v738l-9 114h127v-860q0 -225 -118.5 -339.5t-343.5 -114.5q-113 0 -192 28.5t-128 86t-71.5 142.5t-22.5 197v748z" />
<glyph unicode="V" horiz-adv-x="1019" d="M37 1296h133l305 -1089l14 -94h11l14 94l301 973l10 116h158l-414 -1296h-149z" />
<glyph unicode="W" horiz-adv-x="1714" d="M43 1296h133l295 -1169h10v90l250 950v129h227l238 -1075v-90h10l299 1036l6 129h160l-383 -1296h-151l-260 1124l-15 93h-12l-14 -93l-297 -1124h-152z" />
<glyph unicode="X" horiz-adv-x="1107" d="M49 0l416 670l-381 626h145l289 -483l31 -78h10l29 76l227 381l43 104h166l-383 -626l418 -670h-144l-331 530l-27 86h-8l-29 -86l-258 -419l-43 -111h-170z" />
<glyph unicode="Y" horiz-adv-x="972" d="M31 1296h139l289 -616l14 -66h12l15 66l254 506l32 110h156l-403 -798v-498h-119v498z" />
<glyph unicode="Z" horiz-adv-x="954" d="M55 0v143l672 998l59 43l-2 10h-710v102h807v-141l-672 -997l-49 -45l2 -11h614l123 17v-119h-844z" />
<glyph unicode="[" horiz-adv-x="479" d="M172 -211v1401h244v-62h-176v-1278h176v-61h-244z" />
<glyph unicode="\" horiz-adv-x="622" d="M29 1190h71l496 -1190h-74z" />
<glyph unicode="]" horiz-adv-x="479" d="M63 -150h177v1278h-177v62h244v-1401h-244v61z" />
<glyph unicode="^" d="M53 362l443 644l436 -646l-55 -41l-381 578l-385 -573z" />
<glyph unicode="_" horiz-adv-x="1120" d="M0 -295h1120v-63h-1120v63z" />
<glyph unicode="`" horiz-adv-x="1036" d="M319 1272l64 114l334 -221l-41 -45z" />
<glyph unicode="a" horiz-adv-x="972" d="M68 262q0 98 39.5 162.5t106.5 101.5t155 51.5t186 14.5h141q0 78 -12 136t-43 96t-82 57.5t-129 19.5q-80 0 -156.5 -15.5t-138.5 -37.5l25 115q47 10 121.5 21t144.5 11q193 0 288 -90t95 -293v-495l14 -117h-96l-33 147h-8q-51 -78 -130 -121.5t-189 -43.5 q-137 0 -218 74.5t-81 205.5zM180 266q0 -90 53.5 -141t141.5 -51q86 0 146.5 29.5t98 85t56 134t20.5 175.5h-114q-78 0 -151 -7.5t-128 -32t-89 -70.5t-34 -122z" />
<glyph unicode="b" horiz-adv-x="1003" d="M147 4l13 111v1267h112v-555h9q6 10 25.5 38t55 56.5t90 51t130.5 22.5q86 0 150.5 -30.5t107.5 -88t65.5 -136t22.5 -173.5q0 -281 -134 -433t-415 -152q-55 0 -123 7t-109 15zM270 269.5q0 -27.5 1 -60.5t2 -64.5t1 -52.5q16 -4 51 -10t70 -6q113 0 193 35.5t130 100 t72.5 154t22.5 195.5q0 66 -13.5 127.5t-42 108.5t-74.5 75.5t-112 28.5q-84 0 -141 -43t-93 -121t-51.5 -186.5t-15.5 -239.5v-41.5z" />
<glyph unicode="c" horiz-adv-x="808" d="M76 459q0 117 30.5 215t91 169.5t148.5 111.5t205 40q66 0 118 -9t105 -19l-22 -105q-39 14 -94.5 26.5t-112.5 12.5q-92 0 -160 -35t-112 -94t-64.5 -141t-20.5 -174q0 -74 19.5 -142.5t58.5 -122t94.5 -86t128.5 -32.5q102 0 171 38t110 83l27 -107q-6 -6 -31 -23.5 t-63.5 -36t-93 -32.5t-117.5 -14q-98 0 -175 33.5t-131.5 96t-82 150.5t-27.5 197z" />
<glyph unicode="d" horiz-adv-x="1003" d="M76 412q0 279 140 431t419 152h96v387h123l-10 -114v-1268h-82l-35 150h-8q-6 -10 -24.5 -37t-55.5 -56.5t-93.5 -52t-133.5 -22.5q-82 0 -144.5 32.5t-105.5 90t-64.5 136t-21.5 171.5zM193 418q0 -63 12 -125t39.5 -110t71.5 -77.5t108 -29.5q92 0 151.5 44t95.5 123 t50 187.5t14 237.5v42.5t-1 61.5t-2 64.5t-1 54.5q-16 2 -35 4q-16 2 -36.5 4t-43.5 2q-111 0 -191.5 -35t-131.5 -98t-75.5 -152.5t-24.5 -197.5z" />
<glyph unicode="e" horiz-adv-x="931" d="M76 467q0 111 28.5 207t83 167.5t133.5 112.5t181 41t171.5 -34.5t111.5 -95t60.5 -143.5t18.5 -181v-74h-555l-119 -12q0 -186 89.5 -281.5t269.5 -95.5q41 0 82 7t77.5 16.5t66.5 19.5t50 18l-22 -114q-35 -10 -105.5 -26.5t-160.5 -16.5q-231 0 -346 124.5t-115 360.5 zM193 561h544l11 10q0 150 -56.5 240t-187.5 90q-129 0 -210 -90t-101 -250z" />
<glyph unicode="f" horiz-adv-x="538" d="M33 883v78l143 16v143q0 129 77 205t206 76q12 0 29.5 -1t29.5 -3l14 -99q-12 2 -22 3.5t-25 1.5q-98 0 -150 -42t-52 -141q0 -29 2 -53.5t6 -44.5q4 -23 10 -45h195v-94h-207v-883h-125l12 117v766h-143z" />
<glyph unicode="g" horiz-adv-x="1036" d="M111 -113q0 106 80.5 174t214.5 111v123q-125 27 -200 104.5t-75 218.5q0 178 109.5 277.5t324.5 99.5q45 0 100.5 -2t110.5 -6t104.5 -8t86.5 -6v-86l-146 -13v-10q25 -37 50.5 -93t25.5 -146q0 -76 -26.5 -138.5t-76 -106.5t-118 -68.5t-152.5 -24.5v-92l140 -43 q123 -37 192.5 -95.5t69.5 -156.5q0 -68 -37 -116t-96.5 -80t-134 -47t-152.5 -15q-80 0 -151.5 14t-126 45t-86 77t-31.5 109zM231 -96q0 -41 21.5 -72t58.5 -51.5t87.5 -30.5t107.5 -10t111.5 10t95.5 31.5t66.5 51.5t25.5 71q0 59 -49 95t-148 64l-176 54 q-201 -92 -201 -213zM250 618q0 -102 63.5 -170.5t198.5 -68.5q49 0 96 12t86 41t62.5 76t23.5 117q0 274 -256 274q-141 0 -207.5 -73.5t-66.5 -207.5z" />
<glyph unicode="h" horiz-adv-x="1032" d="M162 0v1382h125l-13 -116v-430h9q39 66 113.5 112.5t178.5 46.5q156 0 232 -89t76 -244v-662h-113v670q0 104 -49 167.5t-152 63.5q-82 0 -138 -33.5t-91 -91t-50.5 -131.5t-15.5 -156v-489h-112z" />
<glyph unicode="i" horiz-adv-x="436" d="M117 1298l104 103l103 -103l-103 -108zM150 0l12 117v860h112v-977h-124z" />
<glyph unicode="j" horiz-adv-x="468" d="M-27 -258q12 -2 31 -3t29 -1q86 0 126 48t40 138v950l-181 15v88h304l-11 -117v-934q0 -135 -64.5 -211.5t-191.5 -76.5q-10 0 -29.5 1t-27.5 3zM150 1298l104 103l102 -103l-102 -108z" />
<glyph unicode="k" horiz-adv-x="929" d="M158 0l10 115v1267h113v-880l10 -2l31 53l399 424h149l-329 -350l379 -627h-138l-315 545h-8l-178 -191v-354h-123z" />
<glyph unicode="l" horiz-adv-x="436" d="M150 0l12 117v1265h112v-1382h-124z" />
<glyph unicode="m" horiz-adv-x="1576" d="M150 977h100l31 -137h10q35 63 105.5 109t174.5 46q102 0 170 -46t93 -115h8q45 68 115.5 114.5t181.5 46.5q135 0 211.5 -73.5t76.5 -221.5v-700h-112v674q0 111 -43 169t-146 58q-72 0 -124 -29.5t-85.5 -84t-49 -130t-15.5 -168.5v-489h-113v674q0 106 -41 166.5 t-147 60.5q-72 0 -124 -29.5t-86 -84t-49.5 -130t-15.5 -168.5v-489h-112v858z" />
<glyph unicode="n" horiz-adv-x="1032" d="M150 977h100l29 -141h8q39 66 112.5 112.5t178.5 46.5q156 0 230.5 -89t74.5 -244v-662h-113v670q0 104 -48 167.5t-151 63.5q-82 0 -138 -33.5t-91 -91t-50.5 -131.5t-15.5 -156v-489h-112v856z" />
<glyph unicode="o" horiz-adv-x="978" d="M76 477q0 113 28.5 208t84 164t135 107.5t182.5 38.5q102 0 177 -35.5t124 -100t72.5 -157t23.5 -204.5q0 -113 -29.5 -208t-85 -164t-135.5 -106.5t-182 -37.5t-177 34.5t-123 99t-71.5 157t-23.5 204.5zM188 477q0 -82 14.5 -154.5t48.5 -128t88 -87t136 -31.5 t142.5 33.5t98.5 91t56.5 134.5t18.5 163q0 82 -15.5 154.5t-50.5 128t-90 88t-137 32.5q-84 0 -142.5 -33.5t-95.5 -91t-54.5 -135.5t-17.5 -164z" />
<glyph unicode="p" horiz-adv-x="1005" d="M152 -340l12 115v1202h86l33 -150h10q4 8 22.5 36t53 57.5t88 52t131.5 22.5q82 0 145.5 -30.5t107.5 -86t67.5 -132t23.5 -166.5q0 -283 -138.5 -431.5t-420.5 -148.5h-97v-340h-124zM272 269.5q0 -25.5 1 -55.5t2 -59.5t1 -50.5q16 -4 35 -6q16 -2 37 -3t43 -1 q111 0 192 34t132 97.5t75.5 151.5t24.5 196q0 63 -14.5 122t-43 105t-73.5 73.5t-109 27.5q-92 0 -150 -47t-92 -128t-47.5 -188.5t-13.5 -228.5v-39.5z" />
<glyph unicode="q" horiz-adv-x="1003" d="M76 395q0 139 33.5 251t101.5 189.5t171.5 118.5t242.5 41q55 0 115.5 -5t117.5 -13l-14 -111v-1208h-113v492h-8q-6 -10 -25.5 -38t-55.5 -56.5t-90 -51t-130 -22.5q-166 0 -256 113.5t-90 299.5zM190 401q0 -66 13.5 -125t42 -103t75 -70.5t111.5 -26.5q84 0 141.5 43 t93 120.5t51 186.5t15.5 240v42.5t-1 62.5t-2 65.5t-1 54.5q-16 2 -37 4q-16 2 -38.5 4t-45.5 2q-115 0 -193.5 -38t-128.5 -105.5t-73 -158.5t-23 -198z" />
<glyph unicode="r" horiz-adv-x="649" d="M150 977h100l29 -141h8q59 96 145 127.5t189 31.5l18 -121q-16 4 -38.5 5.5t-37.5 1.5q-84 0 -138 -30t-88 -83t-47.5 -125t-13.5 -154v-489h-112v856z" />
<glyph unicode="s" horiz-adv-x="827" d="M80 27l26 104q57 -23 125 -38t136 -15q51 0 98 8t84 28.5t59.5 51.5t22.5 78q0 37 -19.5 64.5t-54.5 52t-81 47t-99 47.5q-51 25 -101.5 49t-89.5 56t-63.5 73t-24.5 96q0 74 33 125t87 83t124 45t145 13q47 0 111 -6t115 -18l-25 -105q-39 10 -97.5 20.5t-121.5 10.5 q-47 0 -92 -8t-81 -26.5t-58.5 -48.5t-22.5 -73q0 -39 19.5 -65.5t51 -47t71.5 -38t81 -35.5q59 -27 114.5 -55.5t98.5 -63.5t70 -79t27 -101q0 -72 -30 -123t-81 -85t-122 -50t-153 -16q-86 0 -162.5 14t-119.5 31z" />
<glyph unicode="t" horiz-adv-x="538" d="M33 883v82l135 16l18 213l103 102v-319h221v-94h-221v-600q0 -109 46 -157t154 -48q8 0 24.5 1t21.5 3l-21 -96q-10 -2 -24.5 -3t-30.5 -1q-137 0 -210 67.5t-73 214.5v619h-143z" />
<glyph unicode="u" horiz-adv-x="1032" d="M152 315v662h112v-670q0 -104 48 -167.5t151 -63.5q82 0 138 33.5t91 90t50.5 131.5t15.5 156v490h112v-856l15 -121h-101l-28 139h-8q-39 -66 -113 -111.5t-178 -45.5q-156 0 -230.5 89t-74.5 244z" />
<glyph unicode="v" horiz-adv-x="868" d="M27 977h125l243 -744l17 -81h8l20 79l234 627l26 119h142l-373 -977h-107z" />
<glyph unicode="w" horiz-adv-x="1503" d="M45 977h129l248 -823h10v57l232 659l12 107h133l242 -766v-57h8l244 714l16 109h139l-346 -977h-106l-238 774l-12 74h-8l-15 -74l-262 -774h-106z" />
<glyph unicode="x" horiz-adv-x="915" d="M39 0l352 512l-328 465h138l223 -324l33 -61h10l33 61l153 217l56 107h149l-326 -465l345 -512h-134l-247 371l-29 61h-10l-29 -61l-180 -258l-53 -113h-156z" />
<glyph unicode="y" horiz-adv-x="872" d="M27 977h125l251 -744l19 -83h8l19 81l229 629l18 117h150l-385 -1020q-31 -84 -59.5 -143.5t-63.5 -97.5t-83 -55t-118 -17q-14 0 -33.5 1t-29.5 3l-17 96q12 -2 28.5 -3t27.5 -1q59 0 96 14.5t63.5 44t46 75.5t41.5 108l9 24z" />
<glyph unicode="z" horiz-adv-x="790" d="M51 0v111l516 718l49 43l-2 9h-551v96h660v-115l-514 -712l-53 -46l4 -8h461l118 13v-109h-688z" />
<glyph unicode="{" horiz-adv-x="473" d="M78 485v9l69 73q27 29 33 49.5t6 51.5v395q0 59 39 93t97 34h88v-60h-68q-51 0 -69.5 -22.5t-18.5 -67.5v-372q0 -41 -4 -62.5t-33 -52.5l-59 -64l59 -63q29 -31 33 -52.5t4 -62.5v-372q0 -45 18.5 -68t69.5 -23h68v-59h-88q-57 0 -96.5 34t-39.5 93v395q0 31 -5 51.5 t-34 49.5z" />
<glyph unicode="|" horiz-adv-x="387" d="M158 -264v1454h67v-1454h-67z" />
<glyph unicode="}" horiz-adv-x="473" d="M63 -152h68q51 0 69.5 23t18.5 68v372q0 41 4 62.5t33 52.5l59 63l-59 64q-29 31 -33 52.5t-4 62.5v372q0 45 -18.5 67.5t-69.5 22.5h-68v60h89q57 0 96 -34t39 -93v-395q0 -31 6 -51.5t33 -49.5l69 -73v-9l-69 -73q-29 -29 -34 -49.5t-5 -51.5v-395q0 -59 -39 -93 t-96 -34h-89v59z" />
<glyph unicode="~" d="M117 559v68q25 14 53 26q25 10 57.5 18.5t73.5 8.5q49 0 98.5 -15.5t98.5 -33t98 -32.5t96 -15q41 0 90 14t86 37v-68q-25 -16 -53 -26q-25 -10 -58.5 -17.5t-72.5 -7.5q-49 0 -98 15.5t-99.5 33t-99.5 32.5t-98 15q-41 0 -89 -15t-83 -38z" />
<glyph unicode="&#xa1;" horiz-adv-x="481" d="M131 -319l53 999h103l-37 -999h-119zM174 913q0 82 70 82q31 0 50 -21.5t19 -60.5q0 -37 -19.5 -58t-49.5 -21q-33 0 -51.5 21t-18.5 58z" />
<glyph unicode="&#xa2;" d="M152 496q0 121 25.5 225t75.5 182t127 128t181 65v200h68v-194h20q31 0 66 -4t67.5 -10.5t59 -12.5t39.5 -10l-25 -100q-39 16 -100.5 29.5t-114.5 13.5q-98 0 -170 -38t-117 -104.5t-66.5 -159t-21.5 -200.5q0 -86 20.5 -165t60.5 -137.5t100.5 -93t142.5 -34.5 q51 0 96 12t81 30.5t62.5 40t40.5 40.5l29 -109q-8 -8 -28.5 -24.5t-55.5 -34t-84 -31.5t-110 -18v-195h-68v195q-190 10 -295.5 147t-105.5 367z" />
<glyph unicode="&#xa3;" d="M100 524l11 64h151v157q0 188 98.5 272.5t294.5 84.5q80 0 141.5 -9.5t94.5 -15.5l-25 -98q-43 10 -94 18.5t-115 8.5q-141 0 -210.5 -56.5t-69.5 -197.5v-164h452l-8 -64h-444v-430h385l143 15v-109h-780l6 78l131 24v422h-162z" />
<glyph unicode="&#xa4;" d="M131 905l39 41l121 -121q43 37 95 54.5t106 17.5q49 0 103 -17.5t95 -52.5l125 125l39 -39l-127 -122q35 -41 53.5 -93.5t18.5 -105.5q0 -51 -17.5 -102.5t-52.5 -92.5l115 -121l-43 -40l-113 118q-41 -35 -93 -52t-103 -17t-104.5 17t-94.5 52l-113 -116l-43 43l117 116 q-35 43 -52.5 92.5t-17.5 102.5q0 49 17.5 102.5t52.5 93.5zM252 594q0 -49 18.5 -93t50 -78t75.5 -53.5t96 -19.5q51 0 95 19.5t76.5 52.5t51 78t18.5 94t-19.5 93t-52 76t-76.5 50t-93 18t-93.5 -18t-77 -50t-51 -76t-18.5 -93z" />
<glyph unicode="&#xa5;" d="M88 369l8 63h332l-113 215h-227l8 64h187l-191 372h125l252 -503l20 -58h11l18 60l201 395l39 106h137l-193 -372h187l-12 -64h-207l-109 -215h328l-12 -63h-324v-369h-117v369h-348z" />
<glyph unicode="&#xa6;" horiz-adv-x="387" d="M158 -264v612h67v-612h-67zM158 580v610h67v-610h-67z" />
<glyph unicode="&#xa7;" horiz-adv-x="759" d="M82 537q0 84 46 151.5t105 116.5q-43 35 -64.5 81t-21.5 93q0 57 25 101t67 72t96 42t116 14q51 0 100 -6t72 -10l-15 -53q-25 6 -73 12t-89 6q-47 0 -88 -10t-73.5 -30.5t-51 -54.5t-18.5 -79q0 -37 11.5 -64.5t36 -52t62.5 -49t91 -57.5t99 -65.5t80 -68.5t52.5 -79 t18.5 -98q0 -86 -45.5 -155t-104.5 -118q84 -72 84 -174q0 -59 -24.5 -102t-65.5 -71t-95.5 -42t-115.5 -14q-53 0 -98 6t-76 14l14 53q33 -10 77 -16t85 -6q45 0 87 10t75 30.5t51 53.5t18 80q0 37 -12 64.5t-36.5 52t-62.5 49t-89 57.5q-53 33 -99.5 64.5t-80 68.5t-52 81 t-18.5 102zM145 539q0 -41 11.5 -75t38 -64.5t70.5 -62.5t108 -71l98 -59q59 51 95 109.5t36 129.5q0 39 -10 71t-36 61.5t-69 60.5t-106 72l-105 63q-59 -51 -95 -107.5t-36 -127.5z" />
<glyph unicode="&#xa8;" horiz-adv-x="1036" d="M369 1153v231h98v-231h-98zM567 1153v231h101v-231h-101z" />
<glyph unicode="&#xa9;" horiz-adv-x="1105" d="M57 899q0 104 39 195.5t106.5 159t158 106.5t192.5 39t192.5 -39t158 -106.5t106.5 -158.5t39 -196q0 -104 -39 -194.5t-106.5 -158t-158 -106.5t-192.5 -39t-192.5 39t-158 106.5t-106.5 158t-39 194.5zM121 899q0 -90 33.5 -170t92 -139.5t137.5 -93t169 -33.5 t169 33.5t137.5 93t92 139.5t33.5 170t-33.5 170t-92 139.5t-137.5 93t-169 33.5t-169 -33.5t-137.5 -93t-92 -139.5t-33.5 -170zM346 872q0 141 65.5 224.5t192.5 83.5q23 0 53.5 -4.5t59.5 -14.5l-17 -57q-20 8 -43.5 14t-56.5 6q-100 0 -144 -68.5t-44 -176.5 q0 -41 9 -79t27.5 -66.5t48 -46t70.5 -17.5q53 0 90 21.5t52 39.5l16 -63q-8 -8 -49 -31t-113 -23q-98 0 -157.5 70t-59.5 188z" />
<glyph unicode="&#xaa;" horiz-adv-x="561" d="M33 756q0 59 23.5 98t64.5 61.5t94 31.5t113 9h86q0 94 -34 140.5t-128 46.5q-47 0 -94 -9.5t-84 -23.5l14 70q29 8 75 14t87 6q117 0 174 -54t57 -177v-301l11 -72h-60l-20 90h-9q-31 -47 -76.5 -74.5t-113.5 -27.5q-82 0 -131 47t-49 125zM100 758q0 -53 33 -86t86 -33 q104 0 148.5 70.5t46.5 189.5h-70q-47 0 -91 -5t-78 -19.5t-54.5 -43t-20.5 -73.5z" />
<glyph unicode="&#xab;" horiz-adv-x="1036" d="M119 553l399 434l47 -47l-354 -387l356 -391l-53 -47zM489 553l398 432l51 -47l-356 -385l356 -393l-49 -47z" />
<glyph unicode="&#xac;" d="M94 705v65h746v-350h-68v285h-678z" />
<glyph unicode="&#xad;" horiz-adv-x="702" d="M137 461v61h428v-61h-428z" />
<glyph unicode="&#xae;" horiz-adv-x="1105" d="M57 899q0 104 39 195.5t106.5 159t158 106.5t192.5 39t192.5 -39t158 -106.5t106.5 -158.5t39 -196q0 -104 -39 -194.5t-106.5 -158t-158 -106.5t-192.5 -39t-192.5 39t-158 106.5t-106.5 158t-39 194.5zM121 899q0 -90 33.5 -170t92 -139.5t137.5 -93t169 -33.5 t169 33.5t137.5 93t92 139.5t33.5 170t-33.5 170t-92 139.5t-137.5 93t-169 33.5t-169 -33.5t-137.5 -93t-92 -139.5t-33.5 -170zM379 629l6 49v491h186q78 0 127.5 -34.5t49.5 -112.5q0 -59 -25 -89t-66 -46v-8q27 -16 37.5 -37t26.5 -76l39 -137h-72l-37 147 q-14 55 -40.5 69.5t-86.5 14.5h-73v-231h-72zM451 918h110q117 0 117 100t-111 100h-116v-200z" />
<glyph unicode="&#xaf;" horiz-adv-x="1036" d="M268 1253v97h498v-97h-498z" />
<glyph unicode="&#xb0;" horiz-adv-x="507" d="M33 930q0 121 59.5 195.5t169.5 74.5q111 0 162 -74.5t51 -195.5q0 -123 -60 -197t-171 -74t-161 74t-50 197zM100 930q0 -41 8.5 -80t25 -68.5t44 -47t68.5 -17.5q84 0 123 62.5t39 150.5q0 39 -8.5 78t-26 67.5t-46 47t-69.5 18.5q-84 0 -121 -62.5t-37 -148.5z M176 532l72 74l69 -74l-69 -75z" />
<glyph unicode="&#xb1;" d="M92 0v63h803v-63h-803zM96 653v64h361v358h67v-358h371v-64h-371v-377h-67v377h-361z" />
<glyph unicode="&#xb2;" horiz-adv-x="516" d="M57 594v82q80 53 139.5 95t98.5 80t58.5 75t19.5 78q0 66 -45 102.5t-129 36.5q-37 0 -75 -6.5t-65 -16.5l15 66q18 4 41 8q18 4 40.5 6t49.5 2q47 0 90 -13t74.5 -38t50 -61.5t18.5 -85.5t-16 -89.5t-52 -79t-94.5 -81.5t-140.5 -99v-8h283l63 8v-61h-424z" />
<glyph unicode="&#xb3;" horiz-adv-x="526" d="M53 662q25 -6 51 -13q23 -4 50.5 -8t52.5 -4q37 0 71.5 5t60.5 18.5t42 35t16 54.5q0 35 -16 58t-42 36.5t-59.5 19.5t-66.5 6h-78v50h76q66 0 117 23.5t51 88.5q0 61 -46 88t-116 27q-31 0 -67.5 -7t-73.5 -18l18 64q20 6 52 10t71 4q45 0 87 -9t73 -28.5t49 -50.5 t18 -76q0 -96 -90 -137v-8q51 -16 80 -53t29 -95q0 -45 -21.5 -75.5t-57.5 -50t-81 -27.5t-92 -8q-43 0 -86 7t-59 11z" />
<glyph unicode="&#xb4;" horiz-adv-x="1036" d="M319 1165l334 221l64 -114l-357 -152z" />
<glyph unicode="&#xb6;" horiz-adv-x="950" d="M94 829q0 147 96.5 232.5t260.5 85.5h432v-49l-121 -15v-1441h-68v1443h-182v-1443h-80l12 84v770q-180 0 -265 84t-85 249z" />
<glyph unicode="&#xb7;" horiz-adv-x="393" d="M127 575q0 37 19.5 58.5t50.5 21.5q33 0 51 -21.5t18 -58.5q0 -82 -69 -81q-31 0 -50.5 21.5t-19.5 59.5z" />
<glyph unicode="&#xb8;" horiz-adv-x="1036" d="M354 -342l13 68q16 -4 43.5 -9.5t62.5 -5.5q45 0 73.5 15.5t28.5 50.5q0 29 -23.5 43t-62.5 14q-14 0 -30.5 -1t-26.5 -3l23 170h71v-98q55 0 105.5 -30t50.5 -93q0 -35 -17.5 -61.5t-46 -43t-65.5 -24.5t-74 -8q-43 0 -75.5 6t-49.5 10z" />
<glyph unicode="&#xb9;" horiz-adv-x="503" d="M68 1065q47 12 95 43t87 82h76l-19 -543h152v-51h-379v51h166l12 467h-8l-19 -33q-35 -29 -72.5 -47t-78.5 -33z" />
<glyph unicode="&#xba;" horiz-adv-x="565" d="M31 887q0 137 68.5 225t193.5 88q123 0 181 -82t58 -221q0 -135 -69.5 -223t-192.5 -88q-125 0 -182 82t-57 219zM106 887q0 -47 8.5 -89t29 -75t52 -52.5t78.5 -19.5q45 0 80 20.5t56.5 54.5t33 78t11.5 93q0 47 -9.5 90t-29 76t-52 52.5t-77.5 19.5q-47 0 -81 -20.5 t-56.5 -54.5t-33 -79t-10.5 -94z" />
<glyph unicode="&#xbb;" horiz-adv-x="1036" d="M96 160l357 393l-357 385l51 47l398 -432l-400 -440zM467 162l356 391l-354 387l47 47l399 -434l-395 -438z" />
<glyph unicode="&#xbc;" horiz-adv-x="1142" d="M68 1065q47 12 95 43t87 82h76l-19 -543h152v-51h-379v51h166l12 467h-8l-19 -33q-35 -29 -72.5 -47t-78.5 -33zM180 0l707 1190h69l-706 -1190h-70zM610 125v68l283 401h90v-414h72v-55h-72v-125h-61v125h-312zM662 180h258v330l12 33h-8l-238 -340l-24 -15v-8z" />
<glyph unicode="&#xbd;" horiz-adv-x="1138" d="M68 1065q47 12 95 43t87 82h76l-19 -543h152v-51h-379v51h166l12 467h-8l-19 -33q-35 -29 -72.5 -47t-78.5 -33zM180 0l707 1190h69l-706 -1190h-70zM659 0v82q80 53 139.5 95t98.5 80t58.5 75t19.5 78q0 66 -45 102.5t-129 36.5q-37 0 -75 -6t-64 -17l14 66q18 4 41 8 q18 4 40.5 6t49.5 2q47 0 90 -13t75 -38t50 -61.5t18 -85.5t-16 -89t-52 -79t-94.5 -82t-140.5 -99v-8h283l63 8v-61h-424z" />
<glyph unicode="&#xbe;" horiz-adv-x="1126" d="M53 662q25 -6 51 -13q23 -4 50.5 -8t52.5 -4q37 0 71.5 5t60.5 18.5t42 35t16 54.5q0 35 -16 58t-42 36.5t-59.5 19.5t-66.5 6h-78v50h76q66 0 117 23.5t51 88.5q0 61 -46 88t-116 27q-31 0 -67.5 -7t-73.5 -18l18 64q20 6 52 10t71 4q45 0 87 -9t73 -28.5t49 -50.5 t18 -76q0 -96 -90 -137v-8q51 -16 80 -53t29 -95q0 -45 -21.5 -75.5t-57.5 -50t-81 -27.5t-92 -8q-43 0 -86 7t-59 11zM180 0l707 1190h69l-706 -1190h-70zM590 125v68l282 401h91v-414h71v-55h-71v-125h-62v125h-311zM641 180h258v330l12 33h-8l-237 -340l-25 -15v-8z" />
<glyph unicode="&#xbf;" horiz-adv-x="876" d="M80 8q0 82 29.5 151.5t82 125t122 95.5t147.5 62l16 238h98v-315q-72 -12 -138 -40t-118.5 -71t-84 -102.5t-31.5 -135.5q0 -135 84 -204.5t225 -69.5q68 0 137.5 15.5t128.5 37.5l-26 -117q-39 -10 -103.5 -24t-146.5 -14q-90 0 -167 23.5t-134.5 69.5t-89 115.5 t-31.5 159.5zM463 913q0 82 69 82q31 0 50.5 -21.5t19.5 -60.5q0 -37 -19.5 -58t-50.5 -21q-33 0 -51 21t-18 58z" />
<glyph unicode="&#xc0;" horiz-adv-x="1089" d="M35 0l463 1296h176l381 -1296h-156l-8 117l-78 258h-514l-133 -375h-131zM334 477h450l-184 633l-14 80h-11l-18 -80zM379 1550l63 115l334 -221l-41 -45z" />
<glyph unicode="&#xc1;" horiz-adv-x="1089" d="M35 0l463 1296h176l381 -1296h-156l-8 117l-78 258h-514l-133 -375h-131zM334 477h450l-184 633l-14 80h-11l-18 -80zM383 1444l334 221l63 -115l-356 -151z" />
<glyph unicode="&#xc2;" horiz-adv-x="1089" d="M35 0l463 1296h176l381 -1296h-156l-8 117l-78 258h-514l-133 -375h-131zM305 1450l215 188q18 16 34.5 18.5t23.5 2.5q6 0 22 -2t35 -19l215 -188l-41 -45l-231 131l-232 -131zM334 477h450l-184 633l-14 80h-11l-18 -80z" />
<glyph unicode="&#xc3;" horiz-adv-x="1089" d="M35 0l463 1296h176l381 -1296h-156l-8 117l-78 258h-514l-133 -375h-131zM307 1507l15 84q23 12 45 23q20 8 45.5 15t54.5 7q66 0 133.5 -20.5t144.5 -20.5q49 0 109 27l-14 -84q-20 -14 -43 -22q-20 -10 -45 -16.5t-54 -6.5q-70 0 -138 20.5t-142 20.5q-25 0 -50.5 -7 t-60.5 -20zM334 477h450l-184 633l-14 80h-11l-18 -80z" />
<glyph unicode="&#xc4;" horiz-adv-x="1089" d="M35 0l463 1296h176l381 -1296h-156l-8 117l-78 258h-514l-133 -375h-131zM334 477h450l-184 633l-14 80h-11l-18 -80zM432 1430v231h98v-231h-98zM631 1430v231h100v-231h-100z" />
<glyph unicode="&#xc5;" horiz-adv-x="1089" d="M35 0l463 1296h176l381 -1296h-156l-8 117l-78 258h-514l-133 -375h-131zM334 477h450l-184 633l-14 80h-11l-18 -80zM381 1526q0 43 16.5 74.5t44 52t63.5 31t75 10.5q37 0 72.5 -10.5t63 -31t44 -52t16.5 -74.5t-17.5 -73t-45 -50.5t-63.5 -29.5t-72 -9q-39 0 -74 9 t-62.5 29.5t-44 50.5t-16.5 73zM481 1526q0 -47 29 -65.5t70 -18.5t69.5 18.5t28.5 65.5t-28.5 68.5t-69.5 21.5t-70 -21.5t-29 -68.5z" />
<glyph unicode="&#xc6;" horiz-adv-x="1622" d="M35 0l434 1296h989l6 -102h-592l43 -477h537l10 -103h-538l41 -512h612l10 -102h-745v111l-17 243h-544l-115 -354h-131zM315 457h500l-59 737h-207z" />
<glyph unicode="&#xc7;" horiz-adv-x="978" d="M96 596q0 160 35 292t106.5 227t181 147.5t257.5 52.5q53 0 121.5 -11.5t124.5 -29.5l-27 -107q-47 20 -105.5 33.5t-123.5 13.5q-117 0 -202 -47t-140.5 -129t-81 -192.5t-25.5 -237.5q0 -104 22.5 -199.5t69.5 -168t120 -115.5t175 -43q59 0 111.5 16.5t94.5 42 t73.5 55t48.5 54.5l31 -121q-10 -12 -40 -36.5t-76 -49.5t-108.5 -43t-142.5 -18h-12v-80q55 0 105 -30t50 -93q0 -35 -17 -61.5t-46 -43t-66 -24.5t-73 -8q-43 0 -76 6t-49 10l12 68q16 -4 44 -9.5t62 -5.5q45 0 74 15.5t29 50.5q0 29 -23.5 43t-62.5 14q-14 0 -30.5 -1 t-27.5 -3l21 158q-201 29 -307.5 189.5t-106.5 418.5z" />
<glyph unicode="&#xc8;" horiz-adv-x="1005" d="M162 0l14 119v1177h762v-102h-643v-477h582v-103h-582v-512h655v-102h-788zM365 1550l63 115l334 -221l-41 -45z" />
<glyph unicode="&#xc9;" horiz-adv-x="1005" d="M162 0l14 119v1177h762v-102h-643v-477h582v-103h-582v-512h655v-102h-788zM393 1444l334 221l64 -115l-357 -151z" />
<glyph unicode="&#xca;" horiz-adv-x="1005" d="M162 0l14 119v1177h762v-102h-643v-477h582v-103h-582v-512h655v-102h-788zM299 1450l215 188q18 16 34.5 18.5t22.5 2.5t22.5 -2t35.5 -19l215 -188l-41 -45l-232 131l-231 -131z" />
<glyph unicode="&#xcb;" horiz-adv-x="1005" d="M162 0l14 119v1177h762v-102h-643v-477h582v-103h-582v-512h655v-102h-788zM418 1434v231h98v-231h-98zM616 1434v231h101v-231h-101z" />
<glyph unicode="&#xcc;" horiz-adv-x="471" d="M33 1552l63 115l334 -221l-41 -45zM162 0l14 119v1177h119v-1296h-133z" />
<glyph unicode="&#xcd;" horiz-adv-x="471" d="M27 1446l333 221l64 -115l-356 -151zM162 0l14 119v1177h119v-1296h-133z" />
<glyph unicode="&#xce;" horiz-adv-x="471" d="M-35 1452l215 188q18 16 34.5 18.5t23.5 2.5q6 0 22 -2t35 -19l215 -188l-41 -45l-231 131l-232 -131zM162 0l14 119v1177h119v-1296h-133z" />
<glyph unicode="&#xcf;" horiz-adv-x="471" d="M82 1434v231h98v-231h-98zM162 0l14 119v1177h119v-1296h-133zM281 1434v231h100v-231h-100z" />
<glyph unicode="&#xd0;" horiz-adv-x="1198" d="M25 637l151 31v628h383q285 0 414 -171t129 -500q0 -145 -36 -261t-104.5 -197t-167 -124t-221.5 -43h-411l14 119v454l-133 -28zM295 102h264q106 0 186 40t132.5 111t78 167t25.5 209q0 274 -97.5 419.5t-314.5 145.5h-274v-502l264 56l16 -91l-280 -59v-496z" />
<glyph unicode="&#xd1;" horiz-adv-x="1214" d="M162 0l14 113v1183h182l564 -1169h12l-12 84v1085h131l-15 -116v-1180h-184l-559 1169h-12l12 -84v-1085h-133zM348 1516l14 83q23 12 46 23q20 8 45.5 15.5t54.5 7.5q66 0 133.5 -20.5t144.5 -20.5q49 0 109 26l-14 -84q-20 -14 -43 -22q-20 -10 -45 -16.5t-54 -6.5 q-70 0 -138.5 20.5t-141.5 20.5q-25 0 -50.5 -7t-60.5 -19z" />
<glyph unicode="&#xd2;" horiz-adv-x="1212" d="M96 637q0 154 35 278.5t102.5 214t166 137.5t225.5 48q121 0 213 -47t153.5 -133t93 -207t31.5 -271q0 -154 -36 -277.5t-104.5 -212.5t-167.5 -137t-228 -48q-119 0 -209 45t-151.5 130t-92.5 205.5t-31 274.5zM217 637q0 -109 21.5 -209t66.5 -177t114.5 -123 t168.5 -46q100 0 177 47t128 126t76.5 183.5t25.5 218.5q0 111 -23.5 211.5t-70.5 177t-119 122.5t-168 46q-104 0 -179 -49t-123 -130t-71.5 -184t-23.5 -214zM412 1552l63 115l334 -221l-41 -45z" />
<glyph unicode="&#xd3;" horiz-adv-x="1212" d="M96 637q0 154 35 278.5t102.5 214t166 137.5t225.5 48q121 0 213 -47t153.5 -133t93 -207t31.5 -271q0 -154 -36 -277.5t-104.5 -212.5t-167.5 -137t-228 -48q-119 0 -209 45t-151.5 130t-92.5 205.5t-31 274.5zM217 637q0 -109 21.5 -209t66.5 -177t114.5 -123 t168.5 -46q100 0 177 47t128 126t76.5 183.5t25.5 218.5q0 111 -23.5 211.5t-70.5 177t-119 122.5t-168 46q-104 0 -179 -49t-123 -130t-71.5 -184t-23.5 -214zM410 1446l333 221l64 -115l-356 -151z" />
<glyph unicode="&#xd4;" horiz-adv-x="1212" d="M96 637q0 154 35 278.5t102.5 214t166 137.5t225.5 48q121 0 213 -47t153.5 -133t93 -207t31.5 -271q0 -154 -36 -277.5t-104.5 -212.5t-167.5 -137t-228 -48q-119 0 -209 45t-151.5 130t-92.5 205.5t-31 274.5zM217 637q0 -109 21.5 -209t66.5 -177t114.5 -123 t168.5 -46q100 0 177 47t128 126t76.5 183.5t25.5 218.5q0 111 -23.5 211.5t-70.5 177t-119 122.5t-168 46q-104 0 -179 -49t-123 -130t-71.5 -184t-23.5 -214zM340 1452l215 188q18 16 34.5 18.5t22.5 2.5t22.5 -2t35.5 -19l215 -188l-41 -45l-232 131l-231 -131z" />
<glyph unicode="&#xd5;" horiz-adv-x="1212" d="M96 637q0 154 35 278.5t102.5 214t166 137.5t225.5 48q121 0 213 -47t153.5 -133t93 -207t31.5 -271q0 -154 -36 -277.5t-104.5 -212.5t-167.5 -137t-228 -48q-119 0 -209 45t-151.5 130t-92.5 205.5t-31 274.5zM217 637q0 -109 21.5 -209t66.5 -177t114.5 -123 t168.5 -46q100 0 177 47t128 126t76.5 183.5t25.5 218.5q0 111 -23.5 211.5t-70.5 177t-119 122.5t-168 46q-104 0 -179 -49t-123 -130t-71.5 -184t-23.5 -214zM336 1516l14 83q23 12 45 23q20 8 46 15.5t55 7.5q66 0 133 -20.5t145 -20.5q49 0 109 26l-15 -84 q-20 -14 -43 -22q-20 -10 -44.5 -16.5t-53.5 -6.5q-70 0 -138.5 20.5t-142.5 20.5q-25 0 -50 -7t-60 -19z" />
<glyph unicode="&#xd6;" horiz-adv-x="1212" d="M96 637q0 154 35 278.5t102.5 214t166 137.5t225.5 48q121 0 213 -47t153.5 -133t93 -207t31.5 -271q0 -154 -36 -277.5t-104.5 -212.5t-167.5 -137t-228 -48q-119 0 -209 45t-151.5 130t-92.5 205.5t-31 274.5zM217 637q0 -109 21.5 -209t66.5 -177t114.5 -123 t168.5 -46q100 0 177 47t128 126t76.5 183.5t25.5 218.5q0 111 -23.5 211.5t-70.5 177t-119 122.5t-168 46q-104 0 -179 -49t-123 -130t-71.5 -184t-23.5 -214zM463 1434v231h98v-231h-98zM662 1434v231h100v-231h-100z" />
<glyph unicode="&#xd7;" d="M141 289l299 303l-297 299l47 47l299 -303l304 307l47 -47l-305 -303l309 -311l-45 -50l-310 312l-303 -303z" />
<glyph unicode="&#xd8;" horiz-adv-x="1212" d="M96 637q0 154 35 278.5t102.5 214t166 137.5t225.5 48q80 0 147.5 -20.5t120.5 -59.5l76 125h102l-110 -186q78 -86 116.5 -218.5t38.5 -298.5q0 -154 -36 -277.5t-104.5 -212.5t-167.5 -137t-228 -48q-168 0 -281 88l-90 -152h-100l129 215q-72 86 -107 212t-35 292z M217 637q0 -111 20.5 -211t67.5 -178l526 882q-90 84 -217 84q-104 0 -179 -49t-123 -130t-71.5 -184t-23.5 -214zM362 174q41 -43 97.5 -67.5t128.5 -24.5q100 0 177 47t128 126t76.5 183t25.5 219q0 117 -25.5 221.5t-78.5 182.5z" />
<glyph unicode="&#xd9;" horiz-adv-x="1202" d="M152 1296h131v-852q0 -88 14 -154.5t49 -112.5t93.5 -69.5t144.5 -23.5q178 0 258 93t80 267v738l-9 114h127v-860q0 -225 -118.5 -339.5t-343.5 -114.5q-113 0 -192 28.5t-128 86t-71.5 142.5t-22.5 197v748zM406 1552l63 115l334 -221l-41 -45z" />
<glyph unicode="&#xda;" horiz-adv-x="1202" d="M152 1296h131v-852q0 -88 14 -154.5t49 -112.5t93.5 -69.5t144.5 -23.5q178 0 258 93t80 267v738l-9 114h127v-860q0 -225 -118.5 -339.5t-343.5 -114.5q-113 0 -192 28.5t-128 86t-71.5 142.5t-22.5 197v748zM418 1446l334 221l63 -115l-356 -151z" />
<glyph unicode="&#xdb;" horiz-adv-x="1202" d="M152 1296h131v-852q0 -88 14 -154.5t49 -112.5t93.5 -69.5t144.5 -23.5q178 0 258 93t80 267v738l-9 114h127v-860q0 -225 -118.5 -339.5t-343.5 -114.5q-113 0 -192 28.5t-128 86t-71.5 142.5t-22.5 197v748zM334 1452l215 188q18 16 34.5 18.5t22.5 2.5t22.5 -2 t35.5 -19l215 -188l-41 -45l-232 131l-231 -131z" />
<glyph unicode="&#xdc;" horiz-adv-x="1202" d="M152 1296h131v-852q0 -88 14 -154.5t49 -112.5t93.5 -69.5t144.5 -23.5q178 0 258 93t80 267v738l-9 114h127v-860q0 -225 -118.5 -339.5t-343.5 -114.5q-113 0 -192 28.5t-128 86t-71.5 142.5t-22.5 197v748zM453 1434v231h98v-231h-98zM651 1434v231h101v-231h-101z " />
<glyph unicode="&#xdd;" horiz-adv-x="972" d="M31 1296h139l289 -616l14 -66h12l15 66l254 506l32 110h156l-403 -798v-498h-119v498zM283 1446l333 221l64 -115l-356 -151z" />
<glyph unicode="&#xde;" horiz-adv-x="1083" d="M162 0l14 119v1177h119v-213h244q102 0 186 -20.5t144.5 -65.5t94 -116.5t33.5 -173.5q0 -100 -33.5 -170t-92 -113t-139.5 -62.5t-175 -19.5h-262v-342h-133zM295 444h256q160 0 243 59t83 206q0 78 -25 130t-70 83.5t-107.5 45t-137.5 13.5h-242v-537z" />
<glyph unicode="&#xdf;" horiz-adv-x="1040" d="M33 883v78l143 16v59q0 174 86 270.5t260 96.5q70 0 131.5 -21.5t106.5 -61.5t71.5 -96.5t26.5 -125.5q0 -88 -38 -146.5t-99 -115.5l-68 -62v-12l99 -107q33 -35 68.5 -72.5t66.5 -81.5t51 -95.5t20 -110.5q0 -80 -27.5 -139.5t-75.5 -97.5t-114.5 -57t-142.5 -19 q-47 0 -99.5 7t-80.5 17l26 94q23 -10 67 -17t91 -7q45 0 88 12t77 38t53.5 66.5t19.5 100.5q0 47 -24.5 94t-62.5 94t-83 91t-86 85q-29 29 -44.5 50.5t-15.5 52.5q0 29 17.5 49t42.5 43q43 37 72.5 65.5t49 56t27.5 58.5t8 70q0 92 -61.5 149.5t-155.5 57.5 q-117 0 -176 -66.5t-59 -208.5v-1034h-125l12 117v766h-143z" />
<glyph unicode="&#xe0;" horiz-adv-x="972" d="M68 262q0 98 39.5 162.5t106.5 101.5t155 51.5t186 14.5h141q0 78 -12 136t-43 96t-82 57.5t-129 19.5q-80 0 -156.5 -15.5t-138.5 -37.5l25 115q47 10 121.5 21t144.5 11q193 0 288 -90t95 -293v-495l14 -117h-96l-33 147h-8q-51 -78 -130 -121.5t-189 -43.5 q-137 0 -218 74.5t-81 205.5zM180 266q0 -90 53.5 -141t141.5 -51q86 0 146.5 29.5t98 85t56 134t20.5 175.5h-114q-78 0 -151 -7.5t-128 -32t-89 -70.5t-34 -122zM279 1272l63 114l334 -221l-41 -45z" />
<glyph unicode="&#xe1;" horiz-adv-x="972" d="M68 262q0 98 39.5 162.5t106.5 101.5t155 51.5t186 14.5h141q0 78 -12 136t-43 96t-82 57.5t-129 19.5q-80 0 -156.5 -15.5t-138.5 -37.5l25 115q47 10 121.5 21t144.5 11q193 0 288 -90t95 -293v-495l14 -117h-96l-33 147h-8q-51 -78 -130 -121.5t-189 -43.5 q-137 0 -218 74.5t-81 205.5zM180 266q0 -90 53.5 -141t141.5 -51q86 0 146.5 29.5t98 85t56 134t20.5 175.5h-114q-78 0 -151 -7.5t-128 -32t-89 -70.5t-34 -122zM291 1165l334 221l63 -114l-356 -152z" />
<glyph unicode="&#xe2;" horiz-adv-x="972" d="M68 262q0 98 39.5 162.5t106.5 101.5t155 51.5t186 14.5h141q0 78 -12 136t-43 96t-82 57.5t-129 19.5q-80 0 -156.5 -15.5t-138.5 -37.5l25 115q47 10 121.5 21t144.5 11q193 0 288 -90t95 -293v-495l14 -117h-96l-33 147h-8q-51 -78 -130 -121.5t-189 -43.5 q-137 0 -218 74.5t-81 205.5zM180 266q0 -90 53.5 -141t141.5 -51q86 0 146.5 29.5t98 85t56 134t20.5 175.5h-114q-78 0 -151 -7.5t-128 -32t-89 -70.5t-34 -122zM203 1182l215 188q18 16 34.5 18.5t22.5 2.5t22.5 -2.5t34.5 -18.5l216 -188l-41 -45l-232 131l-231 -131z " />
<glyph unicode="&#xe3;" horiz-adv-x="972" d="M68 262q0 98 39.5 162.5t106.5 101.5t155 51.5t186 14.5h141q0 78 -12 136t-43 96t-82 57.5t-129 19.5q-80 0 -156.5 -15.5t-138.5 -37.5l25 115q47 10 121.5 21t144.5 11q193 0 288 -90t95 -293v-495l14 -117h-96l-33 147h-8q-51 -78 -130 -121.5t-189 -43.5 q-137 0 -218 74.5t-81 205.5zM180 266q0 -90 53.5 -141t141.5 -51q86 0 146.5 29.5t98 85t56 134t20.5 175.5h-114q-78 0 -151 -7.5t-128 -32t-89 -70.5t-34 -122zM205 1235l14 84q23 12 45 22q20 8 46 15.5t55 7.5q66 0 133 -20.5t145 -20.5q49 0 109 27l-15 -84 q-20 -14 -43 -23q-20 -10 -44.5 -16t-53.5 -6q-70 0 -138.5 20.5t-142.5 20.5q-25 0 -50 -7.5t-60 -19.5z" />
<glyph unicode="&#xe4;" horiz-adv-x="972" d="M68 262q0 98 39.5 162.5t106.5 101.5t155 51.5t186 14.5h141q0 78 -12 136t-43 96t-82 57.5t-129 19.5q-80 0 -156.5 -15.5t-138.5 -37.5l25 115q47 10 121.5 21t144.5 11q193 0 288 -90t95 -293v-495l14 -117h-96l-33 147h-8q-51 -78 -130 -121.5t-189 -43.5 q-137 0 -218 74.5t-81 205.5zM180 266q0 -90 53.5 -141t141.5 -51q86 0 146.5 29.5t98 85t56 134t20.5 175.5h-114q-78 0 -151 -7.5t-128 -32t-89 -70.5t-34 -122zM332 1153v231h98v-231h-98zM530 1153v231h101v-231h-101z" />
<glyph unicode="&#xe5;" horiz-adv-x="972" d="M68 262q0 98 39.5 162.5t106.5 101.5t155 51.5t186 14.5h141q0 78 -12 136t-43 96t-82 57.5t-129 19.5q-80 0 -156.5 -15.5t-138.5 -37.5l25 115q47 10 121.5 21t144.5 11q193 0 288 -90t95 -293v-495l14 -117h-96l-33 147h-8q-51 -78 -130 -121.5t-189 -43.5 q-137 0 -218 74.5t-81 205.5zM180 266q0 -90 53.5 -141t141.5 -51q86 0 146.5 29.5t98 85t56 134t20.5 175.5h-114q-78 0 -151 -7.5t-128 -32t-89 -70.5t-34 -122zM289 1241q0 43 16.5 75t44 52.5t63 30.5t74.5 10q37 0 73 -10t63.5 -30.5t44 -52.5t16.5 -75t-17.5 -72.5 t-45 -50t-63.5 -30t-73 -9.5q-39 0 -73.5 9.5t-62 30t-44 50t-16.5 72.5zM389 1241q0 -47 28.5 -65.5t69.5 -18.5t70 18.5t29 65.5t-29 68.5t-70 21.5t-69.5 -21.5t-28.5 -68.5z" />
<glyph unicode="&#xe6;" horiz-adv-x="1550" d="M68 262q0 98 42 160.5t111.5 96.5t159.5 46.5t188 12.5h127q0 166 -64.5 244.5t-236.5 78.5q-33 0 -70.5 -4t-72.5 -11t-66.5 -15.5t-52.5 -16.5l27 117q37 6 76 12q35 4 74.5 8t80.5 4q147 0 242.5 -43t140.5 -141h12q53 82 137 133t195 51q98 0 167 -31.5t113 -90 t64.5 -138.5t20.5 -178v-74h-555l-119 -12q0 -199 91 -296t290 -97q72 0 143.5 14t112.5 31l-27 -117q-35 -8 -99.5 -16t-139.5 -8q-168 0 -270.5 57t-161.5 176h-11q-49 -104 -135 -168.5t-231 -64.5q-137 0 -220 77.5t-83 202.5zM180 266q0 -90 58.5 -141t146.5 -51 q80 0 138.5 29.5t96 84t56 130t20.5 167.5h-94q-78 0 -153.5 -6t-135 -27.5t-96.5 -65.5t-37 -120zM813 578h541l10 10q0 70 -13.5 127t-43 98t-75.5 64.5t-112 23.5q-129 0 -207.5 -89t-99.5 -234z" />
<glyph unicode="&#xe7;" horiz-adv-x="808" d="M76 459q0 117 30.5 215t91 169.5t148.5 111.5t205 40q66 0 118 -9t105 -19l-22 -105q-39 14 -94.5 26.5t-112.5 12.5q-92 0 -160 -35t-112 -94t-64.5 -141t-20.5 -174q0 -74 19.5 -142.5t58.5 -122t94.5 -86t128.5 -32.5q102 0 171 38t110 83l27 -107q-6 -6 -29 -22.5 t-59.5 -34t-87 -32.5t-109.5 -17v-80q55 0 105.5 -30t50.5 -93q0 -35 -17.5 -61.5t-46.5 -43t-65.5 -24.5t-73.5 -8q-43 0 -76 6t-49 10l12 68q16 -4 44 -9.5t63 -5.5q45 0 73.5 15.5t28.5 50.5q0 29 -23.5 43t-62.5 14q-14 0 -30.5 -1t-26.5 -3l20 156q-172 16 -267 144 t-95 329z" />
<glyph unicode="&#xe8;" horiz-adv-x="931" d="M76 467q0 111 28.5 207t83 167.5t133.5 112.5t181 41t171.5 -34.5t111.5 -95t60.5 -143.5t18.5 -181v-74h-555l-119 -12q0 -186 89.5 -281.5t269.5 -95.5q41 0 82 7t77.5 16.5t66.5 19.5t50 18l-22 -114q-35 -10 -105.5 -26.5t-160.5 -16.5q-231 0 -346 124.5t-115 360.5 zM193 561h544l11 10q0 150 -56.5 240t-187.5 90q-129 0 -210 -90t-101 -250zM299 1272l63 114l334 -221l-41 -45z" />
<glyph unicode="&#xe9;" horiz-adv-x="931" d="M76 467q0 111 28.5 207t83 167.5t133.5 112.5t181 41t171.5 -34.5t111.5 -95t60.5 -143.5t18.5 -181v-74h-555l-119 -12q0 -186 89.5 -281.5t269.5 -95.5q41 0 82 7t77.5 16.5t66.5 19.5t50 18l-22 -114q-35 -10 -105.5 -26.5t-160.5 -16.5q-231 0 -346 124.5t-115 360.5 zM193 561h544l11 10q0 150 -56.5 240t-187.5 90q-129 0 -210 -90t-101 -250zM297 1165l334 221l63 -114l-356 -152z" />
<glyph unicode="&#xea;" horiz-adv-x="931" d="M76 467q0 111 28.5 207t83 167.5t133.5 112.5t181 41t171.5 -34.5t111.5 -95t60.5 -143.5t18.5 -181v-74h-555l-119 -12q0 -186 89.5 -281.5t269.5 -95.5q41 0 82 7t77.5 16.5t66.5 19.5t50 18l-22 -114q-35 -10 -105.5 -26.5t-160.5 -16.5q-231 0 -346 124.5t-115 360.5 zM193 561h544l11 10q0 150 -56.5 240t-187.5 90q-129 0 -210 -90t-101 -250zM244 1182l215 188q18 16 34.5 18.5t22.5 2.5t22.5 -2.5t34.5 -18.5l215 -188l-40 -45l-232 131l-231 -131z" />
<glyph unicode="&#xeb;" horiz-adv-x="931" d="M76 467q0 111 28.5 207t83 167.5t133.5 112.5t181 41t171.5 -34.5t111.5 -95t60.5 -143.5t18.5 -181v-74h-555l-119 -12q0 -186 89.5 -281.5t269.5 -95.5q41 0 82 7t77.5 16.5t66.5 19.5t50 18l-22 -114q-35 -10 -105.5 -26.5t-160.5 -16.5q-231 0 -346 124.5t-115 360.5 zM193 561h544l11 10q0 150 -56.5 240t-187.5 90q-129 0 -210 -90t-101 -250zM342 1153v231h98v-231h-98zM541 1153v231h100v-231h-100z" />
<glyph unicode="&#xec;" horiz-adv-x="436" d="M14 1272l64 114l334 -221l-41 -45zM150 0l12 117v860h112v-977h-124z" />
<glyph unicode="&#xed;" horiz-adv-x="436" d="M14 1165l334 221l64 -114l-357 -152zM150 0l12 117v860h112v-977h-124z" />
<glyph unicode="&#xee;" horiz-adv-x="436" d="M-57 1180l215 188q18 16 34.5 18.5t22.5 2.5t22.5 -2.5t34.5 -18.5l215 -188l-41 -45l-231 131l-231 -131zM150 0l12 117v860h112v-977h-124z" />
<glyph unicode="&#xef;" horiz-adv-x="436" d="M68 1153v231h98v-231h-98zM150 0l12 117v860h112v-977h-124zM266 1153v231h101v-231h-101z" />
<glyph unicode="&#xf0;" horiz-adv-x="983" d="M76 432q0 98 28.5 183t82 147.5t130 98.5t172.5 36q20 0 47 -2t39 -6l39 -23l7 6l-175 240l-174 -39l-20 76l143 33l-129 192l111 27l133 -193l176 37l19 -74l-146 -32q70 -98 127 -183q25 -37 49.5 -73.5t46 -69.5t38 -59.5t24.5 -40.5q29 -63 46 -128t17 -145 q0 -100 -26.5 -184t-78.5 -145.5t-130 -95t-180 -33.5q-100 0 -177 33.5t-130.5 94t-81 142.5t-27.5 180zM190 432q0 -70 18.5 -134.5t55.5 -113.5t95.5 -78.5t138.5 -29.5t135 27.5t91 75.5t51.5 113.5t15.5 139.5q0 76 -16.5 143.5t-51.5 116.5t-92 78t-139 29 q-80 0 -137.5 -29t-93.5 -79t-53.5 -116.5t-17.5 -142.5z" />
<glyph unicode="&#xf1;" horiz-adv-x="1032" d="M150 977h100l29 -141h8q39 66 112.5 112.5t178.5 46.5q156 0 230.5 -89t74.5 -244v-662h-113v670q0 104 -48 167.5t-151 63.5q-82 0 -138 -33.5t-91 -91t-50.5 -131.5t-15.5 -156v-489h-112v856zM248 1235l14 84q23 12 45 22q20 8 46 15.5t55 7.5q66 0 133 -20.5 t145 -20.5q49 0 109 27l-15 -84q-20 -14 -43 -23q-20 -10 -44.5 -16t-53.5 -6q-70 0 -138.5 20.5t-142.5 20.5q-25 0 -50 -7.5t-60 -19.5z" />
<glyph unicode="&#xf2;" horiz-adv-x="978" d="M76 477q0 113 28.5 208t84 164t135 107.5t182.5 38.5q102 0 177 -35.5t124 -100t72.5 -157t23.5 -204.5q0 -113 -29.5 -208t-85 -164t-135.5 -106.5t-182 -37.5t-177 34.5t-123 99t-71.5 157t-23.5 204.5zM188 477q0 -82 14.5 -154.5t48.5 -128t88 -87t136 -31.5 t142.5 33.5t98.5 91t56.5 134.5t18.5 163q0 82 -15.5 154.5t-50.5 128t-90 88t-137 32.5q-84 0 -142.5 -33.5t-95.5 -91t-54.5 -135.5t-17.5 -164zM283 1272l63 114l334 -221l-41 -45z" />
<glyph unicode="&#xf3;" horiz-adv-x="978" d="M76 477q0 113 28.5 208t84 164t135 107.5t182.5 38.5q102 0 177 -35.5t124 -100t72.5 -157t23.5 -204.5q0 -113 -29.5 -208t-85 -164t-135.5 -106.5t-182 -37.5t-177 34.5t-123 99t-71.5 157t-23.5 204.5zM188 477q0 -82 14.5 -154.5t48.5 -128t88 -87t136 -31.5 t142.5 33.5t98.5 91t56.5 134.5t18.5 163q0 82 -15.5 154.5t-50.5 128t-90 88t-137 32.5q-84 0 -142.5 -33.5t-95.5 -91t-54.5 -135.5t-17.5 -164zM283 1165l333 221l64 -114l-356 -152z" />
<glyph unicode="&#xf4;" horiz-adv-x="978" d="M76 477q0 113 28.5 208t84 164t135 107.5t182.5 38.5q102 0 177 -35.5t124 -100t72.5 -157t23.5 -204.5q0 -113 -29.5 -208t-85 -164t-135.5 -106.5t-182 -37.5t-177 34.5t-123 99t-71.5 157t-23.5 204.5zM188 477q0 -82 14.5 -154.5t48.5 -128t88 -87t136 -31.5 t142.5 33.5t98.5 91t56.5 134.5t18.5 163q0 82 -15.5 154.5t-50.5 128t-90 88t-137 32.5q-84 0 -142.5 -33.5t-95.5 -91t-54.5 -135.5t-17.5 -164zM215 1182l215 188q18 16 34.5 18.5t22.5 2.5t22.5 -2.5t35.5 -18.5l215 -188l-41 -45l-232 131l-231 -131z" />
<glyph unicode="&#xf5;" horiz-adv-x="978" d="M76 477q0 113 28.5 208t84 164t135 107.5t182.5 38.5q102 0 177 -35.5t124 -100t72.5 -157t23.5 -204.5q0 -113 -29.5 -208t-85 -164t-135.5 -106.5t-182 -37.5t-177 34.5t-123 99t-71.5 157t-23.5 204.5zM188 477q0 -82 14.5 -154.5t48.5 -128t88 -87t136 -31.5 t142.5 33.5t98.5 91t56.5 134.5t18.5 163q0 82 -15.5 154.5t-50.5 128t-90 88t-137 32.5q-84 0 -142.5 -33.5t-95.5 -91t-54.5 -135.5t-17.5 -164zM213 1235l14 84q23 12 45 22q20 8 46 15.5t55 7.5q66 0 133 -20.5t145 -20.5q49 0 109 27l-15 -84q-20 -14 -43 -23 q-20 -10 -44.5 -16t-53.5 -6q-70 0 -138.5 20.5t-141.5 20.5q-25 0 -50.5 -7.5t-60.5 -19.5z" />
<glyph unicode="&#xf6;" horiz-adv-x="978" d="M76 477q0 113 28.5 208t84 164t135 107.5t182.5 38.5q102 0 177 -35.5t124 -100t72.5 -157t23.5 -204.5q0 -113 -29.5 -208t-85 -164t-135.5 -106.5t-182 -37.5t-177 34.5t-123 99t-71.5 157t-23.5 204.5zM188 477q0 -82 14.5 -154.5t48.5 -128t88 -87t136 -31.5 t142.5 33.5t98.5 91t56.5 134.5t18.5 163q0 82 -15.5 154.5t-50.5 128t-90 88t-137 32.5q-84 0 -142.5 -33.5t-95.5 -91t-54.5 -135.5t-17.5 -164zM346 1153v231h98v-231h-98zM545 1153v231h100v-231h-100z" />
<glyph unicode="&#xf7;" d="M92 549v63h803v-63h-803zM422 250q0 37 20.5 57.5t49.5 20.5q71 0 71 -78q0 -82 -71 -82q-29 0 -49.5 21.5t-20.5 60.5zM422 897q0 37 20.5 57.5t49.5 20.5q71 0 71 -78q0 -80 -71 -80q-29 0 -49.5 20.5t-20.5 59.5z" />
<glyph unicode="&#xf8;" horiz-adv-x="978" d="M76 477q0 113 28.5 208t84 164t135 107.5t182.5 38.5q125 0 215 -57l76 127h75l-100 -168q66 -66 98.5 -167t32.5 -232q0 -113 -29.5 -208t-85 -164t-135.5 -106.5t-182 -37.5q-129 0 -215 55l-72 -121h-75l96 162q-66 66 -97.5 167t-31.5 232zM188 477q0 -90 16.5 -168 t57.5 -135l404 674q-33 25 -74 39t-94 14q-84 0 -142.5 -33.5t-95.5 -91t-54.5 -135.5t-17.5 -164zM309 127q33 -25 73 -38t93 -13q82 0 142.5 33.5t98.5 91t56.5 134.5t18.5 163q0 88 -18.5 165.5t-59.5 135.5z" />
<glyph unicode="&#xf9;" horiz-adv-x="1032" d="M152 315v662h112v-670q0 -104 48 -167.5t151 -63.5q82 0 138 33.5t91 90t50.5 131.5t15.5 156v490h112v-856l15 -121h-101l-28 139h-8q-39 -66 -113 -111.5t-178 -45.5q-156 0 -230.5 89t-74.5 244zM319 1272l64 114l334 -221l-41 -45z" />
<glyph unicode="&#xfa;" horiz-adv-x="1032" d="M152 315v662h112v-670q0 -104 48 -167.5t151 -63.5q82 0 138 33.5t91 90t50.5 131.5t15.5 156v490h112v-856l15 -121h-101l-28 139h-8q-39 -66 -113 -111.5t-178 -45.5q-156 0 -230.5 89t-74.5 244zM319 1165l334 221l64 -114l-357 -152z" />
<glyph unicode="&#xfb;" horiz-adv-x="1032" d="M152 315v662h112v-670q0 -104 48 -167.5t151 -63.5q82 0 138 33.5t91 90t50.5 131.5t15.5 156v490h112v-856l15 -121h-101l-28 139h-8q-39 -66 -113 -111.5t-178 -45.5q-156 0 -230.5 89t-74.5 244zM236 1182l215 188q18 16 34.5 18.5t22.5 2.5t22.5 -2.5t34.5 -18.5 l215 -188l-41 -45l-231 131l-232 -131z" />
<glyph unicode="&#xfc;" horiz-adv-x="1032" d="M152 315v662h112v-670q0 -104 48 -167.5t151 -63.5q82 0 138 33.5t91 90t50.5 131.5t15.5 156v490h112v-856l15 -121h-101l-28 139h-8q-39 -66 -113 -111.5t-178 -45.5q-156 0 -230.5 89t-74.5 244zM367 1153v231h98v-231h-98zM565 1153v231h101v-231h-101z" />
<glyph unicode="&#xfd;" horiz-adv-x="872" d="M27 977h125l251 -744l19 -83h8l19 81l229 629l18 117h150l-385 -1020q-31 -84 -59.5 -143.5t-63.5 -97.5t-83 -55t-118 -17q-14 0 -33.5 1t-29.5 3l-17 96q12 -2 28.5 -3t27.5 -1q59 0 96 14.5t63.5 44t46 75.5t41.5 108l9 24zM238 1165l333 221l64 -114l-356 -152z" />
<glyph unicode="&#xfe;" horiz-adv-x="1005" d="M152 -340l12 115v1607h112v-557h9q6 8 24.5 37t55 57.5t91 52t132.5 23.5q82 0 145.5 -30.5t107.5 -86t67.5 -132t23.5 -166.5q0 -283 -138.5 -431.5t-420.5 -148.5h-97v-340h-124zM272 269.5q0 -25.5 1 -55.5t2 -59.5t1 -50.5q16 -4 35 -6q16 -2 37 -3t43 -1 q111 0 192 34t132 97.5t75.5 151.5t24.5 196q0 63 -14.5 122t-43 105t-73.5 73.5t-109 27.5q-92 0 -150 -47t-92 -128t-47.5 -188.5t-13.5 -228.5v-39.5z" />
<glyph unicode="&#xff;" horiz-adv-x="872" d="M27 977h125l251 -744l19 -83h8l19 81l229 629l18 117h150l-385 -1020q-31 -84 -59.5 -143.5t-63.5 -97.5t-83 -55t-118 -17q-14 0 -33.5 1t-29.5 3l-17 96q12 -2 28.5 -3t27.5 -1q59 0 96 14.5t63.5 44t46 75.5t41.5 108l9 24zM303 1153v231h98v-231h-98zM502 1153v231 h100v-231h-100z" />
<glyph unicode="&#x152;" horiz-adv-x="1630" d="M96 627q0 328 151.5 498.5t426.5 170.5h889v-102h-600v-477h538v-103h-538v-512h612v-102h-961q-258 0 -388 157.5t-130 469.5zM217 627q0 -115 20.5 -211.5t68.5 -166t125 -109.5t192 -40h221v1096h-164q-127 0 -215 -42t-143.5 -116.5t-80 -180t-24.5 -230.5z" />
<glyph unicode="&#x153;" horiz-adv-x="1632" d="M76 479q0 113 28.5 208t84 164t135 106.5t182.5 37.5q123 0 208 -52t132 -146h12q53 90 138 144t204 54q102 0 172 -33.5t113 -94t61.5 -143.5t18.5 -183v-58h-551l-119 -12q0 -199 88 -296t291 -97q33 0 69.5 4t70.5 10t63.5 13.5t50.5 15.5l-27 -113q-35 -10 -97.5 -18 t-141.5 -8q-158 0 -256.5 48t-159.5 152h-15q-53 -92 -145 -146t-215 -54q-102 0 -177 35.5t-123 100t-71.5 157t-23.5 204.5zM188 479q0 -82 14.5 -154.5t48.5 -128t88 -88t136 -32.5t141.5 32.5t96.5 89t54 133.5t17 163q0 82 -14 155.5t-48 130t-88 89t-136 32.5 q-84 0 -142.5 -33.5t-95.5 -91t-54.5 -134.5t-17.5 -163zM899 578h537l10 10q0 145 -58.5 229t-185.5 84q-125 0 -203.5 -86t-99.5 -237z" />
<glyph unicode="&#x178;" horiz-adv-x="972" d="M31 1296h139l289 -616l14 -66h12l15 66l254 506l32 110h156l-403 -798v-498h-119v498zM330 1434v231h98v-231h-98zM528 1434v231h101v-231h-101z" />
<glyph unicode="&#x2c6;" horiz-adv-x="1036" d="M246 1182l215 188q18 16 34.5 18.5t22.5 2.5t22.5 -2.5t34.5 -18.5l216 -188l-41 -45l-232 131l-231 -131z" />
<glyph unicode="&#x2dc;" horiz-adv-x="1036" d="M244 1235l14 84q23 12 45 22q20 8 46 15.5t54 7.5q66 0 133.5 -20.5t145.5 -20.5q49 0 109 27l-15 -84q-20 -14 -43 -23q-20 -10 -44.5 -16t-53.5 -6q-70 0 -138.5 20.5t-142.5 20.5q-25 0 -50 -7.5t-60 -19.5z" />
<glyph unicode="&#x2000;" horiz-adv-x="847" />
<glyph unicode="&#x2001;" horiz-adv-x="1694" />
<glyph unicode="&#x2002;" horiz-adv-x="847" />
<glyph unicode="&#x2003;" horiz-adv-x="1694" />
<glyph unicode="&#x2004;" horiz-adv-x="564" />
<glyph unicode="&#x2005;" horiz-adv-x="423" />
<glyph unicode="&#x2006;" horiz-adv-x="282" />
<glyph unicode="&#x2007;" horiz-adv-x="282" />
<glyph unicode="&#x2008;" horiz-adv-x="211" />
<glyph unicode="&#x2009;" horiz-adv-x="338" />
<glyph unicode="&#x200a;" horiz-adv-x="94" />
<glyph unicode="&#x2010;" horiz-adv-x="702" d="M137 461v61h428v-61h-428z" />
<glyph unicode="&#x2011;" horiz-adv-x="702" d="M137 461v61h428v-61h-428z" />
<glyph unicode="&#x2012;" horiz-adv-x="702" d="M137 461v61h428v-61h-428z" />
<glyph unicode="&#x2013;" horiz-adv-x="1024" d="M0 461v65h1024v-65h-1024z" />
<glyph unicode="&#x2014;" horiz-adv-x="2048" d="M0 461v65h2048v-65h-2048z" />
<glyph unicode="&#x2018;" horiz-adv-x="368" d="M102 1059q0 29 7.5 57.5t25.5 63.5l74 131l55 -4l-69 -168q25 -6 36 -28.5t11 -51.5q0 -35 -18.5 -58.5t-53.5 -23.5t-51.5 22.5t-16.5 59.5z" />
<glyph unicode="&#x2019;" horiz-adv-x="368" d="M102 819l70 168q-25 6 -36 28.5t-11 51.5q0 35 18.5 58.5t53.5 23.5t51 -22.5t16 -59.5q0 -29 -7 -57.5t-26 -63.5l-73 -131z" />
<glyph unicode="&#x201a;" horiz-adv-x="368" d="M102 -166l70 168q-25 6 -36 28.5t-11 51.5q0 35 18.5 58.5t53.5 23.5t51 -22.5t16 -59.5q0 -29 -7 -57.5t-26 -63.5l-73 -131z" />
<glyph unicode="&#x201c;" horiz-adv-x="655" d="M102 1059q0 29 7.5 57.5t25.5 63.5l74 131l55 -4l-69 -168q25 -6 36 -28.5t11 -51.5q0 -35 -18.5 -58.5t-53.5 -23.5t-51.5 22.5t-16.5 59.5zM389 1059q0 29 7 57.5t26 63.5l74 131l55 -4l-70 -168q25 -6 36 -28.5t11 -51.5q0 -35 -18 -58.5t-53 -23.5t-51.5 22.5 t-16.5 59.5z" />
<glyph unicode="&#x201d;" horiz-adv-x="655" d="M102 819l70 168q-25 6 -36 28.5t-11 51.5q0 35 18.5 58.5t53.5 23.5t51 -22.5t16 -59.5q0 -29 -7 -57.5t-26 -63.5l-73 -131zM389 819l70 168q-25 6 -36 28.5t-11 51.5q0 35 18.5 58.5t52.5 23.5q35 0 51.5 -22.5t16.5 -59.5q0 -29 -7 -57.5t-26 -63.5l-74 -131z" />
<glyph unicode="&#x201e;" horiz-adv-x="655" d="M102 -166l70 168q-25 6 -36 28.5t-11 51.5q0 35 18.5 58.5t53.5 23.5t51 -22.5t16 -59.5q0 -29 -7 -57.5t-26 -63.5l-73 -131zM389 -166l70 168q-25 6 -36 28.5t-11 51.5q0 35 18.5 58.5t52.5 23.5q35 0 51.5 -22.5t16.5 -59.5q0 -29 -7 -57.5t-26 -63.5l-74 -131z" />
<glyph unicode="&#x2022;" horiz-adv-x="624" d="M152 567q0 78 44 124t115 46q72 0 117 -46t45 -124t-45 -123t-117 -45t-115.5 45t-43.5 123z" />
<glyph unicode="&#x2026;" horiz-adv-x="944" d="M127 63q0 37 19.5 58.5t50.5 21.5q33 0 51 -21.5t18 -58.5q0 -82 -69 -81q-31 0 -50.5 21.5t-19.5 59.5zM414 63q0 37 19.5 58.5t49.5 21.5q33 0 51.5 -21.5t18.5 -58.5q0 -82 -70 -81q-31 0 -50 21.5t-19 59.5zM700 63q0 37 19.5 58.5t50.5 21.5q33 0 51.5 -21.5 t18.5 -58.5q0 -82 -70 -81q-31 0 -50.5 21.5t-19.5 59.5z" />
<glyph unicode="&#x202f;" horiz-adv-x="338" />
<glyph unicode="&#x2039;" horiz-adv-x="663" d="M119 553l399 434l47 -47l-354 -387l356 -391l-53 -47z" />
<glyph unicode="&#x203a;" horiz-adv-x="663" d="M96 160l357 393l-357 385l51 47l398 -432l-400 -440z" />
<glyph unicode="&#x2044;" horiz-adv-x="768" d="M12 0l662 1190h76l-662 -1190h-76z" />
<glyph unicode="&#x205f;" horiz-adv-x="423" />
<glyph unicode="&#x2070;" horiz-adv-x="536" d="M37 887q0 141 64.5 227t179.5 86q111 0 165 -81t54 -222t-64.5 -226t-177.5 -85q-111 0 -166 79.5t-55 221.5zM100 887q0 -49 8.5 -95.5t27 -80t49 -54t75.5 -20.5q43 0 76 22.5t55.5 58.5t33.5 83t11 96t-9 95t-28.5 81t-51.5 55.5t-75 20.5q-47 0 -78.5 -22.5 t-53 -59.5t-31 -84t-9.5 -96z" />
<glyph unicode="&#x2074;" horiz-adv-x="550" d="M61 721v67l283 402h90v-414h72v-55h-72v-125h-61v125h-312zM113 776h258v330l12 33h-8l-238 -340l-24 -15v-8z" />
<glyph unicode="&#x2075;" horiz-adv-x="505" d="M53 664q31 -10 72 -17.5t76 -7.5q37 0 71.5 7t61 22.5t43 41t16.5 60.5q0 41 -23.5 67.5t-59.5 41t-76.5 19.5t-77.5 5h-58v287h330v-60l-63 7h-203v-181q59 0 113.5 -9t94.5 -31.5t63.5 -58.5t23.5 -91q0 -47 -20.5 -81t-54.5 -55.5t-78 -32.5t-93 -11q-84 0 -141 14z " />
<glyph unicode="&#x2076;" horiz-adv-x="530" d="M47 889q0 137 68 224t207 87q37 0 69.5 -5t44.5 -9l13 -62q-12 4 -44 13.5t-81 9.5q-98 0 -151.5 -55.5t-57.5 -151.5q41 4 68.5 6t54.5 2q106 0 177.5 -45t71.5 -139q0 -84 -58 -131t-148 -47q-63 0 -107.5 22.5t-72 63.5t-41 96t-13.5 121zM111 889q2 -51 10 -96 t27.5 -79t52.5 -54.5t84 -20.5q61 0 100 33t39 90q0 74 -55.5 104.5t-139.5 30.5q-35 0 -62.5 -2t-55.5 -6z" />
<glyph unicode="&#x2077;" horiz-adv-x="454" d="M23 1130v60h391v-74q-72 -72 -113 -140.5t-62.5 -133t-27.5 -125t-6 -113.5v-8h-64v8q0 53 6.5 113.5t27 125t59 134.5t102.5 141l29 12v9h-279z" />
<glyph unicode="&#x2078;" horiz-adv-x="563" d="M68 745q0 53 31.5 91t80.5 61v8q-47 20 -72.5 55t-25.5 78q0 78 63.5 121t151.5 43q86 0 143.5 -42t57.5 -116q0 -47 -30 -82.5t-77 -54.5v-8q111 -47 111 -147q0 -41 -18.5 -72t-49.5 -51.5t-70.5 -30.5t-82.5 -10q-94 0 -153.5 42t-59.5 115zM133 748q0 -53 42.5 -80 t105.5 -27q61 0 108 26.5t47 80.5q0 53 -43 78.5t-104 41.5l-29 9q-51 -18 -89 -47t-38 -82zM147 1047q0 -27 11.5 -44.5t30 -31t43 -21.5t51.5 -16l28 -8q41 10 81 40t40 81q0 49 -41 75.5t-98 26.5q-53 0 -99.5 -25.5t-46.5 -76.5z" />
<glyph unicode="&#x2079;" horiz-adv-x="530" d="M39 1022q0 84 58.5 131t148.5 47q127 0 181 -86t54 -217q0 -139 -67.5 -226t-208.5 -87q-37 0 -70 5t-45 9l-12 61q12 -4 44 -13t81 -9q98 0 152.5 55.5t58.5 151.5q-41 -4 -70 -6t-55 -2q-106 0 -178 46t-72 140zM102 1024q0 -74 55.5 -105.5t139.5 -31.5q35 0 63.5 3 t57.5 7q-2 51 -10.5 96t-28 79t-53 54.5t-84.5 20.5q-61 0 -100.5 -33t-39.5 -90z" />
<glyph unicode="&#x207d;" horiz-adv-x="358" d="M86 895q0 133 42 235.5t91 186.5l47 -19q-47 -80 -86 -179t-39 -224q0 -127 39 -223.5t86 -177.5l-47 -19q-49 84 -91 186.5t-42 233.5z" />
<glyph unicode="&#x207e;" horiz-adv-x="358" d="M92 494q47 82 86 178t39 223q0 125 -39 224.5t-86 178.5l47 19q49 -84 91 -186.5t42 -235.5q0 -131 -42 -233.5t-91 -186.5z" />
<glyph unicode="&#x207f;" horiz-adv-x="585" d="M70 1190h61l19 -86h8q23 41 66.5 69.5t107.5 28.5q92 0 138 -54t46 -149v-403h-70v408q0 63 -29.5 102t-88.5 39q-49 0 -84 -20.5t-56.5 -55.5t-31 -79t-9.5 -93v-301h-69v520z" />
<glyph unicode="&#x2080;" horiz-adv-x="557" d="M49 51q0 141 64.5 227.5t179.5 86.5q111 0 165 -81t54 -223q0 -141 -64.5 -226t-177.5 -85q-111 0 -166 80t-55 221zM113 51q0 -49 8 -95t26.5 -80t49 -54.5t75.5 -20.5q43 0 76 22.5t55.5 58.5t34 83t11.5 96t-9.5 95.5t-29 81t-51 55t-74.5 20.5q-47 0 -79 -22.5 t-53.5 -59t-30.5 -84t-9 -96.5z" />
<glyph unicode="&#x2081;" horiz-adv-x="503" d="M68 229q47 12 95 43t87 82h76l-19 -542h152v-52h-379v52h166l12 467h-8l-19 -33q-35 -29 -72.5 -47.5t-78.5 -32.5z" />
<glyph unicode="&#x2082;" horiz-adv-x="516" d="M57 -158q80 53 139.5 95.5t98.5 80t58.5 74.5t19.5 78q0 66 -45 102.5t-129 36.5q-37 0 -75 -6t-65 -16l15 65q18 4 41 8q18 4 40.5 6.5t49.5 2.5q47 0 90 -13.5t74.5 -38t50 -61.5t18.5 -86t-16 -89t-52 -79t-94.5 -82t-140.5 -98v-8h283l63 8v-62h-424v82z" />
<glyph unicode="&#x2083;" horiz-adv-x="526" d="M51 -172q25 -6 51 -12q23 -4 50.5 -8.5t52.5 -4.5q37 0 71.5 5.5t60 18.5t42 34.5t16.5 54.5q0 35 -16.5 58.5t-42 37t-59 19.5t-66.5 6h-78v49h76q66 0 117 23.5t51 89.5q0 61 -46 87.5t-116 26.5q-31 0 -67.5 -7t-73.5 -17l18 63q20 6 52 10.5t71 4.5q45 0 87 -9.5 t73 -29t49 -50t18 -75.5q0 -96 -90 -137v-9q51 -16 80 -53t29 -94q0 -45 -21.5 -76t-57.5 -50.5t-81 -27.5t-92 -8q-43 0 -86 7t-60 12z" />
<glyph unicode="&#x2084;" horiz-adv-x="550" d="M61 -49l283 401h90v-413h72v-56h-72v-125h-61v125h-312v68zM113 -53v-8h258v329l12 33h-8l-238 -340z" />
<glyph unicode="&#x2085;" horiz-adv-x="505" d="M53 -172q31 -10 72 -17.5t76 -7.5q37 0 71.5 7.5t61 22.5t43 41t16.5 60q0 41 -23.5 68t-59.5 41t-76.5 19.5t-77.5 5.5h-58v286h330v-59l-63 6h-203v-180q59 0 113.5 -9.5t94.5 -32t63.5 -58t23.5 -91.5q0 -47 -20.5 -80.5t-54.5 -55t-78 -33t-93 -11.5q-84 0 -141 14z " />
<glyph unicode="&#x2086;" horiz-adv-x="530" d="M47 53q0 137 68 224.5t207 87.5q37 0 69.5 -5.5t44.5 -9.5l13 -61q-12 4 -44 13t-81 9q-98 0 -151.5 -55t-57.5 -152q41 4 68.5 6.5t54.5 2.5q106 0 177.5 -45t71.5 -140q0 -84 -58 -131t-148 -47q-63 0 -107.5 22.5t-72 63.5t-41 96.5t-13.5 120.5zM111 53q2 -51 10 -96 t27.5 -79t52.5 -54.5t84 -20.5q61 0 100 33t39 90q0 74 -55.5 104.5t-139.5 30.5q-35 0 -62.5 -2t-55.5 -6z" />
<glyph unicode="&#x2087;" horiz-adv-x="454" d="M23 291v59h391v-74q-72 -72 -113 -140t-62.5 -132.5t-27.5 -125t-6 -114.5v-8h-64v8q0 53 6.5 114t27 125.5t59 134t102.5 141.5l29 12v8h-279z" />
<glyph unicode="&#x2088;" horiz-adv-x="563" d="M68 -94q0 53 31.5 91t80.5 60v9q-47 20 -72.5 55t-25.5 78q0 78 63.5 120.5t151.5 42.5q86 0 143.5 -41.5t57.5 -115.5q0 -47 -30 -83t-77 -54v-9q111 -47 111 -147q0 -41 -18.5 -71.5t-49.5 -51t-70.5 -31t-82.5 -10.5q-94 0 -153.5 42t-59.5 116zM133 -92 q0 -53 42.5 -80t105.5 -27q61 0 108 27t47 80t-43 78.5t-104 42.5l-29 8q-51 -18 -89 -47t-38 -82zM147 207q0 -27 11.5 -44.5t30 -30.5t43 -21.5t51.5 -16.5l28 -8q41 10 81 40t40 81q0 49 -41 75.5t-98 26.5q-53 0 -99.5 -25.5t-46.5 -76.5z" />
<glyph unicode="&#x2089;" horiz-adv-x="530" d="M39 188q0 84 58.5 131.5t148.5 47.5q127 0 181 -86t54 -218q0 -139 -67.5 -226t-208.5 -87q-37 0 -70 5t-45 9l-12 62q12 -4 44 -13.5t81 -9.5q98 0 152.5 55.5t58.5 151.5q-41 -4 -70 -6t-55 -2q-106 0 -178 46t-72 140zM102 190q0 -74 55.5 -105.5t139.5 -31.5 q35 0 63.5 3t57.5 7q-2 51 -10.5 96.5t-28 79t-53 54t-84.5 20.5q-61 0 -100.5 -32.5t-39.5 -90.5z" />
<glyph unicode="&#x208d;" horiz-adv-x="358" d="M86 178q0 133 42 235.5t91 186.5l47 -18q-47 -80 -86 -179.5t-39 -224.5q0 -127 39 -223t86 -178l-47 -19q-49 84 -91 186.5t-42 233.5z" />
<glyph unicode="&#x208e;" horiz-adv-x="358" d="M92 -223q47 82 86 178t39 223q0 125 -39 224.5t-86 179.5l47 18q49 -84 91 -186.5t42 -235.5q0 -131 -42 -233.5t-91 -186.5z" />
<glyph unicode="&#x20ac;" horiz-adv-x="983" d="M57 375l15 65h100q-2 12 -3 30.5t-1 35.5q0 41 2 71.5t8 67.5h-121l15 66h116q43 184 169 287.5t325 103.5q76 0 134 -11.5t85 -19.5l-27 -100q-39 18 -93 27.5t-107 9.5q-154 0 -245 -76t-126 -221h481l-14 -66h-477q-4 -35 -7 -62.5t-3 -66.5q0 -23 1 -40t5 -36h495 l-14 -65h-473q25 -129 108.5 -214t227.5 -85q104 0 175 30.5t103 65.5l29 -104q-8 -6 -32.5 -20.5t-63.5 -29t-92.5 -25.5t-120.5 -11q-186 0 -305 103t-148 290h-121z" />
<glyph unicode="&#x2122;" horiz-adv-x="1085" d="M23 1337v66h337v-66h-133v-481h-82l9 49v432h-131zM391 856l8 49l27 498h123l135 -420l4 -29h8l4 29l140 420h127l-4 -49l28 -498h-76l-22 487h-8l-4 -34l-150 -453h-76l-151 455l-2 35h-8l-21 -490h-82z" />
<glyph unicode="&#x25fc;" horiz-adv-x="972" d="M0 0v973h973v-973h-973z" />
<glyph unicode="&#xfb01;" horiz-adv-x="923" d="M33 883v78l143 16v143q0 129 77 205t206 76q12 0 29.5 -1t29.5 -3l14 -99q-12 2 -22 3.5t-25 1.5q-98 0 -150 -42t-52 -141q0 -29 2 -53.5t6 -44.5q4 -23 10 -45h471v-977h-125l12 117v766h-370v-883h-125l12 117v766h-143zM623 1307l96 94l92 -94l-92 -99z" />
<glyph unicode="&#xfb02;" horiz-adv-x="933" d="M33 883v78l143 16v141q0 150 85 216.5t235 66.5q39 0 83 -4t82.5 -8.5t69.5 -9.5t41 -7v-1372h-125l12 117v1177q-31 4 -80 7.5t-79 3.5q-102 0 -159.5 -39t-57.5 -146q0 -29 2 -53.5t6 -44.5q4 -23 10 -45h236v-94h-248v-883h-127l14 113v770h-143z" />
<glyph horiz-adv-x="561" d="M29 756q0 61 24.5 100t65.5 61.5t95 30.5t114 8h86q0 98 -34 144.5t-130 46.5q-47 0 -94 -10.5t-86 -22.5l16 70q29 6 75 13t87 7q119 0 177 -55t58 -178v-305l9 -70h-60l-20 90h-9q-31 -49 -77.5 -75.5t-114.5 -26.5q-84 0 -133 46t-49 126zM98 758q0 -53 33 -85t86 -32 q104 0 149.5 69.5t47.5 188.5h-70q-47 0 -92 -4t-79 -19.5t-54.5 -43t-20.5 -74.5z" />
<glyph horiz-adv-x="579" d="M70 600l8 68v768h67v-332h11q2 6 13 23.5t32.5 35t54.5 30.5t80 13q104 0 157.5 -72.5t53.5 -189.5q0 -172 -81 -265t-255 -93q-35 0 -75 5t-66 9zM145 725q0 -20 1 -39.5t1 -32.5q10 -4 32 -7t42 -3q139 0 197.5 83t58.5 214q0 39 -8 77t-25.5 67.5t-46 47t-67.5 17.5 q-51 0 -87 -26.5t-57.5 -74t-31 -114t-9.5 -146.5v-25.5v-37.5z" />
<glyph horiz-adv-x="479" d="M33 877q0 141 74 233t215 92q33 0 69.5 -4t67.5 -10l-13 -64q-23 8 -58.5 14.5t-70.5 6.5q-55 0 -96 -20.5t-67.5 -57.5t-40 -86t-13.5 -107q0 -45 12.5 -87t36 -74.5t57.5 -52t79 -19.5q61 0 103 23.5t67 50.5l16 -64q-4 -4 -18.5 -14t-39 -21.5t-57 -20.5t-71.5 -9 q-119 0 -185.5 78.5t-66.5 212.5z" />
<glyph horiz-adv-x="573" d="M33 848q0 166 85 259t253 93h59v234h74l-6 -70v-768h-52l-18 92h-10q-4 -6 -14.5 -22.5t-32 -34t-55 -31.5t-80.5 -14q-98 0 -150.5 73.5t-52.5 188.5zM102 850q0 -37 7.5 -75t25 -66.5t44 -47t65.5 -18.5q55 0 91 26.5t57.5 74t30.5 113.5t9 144v25.5t-1 37t-1 40v33.5 q-10 0 -20 2t-22.5 3t-27.5 1q-135 0 -196.5 -81t-61.5 -212z" />
<glyph horiz-adv-x="542" d="M33 881q0 68 17.5 126t50 101t82 68.5t110.5 25.5t104 -21.5t69 -58.5t37 -88t11 -110v-43h-338l-74 -9q0 -229 220 -229q49 0 97 11.5t70 21.5l-12 -70q-23 -8 -65.5 -15t-98.5 -7q-141 0 -210.5 75.5t-69.5 221.5zM104 938h332l6 6q0 92 -34.5 146.5t-112.5 54.5 q-80 0 -129 -54.5t-62 -152.5z" />
<glyph horiz-adv-x="237" d="M57 1401l62 61l61 -61l-61 -64zM72 596l8 74v522h76v-596h-84z" />
<glyph horiz-adv-x="229" d="M70 598l8 74v766h76v-840h-84z" />
<glyph horiz-adv-x="917" d="M70 1190h61l19 -84h8q20 39 62 67.5t108 28.5q59 0 101 -28.5t56 -71.5h9q29 41 69.5 70.5t108.5 29.5q82 0 129 -45t47 -135v-426h-70v410q0 70 -25.5 104.5t-88.5 34.5q-86 0 -126 -68.5t-40 -181.5v-299h-70v410q0 66 -24.5 102.5t-88.5 36.5q-90 0 -129 -68.5 t-39 -181.5v-299h-69v522z" />
<glyph horiz-adv-x="567" d="M33 887q0 137 68.5 225t191.5 88q125 0 183.5 -82t58.5 -219t-69 -225t-194 -88t-182 82t-57 219zM100 887q0 -49 9.5 -94t29 -78t53 -52.5t82.5 -19.5q100 0 146.5 75t46.5 181q0 49 -9 93t-30.5 78t-55.5 53.5t-83 19.5q-51 0 -87 -20.5t-58.5 -55.5t-33 -82t-10.5 -98 z" />
<glyph horiz-adv-x="378" d="M70 1190h61l19 -86h8q35 59 86 78.5t114 19.5l13 -74q-10 2 -24.5 2h-22.5q-51 0 -85 -18t-54.5 -49t-29 -74t-8.5 -92v-301h-69v520z" />
<glyph horiz-adv-x="475" d="M35 612l16 64q35 -12 76 -22.5t82 -10.5q61 0 110.5 22.5t49.5 79.5q0 43 -44 71t-110 56q-31 14 -61.5 28.5t-55 34t-39 44.5t-14.5 59q0 45 19.5 76t53.5 50.5t76 27.5t89 8q29 0 66.5 -3t68.5 -11l-15 -64q-23 6 -58.5 12.5t-74.5 6.5q-55 0 -104 -21.5t-49 -72.5 q0 -23 11 -39.5t30.5 -28.5t44 -22.5t49.5 -22.5q37 -16 70.5 -33.5t59.5 -39t42 -48.5t16 -61q0 -86 -67.5 -126t-165.5 -40q-53 0 -99.5 8t-72.5 18z" />
<glyph horiz-adv-x="323" d="M18 1133v49l76 10l12 129l62 63v-194h135v-57h-135v-367q0 -66 28.5 -95.5t94.5 -29.5h14t14 2l-14 -59q-6 0 -14 -1t-19 -1q-84 0 -128 41t-44 131v379h-82z" />
<glyph horiz-adv-x="2045" d="M96 627q0 147 34 273t104.5 218t179 144.5t256.5 52.5q37 0 72.5 -4t68.5 -10.5t56.5 -12.5t35.5 -10l-29 -113q-47 23 -103 35t-112 12q-117 0 -200.5 -45t-138 -123.5t-79 -183t-24.5 -221.5q0 -115 26.5 -216t82 -176t139.5 -118t201 -43q98 0 183 19.5t163 52.5v1138 h118v-567h623v567h131l-12 -116v-1180h-119v629h-623v-545q-84 -35 -204.5 -68.5t-268.5 -33.5q-141 0 -246.5 47t-175 132t-104.5 203.5t-35 262.5z" />
<glyph horiz-adv-x="1880" d="M96 627q0 145 34 271t103.5 218t177 145.5t253.5 53.5q72 0 140 -12.5t99 -22.5l-29 -113q-96 45 -221 45q-115 0 -197.5 -45t-136 -123.5t-78 -183t-24.5 -221.5t26.5 -218.5t82 -175t141.5 -116.5t203 -43q100 0 185 20.5t157 51.5v1224h125l-13 -116v-430h9 q41 63 112.5 111t179.5 48q158 0 232 -88t74 -245v-662h-113v670q0 102 -47 166.5t-152 64.5q-82 0 -138 -33.5t-91 -91t-50.5 -131.5t-15.5 -156v-405q-45 -18 -94 -35.5t-105.5 -33t-122 -24.5t-140.5 -9q-141 0 -248 46t-177.5 130t-105.5 202.5t-35 266.5z" />
<glyph horiz-adv-x="1691" d="M76 489q0 113 29.5 206t86 160t140.5 103.5t194 36.5q59 0 113.5 -10t87.5 -20l-25 -99q-43 16 -83.5 25.5t-92.5 9.5q-88 0 -151.5 -30.5t-105.5 -85t-61.5 -130t-19.5 -168.5q0 -90 20.5 -165.5t63.5 -130t107.5 -85t155.5 -30.5q84 0 156.5 19.5t131.5 43.5v1243h125 l-12 -116v-430h8q41 63 112.5 111t180.5 48q154 0 229.5 -88t75.5 -245v-662h-112v670q0 102 -46.5 166.5t-150.5 64.5q-84 0 -140.5 -33.5t-91 -91t-50 -131.5t-15.5 -156v-415q-14 -6 -50 -21.5t-90.5 -31t-121 -27.5t-142.5 -12q-119 0 -204.5 34.5t-142 100t-83 160 t-26.5 212.5z" />
<glyph horiz-adv-x="1835" d="M96 526q0 276 124 426t374 150q66 0 125 -11.5t86 -19.5l-27 -104q-39 18 -89 29.5t-103 11.5q-199 0 -287 -122t-88 -349q0 -96 22.5 -179.5t69.5 -145.5t116.5 -98t166.5 -36q90 0 172 20.5t151 53.5v931h115v-469h522v469h127l-12 -116v-967h-115v520h-522v-432 q-92 -43 -198.5 -74.5t-245.5 -31.5q-121 0 -211 39.5t-150.5 112.5t-91.5 172.5t-31 219.5z" />
<glyph horiz-adv-x="970" d="M35 0l405 1083h150l346 -1083h-148l-8 92l-65 221h-445l-110 -313h-125zM305 408h381l-154 512l-14 65h-8l-14 -65z" />
<glyph horiz-adv-x="970" d="M35 0l405 1083h150l346 -1083h-148l-8 92l-65 221h-445l-110 -313h-125zM301 1235l334 221l63 -115l-356 -151zM305 408h381l-154 512l-14 65h-8l-14 -65z" />
<glyph horiz-adv-x="970" d="M35 0l405 1083h150l346 -1083h-148l-8 92l-65 221h-445l-110 -313h-125zM242 1243l215 189q18 16 34.5 18t22.5 2t22.5 -2t34.5 -18l215 -189l-41 -45l-231 131l-231 -131zM305 408h381l-154 512l-14 65h-8l-14 -65z" />
<glyph horiz-adv-x="970" d="M35 0l405 1083h150l346 -1083h-148l-8 92l-65 221h-445l-110 -313h-125zM305 408h381l-154 512l-14 65h-8l-14 -65zM365 1219v231h98v-231h-98zM563 1219v231h101v-231h-101z" />
<glyph horiz-adv-x="970" d="M35 0l405 1083h150l346 -1083h-148l-8 92l-65 221h-445l-110 -313h-125zM305 408h381l-154 512l-14 65h-8l-14 -65zM317 1341l64 115l334 -221l-41 -45z" />
<glyph horiz-adv-x="970" d="M35 0l405 1083h150l346 -1083h-148l-8 92l-65 221h-445l-110 -313h-125zM305 408h381l-154 512l-14 65h-8l-14 -65zM311 1323q0 43 16.5 75t44 52t63.5 30.5t75 10.5q37 0 72.5 -10.5t63.5 -30.5t44.5 -52t16.5 -75t-17.5 -72.5t-45.5 -50t-63.5 -30t-72.5 -9.5 q-39 0 -74 9.5t-62.5 30t-44 50t-16.5 72.5zM412 1323q0 -47 28.5 -65.5t69.5 -18.5t69.5 18.5t28.5 65.5t-28.5 68.5t-69.5 21.5t-69.5 -21.5t-28.5 -68.5z" />
<glyph horiz-adv-x="970" d="M35 0l405 1083h150l346 -1083h-148l-8 92l-65 221h-445l-110 -313h-125zM246 1286l14 84q23 12 45 23q20 8 46 15t55 7q66 0 133 -20.5t145 -20.5q51 0 109 27l-15 -84q-20 -14 -43 -23q-20 -10 -44.5 -16t-53.5 -6q-70 0 -138.5 20.5t-142.5 20.5q-53 0 -110 -27z M305 408h381l-154 512l-14 65h-8l-14 -65z" />
<glyph horiz-adv-x="1417" d="M35 0l364 1083h877l6 -94h-508l35 -389h479l6 -94h-477l35 -412h524l6 -94h-647v92l-16 182h-469l-90 -274h-125zM279 369h434l-51 620h-183z" />
<glyph horiz-adv-x="1026" d="M162 0l12 98v985h393q63 0 122 -16t102 -50t68.5 -85t25.5 -121q0 -86 -33 -147.5t-104 -96.5v-10q82 -37 120.5 -107.5t38.5 -158.5q0 -143 -90 -217t-233 -74h-422zM289 94h254q123 0 185.5 46t62.5 153q0 100 -60.5 156.5t-183.5 56.5h-258v-412zM289 600h258 q106 0 163.5 49t57.5 148q0 193 -231 192h-248v-389z" />
<glyph horiz-adv-x="862" d="M96 496q0 137 33 248.5t97.5 191.5t159.5 123t220 43q59 0 120.5 -12.5t88.5 -20.5l-27 -100q-33 16 -85 27.5t-105 11.5q-98 0 -170 -36t-120 -102.5t-70.5 -159t-22.5 -204.5q0 -86 18.5 -165t57.5 -137.5t99.5 -93t144.5 -34.5q51 0 96 12t81 31.5t62.5 41t40.5 40.5 l31 -113q-8 -6 -33 -23.5t-64.5 -36t-95 -32.5t-125.5 -14q-98 0 -178 35.5t-136 103t-87 163t-31 212.5z" />
<glyph horiz-adv-x="862" d="M96 496q0 137 33 248.5t97.5 191.5t159.5 123t220 43q59 0 120.5 -12.5t88.5 -20.5l-27 -100q-33 16 -85 27.5t-105 11.5q-98 0 -170 -36t-120 -102.5t-70.5 -159t-22.5 -204.5q0 -86 18.5 -165t57.5 -137.5t99.5 -93t144.5 -34.5q51 0 96 12t81 31.5t62.5 41t40.5 40.5 l31 -113q-8 -6 -33 -23.5t-64.5 -36t-95 -32.5t-125.5 -14q-98 0 -178 35.5t-136 103t-87 163t-31 212.5zM389 -336l12 68q16 -4 44 -9.5t63 -5.5q45 0 73.5 15.5t28.5 50.5q0 29 -23.5 43t-62.5 14q-14 0 -30.5 -1t-26.5 -3l20 166h74v-94q55 0 105.5 -30t50.5 -93 q0 -35 -17.5 -61.5t-46 -43t-65.5 -24.5t-74 -8q-43 0 -75.5 6t-49.5 10z" />
<glyph horiz-adv-x="1077" d="M162 0l12 98v985h348q238 0 348.5 -142t110.5 -421q0 -121 -28.5 -217t-82 -163.5t-129 -103.5t-168.5 -36h-411zM289 94h256q84 0 144.5 32t98 89t56 136t18.5 173q0 227 -80 346t-268 119h-225v-895z" />
<glyph horiz-adv-x="1069" d="M35 543l131 26v514h348q238 0 348.5 -142t110.5 -421q0 -121 -29 -217t-82 -163.5t-129 -103.5t-168 -36h-411l12 98v385l-117 -24zM281 94h256q84 0 144 32t98 89t56.5 136t18.5 173q0 227 -80 346t-268 119h-225v-395l235 49l16 -82l-251 -53v-414z" />
<glyph horiz-adv-x="880" d="M162 0l12 111v972h637v-94h-522v-389h495v-94h-495v-412h536v-94h-663z" />
<glyph horiz-adv-x="909" d="M162 0l12 100v983h664v-94h-549v-373h520v-94h-520v-428h565v-94h-692zM311 1237l334 221l64 -115l-357 -151z" />
<glyph horiz-adv-x="909" d="M162 0l12 100v983h664v-94h-549v-373h520v-94h-520v-428h565v-94h-692zM246 1241l215 189q18 16 34.5 18t22.5 2t22.5 -2t34.5 -18l216 -189l-41 -45l-232 131l-231 -131z" />
<glyph horiz-adv-x="909" d="M162 0l12 100v983h664v-94h-549v-373h520v-94h-520v-428h565v-94h-692zM369 1219v231h98v-231h-98zM567 1219v231h101v-231h-101z" />
<glyph horiz-adv-x="909" d="M162 0l12 100v983h664v-94h-549v-373h520v-94h-520v-428h565v-94h-692zM303 1341l64 115l333 -221l-41 -45z" />
<glyph horiz-adv-x="831" d="M162 0l12 98v985h623v-94h-508v-418h479v-94h-479v-477h-127z" />
<glyph horiz-adv-x="1019" d="M96 502q0 129 31 239.5t95.5 191.5t161.5 126t230 45q66 0 136.5 -12.5t134.5 -30.5l-25 -103q-31 14 -99.5 33t-152.5 19q-98 0 -172 -36t-123 -101.5t-73.5 -156.5t-24.5 -202q0 -88 17.5 -168t56.5 -140.5t103.5 -96t156.5 -35.5q76 0 139.5 18.5t97.5 40.5v338h-241 v94h348v-495q-20 -10 -54 -25.5t-79 -30t-102.5 -23.5t-122.5 -9q-96 0 -176 31.5t-138.5 96t-91.5 162t-33 230.5z" />
<glyph horiz-adv-x="1097" d="M162 0l12 100v983h115v-469h522v469h125l-10 -98v-985h-115v520h-522v-520h-127z" />
<glyph horiz-adv-x="464" d="M162 0l12 100v983h115v-1083h-127z" />
<glyph horiz-adv-x="464" d="M27 1235l333 221l64 -115l-356 -151zM162 0l12 100v983h115v-1083h-127z" />
<glyph horiz-adv-x="464" d="M-37 1243l215 189q18 16 34.5 18t23.5 2q6 0 22 -2t35 -18l215 -189l-41 -45l-231 131l-232 -131zM162 0l12 100v983h115v-1083h-127z" />
<glyph horiz-adv-x="464" d="M86 1219v231h98v-231h-98zM162 0l12 100v983h115v-1083h-127zM285 1219v231h100v-231h-100z" />
<glyph horiz-adv-x="464" d="M27 1341l63 115l334 -221l-41 -45zM162 0l12 100v983h115v-1083h-127z" />
<glyph horiz-adv-x="587" d="M20 80q10 -2 25.5 -3t20.5 -1q121 0 183 61.5t62 181.5v670l-256 15v79h381l-10 -100v-674q0 -82 -27.5 -143.5t-73.5 -102t-107.5 -61t-129.5 -20.5q-12 0 -27.5 1t-23.5 3z" />
<glyph horiz-adv-x="978" d="M162 0l12 100v983h115v-573h8l31 61l415 512h142l-361 -436l410 -647h-135l-344 551h-11l-155 -189v-362h-127z" />
<glyph horiz-adv-x="774" d="M162 0l12 98v985h115v-989h463v-94h-590z" />
<glyph horiz-adv-x="1456" d="M154 0l16 98l45 985h184l316 -909l10 -59h10l10 59l326 909h193l-7 -98l25 -985h-119l-14 993h-8l-15 -69l-333 -924h-125l-328 928l-12 67h-9l-34 -995h-131z" />
<glyph horiz-adv-x="1112" d="M162 0l12 94v989h182l467 -977h8l-8 70v907h127l-12 -98v-985h-184l-465 977h-8l8 -70v-907h-127z" />
<glyph horiz-adv-x="1112" d="M162 0l12 94v989h182l467 -977h8l-8 70v907h127l-12 -98v-985h-184l-465 977h-8l8 -70v-907h-127zM297 1284l14 84q23 12 45 23q20 8 46 15t55 7q66 0 133 -20.5t145 -20.5q51 0 109 27l-15 -84q-20 -14 -43 -23q-20 -10 -44.5 -16t-53.5 -6q-70 0 -138.5 20.5 t-141.5 20.5q-53 0 -111 -27z" />
<glyph horiz-adv-x="1071" d="M96 530q0 129 30 234.5t87 180.5t142 116t196 41q106 0 186 -39t132.5 -111.5t79 -174t26.5 -226.5q0 -129 -30 -233.5t-88 -179.5t-144 -115.5t-199 -40.5q-213 0 -315.5 146t-102.5 402zM215 530q0 -92 16.5 -174t52 -144t94 -99t142.5 -37q86 0 149.5 38t105.5 103.5 t61.5 151.5t19.5 182q0 92 -17.5 175t-55.5 145.5t-97 99.5t-143 37q-90 0 -151.5 -40t-101.5 -106.5t-57.5 -152.5t-17.5 -179z" />
<glyph horiz-adv-x="1071" d="M96 530q0 129 30 234.5t87 180.5t142 116t196 41q106 0 186 -39t132.5 -111.5t79 -174t26.5 -226.5q0 -129 -30 -233.5t-88 -179.5t-144 -115.5t-199 -40.5q-213 0 -315.5 146t-102.5 402zM215 530q0 -92 16.5 -174t52 -144t94 -99t142.5 -37q86 0 149.5 38t105.5 103.5 t61.5 151.5t19.5 182q0 92 -17.5 175t-55.5 145.5t-97 99.5t-143 37q-90 0 -151.5 -40t-101.5 -106.5t-57.5 -152.5t-17.5 -179zM352 1235l334 221l64 -115l-357 -151z" />
<glyph horiz-adv-x="1071" d="M96 530q0 129 30 234.5t87 180.5t142 116t196 41q106 0 186 -39t132.5 -111.5t79 -174t26.5 -226.5q0 -129 -30 -233.5t-88 -179.5t-144 -115.5t-199 -40.5q-213 0 -315.5 146t-102.5 402zM215 530q0 -92 16.5 -174t52 -144t94 -99t142.5 -37q86 0 149.5 38t105.5 103.5 t61.5 151.5t19.5 182q0 92 -17.5 175t-55.5 145.5t-97 99.5t-143 37q-90 0 -151.5 -40t-101.5 -106.5t-57.5 -152.5t-17.5 -179zM268 1243l215 189q18 16 35 18t23 2t22.5 -2t34.5 -18l215 -189l-41 -45l-231 131l-232 -131z" />
<glyph horiz-adv-x="1071" d="M96 530q0 129 30 234.5t87 180.5t142 116t196 41q106 0 186 -39t132.5 -111.5t79 -174t26.5 -226.5q0 -129 -30 -233.5t-88 -179.5t-144 -115.5t-199 -40.5q-213 0 -315.5 146t-102.5 402zM215 530q0 -92 16.5 -174t52 -144t94 -99t142.5 -37q86 0 149.5 38t105.5 103.5 t61.5 151.5t19.5 182q0 92 -17.5 175t-55.5 145.5t-97 99.5t-143 37q-90 0 -151.5 -40t-101.5 -106.5t-57.5 -152.5t-17.5 -179zM391 1219v231h98v-231h-98zM590 1219v231h100v-231h-100z" />
<glyph horiz-adv-x="1071" d="M96 530q0 129 30 234.5t87 180.5t142 116t196 41q106 0 186 -39t132.5 -111.5t79 -174t26.5 -226.5q0 -129 -30 -233.5t-88 -179.5t-144 -115.5t-199 -40.5q-213 0 -315.5 146t-102.5 402zM215 530q0 -92 16.5 -174t52 -144t94 -99t142.5 -37q86 0 149.5 38t105.5 103.5 t61.5 151.5t19.5 182q0 92 -17.5 175t-55.5 145.5t-97 99.5t-143 37q-90 0 -151.5 -40t-101.5 -106.5t-57.5 -152.5t-17.5 -179zM379 1341l63 115l334 -221l-41 -45z" />
<glyph horiz-adv-x="1071" d="M96 530q0 129 30 234.5t87 180.5t142 116t196 41q106 0 186 -39t132.5 -111.5t79 -174t26.5 -226.5q0 -129 -30 -233.5t-88 -179.5t-144 -115.5t-199 -40.5q-213 0 -315.5 146t-102.5 402zM109 -82l118 203l70 -58l-88 -145h-100zM215 530q0 -92 16.5 -174t52 -144 t94 -99t142.5 -37q86 0 149.5 38t105.5 103.5t61.5 151.5t19.5 182q0 92 -17.5 175t-55.5 145.5t-97 99.5t-143 37q-90 0 -151.5 -40t-101.5 -106.5t-57.5 -152.5t-17.5 -179zM270 190l58 -71l463 776l-58 70zM766 1022l88 149h100l-123 -206z" />
<glyph horiz-adv-x="1071" d="M96 530q0 129 30 234.5t87 180.5t142 116t196 41q106 0 186 -39t132.5 -111.5t79 -174t26.5 -226.5q0 -129 -30 -233.5t-88 -179.5t-144 -115.5t-199 -40.5q-213 0 -315.5 146t-102.5 402zM215 530q0 -92 16.5 -174t52 -144t94 -99t142.5 -37q86 0 149.5 38t105.5 103.5 t61.5 151.5t19.5 182q0 92 -17.5 175t-55.5 145.5t-97 99.5t-143 37q-90 0 -151.5 -40t-101.5 -106.5t-57.5 -152.5t-17.5 -179zM262 1286l14 84q23 12 46 23q20 8 45.5 15t54.5 7q66 0 133.5 -20.5t144.5 -20.5q51 0 109 27l-14 -84q-20 -14 -43 -23q-20 -10 -45 -16 t-54 -6q-70 0 -138.5 20.5t-141.5 20.5q-53 0 -111 -27z" />
<glyph horiz-adv-x="1466" d="M96 524q0 274 129 416.5t359 142.5h811v-94h-527v-375h498v-92h-498v-428h543v-94h-879q-215 0 -325.5 131t-110.5 393zM215 524q0 -96 17.5 -175t57.5 -136t104.5 -89t158.5 -32h201v899h-154q-104 0 -178 -33.5t-120 -95t-66.5 -147.5t-20.5 -191z" />
<glyph horiz-adv-x="976" d="M162 0l10 98v985h338q86 0 156.5 -18t120 -57t77 -100.5t27.5 -147.5q0 -84 -27.5 -142.5t-77 -96.5t-117 -55t-147.5 -17h-235v-449h-125zM287 543h213q135 0 204.5 48t69.5 171q0 66 -20.5 109.5t-57.5 69.5t-89 37t-115 11h-205v-446z" />
<glyph horiz-adv-x="978" d="M162 0l12 98v985h115v-178h223q188 0 284.5 -80t96.5 -239q0 -154 -94 -235t-273 -81h-237v-270h-127zM289 365h215q141 0 206.5 53t65.5 170t-68.5 170t-215.5 53h-203v-446z" />
<glyph horiz-adv-x="1071" d="M96 530q0 129 30 234.5t87 180.5t142 116t196 41q106 0 186 -39t132.5 -111.5t79 -174t26.5 -226.5q0 -211 -79 -354.5t-230 -192.5l75 -205h-114l-68 185q-10 0 -22.5 -1t-22.5 -1q-213 0 -315.5 146t-102.5 402zM215 530q0 -92 16.5 -174t52 -144t94 -99t142.5 -37h4 l-67 188h114l62 -168q57 23 99 67t69.5 103.5t41 132t13.5 152.5q0 92 -17.5 175t-55.5 145.5t-97 99.5t-143 37q-90 0 -151.5 -40t-101.5 -106.5t-57.5 -152.5t-17.5 -179z" />
<glyph horiz-adv-x="1044" d="M162 0l12 98v985h373q78 0 143.5 -17t112.5 -53t73.5 -92.5t26.5 -134.5q0 -113 -50 -178t-132 -94v-10q29 -14 46 -31.5t30.5 -43.5t23.5 -63.5t27 -93.5l76 -272h-119l-82 297q-16 61 -36.5 97t-49.5 54.5t-71 23.5t-103 5h-174v-477h-127zM289 571h243 q123 0 188.5 55.5t65.5 153.5q0 104 -62 156.5t-181 52.5h-254v-418z" />
<glyph horiz-adv-x="913" d="M96 18l25 105q66 -20 130 -32.5t142 -12.5q53 0 104.5 10t92.5 32.5t66.5 59.5t25.5 90q0 45 -20.5 78t-56.5 59.5t-84 49t-101 47.5t-104.5 50.5t-91.5 61t-64.5 81.5t-24.5 112q0 78 34 133t90 91t128 52.5t150 16.5q57 0 121.5 -8.5t121.5 -22.5l-26 -104 q-47 16 -104.5 28.5t-123.5 12.5q-51 0 -100 -10.5t-87 -33t-61.5 -58.5t-23.5 -87q0 -43 17.5 -73.5t47 -55t69.5 -45t87 -41.5q61 -29 119.5 -57.5t104.5 -65.5t75 -85t29 -115q0 -80 -37 -136.5t-96.5 -93.5t-135 -53t-155.5 -16q-82 0 -159 10t-124 26z" />
<glyph horiz-adv-x="753" d="M33 989v94h688v-94h-287v-989h-127l12 100v889h-286z" />
<glyph horiz-adv-x="1087" d="M152 1083h124v-706q0 -145 55.5 -223t200.5 -78q150 0 214.5 80t64.5 227v600l-6 100h121v-714q0 -188 -104.5 -287.5t-293.5 -99.5q-190 0 -278 96t-88 284v621z" />
<glyph horiz-adv-x="1087" d="M152 1083h124v-706q0 -145 55.5 -223t200.5 -78q150 0 214.5 80t64.5 227v600l-6 100h121v-714q0 -188 -104.5 -287.5t-293.5 -99.5q-190 0 -278 96t-88 284v621zM362 1235l334 221l64 -115l-357 -151z" />
<glyph horiz-adv-x="1087" d="M152 1083h124v-706q0 -145 55.5 -223t200.5 -78q150 0 214.5 80t64.5 227v600l-6 100h121v-714q0 -188 -104.5 -287.5t-293.5 -99.5q-190 0 -278 96t-88 284v621zM266 1243l215 189q18 16 34.5 18t23.5 2q6 0 22.5 -2t34.5 -18l215 -189l-41 -45l-231 131l-232 -131z" />
<glyph horiz-adv-x="1087" d="M152 1083h124v-706q0 -145 55.5 -223t200.5 -78q150 0 214.5 80t64.5 227v600l-6 100h121v-714q0 -188 -104.5 -287.5t-293.5 -99.5q-190 0 -278 96t-88 284v621zM397 1219v231h99v-231h-99zM596 1219v231h100v-231h-100z" />
<glyph horiz-adv-x="1087" d="M152 1083h124v-706q0 -145 55.5 -223t200.5 -78q150 0 214.5 80t64.5 227v600l-6 100h121v-714q0 -188 -104.5 -287.5t-293.5 -99.5q-190 0 -278 96t-88 284v621zM338 1341l63 115l334 -221l-41 -45z" />
<glyph horiz-adv-x="907" d="M37 1083h125l262 -909l12 -68h8l13 68l256 803l14 106h143l-352 -1083h-153z" />
<glyph horiz-adv-x="1499" d="M43 1083h127l250 -968h10v63l207 797l12 108h187l219 -905v-63h8l242 860l14 108h137l-313 -1083h-152l-227 920l-10 75h-9l-12 -75l-244 -920h-151z" />
<glyph horiz-adv-x="970" d="M49 0l352 559l-313 524h139l232 -401l28 -66h9l26 64l201 317l41 86h147l-331 -524l342 -559h-136l-264 440l-26 72h-9l-26 -72l-207 -327l-49 -113h-156z" />
<glyph horiz-adv-x="854" d="M31 1083h125l233 -503l17 -68h10l14 70l217 395l39 106h137l-356 -667v-416h-115v416z" />
<glyph horiz-adv-x="854" d="M31 1083h125l233 -503l17 -68h10l14 70l217 395l39 106h137l-356 -667v-416h-115v416zM244 1235l334 221l63 -115l-356 -151z" />
<glyph horiz-adv-x="854" d="M31 1083h125l233 -503l17 -68h10l14 70l217 395l39 106h137l-356 -667v-416h-115v416zM289 1219v231h98v-231h-98zM487 1219v231h101v-231h-101z" />
<glyph horiz-adv-x="825" d="M55 0v121l545 819l51 39l-4 10h-575v94h680v-118l-545 -820l-47 -43l2 -8h504l104 15v-109h-715z" />
<glyph horiz-adv-x="989" d="M74 532q0 127 30.5 232.5t87 180.5t138.5 116t184 41q100 0 176 -38t126 -108.5t74.5 -173t24.5 -229.5q0 -129 -30.5 -233.5t-88 -180.5t-138.5 -116.5t-181 -40.5q-201 0 -302 147t-101 403zM188 532q0 -90 15.5 -173t50.5 -146t91 -100t138 -37q76 0 135.5 41 t99.5 107.5t61.5 152.5t21.5 176q0 88 -16.5 171t-53.5 145.5t-93 100.5t-136 38q-84 0 -143.5 -41t-97.5 -107.5t-55.5 -152.5t-17.5 -175z" />
<glyph horiz-adv-x="829" d="M70 854q90 23 176 79t157 150h140l-35 -987h272v-96h-688v96h301l25 848h-10l-39 -59q-61 -53 -130 -87t-147 -59z" />
<glyph horiz-adv-x="888" d="M76 0v147q147 96 254.5 173t178.5 146t104.5 135.5t33.5 141.5q0 119 -83 185.5t-232 66.5q-68 0 -136.5 -13t-117.5 -30l28 121q35 6 72 14q33 4 75 9.5t89 5.5q86 0 164 -23.5t135 -68.5t91 -113t34 -154q0 -90 -30.5 -162.5t-98.5 -143t-173.5 -149.5t-254.5 -179 l2 -11h518l115 13v-111h-768z" />
<glyph horiz-adv-x="923" d="M66 125q45 -14 94 -23q41 -10 89 -16t95 -6q66 0 128.5 10t110.5 33.5t76.5 63.5t28.5 100q0 63 -28.5 104t-75.5 65.5t-106.5 35t-121.5 10.5h-143v94h139q59 0 114.5 10t97.5 33t67.5 61.5t25.5 98.5q0 55 -22.5 95t-62.5 64.5t-93 36t-114 11.5q-55 0 -124 -11.5 t-135 -33.5l31 116q39 10 98.5 17.5t129.5 7.5q82 0 156.5 -16.5t131 -52.5t90 -92t33.5 -138q0 -84 -40 -145.5t-128 -98.5v-10q94 -35 146.5 -103.5t52.5 -169.5q0 -82 -40 -138t-104.5 -91t-145.5 -50t-165 -15q-41 0 -82 4t-76.5 9t-64.5 10t-43 9z" />
<glyph horiz-adv-x="929" d="M39 229v121l512 733h166v-755h151v-99h-149v-229h-113v229h-567zM131 328h471v604l16 59h-10l-430 -622l-47 -31v-10z" />
<glyph horiz-adv-x="890" d="M78 125q57 -20 131 -32.5t139 -12.5q68 0 131.5 13t111.5 42t76.5 74t28.5 108q0 76 -43 123t-107.5 74t-139 36t-140.5 9h-104v524h598v-108l-115 12h-369v-330q109 0 207.5 -17t172 -57t116.5 -106.5t43 -165.5q0 -84 -37 -146.5t-98.5 -103.5t-142 -60t-170.5 -19 q-152 0 -261 26z" />
<glyph horiz-adv-x="937" d="M76 535q0 125 30.5 228t92 179t155.5 118t221 42q68 0 127.5 -9.5t81.5 -15.5l25 -114q-25 10 -82 25.5t-145 15.5q-178 0 -276.5 -100.5t-106.5 -274.5q72 8 124 11t99 3q96 0 180 -20.5t145.5 -62.5t96.5 -105.5t35 -147.5q0 -76 -29 -136t-79 -102t-119.5 -64.5 t-149.5 -22.5q-115 0 -196 42t-132 115.5t-74.5 175t-23.5 220.5zM193 532q2 -92 17 -174t50 -144t95.5 -98t154.5 -36q113 0 182.5 59.5t69.5 163.5q0 68 -26.5 115t-74 75.5t-112 42t-139.5 13.5q-61 0 -113.5 -4t-103.5 -13z" />
<glyph horiz-adv-x="808" d="M39 977v106h713v-135q-129 -129 -204 -255t-115 -245.5t-51 -230.5t-11 -209v-8h-115v8q0 96 12.5 207t49 231.5t106.5 248.5t186 257l54 27v10h-508z" />
<glyph horiz-adv-x="1026" d="M117 268q0 96 60.5 169t152.5 116v8q-86 35 -136.5 99.5t-50.5 144.5q0 72 31 127t85 93t126 57.5t152 19.5q78 0 144.5 -19.5t114.5 -57.5t75.5 -91t27.5 -121q0 -84 -56.5 -152.5t-142.5 -103.5v-8q102 -45 155.5 -111.5t53.5 -158.5q0 -76 -33.5 -131.5t-89 -92.5 t-129 -55t-153.5 -18q-84 0 -156 19t-123 56t-79.5 90.5t-28.5 120.5zM236 272q0 -94 75.5 -144t192.5 -50q55 0 107.5 12t91 37t62 61.5t23.5 85.5q0 47 -21.5 82t-57 60.5t-85 44t-104.5 33.5l-53 14q-47 -16 -88 -37.5t-74 -49.5t-51 -65t-18 -84zM264 819 q0 -47 20.5 -80.5t54.5 -56.5t78 -39t91 -29l53 -16q37 10 76 28.5t71.5 46t53 63.5t20.5 83q0 43 -20.5 78t-55 59.5t-80.5 37t-98 12.5q-49 0 -96 -11.5t-84 -35t-60.5 -58.5t-23.5 -82z" />
<glyph horiz-adv-x="937" d="M59 776q0 76 29 136.5t79 102.5t119.5 64.5t149.5 22.5q115 0 196 -42t132 -116t74.5 -175t23.5 -220q0 -125 -30.5 -229.5t-92 -179t-156 -116.5t-221.5 -42q-68 0 -127 9t-81 15l-25 115q25 -10 82 -25.5t145 -15.5q178 0 276.5 100.5t106.5 274.5q-72 -8 -124 -11.5 t-99 -3.5q-96 0 -180 20.5t-145.5 62.5t-96.5 105.5t-35 147.5zM176 780q0 -68 26.5 -115t74 -75.5t112 -41.5t139.5 -13q61 0 113.5 4t103.5 12q-4 92 -18 174t-49 144.5t-95.5 98.5t-154.5 36q-113 0 -182.5 -59.5t-69.5 -164.5z" />
<glyph horiz-adv-x="557" d="M49 293q0 141 64.5 227.5t179.5 86.5q111 0 165 -81t54 -223q0 -141 -64.5 -226t-177.5 -85q-111 0 -166 80t-55 221zM113 293q0 -49 8 -95t26.5 -80t49 -54.5t75.5 -20.5q43 0 76 22.5t55.5 58.5t34 83t11.5 96t-9.5 95.5t-29 81t-51 55t-74.5 20.5q-47 0 -79 -22.5 t-53.5 -59t-30.5 -84t-9 -96.5z" />
<glyph horiz-adv-x="503" d="M68 469q47 12 95 43t87 82h76l-19 -542h152v-52h-379v52h166l12 467h-8l-19 -33q-35 -29 -72.5 -47.5t-78.5 -32.5z" />
<glyph horiz-adv-x="516" d="M57 0v82q80 53 139.5 95.5t98.5 80t58.5 74.5t19.5 78q0 66 -45 102.5t-129 36.5q-37 0 -75 -6t-65 -16l15 65q18 4 41 8q18 4 40.5 6.5t49.5 2.5q47 0 90 -13.5t74.5 -38t50 -61.5t18.5 -86t-16 -89t-52 -79t-94.5 -82t-140.5 -98v-8h283l63 8v-62h-424z" />
<glyph horiz-adv-x="526" d="M51 72q25 -6 51 -12q23 -4 50.5 -8.5t52.5 -4.5q37 0 71.5 5.5t60 18.5t42 34.5t16.5 54.5q0 35 -16.5 58.5t-42 37t-59 19.5t-66.5 6h-78v49h76q66 0 117 23.5t51 89.5q0 61 -46 87.5t-116 26.5q-31 0 -67.5 -7t-73.5 -17l18 63q20 6 52 10.5t71 4.5q45 0 87 -9.5 t73 -29t49 -50t18 -75.5q0 -96 -90 -137v-9q51 -16 80 -53t29 -94q0 -45 -21.5 -76t-57.5 -50.5t-81 -27.5t-92 -8q-43 0 -86 7t-60 12z" />
<glyph horiz-adv-x="550" d="M61 125v68l283 401h90v-413h72v-56h-72v-125h-61v125h-312zM113 181h258v329l12 33h-8l-238 -340l-24 -14v-8z" />
<glyph horiz-adv-x="505" d="M53 72q31 -10 72 -17.5t76 -7.5q37 0 71.5 7.5t61 22.5t43 41t16.5 60q0 41 -23.5 68t-59.5 41t-76.5 19.5t-77.5 5.5h-58v286h330v-59l-63 6h-203v-180q59 0 113.5 -9.5t94.5 -32t63.5 -58t23.5 -91.5q0 -47 -20.5 -80.5t-54.5 -55t-78 -33t-93 -11.5q-84 0 -141 14z " />
<glyph horiz-adv-x="530" d="M47 297q0 137 68 224.5t207 87.5q37 0 69.5 -5.5t44.5 -9.5l13 -61q-12 4 -44 13t-81 9q-98 0 -151.5 -55t-57.5 -152q41 4 68.5 6.5t54.5 2.5q106 0 177.5 -45t71.5 -140q0 -84 -58 -131t-148 -47q-63 0 -107.5 22.5t-72 63.5t-41 96.5t-13.5 120.5zM111 297 q2 -51 10 -96t27.5 -79t52.5 -54.5t84 -20.5q61 0 100 33t39 90q0 74 -55.5 104.5t-139.5 30.5q-35 0 -62.5 -2t-55.5 -6z" />
<glyph horiz-adv-x="454" d="M23 529v59h391v-74q-72 -72 -113 -140t-62.5 -132.5t-27.5 -125t-6 -114.5v-8h-64v8q0 53 6.5 114t27 125.5t59 134t102.5 141.5l29 12v8h-279z" />
<glyph horiz-adv-x="563" d="M68 150q0 53 31.5 91t80.5 60v9q-47 20 -72.5 55t-25.5 78q0 78 63.5 120.5t151.5 42.5q86 0 143.5 -41.5t57.5 -115.5q0 -47 -30 -83t-77 -54v-9q111 -47 111 -147q0 -41 -18.5 -71.5t-49.5 -51t-70.5 -31t-82.5 -10.5q-94 0 -153.5 42t-59.5 116zM133 152 q0 -53 42.5 -80t105.5 -27q61 0 108 27t47 80t-43 78.5t-104 42.5l-29 8q-51 -18 -89 -47t-38 -82zM147 451q0 -27 11.5 -44.5t30 -30.5t43 -21.5t51.5 -16.5l28 -8q41 10 81 40t40 81q0 49 -41 75.5t-98 26.5q-53 0 -99.5 -25.5t-46.5 -76.5z" />
<glyph horiz-adv-x="530" d="M39 432q0 84 58.5 131.5t148.5 47.5q127 0 181 -86t54 -218q0 -139 -67.5 -226t-208.5 -87q-37 0 -70 5t-45 9l-12 62q12 -4 44 -13.5t81 -9.5q98 0 152.5 55.5t58.5 151.5q-41 -4 -70 -6t-55 -2q-106 0 -178 46t-72 140zM102 434q0 -74 55.5 -105.5t139.5 -31.5 q35 0 63.5 3t57.5 7q-2 51 -10.5 96.5t-28 79t-53 54t-84.5 20.5q-61 0 -100.5 -32.5t-39.5 -90.5z" />
<glyph horiz-adv-x="536" d="M37 887q0 141 64.5 227t179.5 86q111 0 165 -81t54 -222t-64.5 -226t-177.5 -85q-111 0 -166 79.5t-55 221.5zM100 887q0 -49 8.5 -95.5t27 -80t49 -54t75.5 -20.5q43 0 76 22.5t55.5 58.5t33.5 83t11 96t-9 95t-28.5 81t-51.5 55.5t-75 20.5q-47 0 -78.5 -22.5 t-53 -59.5t-31 -84t-9.5 -96z" />
<glyph horiz-adv-x="503" d="M68 1065q47 12 95 43t87 82h76l-19 -543h152v-51h-379v51h166l12 467h-8l-19 -33q-35 -29 -72.5 -47t-78.5 -33z" />
<glyph horiz-adv-x="516" d="M57 594v82q80 53 139.5 95t98.5 80t58.5 75t19.5 78q0 66 -45 102.5t-129 36.5q-37 0 -75 -6.5t-65 -16.5l15 66q18 4 41 8q18 4 40.5 6t49.5 2q47 0 90 -13t74.5 -38t50 -61.5t18.5 -85.5t-16 -89.5t-52 -79t-94.5 -81.5t-140.5 -99v-8h283l63 8v-61h-424z" />
<glyph horiz-adv-x="526" d="M53 662q25 -6 51 -13q23 -4 50.5 -8t52.5 -4q37 0 71.5 5t60.5 18.5t42 35t16 54.5q0 35 -16 58t-42 36.5t-59.5 19.5t-66.5 6h-78v50h76q66 0 117 23.5t51 88.5q0 61 -46 88t-116 27q-31 0 -67.5 -7t-73.5 -18l18 64q20 6 52 10t71 4q45 0 87 -9t73 -28.5t49 -50.5 t18 -76q0 -96 -90 -137v-8q51 -16 80 -53t29 -95q0 -45 -21.5 -75.5t-57.5 -50t-81 -27.5t-92 -8q-43 0 -86 7t-59 11z" />
<glyph horiz-adv-x="550" d="M61 721v67l283 402h90v-414h72v-55h-72v-125h-61v125h-312zM113 776h258v330l12 33h-8l-238 -340l-24 -15v-8z" />
<glyph horiz-adv-x="505" d="M53 664q31 -10 72 -17.5t76 -7.5q37 0 71.5 7t61 22.5t43 41t16.5 60.5q0 41 -23.5 67.5t-59.5 41t-76.5 19.5t-77.5 5h-58v287h330v-60l-63 7h-203v-181q59 0 113.5 -9t94.5 -31.5t63.5 -58.5t23.5 -91q0 -47 -20.5 -81t-54.5 -55.5t-78 -32.5t-93 -11q-84 0 -141 14z " />
<glyph horiz-adv-x="530" d="M47 889q0 137 68 224t207 87q37 0 69.5 -5t44.5 -9l13 -62q-12 4 -44 13.5t-81 9.5q-98 0 -151.5 -55.5t-57.5 -151.5q41 4 68.5 6t54.5 2q106 0 177.5 -45t71.5 -139q0 -84 -58 -131t-148 -47q-63 0 -107.5 22.5t-72 63.5t-41 96t-13.5 121zM111 889q2 -51 10 -96 t27.5 -79t52.5 -54.5t84 -20.5q61 0 100 33t39 90q0 74 -55.5 104.5t-139.5 30.5q-35 0 -62.5 -2t-55.5 -6z" />
<glyph horiz-adv-x="454" d="M23 1130v60h391v-74q-72 -72 -113 -140.5t-62.5 -133t-27.5 -125t-6 -113.5v-8h-64v8q0 53 6.5 113.5t27 125t59 134.5t102.5 141l29 12v9h-279z" />
<glyph horiz-adv-x="563" d="M68 745q0 53 31.5 91t80.5 61v8q-47 20 -72.5 55t-25.5 78q0 78 63.5 121t151.5 43q86 0 143.5 -42t57.5 -116q0 -47 -30 -82.5t-77 -54.5v-8q111 -47 111 -147q0 -41 -18.5 -72t-49.5 -51.5t-70.5 -30.5t-82.5 -10q-94 0 -153.5 42t-59.5 115zM133 748q0 -53 42.5 -80 t105.5 -27q61 0 108 26.5t47 80.5q0 53 -43 78.5t-104 41.5l-29 9q-51 -18 -89 -47t-38 -82zM147 1047q0 -27 11.5 -44.5t30 -31t43 -21.5t51.5 -16l28 -8q41 10 81 40t40 81q0 49 -41 75.5t-98 26.5q-53 0 -99.5 -25.5t-46.5 -76.5z" />
<glyph horiz-adv-x="530" d="M39 1022q0 84 58.5 131t148.5 47q127 0 181 -86t54 -217q0 -139 -67.5 -226t-208.5 -87q-37 0 -70 5t-45 9l-12 61q12 -4 44 -13t81 -9q98 0 152.5 55.5t58.5 151.5q-41 -4 -70 -6t-55 -2q-106 0 -178 46t-72 140zM102 1024q0 -74 55.5 -105.5t139.5 -31.5q35 0 63.5 3 t57.5 7q-2 51 -10.5 96t-28 79t-53 54.5t-84.5 20.5q-61 0 -100.5 -33t-39.5 -90z" />
<glyph horiz-adv-x="370" d="M127 1235q0 37 19.5 58.5t50.5 21.5q33 0 51 -21.5t18 -58.5q0 -82 -69 -82q-31 0 -50.5 21.5t-19.5 60.5z" />
<glyph horiz-adv-x="1173" d="M104 305q0 102 40 173t112 132q-47 66 -64.5 115t-17.5 104t21.5 105.5t60.5 87.5t93 58.5t122 21.5q111 0 186.5 -50.5t75.5 -160.5h336l109 6l-25 -96h-201q0 -98 -4 -181t-14 -154t-30.5 -133.5t-51.5 -123.5q49 -35 109.5 -66.5t105.5 -52.5l-27 -108 q-41 16 -108.5 52t-140.5 83q-53 -61 -136.5 -98t-189.5 -37q-74 0 -139.5 22.5t-114.5 63.5t-78 101t-29 136zM215 319q0 -51 19.5 -96t54.5 -77.5t80 -51t98 -18.5q137 0 233 98q-51 35 -106 80t-107.5 93t-96.5 95t-75 84q-100 -80 -100 -207zM285 829q0 -53 38.5 -122.5 t105.5 -144.5t153 -151.5t178 -142.5q27 53 43 108.5t24.5 119t10.5 138.5t2 167h-215q2 12 2 27.5v31.5q0 147 -158 148q-78 0 -131 -46.5t-53 -132.5z" />
</font>
</defs>
</svg>
