<?xml version="1.0" standalone="no"?>
<!DOCTYPE svg PUBLIC "-//W3C//DTD SVG 1.1//EN" "http://www.w3.org/Graphics/SVG/1.1/DTD/svg11.dtd" >
<svg xmlns="http://www.w3.org/2000/svg">
<metadata></metadata>
<defs>
<font id="distefanosansregular" horiz-adv-x="1003" >
<font-face units-per-em="2048" ascent="1536" descent="-512" />
<missing-glyph horiz-adv-x="382" />
<glyph unicode="&#xfb00;" horiz-adv-x="1099" d="M25 815v148l125 16v98q0 154 92 239t250 85h24t33 -2l24 -166q-10 2 -25.5 3t-27.5 1q-80 0 -125 -39t-45 -119q0 -23 2 -41t6 -32q4 -16 11 -29h311v100q0 154 92 239t250 85h24.5t32.5 -2l25 -166q-10 2 -25.5 3t-27.5 1q-80 0 -125 -39t-45 -119q0 -23 2 -41t6 -32 q4 -16 10 -29h180v-162h-194v-815h-219l14 145v670h-326v-815h-219l15 145v670h-125z" />
<glyph unicode="&#xfb03;" horiz-adv-x="1531" d="M25 815v148l125 16v98q0 154 92 239t250 85h24t33 -2l24 -166q-10 2 -25.5 3t-27.5 1q-80 0 -125 -39t-45 -119q0 -23 2 -41t6 -32q4 -16 11 -29h313v100q0 154 92 239t250 85h24.5t32.5 -2l25 -166q-10 2 -25.5 3t-27.5 1q-80 0 -125 -39t-45 -119q0 -23 2 -41t6 -32 q4 -16 10 -29h512v-977h-215l16 156v659h-327v-815h-219l14 145v670h-328v-815h-219l15 145v670h-125zM1174 1262l137 137l137 -137l-137 -140z" />
<glyph unicode="&#xfb04;" horiz-adv-x="1548" d="M25 815v148l125 16v98q0 154 92 239t250 85h24t33 -2l24 -166q-10 2 -25.5 3t-27.5 1q-80 0 -125 -39t-45 -119q0 -23 2 -41t6 -32q4 -16 11 -29h313v106q0 86 28.5 146.5t79 98.5t122 55.5t157.5 17.5q47 0 100.5 -4t101.5 -9.5t87 -11.5t57 -8v-1368h-217l14 145v1082 q-23 4 -64.5 7t-80.5 3q-84 0 -134 -34t-50 -124q0 -23 2 -40t6 -31q4 -16 10 -31h154v-162h-168v-815h-217l12 145v670h-328v-815h-219l15 145v670h-125z" />
<glyph horiz-adv-x="0" />
<glyph unicode="&#xd;" horiz-adv-x="382" />
<glyph horiz-adv-x="0" />
<glyph horiz-adv-x="0" />
<glyph unicode=" "  horiz-adv-x="382" />
<glyph unicode="&#x09;" horiz-adv-x="382" />
<glyph unicode="&#xa0;" horiz-adv-x="382" />
<glyph unicode="!" horiz-adv-x="493" d="M125 90q0 49 29.5 79t78.5 30q47 0 75 -29t28 -78q0 -51 -30 -80.5t-77 -29.5t-75.5 28.5t-28.5 79.5zM152 328l24 968h207l-61 -968h-170z" />
<glyph unicode="&#x22;" horiz-adv-x="575" d="M100 731v459h119v-459h-119zM358 731v459h119v-459h-119z" />
<glyph unicode="#" d="M63 289v110h173l69 346h-203v111h224l63 334h123l-63 -334h202l66 334h123l-66 -334h166v-111h-186l-68 -346h217v-110h-235l-56 -289h-125l56 289h-203l-55 -289h-123l55 289h-154zM360 399h203l68 346h-203z" />
<glyph unicode="$" d="M113 20l43 164q55 -18 113.5 -32.5t152.5 -14.5q45 0 87 8.5t74.5 25.5t53 45t20.5 67q0 51 -37.5 85.5t-95 63.5t-123 56.5t-123 66.5t-95.5 93t-38 136q0 68 25 121t68 91t101 61.5t126 34.5v204h108v-194q80 0 144.5 -7.5t142.5 -23.5l-41 -160q-47 14 -109.5 24.5 t-140.5 10.5q-86 0 -146.5 -32.5t-60.5 -110.5q0 -51 38 -86t95.5 -62.5t124 -55.5t124 -65.5t95.5 -93t38 -137.5q0 -68 -24 -120t-66 -90t-98 -61.5t-120 -35.5v-209h-108v195h-39q-92 0 -168 11t-141 27z" />
<glyph unicode="%" horiz-adv-x="1138" d="M43 893q0 141 67.5 224t192.5 83q123 0 181.5 -81t58.5 -222q0 -143 -69.5 -227t-192.5 -84t-180.5 83t-57.5 224zM164 0l702 1190h111l-703 -1190h-110zM172 893q0 -41 5 -78t18.5 -65.5t36 -46t57.5 -17.5q33 0 56.5 17.5t38.5 47t22.5 66.5t7.5 78q0 39 -6.5 76 t-19.5 65.5t-35.5 46t-55.5 17.5q-35 0 -59.5 -17.5t-39 -46t-20.5 -66.5t-6 -77zM596 299q0 141 67.5 223t190.5 82t182.5 -81t59.5 -222t-69.5 -226t-192.5 -85t-180.5 83t-57.5 226zM723 299q0 -41 5 -78t19.5 -66.5t36 -47t56.5 -17.5q33 0 57.5 17.5t39.5 47t22.5 67.5 t7.5 79q0 39 -6.5 76t-19.5 64.5t-35.5 45t-55.5 17.5q-35 0 -59.5 -17.5t-40 -46t-21.5 -65.5t-6 -76z" />
<glyph unicode="&#x26;" horiz-adv-x="1302" d="M78 346q0 106 43 183t119 143q-47 61 -66.5 116.5t-19.5 110.5q0 68 25.5 124t71.5 97t110.5 64.5t144.5 23.5q63 0 119.5 -13t98.5 -42t66.5 -72t26.5 -104h359l137 8l-33 -164h-213q0 -154 -18.5 -290t-71.5 -246q68 -41 126 -66.5t109 -48.5l-41 -188q-25 8 -59.5 22 t-74.5 33.5t-83 42t-82 45.5q-63 -66 -156 -104.5t-216 -38.5q-88 0 -165 24.5t-134.5 71.5t-90 114.5t-32.5 153.5zM276 354q0 -45 17.5 -83t47.5 -66.5t70 -45t85 -16.5q121 0 202 84q-43 29 -91 67t-94 79t-86 82t-69 75q-82 -70 -82 -176zM358 889q0 -51 39 -114.5 t101.5 -131.5t141.5 -134.5t161 -123.5q37 78 51 188.5t14 247.5h-231q6 16 11 41t5 47q0 131 -137 131q-66 0 -111 -39.5t-45 -111.5z" />
<glyph unicode="'" horiz-adv-x="313" d="M96 731v459h119v-459h-119z" />
<glyph unicode="(" horiz-adv-x="468" d="M82 492q0 104 18.5 200t48 184.5t68.5 167t82 146.5l90 -60q-37 -61 -70.5 -130.5t-59.5 -149.5t-42 -170t-16 -188q0 -102 16 -192.5t42 -170.5t59.5 -148.5t70.5 -130.5l-90 -59q-86 139 -151.5 315.5t-65.5 385.5z" />
<glyph unicode=")" horiz-adv-x="468" d="M78 -150q37 61 70.5 130t59 149t42 170t16.5 193q0 98 -16.5 188t-42 170t-59 149.5t-70.5 130.5l90 60q43 -68 82 -146.5t68.5 -167t48 -184.5t18.5 -200q0 -209 -65.5 -385.5t-151.5 -315.5z" />
<glyph unicode="*" horiz-adv-x="757" d="M66 799l219 110l-219 113l59 98l203 -131l-15 244h123l-12 -244l203 131l57 -100l-219 -111l219 -110l-57 -99l-203 127l12 -237h-123l15 239l-203 -129z" />
<glyph unicode="+" d="M98 537v112h342v342h121v-342h346v-112h-346v-357h-121v357h-342z" />
<glyph unicode="," horiz-adv-x="391" d="M94 98q0 51 30 83t81 32q49 0 76.5 -29.5t27.5 -81.5q0 -72 -43 -139l-82 -135l-80 8l62 164q-31 10 -51.5 33.5t-20.5 64.5z" />
<glyph unicode="-" horiz-adv-x="679" d="M104 436v113h469v-113h-469z" />
<glyph unicode="." horiz-adv-x="391" d="M98 90q0 49 30 79t79 30q47 0 74.5 -29t27.5 -78q0 -51 -29.5 -80.5t-76.5 -29.5t-76 28.5t-29 79.5z" />
<glyph unicode="/" horiz-adv-x="665" d="M18 0l498 1190h131l-497 -1190h-132z" />
<glyph unicode="0" d="M53 586q0 137 30 250.5t89 196.5t146.5 129t203.5 46q115 0 196 -43t133 -121.5t75.5 -189.5t23.5 -248q0 -139 -29.5 -253.5t-89 -196.5t-146.5 -128t-202 -46t-195.5 43t-133 120.5t-77 189t-24.5 251.5zM262 586q0 -90 11.5 -169t37 -138.5t69.5 -94t112 -34.5 q66 0 112.5 37.5t77.5 101t46 145.5t15 172q0 88 -11 167t-38.5 138.5t-72.5 94t-111 34.5q-68 0 -115 -37.5t-76.5 -101t-43 -145.5t-13.5 -170z" />
<glyph unicode="1" d="M106 967q90 20 185.5 75.5t163.5 147.5h211l-29 -1022h274v-168h-778v168h295l23 799q-2 0 -5.5 1t-5.5 1l-39 -68q-53 -43 -117.5 -71.5t-131.5 -47.5z" />
<glyph unicode="2" d="M90 0v199q150 102 256.5 188t174 160t99 139.5t31.5 130.5q0 104 -70.5 161.5t-207.5 57.5q-78 0 -149.5 -15t-133.5 -34l45 189q63 16 132 24t136 8q98 0 182.5 -23.5t145 -71.5t95 -119.5t34.5 -168.5q0 -84 -29.5 -160.5t-90 -154.5t-152.5 -159t-219 -173q0 -2 1 -6 t1 -6h413l136 14v-180h-830z" />
<glyph unicode="3" d="M92 205q6 -2 32 -11.5t65.5 -18.5t91 -17t108.5 -8q55 0 108.5 10t94.5 33.5t65.5 59.5t24.5 89q0 51 -24.5 86t-65.5 56.5t-92 29.5t-105 8h-149v160h135q51 0 101 8t89 29.5t62.5 55.5t23.5 87q0 96 -69.5 137t-175.5 41q-78 0 -154 -14t-139 -31l39 187 q59 10 125.5 18t140.5 8q90 0 171 -18.5t141.5 -58t96 -103t35.5 -154.5q0 -88 -46 -157.5t-132 -104.5v-8q86 -33 144.5 -100.5t58.5 -177.5q0 -94 -43 -160t-112.5 -107t-157.5 -59t-179 -18q-90 0 -162.5 10t-111.5 20z" />
<glyph unicode="4" d="M66 225v195l473 770h266v-803h125v-162h-125v-225h-201v225h-538zM227 397l2 -10h377v537l21 73h-13l-340 -567z" />
<glyph unicode="5" d="M86 201q49 -14 130 -32.5t175 -18.5q59 0 111.5 12t90.5 37.5t60.5 64.5t22.5 92q0 63 -34 105.5t-89 67t-126 33.5t-142 9h-121v619h663v-180l-135 12h-321v-291q98 0 190 -20.5t165 -65.5t117 -115.5t44 -171.5q0 -96 -37 -166.5t-101.5 -116.5t-149.5 -69.5 t-179 -23.5q-90 0 -166 8t-133 22z" />
<glyph unicode="6" d="M76 578q0 135 32.5 250.5t99 200.5t168 132t240.5 47q74 0 138.5 -9t95.5 -19l27 -181q-37 12 -103.5 25.5t-136.5 13.5q-154 0 -242 -79.5t-104 -247.5q106 12 182 12q98 0 183 -19.5t147.5 -61.5t98.5 -109.5t36 -165.5q0 -84 -30.5 -155t-85 -122t-129.5 -79.5 t-165 -28.5q-127 0 -214 44t-140 123.5t-75.5 189.5t-22.5 239zM283 557q2 -78 12 -151.5t36.5 -131t73.5 -92.5t125 -35q92 0 148.5 60.5t56.5 154.5q0 61 -22.5 101.5t-62.5 64t-93 33.5t-115 10q-45 0 -84 -4t-75 -10z" />
<glyph unicode="7" d="M90 1006v184h803v-203q-121 -127 -192.5 -257t-109.5 -256t-49.5 -242.5t-11.5 -213.5v-18h-208v23q0 111 14 228.5t50 240t98.5 246.5t160.5 247l53 27l-2 10h-471z" />
<glyph unicode="8" d="M76 303q0 98 56 173t142 122v10q-74 39 -123 106.5t-49 157.5q0 82 34 144.5t91.5 105.5t134 64.5t160.5 21.5q82 0 156 -19.5t129 -59t87 -99t32 -141.5q0 -96 -55.5 -165t-127.5 -108v-8q88 -47 140.5 -117.5t52.5 -168.5q0 -86 -37 -149.5t-97.5 -105.5t-140 -63.5 t-165.5 -21.5q-88 0 -165 19t-133.5 58t-89 99.5t-32.5 144.5zM266 317q0 -84 64.5 -127t156.5 -43q47 0 90.5 11.5t77 33t53 54.5t19.5 76q0 39 -18.5 68.5t-49 52t-72.5 39t-89 30.5l-47 14q-80 -31 -132.5 -84t-52.5 -125zM309 885q0 -41 17.5 -70t45 -50.5t63.5 -35.5 t75 -27l47 -14q31 8 61.5 26.5t57 43t43 54.5t16.5 65q0 80 -61.5 123.5t-149.5 43.5q-41 0 -78.5 -10t-68.5 -29.5t-49.5 -50t-18.5 -69.5z" />
<glyph unicode="9" d="M61 823q0 84 31 155t85 122t129 79.5t165 28.5q127 0 214 -44t140.5 -123.5t76 -189.5t22.5 -239q0 -135 -33 -250.5t-99.5 -200.5t-168 -132t-240.5 -47q-74 0 -138.5 9t-94.5 19l-27 180q37 -12 103.5 -25t135.5 -13q154 0 242 79.5t105 247.5q-109 -12 -183 -12 q-98 0 -183 19.5t-147.5 61.5t-98.5 109.5t-36 165.5zM264 827q0 -61 22.5 -101t62.5 -63.5t93.5 -34t114.5 -10.5q45 0 84 4.5t76 10.5q-2 78 -12.5 151.5t-37 131t-74.5 92t-124 34.5q-92 0 -148.5 -60t-56.5 -155z" />
<glyph unicode=":" horiz-adv-x="391" d="M96 90q0 51 31 81t80 30t76.5 -29t27.5 -80t-29.5 -80.5t-78.5 -29.5t-78 28.5t-29 79.5zM96 756q0 51 30 80.5t81 29.5q47 0 75.5 -27.5t28.5 -80.5q0 -49 -30.5 -80t-77.5 -31q-51 0 -79 29t-28 80z" />
<glyph unicode=";" horiz-adv-x="391" d="M94 98q0 51 30 83t81 32q49 0 76.5 -29.5t27.5 -81.5q0 -72 -43 -139l-82 -135l-80 8l62 164q-31 10 -51.5 33.5t-20.5 64.5zM94 758q0 49 31 79.5t80 30.5t76.5 -28.5t27.5 -79.5t-29.5 -82t-76.5 -31q-51 0 -80 29t-29 82z" />
<glyph unicode="&#x3c;" d="M184 600l598 461l68 -100l-469 -361l473 -358l-72 -101z" />
<glyph unicode="=" d="M98 369v114h807v-114h-807zM98 672v112h807v-112h-807z" />
<glyph unicode="&#x3e;" d="M150 242l473 358l-469 361l67 100l598 -461l-598 -459z" />
<glyph unicode="?" horiz-adv-x="866" d="M57 1092l27 186q8 2 32.5 8t59.5 12.5t78 11.5t90 5q96 0 178 -24.5t142.5 -74t94.5 -123t34 -169.5q0 -76 -29 -142.5t-78 -120t-116.5 -91.5t-145.5 -58l-14 -184h-168v295q74 14 135 39.5t106 62.5t71 86t26 111q0 115 -75 169t-190 54q-78 0 -147.5 -18.5 t-110.5 -34.5zM209 90q0 51 30.5 81t79.5 30t77 -29t28 -80t-29.5 -80.5t-77.5 -29.5q-51 0 -79.5 28.5t-28.5 79.5z" />
<glyph unicode="@" horiz-adv-x="1187" d="M61 346q0 135 40 254t115 207t181.5 138t239.5 50q119 0 211 -37.5t155.5 -106.5t96.5 -163t33 -207q0 -90 -24 -174t-71 -150.5t-116.5 -107.5t-161.5 -47l-31 109h-8q-6 -18 -18.5 -38t-33 -36.5t-50 -26.5t-68.5 -10q-49 0 -90 23.5t-68.5 63.5t-43 92t-15.5 112 q0 86 21.5 160.5t63.5 128t104.5 84t146.5 30.5q53 0 90 -3t65 -7l-12 -123v-340l18 -98q94 35 138.5 130t44.5 224q0 193 -92.5 302.5t-286.5 109.5q-113 0 -198 -43t-142 -118t-86 -174t-29 -212q0 -109 23.5 -206t76 -172t135.5 -119t199 -44q117 0 207 29t162 64v-115 q-72 -35 -165 -58.5t-210 -23.5q-139 0 -241.5 49t-170 137t-101.5 206t-34 257zM453 299q0 -86 29.5 -141.5t86.5 -55.5q80 0 105.5 82t25.5 222v184q-6 0 -14 2q-8 0 -17.5 1t-19.5 1q-51 0 -88 -24.5t-61.5 -65.5t-35.5 -94.5t-11 -110.5z" />
<glyph unicode="A" horiz-adv-x="1153" d="M29 0l422 1296h329l344 -1296h-274l-8 141l-47 197h-422l-101 -338h-243zM424 514h336l-135 545l-11 82h-8l-16 -82z" />
<glyph unicode="B" horiz-adv-x="1142" d="M129 0l16 143v1153h502q82 0 152.5 -20.5t123 -62.5t81 -106.5t28.5 -150.5q0 -98 -43 -170.5t-119 -107.5v-8q90 -41 139.5 -118t49.5 -192q0 -174 -106.5 -267t-293.5 -93h-530zM369 176h225q119 0 177 46.5t58 152.5q0 98 -58 152.5t-175 54.5h-227v-406zM369 735h237 q98 0 148.5 51.5t50.5 141.5q0 92 -51.5 141t-155.5 49h-229v-383z" />
<glyph unicode="C" horiz-adv-x="1019" d="M74 600q0 162 41 293t118.5 225t193.5 145.5t263 51.5q78 0 157 -12.5t124 -26.5l-49 -191q-31 10 -85.5 27.5t-146.5 17.5q-100 0 -173 -38.5t-120 -107.5t-69.5 -163t-22.5 -205q0 -92 21.5 -173t63.5 -141t105.5 -96t147.5 -36q57 0 107.5 14.5t90.5 38t69.5 51 t47.5 54.5l50 -219q-16 -16 -49 -38t-80.5 -42.5t-112 -33.5t-145.5 -13q-125 0 -225.5 44t-172 123.5t-110.5 194.5t-39 256z" />
<glyph unicode="D" horiz-adv-x="1204" d="M129 0l16 143v1153h398q301 0 444 -167.5t143 -499.5q0 -299 -146 -464t-421 -165h-434zM365 180h188q92 0 157.5 33t107.5 92.5t62.5 142t20.5 185.5q0 240 -79 360.5t-265 120.5h-192v-934z" />
<glyph unicode="E" horiz-adv-x="1009" d="M129 0l16 143v1153h793v-182h-569v-364h528v-172h-528v-398h587v-180h-827z" />
<glyph unicode="F" horiz-adv-x="921" d="M129 0l14 143v1153h738v-182h-516v-387h483v-172h-483v-555h-236z" />
<glyph unicode="G" horiz-adv-x="1161" d="M74 616q0 154 39 282t117.5 221t196.5 144.5t278 51.5q90 0 176 -14.5t163 -36.5l-47 -191q-43 18 -117.5 41t-172.5 23q-104 0 -181 -39t-127.5 -107.5t-75 -163t-24.5 -204.5q0 -94 16.5 -178.5t56.5 -148t104.5 -101t160.5 -37.5q49 0 106.5 13t92.5 34v321h-236v166 h451v-606q-78 -41 -189.5 -72.5t-247.5 -31.5q-117 0 -216 36.5t-171.5 114.5t-112.5 198t-40 285z" />
<glyph unicode="H" horiz-adv-x="1206" d="M129 0l16 143v1153h222v-534h475v534h235l-14 -141v-1155h-221v586h-475v-586h-238z" />
<glyph unicode="I" horiz-adv-x="507" d="M129 0l14 143v1153h222v-1296h-236z" />
<glyph unicode="J" horiz-adv-x="694" d="M16 172q43 -6 66 -6q117 0 188.5 61.5t71.5 178.5v706l-281 18v166h519l-17 -145v-748q0 -104 -33.5 -183t-93 -131t-141.5 -78.5t-176 -26.5q-12 0 -39 1t-37 3z" />
<glyph unicode="K" horiz-adv-x="1097" d="M129 0l18 145v1151h222v-540h10l31 80l354 460h266l-401 -514l446 -782h-256l-336 604h-8l-106 -133v-471h-240z" />
<glyph unicode="L" horiz-adv-x="860" d="M129 0l16 143v1153h220v-1116h475v-180h-711z" />
<glyph unicode="M" horiz-adv-x="1626" d="M104 0l21 143l65 1153h359l252 -929l8 -70h12l10 70l279 929h371l-15 -145l23 -1151h-223l-6 1110h-11l-12 -76l-311 -1034h-219l-293 1036l-11 76h-10l-51 -1112h-238z" />
<glyph unicode="N" horiz-adv-x="1224" d="M129 0l16 139l5 1157h288l439 -1026h12l-12 72l-17 954h236l-17 -141l-4 -1155h-289l-436 1036h-12l14 -80l17 -956h-240z" />
<glyph unicode="O" horiz-adv-x="1226" d="M74 637q0 154 36.5 278.5t108.5 214t177.5 137.5t240.5 48q131 0 228.5 -46t161 -132t95 -208t31.5 -272q0 -154 -37 -278.5t-108.5 -212.5t-177 -136t-242.5 -48q-258 0 -386 174t-128 481zM307 637q0 -92 15.5 -177t49.5 -151.5t89 -106.5t137 -40q84 0 144.5 42 t100.5 110.5t58.5 157.5t18.5 185q0 92 -16.5 178.5t-51.5 152t-91 105.5t-136 40q-86 0 -146.5 -43t-98.5 -113t-55.5 -159t-17.5 -181z" />
<glyph unicode="P" horiz-adv-x="1097" d="M129 0l16 143v1153h441q104 0 188 -24.5t143.5 -73.5t91 -125t31.5 -178t-32.5 -176t-93 -122t-142.5 -71.5t-180 -23.5h-221v-502h-242zM371 682h180q125 0 194.5 50t69.5 167q0 59 -19.5 101t-55 68t-85 37t-108.5 11h-176v-434z" />
<glyph unicode="Q" horiz-adv-x="1226" d="M74 637q0 154 36.5 278.5t108.5 214t177.5 137.5t240.5 48q131 0 228.5 -46t161 -132t95 -208t31.5 -272q0 -236 -84 -398.5t-246 -231.5l92 -260h-196l-78 217q-14 0 -26.5 -1t-26.5 -1q-258 0 -386 174t-128 481zM307 637q0 -88 13.5 -171t45 -149.5t84 -107.5 t128.5 -47l-70 196h197l51 -145q84 63 124 184t40 260q0 92 -16.5 178.5t-51.5 152t-91 105.5t-136 40q-86 0 -146.5 -43t-98.5 -113t-55.5 -159t-17.5 -181z" />
<glyph unicode="R" horiz-adv-x="1150" d="M129 0l14 143v1153h469q96 0 176 -20.5t136.5 -64.5t88 -112.5t31.5 -162.5q0 -125 -57 -206t-156 -109v-9q33 -14 56.5 -33.5t40 -50t30 -74.5t29.5 -106l86 -348h-237l-84 350q-14 61 -33 99t-45.5 59.5t-66.5 29t-97 7.5h-141l2 -545h-242zM369 705h209 q117 0 176 57.5t59 155.5q0 100 -58.5 149t-168.5 49h-217v-411z" />
<glyph unicode="S" horiz-adv-x="1013" d="M53 27l45 192q47 -16 130 -36.5t188 -20.5q51 0 101 10t90 31.5t64.5 55.5t24.5 79q0 66 -44 108.5t-111.5 77.5t-144.5 68t-144.5 77t-111.5 107.5t-44 159.5q0 98 40 170t110.5 118t164 68.5t201.5 22.5q84 0 168 -12.5t125 -24.5l-45 -184q-45 16 -112.5 28.5 t-153.5 12.5q-51 0 -99.5 -9.5t-86 -30t-60 -53t-22.5 -79.5q0 -61 45 -102.5t111.5 -75t144.5 -66.5t144.5 -79t111.5 -112.5t45 -167.5q0 -102 -44 -173.5t-117 -117.5t-168 -66.5t-200 -20.5q-104 0 -191 13t-155 32z" />
<glyph unicode="T" horiz-adv-x="888" d="M29 1114v182h831v-182h-307v-1114h-234l17 143v971h-307z" />
<glyph unicode="U" horiz-adv-x="1189" d="M121 1296h233v-841q0 -141 47.5 -214t182.5 -73t195.5 72.5t60.5 214.5v684l-11 157h234v-852q0 -233 -125 -347.5t-363 -114.5q-236 0 -339 114.5t-103 347.5v697z" />
<glyph unicode="V" horiz-adv-x="1073" d="M23 1296h249l232 -1015l10 -93h12l11 93l241 849l19 166h254l-379 -1296h-303z" />
<glyph unicode="W" horiz-adv-x="1751" d="M37 1296h248l209 -1108h12v91l186 866l6 151h340l168 -1015v-91h13l223 945l10 161h262l-332 -1296h-321l-168 1004l-10 92h-13l-10 -92l-211 -1004h-319z" />
<glyph unicode="X" horiz-adv-x="1134" d="M31 0l368 678l-340 618h260l218 -424l22 -77h12l21 75l158 287l47 139h278l-346 -618l375 -678h-266l-246 485l-21 78h-10l-22 -78l-162 -321l-51 -164h-295z" />
<glyph unicode="Y" horiz-adv-x="1030" d="M23 1296h241l225 -563l13 -71h10l12 73l189 414l39 147h256l-390 -821v-475h-227v475z" />
<glyph unicode="Z" horiz-adv-x="980" d="M43 0v211l598 850l61 43l-4 10h-637v182h865v-211l-600 -849l-60 -46l2 -10h531l139 13v-193h-895z" />
<glyph unicode="[" horiz-adv-x="483" d="M141 -211v1401h293v-113h-172v-1177h172v-111h-293z" />
<glyph unicode="\" horiz-adv-x="634" d="M12 1190h125l488 -1190h-129z" />
<glyph unicode="]" horiz-adv-x="483" d="M49 -100h172v1177h-172v113h293v-1401h-293v111z" />
<glyph unicode="^" d="M43 369l461 639l459 -639l-101 -74l-358 514l-359 -510z" />
<glyph unicode="_" horiz-adv-x="1134" d="M0 -246h1120v-112h-1120v112z" />
<glyph unicode="`" horiz-adv-x="1034" d="M295 1241l82 150l362 -224l-63 -69z" />
<glyph unicode="a" horiz-adv-x="995" d="M63 266q0 111 49.5 177.5t132.5 103.5t190.5 48t223.5 11q0 125 -55 178.5t-194 53.5q-80 0 -158 -14.5t-125 -30.5l37 172q8 2 32.5 7t59.5 10t80 9t96 4q111 0 192 -20.5t134 -67.5t78.5 -124.5t25.5 -192.5v-432l17 -158h-160l-39 135h-10q-49 -70 -120 -111.5 t-175 -41.5q-135 0 -223.5 74.5t-88.5 209.5zM264 287q0 -70 42 -109t110 -39q131 0 186 91.5t57 244.5q-72 0 -142.5 -5t-126.5 -23.5t-91 -56.5t-35 -103z" />
<glyph unicode="b" horiz-adv-x="1017" d="M121 4l14 143v1235h203v-518h10q6 12 24.5 34t50.5 43.5t78 37.5t107 16q84 0 149.5 -30.5t110.5 -86t69 -132t24 -171.5q0 -133 -33 -242.5t-101.5 -187t-177 -120.5t-260.5 -43q-29 0 -64.5 2t-72.5 5t-72 7t-59 8zM332 306.5q0 -23.5 1 -51.5t2 -54.5t1 -46.5 q14 -2 29 -4q12 -2 27.5 -3.5t31.5 -1.5q90 0 153.5 32t102.5 87t56.5 130t17.5 161q0 57 -10.5 107.5t-33 88t-58.5 59t-87 21.5q-68 0 -112.5 -37.5t-71.5 -103t-38 -155t-11 -193.5v-35.5z" />
<glyph unicode="c" horiz-adv-x="821" d="M57 461q0 119 33 217t95.5 169t154.5 109.5t213 38.5q74 0 141.5 -11t100.5 -21l-37 -170q-35 14 -94.5 26t-108.5 12q-78 0 -134 -27.5t-92 -76.5t-52.5 -116.5t-16.5 -145.5q0 -66 15.5 -124t47 -102t79 -71t112.5 -27q84 0 148.5 37t105.5 82l41 -180 q-8 -8 -32.5 -24.5t-65.5 -33t-97.5 -28.5t-128.5 -12q-102 0 -182 33.5t-134 97t-83 151.5t-29 197z" />
<glyph unicode="d" horiz-adv-x="1015" d="M57 412q0 133 35 240.5t104.5 184t173 117.5t242.5 41h70v387h213l-10 -157v-1225h-135l-37 133h-8q-12 -16 -35 -41.5t-59 -50.5t-86 -42t-115 -17q-84 0 -149.5 31.5t-111 89t-69 136t-23.5 173.5zM264 430q0 -55 10.5 -106.5t32 -91t56 -63.5t83.5 -24q72 0 119 38 t75 103.5t38 155t10 193.5q0 37 -2 94t-4 94q-12 0 -25 2q-10 2 -25.5 3t-31.5 1q-90 0 -153.5 -29.5t-103.5 -82.5t-59.5 -126t-19.5 -161z" />
<glyph unicode="e" horiz-adv-x="954" d="M59 469q0 111 30 206t87 166.5t142 112.5t194 41t184.5 -35.5t121.5 -99t66.5 -150.5t20.5 -188v-78h-526l-111 -14q2 -154 84 -219.5t230 -65.5q100 0 171.5 18.5t120.5 37.5l-38 -176q-29 -10 -114 -26.5t-185 -16.5q-238 0 -358 129t-120 358zM272 575h424l9 11 q0 113 -43.5 182.5t-147.5 69.5q-102 0 -163.5 -71t-78.5 -192z" />
<glyph unicode="f" horiz-adv-x="569" d="M25 815v148l125 16v98q0 154 92 239t250 85h24t33 -2l24 -166q-10 2 -25.5 3t-27.5 1q-80 0 -125 -39t-45 -119q0 -23 2 -41t6 -32q4 -16 11 -29h180v-162h-195v-815h-219l15 145v670h-125z" />
<glyph unicode="g" horiz-adv-x="1017" d="M78 -96q0 98 75.5 161.5t208.5 104.5v123q-117 29 -190.5 104.5t-73.5 214.5q0 186 120 284.5t343 98.5q49 0 108.5 -3t118 -7t108.5 -8t81 -6v-140l-117 -12v-16q27 -33 45.5 -82t18.5 -109q0 -78 -28 -136t-76 -99t-113.5 -64.5t-143.5 -27.5v-76l117 -35 q123 -37 198.5 -95.5t75.5 -162.5q0 -74 -36.5 -125t-99 -85t-144.5 -49t-170 -15q-84 0 -161 14t-136.5 46t-94 81t-34.5 121zM281 -76q0 -66 65.5 -94.5t157.5 -28.5q45 0 88 7.5t76.5 21.5t55 36.5t21.5 53.5q0 45 -37.5 72.5t-119.5 50.5l-170 45q-137 -70 -137 -164z M303 621q0 -76 51.5 -128.5t155.5 -52.5q39 0 78 11.5t68.5 34t48 57.5t18.5 82q0 204 -201 204q-219 0 -219 -208z" />
<glyph unicode="h" horiz-adv-x="1036" d="M135 0v1382h217l-14 -168v-335h10q41 53 112.5 84.5t160.5 31.5q147 0 222 -91t75 -236v-668h-207v655q0 78 -34 125t-112 47q-63 0 -106 -25.5t-70 -68.5t-39 -101.5t-12 -125.5v-506h-203z" />
<glyph unicode="i" horiz-adv-x="462" d="M84 1253l145 150l150 -150l-150 -151zM119 0l16 156v821h199v-977h-215z" />
<glyph unicode="j" horiz-adv-x="507" d="M-16 -193q14 -2 24 -3t21 -1q88 0 123.5 48.5t35.5 136.5v817l-170 26v146h392l-19 -148v-843q0 -166 -74.5 -257t-238.5 -91q-16 0 -35.5 1t-30.5 3zM123 1253l145 150l150 -150l-150 -151z" />
<glyph unicode="k" horiz-adv-x="980" d="M121 0l14 145v1237h203v-761l12 -3l23 56l286 303h261l-324 -342l362 -635h-237l-266 477h-11l-106 -112v-365h-217z" />
<glyph unicode="l" horiz-adv-x="468" d="M121 0l16 156v1226h199v-1382h-215z" />
<glyph unicode="m" horiz-adv-x="1572" d="M117 977h164l34 -129h11q35 59 105.5 103t174.5 44q98 0 166 -42t96 -109h9q43 61 112.5 106t173.5 45q141 0 215 -76.5t74 -224.5v-694h-205v657q0 84 -33.5 129t-111.5 45q-115 0 -161 -84.5t-46 -224.5v-522h-203v657q0 80 -32.5 127t-112.5 47q-115 0 -161 -84.5 t-46 -224.5v-522h-201v815z" />
<glyph unicode="n" horiz-adv-x="1038" d="M117 977h157l35 -133h8q41 61 117 106t182 45q154 0 228 -87t74 -240v-668h-207v657q0 78 -36 126t-114 48q-61 0 -103 -24.5t-69 -67.5t-39 -100t-12 -121v-518h-199v817z" />
<glyph unicode="o" horiz-adv-x="997" d="M59 477q0 113 30 208t88.5 164t143.5 107.5t195 38.5q111 0 189.5 -35.5t131 -100t77 -157t24.5 -204.5q0 -113 -30.5 -208t-90 -164t-144.5 -106.5t-196 -37.5t-189.5 34.5t-128.5 99t-75 157t-25 204.5zM264 481q0 -70 10.5 -131t36 -107t67.5 -73t107 -27q68 0 115 28 t77 75t43 110.5t13 137.5q0 70 -11 131t-37 107t-69.5 72.5t-109.5 26.5q-68 0 -114 -28.5t-74.5 -75.5t-41 -111.5t-12.5 -134.5z" />
<glyph unicode="p" horiz-adv-x="1019" d="M121 -340l14 145v1172h135l39 -135h10q10 18 32 44.5t56.5 51.5t83 41t113.5 16q84 0 150.5 -31.5t112.5 -88t71 -134t25 -170.5q0 -270 -137.5 -420.5t-417.5 -150.5h-70v-340h-217zM332 298q0 -24 1 -48.5t2 -48t1 -39.5q10 -2 24 -4q10 -2 25.5 -2h32.5 q88 0 152.5 29.5t105.5 81.5t60.5 125t19.5 161q0 55 -10.5 105.5t-34 89t-59.5 61t-85 22.5q-74 0 -119 -39.5t-71.5 -107.5t-35.5 -157t-9 -187v-42z" />
<glyph unicode="q" horiz-adv-x="1021" d="M59 399q0 133 32 243t101.5 188.5t178 121.5t260.5 43q41 0 82 -2t77.5 -5t65.5 -6t47 -7l-18 -141v-1176h-205v444h-10q-4 -8 -21.5 -28.5t-48.5 -41t-77 -35.5t-107 -15q-84 0 -149.5 29.5t-111.5 85t-71 132t-25 170.5zM264 420q0 -57 10.5 -107.5t33 -87.5t58 -58.5 t87.5 -21.5q68 0 113.5 37t72.5 102.5t38 155t11 193.5v37.5t-1 53.5t-2 55.5t-1 43.5q-14 0 -29 2q-12 2 -27.5 3t-31.5 1q-90 0 -152.5 -31.5t-102.5 -87t-58.5 -130t-18.5 -160.5z" />
<glyph unicode="r" horiz-adv-x="667" d="M117 977h164l30 -133h8q47 76 124 113.5t178 37.5l26 -198q-16 4 -36.5 6t-35.5 2q-74 0 -119.5 -24.5t-72.5 -67.5t-36 -102.5t-9 -131.5v-479h-201v817z" />
<glyph unicode="s" horiz-adv-x="876" d="M72 29l41 166q35 -14 105.5 -35t162.5 -21q41 0 80 5.5t68.5 18.5t47 36.5t17.5 58.5q0 27 -17.5 49.5t-47 41t-67.5 35.5t-79 34q-59 25 -112.5 49.5t-93.5 57t-63.5 76.5t-23.5 106q0 76 34 130t91 90t132 52t157 16q141 0 260 -28l-39 -164q-37 10 -96.5 22.5 t-130.5 12.5q-37 0 -73 -5.5t-63.5 -18.5t-45 -34.5t-17.5 -54.5q0 -55 54.5 -87t142.5 -67q53 -20 108 -43.5t99.5 -56.5t73 -78t28.5 -108q0 -84 -36 -141.5t-97.5 -93.5t-141 -52t-165.5 -16q-43 0 -87.5 5t-84 12t-71.5 15.5t-50 14.5z" />
<glyph unicode="t" horiz-adv-x="587" d="M23 815v148l124 16l29 213l180 104v-319h213v-162h-211v-504q0 -88 40 -129t128 -41q10 0 32 1t36 5l-31 -159q-8 -2 -28.5 -4t-42.5 -2q-158 0 -249 74.5t-91 244.5v514h-129z" />
<glyph unicode="u" horiz-adv-x="1038" d="M121 309v668h205v-658q0 -72 33.5 -123t117.5 -51q63 0 105.5 26t68 71t36.5 106.5t11 130.5v498h203v-819l21 -158h-164l-29 131h-8q-41 -59 -113.5 -104t-179.5 -45q-154 0 -230.5 87t-76.5 240z" />
<glyph unicode="v" horiz-adv-x="923" d="M20 977h222l186 -696l14 -78h9l16 76l174 542l25 156h237l-336 -977h-243z" />
<glyph unicode="w" horiz-adv-x="1523" d="M31 977h219l184 -772h10l9 76l168 555l14 141h244l168 -696l6 -76h8l176 616l25 156h231l-297 -977h-254l-162 700l-10 74h-8l-10 -74l-199 -700h-254z" />
<glyph unicode="x" horiz-adv-x="960" d="M29 0l311 522l-285 455h234l170 -295l20 -61h10l21 61l98 156l62 139h248q-72 -117 -144 -227.5t-143 -227.5l301 -522h-238l-184 360l-23 64h-10l-24 -64l-111 -204l-63 -156h-250z" />
<glyph unicode="y" horiz-adv-x="923" d="M18 977h226l223 -739h10l10 79l152 504l25 156h241l-332 -957q-35 -100 -72.5 -170.5t-85.5 -116.5t-110.5 -67.5t-146.5 -21.5q-16 0 -42 1t-36 3l-27 164q10 -2 29.5 -4.5t42.5 -2.5q51 0 86 11.5t59.5 35t43 60.5t36.5 88l8 27z" />
<glyph unicode="z" horiz-adv-x="837" d="M43 0v172l475 596l47 37v8h-508v164h727v-180l-471 -590l-47 -33q0 -6 2 -8h353l174 20v-186h-752z" />
<glyph unicode="{" horiz-adv-x="479" d="M43 485v9l70 75q29 31 34 49.5t5 51.5v358q0 82 43 122t122 40h113v-113h-84q-43 0 -58.5 -17.5t-15.5 -58.5v-348q0 -39 -5 -59.5t-34 -52.5l-47 -52l47 -53q29 -33 34 -53.5t5 -58.5v-349q0 -41 15.5 -58t58.5 -17h84v-111h-113q-80 0 -122.5 39t-42.5 121v358 q0 33 -5.5 52.5t-33.5 50.5z" />
<glyph unicode="|" horiz-adv-x="389" d="M131 -264v1454h121v-1454h-121z" />
<glyph unicode="}" horiz-adv-x="479" d="M49 -100h82q45 0 60.5 17t15.5 58v349q0 39 5 59t34 53l47 53l-47 52q-29 33 -34 53t-5 59v348q0 41 -15.5 58.5t-60.5 17.5h-82v113h111q168 0 168 -162v-358q0 -33 5 -51.5t32 -49.5l69 -75v-9l-69 -75q-29 -31 -33 -50.5t-4 -52.5v-358q0 -160 -168 -160h-111v111z " />
<glyph unicode="~" d="M113 518v119q4 2 21.5 12t44 20.5t61 18.5t75.5 8q47 0 95.5 -14t97.5 -31.5t96 -32t94 -14.5q53 0 106.5 19.5t88.5 42.5v-119q-4 -4 -21.5 -13.5t-44 -19.5t-62.5 -17.5t-75 -7.5q-47 0 -95 14.5t-97 31t-97.5 31t-95.5 14.5q-53 0 -106.5 -19.5t-85.5 -42.5z" />
<glyph unicode="&#xa1;" horiz-adv-x="493" d="M109 -319l61 966h174l-25 -966h-210zM156 883q0 51 29.5 81.5t78.5 30.5t78 -28.5t29 -79.5t-31 -82t-80 -31t-76.5 29t-27.5 80z" />
<glyph unicode="&#xa2;" d="M121 508q0 240 107.5 395.5t312.5 188.5v204h108v-194q33 0 69 -4t70.5 -10.5t66.5 -13.5t56 -15l-43 -174q-35 16 -86 32.5t-127 16.5q-84 0 -145 -32t-101 -87t-58.5 -132t-18.5 -167q0 -78 18.5 -144.5t56 -115.5t93 -77.5t129.5 -28.5q43 0 84 11t75.5 29.5t60 40 t42.5 41.5l41 -186q-29 -25 -98.5 -60.5t-188.5 -41.5v-197h-108v197q-92 8 -169 48t-132.5 106.5t-85 159.5t-29.5 210z" />
<glyph unicode="&#xa3;" d="M76 500l12 102h148v154q0 186 112.5 266t317.5 80q86 0 153.5 -12.5t102.5 -18.5l-41 -162q-6 2 -26.5 6.5t-50.5 9.5t-62.5 9t-59.5 4q-121 0 -179.5 -44t-58.5 -155v-137h416l-12 -102h-404v-334h355l137 14v-180h-838l13 139l125 29v332h-160z" />
<glyph unicode="&#xa4;" d="M109 897l81 82l123 -125q41 33 89.5 47t101.5 14q47 0 97 -15t91 -44l125 125l78 -78l-127 -123q33 -41 49.5 -91t16.5 -101q0 -49 -16.5 -97.5t-45.5 -89.5l119 -120l-84 -82l-117 120q-41 -31 -89 -45t-97 -14q-51 0 -101.5 15.5t-91.5 46.5l-118 -121l-80 80l123 120 q-61 82 -62 187q0 49 15.5 97t43.5 89zM291 590q0 -43 16.5 -83t45 -68.5t67.5 -46t84 -17.5t84 16.5t67.5 46t45 68.5t16.5 84q0 43 -16.5 82t-46 67.5t-68.5 45t-82 16.5q-45 0 -84 -16.5t-67.5 -45t-45 -67.5t-16.5 -82z" />
<glyph unicode="&#xa5;" d="M63 1083h220l196 -446l15 -59h10l14 61l139 303l41 141h236l-172 -352h164l-17 -102h-194l-86 -176h297l-17 -103h-305v-350h-211v350h-325l12 103h289l-88 176h-213l12 102h153z" />
<glyph unicode="&#xa6;" horiz-adv-x="389" d="M131 -264v612h121v-612h-121zM131 580v610h121v-610h-121z" />
<glyph unicode="&#xa7;" horiz-adv-x="774" d="M68 530q0 78 42 143.5t95 112.5q-35 35 -55.5 78t-20.5 92q0 63 26.5 111.5t72.5 79.5t106.5 46t128.5 15q61 0 109.5 -6t95.5 -16l-27 -109q-27 8 -72 18.5t-104 10.5q-90 0 -145.5 -33t-55.5 -104q0 -59 41 -104.5t133 -98.5q57 -35 105.5 -65.5t82 -66.5t52 -80 t18.5 -101q0 -80 -41 -146.5t-94 -113.5q35 -35 54.5 -77t19.5 -91q0 -61 -26.5 -108.5t-71.5 -79.5t-104.5 -48t-123.5 -16q-78 0 -130 8t-81 16l29 107q29 -10 77 -19.5t95 -9.5q41 0 77 7t63.5 24.5t44 44t16.5 65.5q0 63 -39 103.5t-131 93.5q-57 33 -105.5 64.5 t-83.5 68.5t-54 81t-19 103zM193 535q0 -35 11 -63t35.5 -53.5t62.5 -52t91 -59.5l80 -49q45 41 72.5 86t27.5 102q0 33 -10 61t-33.5 53.5t-61.5 51t-91 58.5l-86 51q-47 -41 -72.5 -85t-25.5 -101z" />
<glyph unicode="&#xa8;" horiz-adv-x="1034" d="M326 1133v253h141v-253h-141zM571 1133v253h140v-253h-140z" />
<glyph unicode="&#xa9;" horiz-adv-x="1099" d="M55 899q0 104 39 195.5t105.5 159t156.5 106.5t193 39q102 0 192 -39t157 -106.5t105.5 -158.5t38.5 -196q0 -104 -38.5 -194.5t-105.5 -158t-157 -106.5t-192 -39t-192.5 39t-157 106.5t-105.5 158t-39 194.5zM139 899q0 -86 32 -161.5t87 -132t130 -88.5t161 -32 t160.5 32t130 88.5t87 132t31.5 161.5t-31.5 162t-87 132t-130 89t-160.5 33t-161 -33t-130 -89t-87 -132t-32 -162zM326 874q0 139 68.5 221.5t197.5 82.5q31 0 62.5 -4.5t68.5 -12.5l-18 -86q-16 4 -45 11.5t-62 7.5q-86 0 -126 -58.5t-40 -152.5q0 -78 37 -130.5 t109 -52.5q47 0 82.5 19.5t52.5 40.5l18 -92q-14 -12 -57 -33t-111 -21q-104 0 -170.5 69t-66.5 191z" />
<glyph unicode="&#xaa;" horiz-adv-x="579" d="M31 758q0 68 29.5 108.5t79.5 62t114.5 29t136.5 7.5q0 78 -32.5 108.5t-118.5 30.5q-47 0 -94.5 -8.5t-75.5 -18.5l22 105q10 4 55.5 11t106.5 7q135 0 197.5 -53t62.5 -193v-262l10 -96h-94l-24 82h-11q-29 -41 -70.5 -66.5t-105.5 -25.5q-82 0 -135 45t-53 127z M152 770q0 -41 25.5 -64.5t66.5 -23.5q80 0 113.5 54.5t33.5 148.5q-43 0 -86 -3t-76.5 -14.5t-55 -35t-21.5 -62.5z" />
<glyph unicode="&#xab;" horiz-adv-x="1052" d="M86 553l414 448l86 -83l-338 -365l340 -371l-90 -82zM473 553l414 448l88 -83l-340 -365l340 -371l-88 -84z" />
<glyph unicode="&#xac;" d="M80 680v115h774v-418h-119v303h-655z" />
<glyph unicode="&#xad;" horiz-adv-x="679" d="M104 436v113h469v-113h-469z" />
<glyph unicode="&#xae;" horiz-adv-x="1097" d="M55 899q0 104 39 195.5t105.5 159t156.5 106.5t193 39q102 0 192 -39t157 -106.5t105.5 -158.5t38.5 -196q0 -104 -38.5 -194.5t-105.5 -158t-157 -106.5t-192 -39t-192.5 39t-157 106.5t-105.5 158t-39 194.5zM139 899q0 -86 32 -161.5t87 -132t130 -88.5t161 -32 t160.5 32t130 88.5t87 132t31.5 161.5t-31.5 162t-87 132t-130 89t-160.5 33t-161 -33t-130 -89t-87 -132t-32 -162zM365 629l6 59v481h202q78 0 129.5 -36.5t51.5 -114.5q0 -53 -24.5 -86t-65.5 -47v-8q29 -14 41 -33t24 -70l37 -145h-104l-35 145q-10 47 -31 61.5 t-70 14.5h-57v-221h-104zM469 924h86q94 0 94 84q0 82 -90 82h-90v-166z" />
<glyph unicode="&#xaf;" horiz-adv-x="1034" d="M256 1210v140h524v-140h-524z" />
<glyph unicode="&#xb0;" horiz-adv-x="540" d="M29 930q0 121 64.5 196.5t182.5 75.5q121 0 178.5 -75.5t57.5 -196.5q0 -123 -64.5 -197t-187.5 -74q-121 0 -176 74t-55 197zM143 930q0 -35 6.5 -68t19.5 -58.5t35.5 -40.5t57.5 -15q72 0 102.5 53t30.5 129q0 35 -6 67.5t-19.5 57t-37 40t-58.5 15.5q-72 0 -101.5 -53 t-29.5 -127zM162 498l102 108l107 -108l-107 -105z" />
<glyph unicode="&#xb1;" d="M102 0v113h801v-113h-801zM102 629v114h338v332h121v-332h340v-114h-340v-348h-121v348h-338z" />
<glyph unicode="&#xb2;" horiz-adv-x="528" d="M43 1083l27 101q23 8 64.5 13t74.5 5q51 0 97 -13t82 -38t56.5 -62.5t20.5 -87.5q0 -45 -14.5 -82.5t-46 -73.5t-82 -73t-119.5 -80l2 -6h215l80 6v-98h-455v108q82 51 140.5 90t95 73t53 65t16.5 65q0 53 -43 83t-110 30q-45 0 -85 -8t-69 -17z" />
<glyph unicode="&#xb3;" horiz-adv-x="534" d="M43 700q18 -6 69.5 -16t100.5 -10q23 0 50.5 3t51 12t40 26.5t16.5 46.5q0 55 -48.5 74.5t-107.5 19.5h-84v76h82q57 0 100 18.5t43 71.5q0 27 -12 43t-31.5 25.5t-44 13.5t-51.5 4q-43 0 -87 -7t-71 -16l25 101q10 4 53 9t90 5q49 0 93.5 -9t78 -28.5t54 -52.5t20.5 -78 q0 -92 -90 -133v-8q45 -16 73.5 -48t28.5 -85q0 -49 -23.5 -82t-61.5 -54.5t-86 -30.5t-97 -9q-47 0 -90 7t-66 11z" />
<glyph unicode="&#xb4;" horiz-adv-x="1034" d="M295 1167l362 224l82 -150l-381 -143z" />
<glyph unicode="&#xb6;" horiz-adv-x="968" d="M70 805q0 76 25.5 139.5t74.5 108.5t118.5 69.5t157.5 24.5h472v-98l-111 -15v-1392h-117v1392h-164v-1392h-129l13 112v717q-174 0 -257 87t-83 247z" />
<glyph unicode="&#xb7;" horiz-adv-x="407" d="M96 573q0 51 31 82t80 31t76.5 -28.5t27.5 -79.5t-29.5 -82t-78.5 -31t-78 28.5t-29 79.5z" />
<glyph unicode="&#xb8;" horiz-adv-x="1034" d="M342 -342l16 84q16 -4 44 -8t57 -4q41 0 68.5 13t27.5 48q0 29 -22.5 41t-59.5 12q-16 0 -32.5 -2t-28.5 -4l24 162h105v-82q59 0 105 -34t46 -97q0 -37 -17.5 -63.5t-46 -45t-66.5 -27.5t-81 -9q-53 0 -88 6t-51 10z" />
<glyph unicode="&#xb9;" horiz-adv-x="509" d="M49 1067q49 10 100.5 41t90.5 82h112l-12 -504h135v-90h-409v90h159l11 379l-7 2l-20 -37q-29 -23 -67 -38t-74 -25z" />
<glyph unicode="&#xba;" horiz-adv-x="593" d="M31 887q0 137 70.5 225t205.5 88t195.5 -82t60.5 -219t-72.5 -225t-205.5 -88q-135 0 -194.5 82t-59.5 219zM156 889q0 -86 27.5 -145.5t105.5 -59.5q82 0 115.5 61.5t33.5 151.5q0 41 -6 79t-22.5 65.5t-43 44t-65.5 16.5q-41 0 -68.5 -17.5t-45 -46t-24.5 -67.5t-7 -82 z" />
<glyph unicode="&#xbb;" horiz-adv-x="1054" d="M78 182l342 371l-340 365l88 83l412 -448l-414 -455zM467 182l340 371l-338 365l84 83l416 -448l-412 -453z" />
<glyph unicode="&#xbc;" horiz-adv-x="1177" d="M49 1067q49 10 100.5 41t90.5 82h112l-12 -504h135v-90h-409v90h159l11 379l-7 2l-20 -37q-29 -23 -67 -38t-74 -25zM184 0l703 1190h106l-704 -1190h-105zM633 115v108l250 371h159v-391h68v-88h-68v-115h-110v115h-299zM721 203h211v272l12 35h-8l-188 -285l-27 -14v-8 z" />
<glyph unicode="&#xbd;" horiz-adv-x="1191" d="M49 1067q49 10 100.5 41t90.5 82h112l-12 -504h135v-90h-409v90h159l11 379l-7 2l-20 -37q-29 -23 -67 -38t-74 -25zM184 0l703 1190h106l-704 -1190h-105zM690 489l27 101q23 8 64.5 13t74.5 5q51 0 97 -13t82 -38t56.5 -62.5t20.5 -86.5q0 -45 -14.5 -83t-46 -74 t-81.5 -73t-120 -80l2 -6h215l80 6v-98h-455v109q82 51 140.5 90t95.5 72.5t53 64.5t16 65q0 53 -43 83t-110 30q-45 0 -85 -8t-69 -17z" />
<glyph unicode="&#xbe;" horiz-adv-x="1132" d="M43 700q18 -6 69.5 -16t100.5 -10q23 0 50.5 3t51 12t40 26.5t16.5 46.5q0 55 -48.5 74.5t-107.5 19.5h-84v76h82q57 0 100 18.5t43 71.5q0 27 -12 43t-31.5 25.5t-44 13.5t-51.5 4q-43 0 -87 -7t-71 -16l25 101q10 4 53 9t90 5q49 0 93.5 -9t78 -28.5t54 -52.5t20.5 -78 q0 -92 -90 -133v-8q45 -16 73.5 -48t28.5 -85q0 -49 -23.5 -82t-61.5 -54.5t-86 -30.5t-97 -9q-47 0 -90 7t-66 11zM176 0l703 1190h106l-704 -1190h-105zM598 115v108l250 371h160v-391h67v-88h-67v-115h-111v115h-299zM686 201l211 2v272l12 35h-8l-188 -287l-27 -14v-8z " />
<glyph unicode="&#xbf;" horiz-adv-x="866" d="M76 31q0 76 28.5 142.5t77.5 119.5t117 91t145 58l15 185h168v-295q-74 -16 -135.5 -41t-106.5 -61.5t-70.5 -86t-25.5 -110.5q0 -115 74.5 -169t189.5 -54q78 0 147.5 18t110.5 35l-27 -187q-8 -4 -32.5 -10t-59.5 -12t-79 -10t-89 -4q-96 0 -179 24.5t-142.5 73.5 t-93 123t-33.5 170zM444 885q0 51 30 80.5t77 29.5q51 0 79.5 -28.5t28.5 -79.5t-30.5 -81t-79.5 -30t-77 29t-28 80z" />
<glyph unicode="&#xc0;" horiz-adv-x="1153" d="M29 0l422 1296h329l344 -1296h-274l-8 141l-47 197h-422l-101 -338h-243zM391 1518l82 149l363 -223l-64 -70zM424 514h336l-135 545l-11 82h-8l-16 -82z" />
<glyph unicode="&#xc1;" horiz-adv-x="1153" d="M29 0l422 1296h329l344 -1296h-274l-8 141l-47 197h-422l-101 -338h-243zM381 1444l362 223l82 -149l-381 -144zM424 514h336l-135 545l-11 82h-8l-16 -82z" />
<glyph unicode="&#xc2;" horiz-adv-x="1153" d="M29 0l422 1296h329l344 -1296h-274l-8 141l-47 197h-422l-101 -338h-243zM326 1462l213 172q18 16 35.5 20.5t29.5 4.5t29.5 -4t36.5 -21l213 -172l-64 -69l-215 94l-215 -94zM424 514h336l-135 545l-11 82h-8l-16 -82z" />
<glyph unicode="&#xc3;" horiz-adv-x="1153" d="M29 0l422 1296h329l344 -1296h-274l-8 141l-47 197h-422l-101 -338h-243zM305 1470l19 129q2 2 16 9.5t36.5 15.5t52.5 14.5t65 6.5q63 0 135.5 -18.5t146.5 -18.5q45 0 80 7t64 17l-17 -125q-8 -6 -54 -25.5t-114 -19.5q-66 0 -139.5 17.5t-144.5 17.5q-47 0 -80 -8 t-66 -19zM424 514h336l-135 545l-11 82h-8l-16 -82z" />
<glyph unicode="&#xc4;" horiz-adv-x="1153" d="M29 0l422 1296h329l344 -1296h-274l-8 141l-47 197h-422l-101 -338h-243zM418 1411v254h141v-254h-141zM424 514h336l-135 545l-11 82h-8l-16 -82zM664 1411v254h139v-254h-139z" />
<glyph unicode="&#xc5;" horiz-adv-x="1153" d="M29 0l422 1296h329l344 -1296h-274l-8 141l-47 197h-422l-101 -338h-243zM406 1522q0 86 57 129t151 43q92 0 149.5 -41t57.5 -127q0 -84 -58 -125t-153 -41q-92 0 -148 41t-56 121zM424 514h336l-135 545l-11 82h-8l-16 -82zM541 1524q0 -70 71 -70q35 0 54.5 18.5 t19.5 51.5q0 75 -74 75q-72 0 -71 -75z" />
<glyph unicode="&#xc6;" horiz-adv-x="1658" d="M29 0l393 1296h1081l15 -178h-555l30 -362h520l15 -170h-520l34 -408h574l14 -178h-805l6 131l-10 166h-471l-86 -297h-235zM393 471h414l-53 647h-168z" />
<glyph unicode="&#xc7;" horiz-adv-x="1019" d="M74 600q0 162 41 293t118.5 225t193.5 145.5t263 51.5q78 0 157 -12.5t124 -26.5l-49 -191q-31 10 -85.5 27.5t-146.5 17.5q-100 0 -173 -38.5t-120 -107.5t-69.5 -163t-22.5 -205q0 -92 21.5 -173t63.5 -141t105.5 -96t147.5 -36q57 0 107.5 14.5t90.5 38t69.5 51 t47.5 54.5l50 -219q-16 -16 -48 -38t-79 -41.5t-107.5 -32.5t-136.5 -15v-68q59 0 105 -32t46 -95q0 -37 -17 -63.5t-47 -45t-68 -27.5t-76 -9q-53 0 -89 7t-53 11l17 80q16 -4 43.5 -8t58.5 -4q39 0 67.5 14t28.5 49q0 29 -22.5 41t-59.5 12q-16 0 -32.5 -1t-30.5 -5 l24 150q-106 14 -191 63t-144.5 129t-91 185.5t-31.5 234.5z" />
<glyph unicode="&#xc8;" horiz-adv-x="1009" d="M129 0l16 143v1153h793v-182h-569v-364h528v-172h-528v-398h587v-180h-827zM338 1518l82 149l362 -223l-63 -70z" />
<glyph unicode="&#xc9;" horiz-adv-x="1009" d="M129 0l16 143v1153h793v-182h-569v-364h528v-172h-528v-398h587v-180h-827zM360 1444l363 223l82 -149l-381 -144z" />
<glyph unicode="&#xca;" horiz-adv-x="1009" d="M129 0l16 143v1153h793v-182h-569v-364h528v-172h-528v-398h587v-180h-827zM279 1462l213 172q18 16 35.5 20.5t29.5 4.5t29.5 -4t36.5 -21l213 -172l-64 -69l-215 94l-215 -94z" />
<glyph unicode="&#xcb;" horiz-adv-x="1009" d="M129 0l16 143v1153h793v-182h-569v-364h528v-172h-528v-398h587v-180h-827zM369 1411v254h141v-254h-141zM614 1411v254h140v-254h-140z" />
<glyph unicode="&#xcc;" horiz-adv-x="507" d="M33 1518l82 149l362 -223l-63 -70zM129 0l14 143v1153h222v-1296h-236z" />
<glyph unicode="&#xcd;" horiz-adv-x="507" d="M35 1444l362 223l82 -149l-381 -144zM129 0l14 143v1153h222v-1296h-236z" />
<glyph unicode="&#xce;" horiz-adv-x="507" d="M-27 1462l213 172q18 16 36 20.5t30 4.5t29.5 -4t35.5 -21l213 -172l-63 -69l-215 94l-215 -94zM129 0l14 143v1153h222v-1296h-236z" />
<glyph unicode="&#xcf;" horiz-adv-x="507" d="M68 1411v254h141v-254h-141zM129 0l14 143v1153h222v-1296h-236zM313 1411v254h140v-254h-140z" />
<glyph unicode="&#xd0;" horiz-adv-x="1204" d="M10 651l135 27v618h398q301 0 444 -167.5t143 -499.5q0 -299 -146 -464t-421 -165h-434l16 143v396l-108 -23zM365 180h188q92 0 157.5 33t107.5 92.5t62.5 142t20.5 185.5q0 240 -79 360.5t-265 120.5h-192v-391l219 45l26 -131l-245 -53v-404z" />
<glyph unicode="&#xd1;" horiz-adv-x="1224" d="M129 0l16 139l5 1157h288l439 -1026h12l-12 72l-17 954h236l-17 -141l-4 -1155h-289l-436 1036h-12l14 -80l17 -956h-240zM311 1470l19 129q2 2 16 9.5t37 15.5t52.5 14.5t64.5 6.5q63 0 136 -18.5t146 -18.5q45 0 80 7t64 17l-17 -125q-8 -6 -54 -25.5t-114 -19.5 q-66 0 -139.5 17.5t-144.5 17.5q-47 0 -80 -8t-66 -19z" />
<glyph unicode="&#xd2;" horiz-adv-x="1226" d="M74 637q0 154 36.5 278.5t108.5 214t177.5 137.5t240.5 48q131 0 228.5 -46t161 -132t95 -208t31.5 -272q0 -154 -37 -278.5t-108.5 -212.5t-177 -136t-242.5 -48q-258 0 -386 174t-128 481zM307 637q0 -92 15.5 -177t49.5 -151.5t89 -106.5t137 -40q84 0 144.5 42 t100.5 110.5t58.5 157.5t18.5 185q0 92 -16.5 178.5t-51.5 152t-91 105.5t-136 40q-86 0 -146.5 -43t-98.5 -113t-55.5 -159t-17.5 -181zM401 1518l82 149l363 -223l-64 -70z" />
<glyph unicode="&#xd3;" horiz-adv-x="1226" d="M74 637q0 154 36.5 278.5t108.5 214t177.5 137.5t240.5 48q131 0 228.5 -46t161 -132t95 -208t31.5 -272q0 -154 -37 -278.5t-108.5 -212.5t-177 -136t-242.5 -48q-258 0 -386 174t-128 481zM307 637q0 -92 15.5 -177t49.5 -151.5t89 -106.5t137 -40q84 0 144.5 42 t100.5 110.5t58.5 157.5t18.5 185q0 92 -16.5 178.5t-51.5 152t-91 105.5t-136 40q-86 0 -146.5 -43t-98.5 -113t-55.5 -159t-17.5 -181zM395 1444l363 223l82 -149l-381 -144z" />
<glyph unicode="&#xd4;" horiz-adv-x="1226" d="M74 637q0 154 36.5 278.5t108.5 214t177.5 137.5t240.5 48q131 0 228.5 -46t161 -132t95 -208t31.5 -272q0 -154 -37 -278.5t-108.5 -212.5t-177 -136t-242.5 -48q-258 0 -386 174t-128 481zM307 637q0 -92 15.5 -177t49.5 -151.5t89 -106.5t137 -40q84 0 144.5 42 t100.5 110.5t58.5 157.5t18.5 185q0 92 -16.5 178.5t-51.5 152t-91 105.5t-136 40q-86 0 -146.5 -43t-98.5 -113t-55.5 -159t-17.5 -181zM330 1462l213 172q18 16 35.5 20.5t29.5 4.5t29.5 -4t36.5 -21l213 -172l-64 -69l-215 94l-215 -94z" />
<glyph unicode="&#xd5;" horiz-adv-x="1226" d="M74 637q0 154 36.5 278.5t108.5 214t177.5 137.5t240.5 48q131 0 228.5 -46t161 -132t95 -208t31.5 -272q0 -154 -37 -278.5t-108.5 -212.5t-177 -136t-242.5 -48q-258 0 -386 174t-128 481zM307 637q0 -92 15.5 -177t49.5 -151.5t89 -106.5t137 -40q84 0 144.5 42 t100.5 110.5t58.5 157.5t18.5 185q0 92 -16.5 178.5t-51.5 152t-91 105.5t-136 40q-86 0 -146.5 -43t-98.5 -113t-55.5 -159t-17.5 -181zM322 1487l16 115q4 4 49 22t111 18q59 0 126.5 -17t137.5 -17q41 0 72.5 7t60.5 17l-14 -112q-8 -4 -51.5 -22.5t-106.5 -18.5 q-59 0 -130 16t-136 16q-43 0 -75 -7t-60 -17z" />
<glyph unicode="&#xd6;" horiz-adv-x="1226" d="M74 637q0 154 36.5 278.5t108.5 214t177.5 137.5t240.5 48q131 0 228.5 -46t161 -132t95 -208t31.5 -272q0 -154 -37 -278.5t-108.5 -212.5t-177 -136t-242.5 -48q-258 0 -386 174t-128 481zM307 637q0 -92 15.5 -177t49.5 -151.5t89 -106.5t137 -40q84 0 144.5 42 t100.5 110.5t58.5 157.5t18.5 185q0 92 -16.5 178.5t-51.5 152t-91 105.5t-136 40q-86 0 -146.5 -43t-98.5 -113t-55.5 -159t-17.5 -181zM422 1411v254h141v-254h-141zM668 1411v254h139v-254h-139z" />
<glyph unicode="&#xd7;" d="M135 309l281 283l-281 280l86 84l281 -282l282 287l82 -84l-284 -281l288 -289l-84 -88l-288 289l-283 -283z" />
<glyph unicode="&#xd8;" horiz-adv-x="1226" d="M74 637q0 154 36.5 278.5t108.5 214t177.5 137.5t240.5 48q78 0 144.5 -17.5t119.5 -50.5l68 113h118l-104 -174q86 -86 128 -220.5t42 -308.5q0 -154 -37 -278.5t-108.5 -212.5t-177 -136t-242.5 -48q-168 0 -279 73l-82 -137h-118l120 203q-78 86 -116.5 215t-38.5 301 zM307 637q0 -84 11.5 -161t39.5 -140l435 729q-68 68 -168 68q-86 0 -146.5 -43t-98.5 -113t-55.5 -159t-17.5 -181zM418 238q35 -35 78 -55.5t102 -20.5q84 0 144.5 42t100.5 110.5t58.5 157.5t18.5 185q0 88 -14.5 170t-47.5 148z" />
<glyph unicode="&#xd9;" horiz-adv-x="1189" d="M121 1296h233v-845q0 -72 10.5 -125.5t37 -89t71.5 -54t113 -18.5q139 0 199.5 72.5t60.5 214.5v702l-12 143h229v-852q0 -231 -124 -346.5t-361 -115.5q-236 0 -339.5 114.5t-103.5 347.5v709zM387 1518l82 149l362 -223l-63 -70z" />
<glyph unicode="&#xda;" horiz-adv-x="1189" d="M121 1296h233v-845q0 -72 10.5 -125.5t37 -89t71.5 -54t113 -18.5q139 0 199.5 72.5t60.5 214.5v702l-12 143h229v-852q0 -231 -124 -346.5t-361 -115.5q-236 0 -339.5 114.5t-103.5 347.5v709zM391 1444l363 223l82 -149l-381 -144z" />
<glyph unicode="&#xdb;" horiz-adv-x="1189" d="M121 1296h233v-845q0 -72 10.5 -125.5t37 -89t71.5 -54t113 -18.5q139 0 199.5 72.5t60.5 214.5v702l-12 143h229v-852q0 -231 -124 -346.5t-361 -115.5q-236 0 -339.5 114.5t-103.5 347.5v709zM324 1462l213 172q18 16 35.5 20.5t29.5 4.5t29.5 -4t36.5 -21l213 -172 l-64 -69l-215 94l-215 -94z" />
<glyph unicode="&#xdc;" horiz-adv-x="1189" d="M121 1296h233v-845q0 -72 10.5 -125.5t37 -89t71.5 -54t113 -18.5q139 0 199.5 72.5t60.5 214.5v702l-12 143h229v-852q0 -231 -124 -346.5t-361 -115.5q-236 0 -339.5 114.5t-103.5 347.5v709zM412 1411v254h141v-254h-141zM657 1411v254h140v-254h-140z" />
<glyph unicode="&#xdd;" horiz-adv-x="1030" d="M23 1296h241l225 -563l13 -71h10l12 73l189 414l39 147h256l-390 -821v-475h-227v475zM311 1444l363 223l82 -149l-381 -144z" />
<glyph unicode="&#xde;" horiz-adv-x="1097" d="M129 0l18 145l3 1151h221v-192h209q104 0 189 -24.5t145.5 -74t93 -125t32.5 -180.5q0 -102 -32.5 -174.5t-93 -121t-142.5 -71t-180 -22.5h-221v-311h-242zM371 492h188q125 0 190.5 48t65.5 165q0 123 -72.5 171t-193.5 48h-178v-432z" />
<glyph unicode="&#xdf;" horiz-adv-x="1079" d="M25 815v146l125 16v47q0 184 104 280.5t291 96.5q80 0 147.5 -21.5t117.5 -61.5t79 -100.5t29 -136.5q0 -84 -34 -140t-87 -110l-56 -55v-10l80 -86q39 -43 74 -85t62.5 -86t44 -90t16.5 -97q0 -84 -28.5 -147.5t-80 -106.5t-122 -64.5t-152.5 -21.5q-20 0 -45 1t-49.5 4 t-47 6t-36.5 7l32 166q16 -6 55.5 -11t67.5 -5q80 0 137.5 37.5t57.5 131.5q0 41 -19.5 82t-51 81t-69.5 79t-75 78q-29 31 -48.5 57.5t-19.5 61.5t18.5 59.5t53.5 59.5q55 57 85 100t30 100q0 72 -48.5 118t-121.5 46q-186 0 -187 -227v-1014h-219l15 145v670h-125z" />
<glyph unicode="&#xe0;" horiz-adv-x="995" d="M63 266q0 111 49.5 177.5t132.5 103.5t190.5 48t223.5 11q0 125 -55 178.5t-194 53.5q-80 0 -158 -14.5t-125 -30.5l37 172q8 2 32.5 7t59.5 10t80 9t96 4q111 0 192 -20.5t134 -67.5t78.5 -124.5t25.5 -192.5v-432l17 -158h-160l-39 135h-10q-49 -70 -120 -111.5 t-175 -41.5q-135 0 -223.5 74.5t-88.5 209.5zM264 287q0 -70 42 -109t110 -39q131 0 186 91.5t57 244.5q-72 0 -142.5 -5t-126.5 -23.5t-91 -56.5t-35 -103zM299 1241l82 150l362 -224l-63 -69z" />
<glyph unicode="&#xe1;" horiz-adv-x="995" d="M63 266q0 111 49.5 177.5t132.5 103.5t190.5 48t223.5 11q0 125 -55 178.5t-194 53.5q-80 0 -158 -14.5t-125 -30.5l37 172q8 2 32.5 7t59.5 10t80 9t96 4q111 0 192 -20.5t134 -67.5t78.5 -124.5t25.5 -192.5v-432l17 -158h-160l-39 135h-10q-49 -70 -120 -111.5 t-175 -41.5q-135 0 -223.5 74.5t-88.5 209.5zM264 287q0 -70 42 -109t110 -39q131 0 186 91.5t57 244.5q-72 0 -142.5 -5t-126.5 -23.5t-91 -56.5t-35 -103zM301 1167l363 224l81 -150l-380 -143z" />
<glyph unicode="&#xe2;" horiz-adv-x="995" d="M63 266q0 111 49.5 177.5t132.5 103.5t190.5 48t223.5 11q0 125 -55 178.5t-194 53.5q-80 0 -158 -14.5t-125 -30.5l37 172q8 2 32.5 7t59.5 10t80 9t96 4q111 0 192 -20.5t134 -67.5t78.5 -124.5t25.5 -192.5v-432l17 -158h-160l-39 135h-10q-49 -70 -120 -111.5 t-175 -41.5q-135 0 -223.5 74.5t-88.5 209.5zM227 1194l213 172q18 16 36 20.5t30 4.5t29.5 -4.5t35.5 -20.5l213 -172l-63 -70l-215 95l-215 -95zM264 287q0 -70 42 -109t110 -39q131 0 186 91.5t57 244.5q-72 0 -142.5 -5t-126.5 -23.5t-91 -56.5t-35 -103z" />
<glyph unicode="&#xe3;" horiz-adv-x="995" d="M63 266q0 111 49.5 177.5t132.5 103.5t190.5 48t223.5 11q0 125 -55 178.5t-194 53.5q-80 0 -158 -14.5t-125 -30.5l37 172q8 2 32.5 7t59.5 10t80 9t96 4q111 0 192 -20.5t134 -67.5t78.5 -124.5t25.5 -192.5v-432l17 -158h-160l-39 135h-10q-49 -70 -120 -111.5 t-175 -41.5q-135 0 -223.5 74.5t-88.5 209.5zM193 1190l18 129q2 2 16.5 9t37 15.5t52 14.5t64.5 6q63 0 136 -18.5t147 -18.5q45 0 79.5 7t63.5 18l-16 -125q-8 -6 -54.5 -25.5t-113.5 -19.5q-66 0 -139.5 17.5t-145.5 17.5q-47 0 -80 -8.5t-65 -18.5zM264 287 q0 -70 42 -109t110 -39q131 0 186 91.5t57 244.5q-72 0 -142.5 -5t-126.5 -23.5t-91 -56.5t-35 -103z" />
<glyph unicode="&#xe4;" horiz-adv-x="995" d="M63 266q0 111 49.5 177.5t132.5 103.5t190.5 48t223.5 11q0 125 -55 178.5t-194 53.5q-80 0 -158 -14.5t-125 -30.5l37 172q8 2 32.5 7t59.5 10t80 9t96 4q111 0 192 -20.5t134 -67.5t78.5 -124.5t25.5 -192.5v-432l17 -158h-160l-39 135h-10q-49 -70 -120 -111.5 t-175 -41.5q-135 0 -223.5 74.5t-88.5 209.5zM264 287q0 -70 42 -109t110 -39q131 0 186 91.5t57 244.5q-72 0 -142.5 -5t-126.5 -23.5t-91 -56.5t-35 -103zM324 1133v253h141v-253h-141zM569 1133v253h140v-253h-140z" />
<glyph unicode="&#xe5;" horiz-adv-x="995" d="M63 266q0 111 49.5 177.5t132.5 103.5t190.5 48t223.5 11q0 125 -55 178.5t-194 53.5q-80 0 -158 -14.5t-125 -30.5l37 172q8 2 32.5 7t59.5 10t80 9t96 4q111 0 192 -20.5t134 -67.5t78.5 -124.5t25.5 -192.5v-432l17 -158h-160l-39 135h-10q-49 -70 -120 -111.5 t-175 -41.5q-135 0 -223.5 74.5t-88.5 209.5zM264 287q0 -70 42 -109t110 -39q131 0 186 91.5t57 244.5q-72 0 -142.5 -5t-126.5 -23.5t-91 -56.5t-35 -103zM301 1237q0 86 57.5 129t151.5 43q92 0 149.5 -41t57.5 -127q0 -84 -58.5 -125t-152.5 -41q-92 0 -148.5 41 t-56.5 121zM436 1239q0 -70 72 -70q35 0 54.5 18.5t19.5 51.5q0 76 -74 76q-72 0 -72 -76z" />
<glyph unicode="&#xe6;" horiz-adv-x="1546" d="M63 266q0 100 41 165t112 100.5t163 49t196 13.5h87q-2 125 -57.5 184.5t-190.5 59.5q-92 0 -168 -14.5t-119 -30.5l37 172q12 2 38.5 8t60.5 10t72 8t73 4q135 0 229 -26.5t149 -104.5h13q109 131 309 131q111 0 185.5 -37.5t119.5 -104.5t64.5 -157t19.5 -196v-51h-522 l-115 -19q4 -158 84 -221.5t240 -63.5q82 0 153.5 16.5t130.5 39.5l-43 -176q-33 -12 -108.5 -27.5t-173.5 -15.5q-61 0 -118.5 7t-110 27.5t-97.5 56.5t-82 91h-12q-53 -86 -133 -134t-221 -48q-145 0 -225.5 77.5t-80.5 206.5zM264 287q0 -66 40 -107t108 -41t113.5 24.5 t75.5 67.5t44 102.5t17 131.5h-58q-66 0 -127 -4t-108 -21.5t-76 -53.5t-29 -99zM864 578h424l10 10q0 51 -10 97t-33.5 81t-60.5 55.5t-88 20.5q-102 0 -163.5 -76t-78.5 -188z" />
<glyph unicode="&#xe7;" horiz-adv-x="821" d="M57 461q0 119 33 217t95.5 169t154.5 109.5t213 38.5q74 0 141.5 -11t100.5 -21l-35 -170q-35 14 -91.5 26t-113.5 12q-78 0 -134 -27.5t-92 -76.5t-52.5 -116.5t-16.5 -145.5q0 -66 15.5 -124t47 -102t79 -71t112.5 -27q84 0 148.5 37t105.5 82l41 -180 q-8 -8 -29.5 -22.5t-57.5 -30t-85 -27.5t-111 -16v-70q59 0 105.5 -32t46.5 -95q0 -37 -17.5 -63.5t-47 -45t-67.5 -27.5t-77 -9q-53 0 -89 7t-52 11l16 80q16 -4 44 -8t58 -4q39 0 68 14t29 49q0 29 -22.5 41t-59.5 12q-16 0 -32.5 -1t-31.5 -5l25 148q-178 20 -271.5 147 t-93.5 328z" />
<glyph unicode="&#xe8;" horiz-adv-x="954" d="M59 469q0 111 30 206t87 166.5t142 112.5t194 41t184.5 -35.5t121.5 -99t66.5 -150.5t20.5 -188v-78h-526l-111 -14q2 -154 84 -219.5t230 -65.5q100 0 171.5 18.5t120.5 37.5l-38 -176q-29 -10 -114 -26.5t-185 -16.5q-238 0 -358 129t-120 358zM272 575h424l9 11 q0 113 -43.5 182.5t-147.5 69.5q-102 0 -163.5 -71t-78.5 -192zM299 1241l82 150l362 -224l-63 -69z" />
<glyph unicode="&#xe9;" horiz-adv-x="954" d="M59 469q0 111 30 206t87 166.5t142 112.5t194 41t184.5 -35.5t121.5 -99t66.5 -150.5t20.5 -188v-78h-526l-111 -14q2 -154 84 -219.5t230 -65.5q100 0 171.5 18.5t120.5 37.5l-38 -176q-29 -10 -114 -26.5t-185 -16.5q-238 0 -358 129t-120 358zM272 575h424l9 11 q0 113 -43.5 182.5t-147.5 69.5q-102 0 -163.5 -71t-78.5 -192zM301 1167l363 224l81 -150l-380 -143z" />
<glyph unicode="&#xea;" horiz-adv-x="954" d="M59 469q0 111 30 206t87 166.5t142 112.5t194 41t184.5 -35.5t121.5 -99t66.5 -150.5t20.5 -188v-78h-526l-111 -14q2 -154 84 -219.5t230 -65.5q100 0 171.5 18.5t120.5 37.5l-38 -176q-29 -10 -114 -26.5t-185 -16.5q-238 0 -358 129t-120 358zM236 1194l213 172 q18 16 35.5 20.5t29.5 4.5t29.5 -4.5t36.5 -20.5l213 -172l-64 -70l-215 95l-215 -95zM272 575h424l9 11q0 113 -43.5 182.5t-147.5 69.5q-102 0 -163.5 -71t-78.5 -192z" />
<glyph unicode="&#xeb;" horiz-adv-x="954" d="M59 469q0 111 30 206t87 166.5t142 112.5t194 41t184.5 -35.5t121.5 -99t66.5 -150.5t20.5 -188v-78h-526l-111 -14q2 -154 84 -219.5t230 -65.5q100 0 171.5 18.5t120.5 37.5l-38 -176q-29 -10 -114 -26.5t-185 -16.5q-238 0 -358 129t-120 358zM272 575h424l9 11 q0 113 -43.5 182.5t-147.5 69.5q-102 0 -163.5 -71t-78.5 -192zM317 1133v253h142v-253h-142zM563 1133v253h139v-253h-139z" />
<glyph unicode="&#xec;" horiz-adv-x="462" d="M6 1241l82 150l363 -224l-64 -69zM119 0l16 156v821h199v-977h-215z" />
<glyph unicode="&#xed;" horiz-adv-x="462" d="M14 1167l363 224l82 -150l-381 -143zM119 0l16 156v821h199v-977h-215z" />
<glyph unicode="&#xee;" horiz-adv-x="462" d="M-47 1194l213 172q18 16 35.5 20.5t29.5 4.5t30 -4.5t36 -20.5l213 -172l-64 -70l-215 95l-215 -95zM119 0l16 156v821h199v-977h-215z" />
<glyph unicode="&#xef;" horiz-adv-x="462" d="M41 1133v253h141v-253h-141zM119 0l16 156v821h199v-977h-215zM287 1133v253h139v-253h-139z" />
<glyph unicode="&#xf0;" horiz-adv-x="1001" d="M59 436q0 98 29 180t81 143.5t126 96.5t164 39h33.5t27.5 -2l39 -19l4 7l-125 186l-174 -39l-28 121l131 29l-115 176l209 47l119 -178l174 39l24 -119l-133 -31q8 -12 40 -63.5t71 -113t74.5 -121.5t50.5 -93q25 -59 43 -126t18 -151q0 -211 -116.5 -336.5 t-336.5 -125.5q-106 0 -187 33.5t-134 95t-81 144.5t-28 181zM264 436q0 -57 13.5 -110.5t43 -93t74.5 -64.5t109 -25q63 0 108 23.5t72 63.5t39 93.5t12 112.5t-11 113.5t-38 95.5t-71.5 64.5t-110.5 23.5t-111 -23.5t-73.5 -63.5t-42 -94t-13.5 -116z" />
<glyph unicode="&#xf1;" horiz-adv-x="1038" d="M117 977h157l35 -133h8q41 61 117 106t182 45q154 0 228 -87t74 -240v-668h-207v657q0 78 -36 126t-114 48q-61 0 -103 -24.5t-69 -67.5t-39 -100t-12 -121v-518h-199v817zM217 1190l19 129q2 2 16 9t36.5 15.5t52.5 14.5t65 6q63 0 135.5 -18.5t146.5 -18.5q45 0 80 7 t63 18l-16 -125q-8 -6 -54 -25.5t-114 -19.5q-66 0 -139.5 17.5t-145.5 17.5q-47 0 -79.5 -8.5t-65.5 -18.5z" />
<glyph unicode="&#xf2;" horiz-adv-x="997" d="M59 477q0 113 30 208t88.5 164t143.5 107.5t195 38.5q111 0 189.5 -35.5t131 -100t77 -157t24.5 -204.5q0 -113 -30.5 -208t-90 -164t-144.5 -106.5t-196 -37.5t-189.5 34.5t-128.5 99t-75 157t-25 204.5zM264 481q0 -70 10.5 -131t36 -107t67.5 -73t107 -27q68 0 115 28 t77 75t43 110.5t13 137.5q0 70 -11 131t-37 107t-69.5 72.5t-109.5 26.5q-68 0 -114 -28.5t-74.5 -75.5t-41 -111.5t-12.5 -134.5zM291 1241l82 150l362 -224l-63 -69z" />
<glyph unicode="&#xf3;" horiz-adv-x="997" d="M59 477q0 113 30 208t88.5 164t143.5 107.5t195 38.5q111 0 189.5 -35.5t131 -100t77 -157t24.5 -204.5q0 -113 -30.5 -208t-90 -164t-144.5 -106.5t-196 -37.5t-189.5 34.5t-128.5 99t-75 157t-25 204.5zM264 481q0 -70 10.5 -131t36 -107t67.5 -73t107 -27q68 0 115 28 t77 75t43 110.5t13 137.5q0 70 -11 131t-37 107t-69.5 72.5t-109.5 26.5q-68 0 -114 -28.5t-74.5 -75.5t-41 -111.5t-12.5 -134.5zM281 1167l362 224l82 -150l-381 -143z" />
<glyph unicode="&#xf4;" horiz-adv-x="997" d="M59 477q0 113 30 208t88.5 164t143.5 107.5t195 38.5q111 0 189.5 -35.5t131 -100t77 -157t24.5 -204.5q0 -113 -30.5 -208t-90 -164t-144.5 -106.5t-196 -37.5t-189.5 34.5t-128.5 99t-75 157t-25 204.5zM236 1194l213 172q18 16 35.5 20.5t29.5 4.5t29.5 -4.5 t36.5 -20.5l213 -172l-64 -70l-215 95l-215 -95zM264 481q0 -70 10.5 -131t36 -107t67.5 -73t107 -27q68 0 115 28t77 75t43 110.5t13 137.5q0 70 -11 131t-37 107t-69.5 72.5t-109.5 26.5q-68 0 -114 -28.5t-74.5 -75.5t-41 -111.5t-12.5 -134.5z" />
<glyph unicode="&#xf5;" horiz-adv-x="997" d="M59 477q0 113 30 208t88.5 164t143.5 107.5t195 38.5q111 0 189.5 -35.5t131 -100t77 -157t24.5 -204.5q0 -113 -30.5 -208t-90 -164t-144.5 -106.5t-196 -37.5t-189.5 34.5t-128.5 99t-75 157t-25 204.5zM203 1190l18 129q2 2 16.5 9t37 15.5t52 14.5t64.5 6 q63 0 136 -18.5t147 -18.5q45 0 79.5 7t63.5 18l-16 -125q-8 -6 -54.5 -25.5t-113.5 -19.5q-66 0 -139.5 17.5t-145.5 17.5q-47 0 -79.5 -8.5t-65.5 -18.5zM264 481q0 -70 10.5 -131t36 -107t67.5 -73t107 -27q68 0 115 28t77 75t43 110.5t13 137.5q0 70 -11 131t-37 107 t-69.5 72.5t-109.5 26.5q-68 0 -114 -28.5t-74.5 -75.5t-41 -111.5t-12.5 -134.5z" />
<glyph unicode="&#xf6;" horiz-adv-x="997" d="M59 477q0 113 30 208t88.5 164t143.5 107.5t195 38.5q111 0 189.5 -35.5t131 -100t77 -157t24.5 -204.5q0 -113 -30.5 -208t-90 -164t-144.5 -106.5t-196 -37.5t-189.5 34.5t-128.5 99t-75 157t-25 204.5zM264 481q0 -70 10.5 -131t36 -107t67.5 -73t107 -27q68 0 115 28 t77 75t43 110.5t13 137.5q0 70 -11 131t-37 107t-69.5 72.5t-109.5 26.5q-68 0 -114 -28.5t-74.5 -75.5t-41 -111.5t-12.5 -134.5zM313 1133v253h142v-253h-142zM559 1133v253h139v-253h-139z" />
<glyph unicode="&#xf7;" d="M96 522v115h811v-115h-811zM393 238q0 51 31 80.5t80 29.5q104 0 104 -106q0 -51 -28.5 -82t-79.5 -31q-49 0 -78 28.5t-29 80.5zM393 901q0 51 31 81t80 30q51 0 77.5 -29t26.5 -80t-28.5 -80.5t-79.5 -29.5q-49 0 -78 28.5t-29 79.5z" />
<glyph unicode="&#xf8;" horiz-adv-x="997" d="M59 477q0 113 30 208t88.5 164t143.5 107.5t195 38.5q113 0 199 -41l65 109h103l-92 -156q76 -63 111.5 -168.5t35.5 -240.5q0 -113 -30.5 -208t-90 -164t-144.5 -106.5t-196 -37.5q-123 0 -213 45l-67 -109h-103l99 160q-70 66 -102 167t-32 232zM264 481 q0 -63 8.5 -119.5t28.5 -101.5l322 539q-49 32 -117 32t-114 -28.5t-74.5 -75.5t-41 -111.5t-12.5 -134.5zM358 184q47 -41 127 -41q68 0 115 28t77 75t43 110.5t13 137.5q0 70 -11 130t-38 107z" />
<glyph unicode="&#xf9;" horiz-adv-x="1036" d="M119 309v668h205v-658q0 -72 33.5 -123t117.5 -51q63 0 105.5 26t68 71t36.5 106.5t11 130.5v498h203v-819l21 -158h-164l-29 131h-8q-41 -59 -114 -104t-179 -45q-154 0 -230.5 87t-76.5 240zM297 1241l82 150l362 -224l-63 -69z" />
<glyph unicode="&#xfa;" horiz-adv-x="1038" d="M121 309v668h205v-658q0 -72 33.5 -123t117.5 -51q63 0 105.5 26t68 71t36.5 106.5t11 130.5v498h203v-819l21 -158h-164l-29 131h-8q-41 -59 -113.5 -104t-179.5 -45q-154 0 -230.5 87t-76.5 240zM299 1167l363 224l81 -150l-381 -143z" />
<glyph unicode="&#xfb;" horiz-adv-x="1038" d="M121 309v668h205v-658q0 -72 33.5 -123t117.5 -51q63 0 105.5 26t68 71t36.5 106.5t11 130.5v498h203v-819l21 -158h-164l-29 131h-8q-41 -59 -113.5 -104t-179.5 -45q-154 0 -230.5 87t-76.5 240zM238 1194l213 172q18 16 35.5 20.5t29.5 4.5t29.5 -4.5t36.5 -20.5 l213 -172l-64 -70l-215 95l-215 -95z" />
<glyph unicode="&#xfc;" horiz-adv-x="1038" d="M121 309v668h205v-658q0 -72 33.5 -123t117.5 -51q63 0 105.5 26t68 71t36.5 106.5t11 130.5v498h203v-819l21 -158h-164l-29 131h-8q-41 -59 -113.5 -104t-179.5 -45q-154 0 -230.5 87t-76.5 240zM322 1133v253h141v-253h-141zM567 1133v253h140v-253h-140z" />
<glyph unicode="&#xfd;" horiz-adv-x="923" d="M18 977h226l221 -719h10l10 80l154 483l25 156h241l-332 -957q-35 -100 -72.5 -170.5t-85.5 -116.5t-110.5 -67.5t-146.5 -21.5q-16 0 -42 1t-36 3l-27 164q10 -2 29.5 -4.5t42.5 -2.5q51 0 86 11.5t59.5 35t43 60.5t36.5 88l8 27zM258 1167l363 224l81 -150l-380 -143z " />
<glyph unicode="&#xfe;" horiz-adv-x="1019" d="M121 -340l14 145v1579h203v-520l8 -2q10 12 30.5 35t52.5 44.5t78 37.5t105 16q84 0 149.5 -31.5t109.5 -88t68 -134t24 -170.5q0 -268 -137.5 -419.5t-417.5 -151.5h-70v-340h-217zM332 340q0 -18 1 -43t1 -49.5t1 -48t1 -37.5q10 -2 24 -4q10 -2 25.5 -2h32.5 q88 0 152.5 29.5t105.5 81.5t60.5 125t19.5 161q0 55 -10.5 105.5t-34 89t-58.5 61t-84 22.5q-74 0 -120 -39.5t-71.5 -107.5t-35.5 -157t-10 -187z" />
<glyph unicode="&#xff;" horiz-adv-x="923" d="M18 977h226l221 -719h10l10 80l154 483l25 156h241l-332 -957q-35 -100 -72.5 -170.5t-85.5 -116.5t-110.5 -67.5t-146.5 -21.5q-16 0 -42 1t-36 3l-27 164q10 -2 29.5 -4.5t42.5 -2.5q51 0 86 11.5t59.5 35t43 60.5t36.5 88l8 27zM272 1133v253h142v-253h-142zM518 1133 v253h139v-253h-139z" />
<glyph unicode="&#x152;" horiz-adv-x="1677" d="M74 629q0 160 42 284.5t121.5 209.5t193.5 129t257 44h918v-182h-568v-371h533v-172h-533v-391h586v-180h-997q-274 0 -413.5 158.5t-139.5 470.5zM303 631q0 -100 18.5 -183t60.5 -143.5t107.5 -93.5t159.5 -33h166v940h-117q-106 0 -181 -35.5t-123 -100t-69.5 -155 t-21.5 -196.5z" />
<glyph unicode="&#x153;" horiz-adv-x="1607" d="M59 479q0 113 30 208t88.5 164t143.5 106.5t193 37.5q223 0 320 -153h12q53 72 133 112.5t190 40.5q111 0 184.5 -35.5t120 -99t66 -150.5t19.5 -188v-76h-527l-110 -16q2 -152 80.5 -218.5t232.5 -66.5q41 0 84 5.5t83 13.5t72.5 17t53.5 20l-39 -176 q-35 -10 -113 -26.5t-182 -16.5q-129 0 -217 34.5t-150 114.5h-12q-111 -149 -338 -149q-111 0 -189.5 35.5t-128.5 100t-75 157t-25 204.5zM260 481q0 -70 10.5 -131t37 -108t69.5 -75t108 -28q68 0 115 28t78 75t44 111.5t13 138.5q0 70 -11 132t-38 109t-70.5 75 t-109.5 28q-68 0 -115 -29t-75.5 -77t-42 -112.5t-13.5 -136.5zM926 575h424l8 11q0 115 -45 183.5t-146 68.5q-102 0 -164.5 -70t-76.5 -193z" />
<glyph unicode="&#x178;" horiz-adv-x="1030" d="M23 1296h241l225 -563l13 -71h10l12 73l189 414l39 147h256l-390 -821v-475h-227v475zM328 1411v254h141v-254h-141zM573 1411v254h140v-254h-140z" />
<glyph unicode="&#x2c6;" horiz-adv-x="1034" d="M240 1194l213 172q18 16 35.5 20.5t29.5 4.5t29.5 -4.5t36.5 -20.5l213 -172l-64 -70l-215 95l-215 -95z" />
<glyph unicode="&#x2dc;" horiz-adv-x="1034" d="M211 1190l18 129q2 2 16.5 9t37 15.5t52.5 14.5t64 6q63 0 136 -18.5t147 -18.5q45 0 80 7t63 18l-16 -125q-8 -6 -54 -25.5t-114 -19.5q-66 0 -139.5 17.5t-145.5 17.5q-47 0 -79.5 -8.5t-65.5 -18.5z" />
<glyph unicode="&#x2000;" horiz-adv-x="847" />
<glyph unicode="&#x2001;" horiz-adv-x="1694" />
<glyph unicode="&#x2002;" horiz-adv-x="847" />
<glyph unicode="&#x2003;" horiz-adv-x="1694" />
<glyph unicode="&#x2004;" horiz-adv-x="564" />
<glyph unicode="&#x2005;" horiz-adv-x="423" />
<glyph unicode="&#x2006;" horiz-adv-x="282" />
<glyph unicode="&#x2007;" horiz-adv-x="282" />
<glyph unicode="&#x2008;" horiz-adv-x="211" />
<glyph unicode="&#x2009;" horiz-adv-x="338" />
<glyph unicode="&#x200a;" horiz-adv-x="94" />
<glyph unicode="&#x2010;" horiz-adv-x="679" d="M104 436v113h469v-113h-469z" />
<glyph unicode="&#x2011;" horiz-adv-x="679" d="M104 436v113h469v-113h-469z" />
<glyph unicode="&#x2012;" horiz-adv-x="679" d="M104 436v113h469v-113h-469z" />
<glyph unicode="&#x2013;" horiz-adv-x="1024" d="M0 436v115h1024v-115h-1024z" />
<glyph unicode="&#x2014;" horiz-adv-x="2048" d="M0 436v115h2048v-115h-2048z" />
<glyph unicode="&#x2018;" horiz-adv-x="391" d="M84 1067q0 72 43 139l82 135l80 -8l-62 -164q31 -10 51.5 -33.5t20.5 -64.5q0 -51 -29.5 -83t-81.5 -32q-49 0 -76.5 30t-27.5 81z" />
<glyph unicode="&#x2019;" horiz-adv-x="391" d="M94 1083q0 51 30 83t81 32q49 0 76.5 -29.5t27.5 -81.5q0 -72 -43 -139l-82 -135l-80 8l62 164q-31 10 -51.5 33.5t-20.5 64.5z" />
<glyph unicode="&#x201a;" horiz-adv-x="391" d="M94 98q0 51 30 83t81 32q49 0 76.5 -29.5t27.5 -81.5q0 -72 -43 -139l-82 -135l-80 8l62 164q-31 10 -51.5 33.5t-20.5 64.5z" />
<glyph unicode="&#x201c;" horiz-adv-x="724" d="M84 1067q0 72 43 139l82 135l80 -8l-62 -164q31 -10 51.5 -33.5t20.5 -64.5q0 -51 -29.5 -83t-81.5 -32q-49 0 -76.5 30t-27.5 81zM420 1067q0 72 43 139l82 135l80 -8l-62 -164q31 -10 51.5 -33.5t20.5 -64.5q0 -51 -30 -83t-81 -32q-49 0 -76.5 30t-27.5 81z" />
<glyph unicode="&#x201d;" horiz-adv-x="727" d="M94 1083q0 51 30 83t81 32q49 0 76.5 -29.5t27.5 -81.5q0 -72 -43 -139l-82 -135l-80 8l62 164q-31 10 -51.5 33.5t-20.5 64.5zM430 1083q0 51 29.5 83t81.5 32q49 0 76.5 -29.5t27.5 -81.5q0 -72 -43 -139l-82 -135l-80 8l62 164q-31 10 -51.5 33.5t-20.5 64.5z" />
<glyph unicode="&#x201e;" horiz-adv-x="727" d="M94 98q0 51 30 83t81 32q49 0 76.5 -29.5t27.5 -81.5q0 -72 -43 -139l-82 -135l-80 8l62 164q-31 10 -51.5 33.5t-20.5 64.5zM430 98q0 51 29.5 83t81.5 32q49 0 76.5 -29.5t27.5 -81.5q0 -72 -43 -139l-82 -135l-80 8l62 164q-31 10 -51.5 33.5t-20.5 64.5z" />
<glyph unicode="&#x2022;" horiz-adv-x="602" d="M115 565q0 86 52 138.5t138 52.5q84 0 133 -50.5t49 -136.5t-51 -136t-135 -50q-86 0 -136 48t-50 134z" />
<glyph unicode="&#x2026;" horiz-adv-x="1064" d="M98 90q0 51 31 81t80 30t76.5 -29t27.5 -80t-29.5 -80.5t-78.5 -29.5t-78 28.5t-29 79.5zM434 90q0 51 30 81t81 30q47 0 74.5 -29t27.5 -80t-28.5 -80.5t-77.5 -29.5t-78 28.5t-29 79.5zM770 90q0 51 29.5 81t81.5 30q47 0 74.5 -29t27.5 -80t-29.5 -80.5t-76.5 -29.5 q-51 0 -79 28.5t-28 79.5z" />
<glyph unicode="&#x202f;" horiz-adv-x="338" />
<glyph unicode="&#x2039;" horiz-adv-x="663" d="M86 553l414 448l86 -83l-338 -365l340 -371l-90 -82z" />
<glyph unicode="&#x203a;" horiz-adv-x="663" d="M74 182l342 371l-340 365l88 83l411 -448l-413 -455z" />
<glyph unicode="&#x2044;" horiz-adv-x="794" d="M6 0l674 1190h108l-673 -1190h-109z" />
<glyph unicode="&#x205f;" horiz-adv-x="423" />
<glyph unicode="&#x2070;" horiz-adv-x="565" d="M39 889q0 141 65.5 226t188.5 85t180 -80t57 -221t-67.5 -227t-190.5 -86q-121 0 -177 81t-56 222zM152 889q0 -43 6 -81t21.5 -67.5t39 -47t60.5 -17.5q35 0 60.5 19.5t42.5 50t25.5 70.5t8.5 83q0 41 -6.5 79t-21.5 67.5t-39.5 47t-59.5 17.5q-37 0 -63.5 -19.5 t-43 -50t-23.5 -70.5t-7 -81z" />
<glyph unicode="&#x2074;" horiz-adv-x="557" d="M43 711v108l250 371h160v-391h67v-88h-67v-115h-111v115h-299zM131 799h211v272l12 35h-8l-188 -285l-27 -14v-8z" />
<glyph unicode="&#x2075;" horiz-adv-x="512" d="M41 705q25 -8 49 -15q23 -4 50.5 -8t58.5 -4q68 0 114.5 23.5t46.5 80.5q0 31 -18 51.5t-48 33t-69 16.5t-78 4h-65v303h360v-98l-73 8h-179v-133q55 0 106.5 -10.5t91.5 -34t63.5 -59.5t23.5 -87t-20.5 -87t-56.5 -59.5t-83 -33.5t-98 -10q-53 0 -92 5t-62 11z" />
<glyph unicode="&#x2076;" horiz-adv-x="546" d="M43 889q0 139 71.5 225t221.5 86q37 0 69.5 -4t49.5 -8l24 -101q-20 6 -59 14.5t-76 8.5q-82 0 -130 -41t-52 -119q20 2 44.5 4t45.5 2q113 0 187.5 -45t74.5 -141q0 -86 -62.5 -135t-160.5 -49q-66 0 -113 22.5t-76.5 63.5t-44 96t-14.5 121zM156 874q0 -41 7 -77.5 t22.5 -64t42 -43t67.5 -15.5q49 0 78.5 25.5t29.5 72.5q0 61 -47 85t-114 24q-25 0 -44.5 -1t-41.5 -6z" />
<glyph unicode="&#x2077;" horiz-adv-x="471" d="M23 1092v98h413v-107q-61 -61 -98 -125.5t-56.5 -127t-25.5 -121t-6 -105.5v-8h-115v8q0 55 6 113.5t24.5 119t51.5 122t84 120.5l29 13v8h-219z" />
<glyph unicode="&#x2078;" horiz-adv-x="569" d="M49 748q0 49 30 87.5t77 59.5v8q-41 18 -67 51t-26 76t19.5 75t51.5 53.5t74 32.5t87 11q92 0 156.5 -41t64.5 -121q0 -47 -28.5 -81.5t-69.5 -53.5v-8q49 -25 75.5 -57.5t26.5 -79.5q0 -43 -20.5 -76t-53 -54.5t-76.5 -31.5t-89 -10q-98 0 -165 39t-67 121zM154 760 q0 -43 35.5 -64.5t86.5 -21.5q49 0 88 21.5t39 64.5q0 41 -37.5 60.5t-84.5 33.5l-27 8q-41 -16 -70.5 -38.5t-29.5 -63.5zM178 1038q0 -41 34 -58t81 -34l24 -8q35 10 65 34.5t30 61.5q0 41 -34 62.5t-81 21.5q-45 0 -82 -19.5t-37 -60.5z" />
<glyph unicode="&#x2079;" horiz-adv-x="548" d="M33 1016q0 86 63.5 135t161.5 49q131 0 189.5 -86t58.5 -217q0 -141 -71.5 -227t-223.5 -86q-35 0 -68.5 4t-50.5 8l-24 102q20 -8 59 -15t78 -7q82 0 129 40t53 118q-16 -2 -43 -4.5t-47 -2.5q-113 0 -188.5 45.5t-75.5 143.5zM143 1014q0 -61 48.5 -86t115.5 -25 q25 0 44.5 1t41.5 5q-2 43 -8 80t-21.5 64.5t-42 43t-67.5 15.5q-49 0 -80 -26.5t-31 -71.5z" />
<glyph unicode="&#x207d;" horiz-adv-x="337" d="M68 895q0 125 38.5 232.5t92.5 193.5l69 -45q-43 -74 -76.5 -166t-33.5 -215q0 -121 33.5 -212t76.5 -167l-69 -43q-53 84 -92 191.5t-39 230.5z" />
<glyph unicode="&#x207e;" horiz-adv-x="337" d="M68 516q43 76 75.5 167t32.5 212q0 123 -32.5 215t-75.5 166l67 45q53 -86 93 -193.5t40 -232.5q0 -123 -39 -230.5t-92 -191.5z" />
<glyph unicode="&#x207f;" horiz-adv-x="604" d="M57 1190h97l22 -82h8q25 39 69 66.5t107 27.5q92 0 138.5 -53t46.5 -148v-405h-127v397q0 49 -21.5 79t-66.5 30q-76 0 -108 -56.5t-32 -134.5v-315h-118v496z" />
<glyph unicode="&#x2080;" horiz-adv-x="565" d="M39 53q0 141 65.5 226.5t188.5 85.5t180 -80t57 -222q0 -141 -67.5 -227t-190.5 -86q-121 0 -177 81t-56 222zM152 53q0 -43 6 -81t21.5 -67.5t39 -47t60.5 -17.5q35 0 60.5 19.5t42.5 50.5t25.5 70.5t8.5 82.5q0 41 -6.5 79t-21.5 68t-39.5 47t-59.5 17q-37 0 -63.5 -19 t-43 -50t-23.5 -71t-7 -81z" />
<glyph unicode="&#x2081;" horiz-adv-x="509" d="M49 231q49 10 100.5 41t90.5 82h112l-12 -504h135v-90h-409v90h159l11 379l-7 2l-20 -36q-29 -23 -67 -38.5t-74 -25.5z" />
<glyph unicode="&#x2082;" horiz-adv-x="536" d="M43 250l27 100q23 8 64.5 13.5t74.5 5.5q51 0 97 -13.5t82 -38t56.5 -62.5t20.5 -87q0 -45 -14.5 -83t-46 -74t-82 -72.5t-119.5 -79.5l2 -6h215l80 6v-99h-455v109q82 51 140.5 90t95 73t53 64.5t16.5 65.5q0 53 -43 82.5t-110 29.5q-45 0 -85 -8t-69 -16z" />
<glyph unicode="&#x2083;" horiz-adv-x="534" d="M43 -133q18 -6 69.5 -16.5t100.5 -10.5q23 0 50.5 3t51 12.5t40 27t16.5 45.5q0 55 -48.5 75t-107.5 20h-84v75h82q57 0 100 18.5t43 71.5q0 27 -12 43.5t-31.5 25.5t-44 13t-51.5 4q-43 0 -87 -7t-71 -15l25 100q10 4 53 9.5t90 5.5q49 0 93.5 -9.5t78 -29t54 -52 t20.5 -77.5q0 -92 -90 -133v-9q45 -16 73.5 -48t28.5 -85q0 -49 -23.5 -81.5t-61.5 -54t-86 -31t-97 -9.5q-47 0 -90 7t-66 12z" />
<glyph unicode="&#x2084;" horiz-adv-x="557" d="M43 -18l250 370h160v-391h67v-88h-67v-115h-111v115h-299v109zM131 -31v-8h211v272l12 35h-8l-188 -284z" />
<glyph unicode="&#x2085;" horiz-adv-x="512" d="M41 -131q25 -8 49 -14q23 -4 50.5 -8.5t58.5 -4.5q68 0 114.5 23.5t46.5 81.5q0 31 -18 51t-48 32.5t-69 16.5t-78 4h-65v303h360v-98l-73 8h-179v-133q55 0 106.5 -10t91.5 -34t63.5 -59.5t23.5 -86.5t-20.5 -87t-56.5 -59.5t-83 -34t-98 -10.5q-53 0 -92 5t-62 12z" />
<glyph unicode="&#x2086;" horiz-adv-x="546" d="M43 53q0 139 71.5 225.5t221.5 86.5q37 0 69.5 -4.5t49.5 -8.5l24 -100q-20 6 -59 14t-76 8q-82 0 -130 -40.5t-52 -118.5q20 2 44.5 4t45.5 2q113 0 187.5 -45t74.5 -142q0 -86 -62.5 -135t-160.5 -49q-66 0 -113 22.5t-76.5 63.5t-44 96.5t-14.5 120.5zM156 39 q0 -41 7 -78t22.5 -64.5t42 -43t67.5 -15.5q49 0 78.5 25.5t29.5 73.5q0 61 -47 84.5t-114 23.5q-25 0 -44.5 -1t-41.5 -5z" />
<glyph unicode="&#x2087;" horiz-adv-x="471" d="M23 252v98h413v-106q-61 -61 -98 -126t-56.5 -127.5t-25.5 -120.5t-6 -106v-8h-115v8q0 55 6 114t24.5 119t51.5 121.5t84 121.5l29 12v8h-219z" />
<glyph unicode="&#x2088;" horiz-adv-x="569" d="M49 -92q0 49 30 88t77 59v8q-41 18 -67 51t-26 76t19.5 75t51.5 53.5t74 32.5t87 11q92 0 156.5 -40.5t64.5 -120.5q0 -47 -28.5 -82t-69.5 -53v-9q49 -25 75.5 -57.5t26.5 -79.5q0 -43 -20.5 -75.5t-53 -54t-76.5 -32t-89 -10.5q-98 0 -165 39t-67 121zM154 -80 q0 -43 35.5 -64.5t86.5 -21.5q49 0 88 21.5t39 64.5q0 41 -37.5 60.5t-84.5 33.5l-27 9q-41 -16 -70.5 -39t-29.5 -64zM178 199q0 -41 34 -58.5t81 -34.5l24 -8q35 10 65 35t30 62q0 41 -34 62.5t-81 21.5q-45 0 -82 -19.5t-37 -60.5z" />
<glyph unicode="&#x2089;" horiz-adv-x="548" d="M33 182q0 86 63.5 135.5t161.5 49.5q131 0 189.5 -86t58.5 -218q0 -141 -71.5 -227t-223.5 -86q-35 0 -68.5 4t-50.5 8l-24 103q20 -8 59 -15.5t78 -7.5q82 0 129 40t53 118q-16 -2 -43 -4t-47 -2q-113 0 -188.5 45t-75.5 143zM143 180q0 -61 48.5 -85.5t115.5 -24.5 q25 0 44.5 1t41.5 5q-2 43 -8 80t-21.5 64.5t-42 43t-67.5 15.5q-49 0 -80 -27t-31 -72z" />
<glyph unicode="&#x208d;" horiz-adv-x="337" d="M68 176q0 125 39.5 231.5t93.5 192.5l67 -43q-43 -74 -75.5 -167t-32.5 -214q0 -123 32.5 -214t75.5 -165l-69 -45q-53 86 -92 193.5t-39 230.5z" />
<glyph unicode="&#x208e;" horiz-adv-x="337" d="M68 -203q43 74 75.5 165t32.5 214q0 121 -32.5 214t-75.5 167l67 43q53 -86 93 -192.5t40 -231.5q0 -123 -39 -230.5t-92 -193.5z" />
<glyph unicode="&#x20ac;" d="M45 358l23 99h90q-2 10 -2 25.5v35.5q0 29 2 54.5t6 54.5h-119l23 98h114q47 178 176 277.5t334 99.5q86 0 147.5 -11.5t92.5 -21.5l-39 -154q-35 14 -82 23.5t-96 9.5q-252 0 -322 -223h418q-6 -25 -12 -49.5t-11 -48.5h-419q-4 -20 -6.5 -45t-2.5 -54q0 -39 7 -71h444 l-23 -99h-401q25 -98 93.5 -160.5t185.5 -62.5q90 0 157.5 29t102.5 61l41 -157q-16 -10 -43 -24.5t-66 -28t-91 -23.5t-118 -10q-193 0 -316.5 98t-160.5 278h-127z" />
<glyph unicode="&#x2122;" horiz-adv-x="1077" d="M20 1327v76h336v-76h-120v-469h-101l6 60v409h-121zM410 856l10 62l14 485h156l110 -393l2 -29h9l2 29l112 393h156l-4 -62l18 -485h-94l-12 459h-8l-2 -31l-127 -428h-93l-124 428l-3 33h-8l-12 -461h-102z" />
<glyph unicode="&#x25fc;" horiz-adv-x="972" d="M0 0v973h973v-973h-973z" />
<glyph unicode="&#xfb01;" horiz-adv-x="999" d="M25 815v148l125 16v98q0 154 92 239t250 85h24t33 -2l24 -166q-10 2 -25.5 3t-27.5 1q-80 0 -125 -39t-45 -119q0 -23 2 -41t6 -32q4 -16 11 -29h512v-977h-215l16 156v659h-328v-815h-219l15 145v670h-125zM641 1262l137 137l137 -137l-137 -140z" />
<glyph unicode="&#xfb02;" horiz-adv-x="1015" d="M25 815v146l125 16v106q0 86 28.5 146.5t78.5 98.5t122 55.5t158 17.5q47 0 100 -4t101 -9.5t87 -11.5t58 -8v-1368h-217l14 145v1082q-23 4 -65 7t-80 3q-84 0 -134.5 -34t-50.5 -124q0 -23 2 -40t6 -31q4 -16 11 -31h153v-162h-168v-815h-217l13 145v670h-125z" />
<glyph horiz-adv-x="585" d="M31 760q0 68 29.5 108.5t81 62t117 29t136.5 7.5q0 78 -33.5 109.5t-119.5 31.5q-49 0 -96.5 -8t-75.5 -19l22 105q10 4 56.5 11t107.5 7q135 0 198.5 -54t63.5 -194v-264l10 -96h-98l-22 84h-9q-31 -43 -72.5 -68.5t-105.5 -25.5q-84 0 -137 45t-53 129zM154 772 q0 -43 25.5 -66.5t66.5 -23.5q80 0 113.5 55.5t35.5 149.5q-43 0 -87 -3t-77.5 -14.5t-55 -35t-21.5 -62.5z" />
<glyph horiz-adv-x="591" d="M55 598l8 88v750h123v-316h9q4 8 15 21.5t29.5 27t47 22.5t65.5 9q102 0 157.5 -69.5t55.5 -184.5q0 -162 -82 -261t-264 -99q-37 0 -85 4t-79 8zM184 749.5q0 -16.5 1 -32t1 -27.5q8 -2 17 -4q10 -2 37 -2q111 0 155.5 72.5t44.5 177.5q0 70 -26.5 119t-87.5 49 q-41 0 -69 -23.5t-44 -63.5t-22.5 -94.5t-6.5 -117.5v-22.5v-31z" />
<glyph horiz-adv-x="497" d="M31 874q0 147 76.5 237.5t222.5 90.5q47 0 89 -7t62 -13l-24 -103q-23 10 -57.5 17.5t-67.5 7.5q-96 0 -137 -64.5t-41 -162.5q0 -78 37.5 -136.5t115.5 -58.5q53 0 93 21.5t65 50.5l24 -109q-4 -4 -19 -14t-39.5 -20.5t-60.5 -17.5t-81 -7q-125 0 -191.5 78.5 t-66.5 209.5z" />
<glyph horiz-adv-x="598" d="M29 848q0 162 85 258t251 96h43v234h129l-7 -97v-743h-81l-25 82h-8q-6 -10 -19.5 -26.5t-34 -31t-50 -24.5t-70.5 -10q-102 0 -157.5 73.5t-55.5 188.5zM156 858q0 -68 24.5 -120t83.5 -52q43 0 72 22.5t46 62.5t23.5 93.5t6.5 116.5q0 25 -2 58.5t-2 56.5q-8 0 -17 2 q-8 0 -15 1t-18 1q-109 0 -155.5 -67.5t-46.5 -174.5z" />
<glyph horiz-adv-x="569" d="M29 881q0 68 18.5 126t53 101t86 68.5t118.5 25.5q66 0 112 -22.5t74.5 -60.5t41 -91t12.5 -115v-47h-322l-67 -8q2 -94 52 -134t140 -40q59 0 103.5 11.5t74.5 21.5l-24 -107q-16 -6 -68.5 -16t-114.5 -10q-145 0 -217.5 77.5t-72.5 219.5zM158 946h260l4 6 q0 70 -26.5 112t-90.5 42q-61 0 -99 -43t-48 -117z" />
<glyph horiz-adv-x="258" d="M43 1378l84 86l86 -86l-86 -86zM57 596l13 98v498h123v-596h-136z" />
<glyph horiz-adv-x="256" d="M59 598l11 94v746h120v-840h-131z" />
<glyph horiz-adv-x="940" d="M63 1192h101l20 -80h9q23 35 64.5 62.5t104.5 27.5q59 0 100.5 -25.5t57.5 -66.5h8q29 37 68 64.5t104 27.5q86 0 131.5 -46t45.5 -138v-422h-125v399q0 106 -88 107q-72 0 -99.5 -51.5t-27.5 -137.5v-317h-121v399q0 49 -20.5 78t-69.5 29q-70 0 -97.5 -51.5 t-27.5 -137.5v-317h-123v496z" />
<glyph horiz-adv-x="587" d="M27 887q0 139 71.5 227t206.5 88t195.5 -82t60.5 -221q0 -137 -72.5 -225t-207.5 -88t-194.5 82t-59.5 219zM152 889q0 -41 6 -79t21.5 -65.5t41 -44t64.5 -16.5q82 0 116.5 61.5t34.5 151.5q0 86 -29.5 145.5t-107.5 59.5q-82 0 -114.5 -63.5t-32.5 -149.5z" />
<glyph horiz-adv-x="387" d="M57 1190h99l18 -82h8q55 94 180 94l17 -123q-10 4 -22.5 5t-20.5 1q-45 0 -72.5 -14t-44 -40.5t-23 -62.5t-6.5 -79v-293h-120v496z" />
<glyph horiz-adv-x="507" d="M29 614l24 101q18 -8 62.5 -20.5t101.5 -12.5q49 0 89 14.5t40 57.5q0 35 -39 55t-90 41q-37 14 -68.5 29.5t-56 35t-39 46t-14.5 65.5q0 45 20.5 79t56.5 54.5t81 30.5t94 10q82 0 158 -16l-25 -101q-23 6 -57.5 13.5t-79.5 7.5t-83 -13.5t-38 -54.5q0 -35 32.5 -53 t86.5 -39q33 -12 66.5 -27.5t60 -35t44 -47t17.5 -64.5q0 -51 -22.5 -86t-59.5 -56.5t-85 -31.5t-99 -10q-53 0 -104.5 9t-73.5 19z" />
<glyph horiz-adv-x="356" d="M14 1092v90l72 10l16 129l111 63v-194h129v-98h-129v-308q0 -102 102 -102h20.5t20.5 2l-18 -96q-12 -4 -43 -4q-98 0 -152.5 45t-54.5 149v314h-74z" />
<glyph horiz-adv-x="2099" d="M74 633q0 145 39 270t114.5 216t187 143.5t257.5 52.5q78 0 149.5 -12.5t108.5 -24.5l-49 -188q-39 14 -87.5 26t-117.5 12q-94 0 -165 -37.5t-117 -102t-68.5 -149.5t-22.5 -182q0 -109 22.5 -199.5t73 -155t128 -100.5t188.5 -36q90 0 174 16.5t149 42.5v1071h224v-534 h475v534h233l-14 -143v-1153h-219v586h-475v-504q-117 -35 -263.5 -67.5t-320.5 -32.5q-145 0 -257 45t-189.5 130t-117.5 204.5t-40 271.5z" />
<glyph horiz-adv-x="1941" d="M74 633q0 150 38 274.5t112.5 214.5t185 141.5t258.5 51.5q78 0 145.5 -11.5t114.5 -27.5l-49 -186q-31 10 -82.5 24t-116.5 14q-96 0 -167 -36.5t-117 -100t-69.5 -149.5t-23.5 -185q0 -109 21.5 -198.5t70.5 -155t128 -101.5t194 -36q94 0 175 16.5t148 44.5v1155h215 l-12 -153v-350h10q47 51 114 83.5t159 32.5q145 0 221 -90t76 -237v-668h-207v657q0 33 -7 64t-24.5 54.5t-45.5 37.5t-69 14q-117 0 -172 -84t-55 -237v-426q-117 -37 -252 -67.5t-311 -30.5q-291 0 -448.5 172t-157.5 479z" />
<glyph horiz-adv-x="1773" d="M57 485q0 113 33 206t95.5 161t152.5 105.5t205 37.5q66 0 125 -10t98 -20l-41 -166q-29 10 -77 20t-103 10q-141 0 -213 -95t-72 -242q0 -166 82 -257.5t248 -91.5q78 0 153.5 13.5t128.5 36.5v1189h220l-17 -147v-358h10q35 49 109 83.5t164 34.5q145 0 221 -90 t76 -237v-668h-207v657q0 78 -34 124t-111 46q-61 0 -105.5 -25.5t-71 -67.5t-39 -96t-12.5 -114v-456q-27 -8 -78 -22.5t-117.5 -29t-145.5 -24.5t-161 -10q-248 0 -382 128t-134 375z" />
<glyph horiz-adv-x="1880" d="M74 522q0 274 137 427t393 153q66 0 128.5 -10.5t90.5 -20.5l-41 -172q-29 12 -74.5 23.5t-93.5 11.5q-166 0 -247.5 -106.5t-81.5 -292.5q0 -180 86 -284t272 -104q80 0 149.5 14.5t129.5 39.5v882h208v-444h400v444h221l-10 -133v-950h-211v483h-400v-407 q-100 -33 -240 -62.5t-288 -29.5q-121 0 -219 36.5t-167 106.5t-105.5 169t-36.5 226z" />
<glyph horiz-adv-x="1028" d="M29 0l360 1083h301l309 -1083h-243l-13 133l-190 746l-10 67h-11l-10 -67l-276 -879h-217zM309 305h424l-41 156h-334z" />
<glyph horiz-adv-x="1028" d="M29 0l360 1083h301l309 -1083h-243l-13 133l-43 172h-358l-96 -305h-217zM305 1237l363 223l82 -149l-381 -144zM391 461h268l-106 418l-10 67h-11l-10 -67z" />
<glyph horiz-adv-x="1028" d="M29 0l360 1083h301l309 -1083h-243l-13 133l-43 172h-358l-96 -305h-217zM256 1255l213 172q18 16 36 20.5t30 4.5t29.5 -4t35.5 -21l213 -172l-63 -69l-215 94l-216 -94zM391 461h268l-106 418l-10 67h-11l-10 -67z" />
<glyph horiz-adv-x="1028" d="M29 0l360 1083h301l309 -1083h-243l-13 133l-43 172h-358l-96 -305h-217zM344 1196v254h141v-254h-141zM391 461h268l-106 418l-10 67h-11l-10 -67zM590 1196v254h139v-254h-139z" />
<glyph horiz-adv-x="1028" d="M29 0l360 1083h301l309 -1083h-243l-13 133l-43 172h-358l-96 -305h-217zM334 1311l82 149l362 -223l-63 -70zM391 461h268l-106 418l-10 67h-11l-10 -67z" />
<glyph horiz-adv-x="1028" d="M29 0l360 1083h301l309 -1083h-243l-13 133l-43 172h-358l-96 -305h-217zM330 1319q0 86 57.5 129t151.5 43q92 0 149 -41t57 -127q0 -84 -58 -125t-152 -41q-92 0 -148.5 41t-56.5 121zM391 461h268l-106 418l-10 67h-11l-10 -67zM465 1321q0 -70 72 -70q35 0 54 18.5 t19 51.5q1 76 -73 76q-72 0 -72 -76z" />
<glyph horiz-adv-x="1028" d="M29 0l360 1083h301l309 -1083h-243l-13 133l-43 172h-358l-96 -305h-217zM225 1241l19 129q2 2 16 9t36.5 15.5t52.5 14.5t65 6q63 0 136 -18.5t146 -18.5q45 0 80 7.5t64 17.5l-17 -125q-8 -6 -54 -25.5t-114 -19.5q-66 0 -139.5 17.5t-144.5 17.5q-47 0 -80 -8.5 t-66 -18.5zM391 461h268l-106 418l-10 67h-11l-10 -67z" />
<glyph horiz-adv-x="1431" d="M29 0l327 1083h942l11 -155h-471l26 -289h443l10 -152h-440l28 -331h486l12 -156h-696l6 109l-13 135h-387l-71 -244h-213zM346 395h344l-43 549h-139z" />
<glyph horiz-adv-x="1040" d="M129 0l14 135v948h455q70 0 131.5 -16t107.5 -51t72.5 -88.5t26.5 -124.5q0 -86 -36 -146.5t-101 -89.5v-8q72 -33 114.5 -102.5t42.5 -161.5q0 -147 -91 -221t-247 -74h-489zM352 158h191q100 0 150 35.5t50 123.5q0 80 -49 125t-147 45h-195v-329zM352 618h197 q84 0 129 40t45 116q0 154 -182 154h-189v-310z" />
<glyph horiz-adv-x="884" d="M70 512q0 135 34.5 244.5t102 186.5t167 118t226.5 41q66 0 129.5 -9.5t122.5 -25.5l-45 -172q-33 12 -86 27.5t-125 15.5q-80 0 -139.5 -32t-97 -89t-57 -134t-19.5 -169q0 -78 17 -144.5t52 -116.5t90.5 -79t128.5 -29q49 0 90 12.5t73 31t56.5 40t38.5 41.5l43 -184 q-16 -12 -43.5 -29.5t-69.5 -35t-96.5 -28.5t-121.5 -11q-104 0 -190.5 35.5t-149 103t-97 166t-34.5 225.5z" />
<glyph horiz-adv-x="884" d="M70 512q0 135 34.5 244.5t102 186.5t167 118t226.5 41q66 0 129.5 -9.5t122.5 -25.5l-45 -176q-33 12 -86 27.5t-125 15.5q-80 0 -139.5 -32t-97 -88t-57 -133t-19.5 -167q0 -76 17 -142.5t52 -115.5t90.5 -77.5t128.5 -28.5q49 0 90 12t73 30.5t56.5 40t38.5 41.5 l43 -188q-16 -12 -40.5 -28.5t-61.5 -32t-84 -27.5t-106 -14v-66q59 0 105 -30.5t46 -94.5q0 -37 -17.5 -63.5t-47 -45t-67.5 -27.5t-79 -9q-53 0 -88 6t-51 10l16 82q16 -4 44 -8t59 -4q39 0 67.5 13t28.5 48q0 29 -22.5 41t-59.5 12q-16 0 -32.5 -2t-30.5 -4l22 144 q-180 23 -291.5 156.5t-111.5 369.5z" />
<glyph horiz-adv-x="1091" d="M129 0l14 135v948h377q498 0 498 -557q0 -252 -119 -389t-336 -137h-434zM352 162h180q147 0 210 97t63 269q0 199 -65.5 296.5t-229.5 97.5h-158v-760z" />
<glyph horiz-adv-x="1091" d="M16 551l516 106l27 -114l-518 -109zM129 0l14 135v948h377q498 0 498 -557q0 -252 -119 -389t-336 -137h-434zM352 162h180q147 0 210 97t63 269q0 199 -65.5 296.5t-229.5 97.5h-158v-760z" />
<glyph horiz-adv-x="899" d="M129 0l14 143v940h691v-157h-482v-293h453v-156h-453v-319h494v-158h-717z" />
<glyph horiz-adv-x="899" d="M129 0l14 143v940h691v-157h-482v-293h453v-156h-453v-319h494v-158h-717zM270 1237l363 223l82 -149l-381 -144z" />
<glyph horiz-adv-x="899" d="M129 0l14 143v940h691v-157h-482v-293h453v-156h-453v-319h494v-158h-717zM221 1255l213 172q18 16 36 20.5t30 4.5t29.5 -4t35.5 -21l213 -172l-63 -69l-215 94l-215 -94z" />
<glyph horiz-adv-x="899" d="M129 0l14 143v940h691v-157h-482v-293h453v-156h-453v-319h494v-158h-717zM305 1196v254h141v-254h-141zM551 1196v254h139v-254h-139z" />
<glyph horiz-adv-x="899" d="M129 0l14 143v940h691v-157h-482v-293h453v-156h-453v-319h494v-158h-717zM281 1311l81 149l363 -223l-63 -70z" />
<glyph horiz-adv-x="849" d="M129 0l12 125v958h668v-157h-459v-328h422v-156h-422v-442h-221z" />
<glyph horiz-adv-x="1048" d="M74 516q0 129 35.5 236.5t106.5 185.5t175.5 121t243.5 43q66 0 145.5 -10.5t149.5 -30.5l-41 -168q-41 14 -108.5 29.5t-151.5 15.5q-92 0 -156.5 -32t-106.5 -88t-60.5 -133t-18.5 -165q0 -78 13 -147.5t47 -121.5t90.5 -83t140.5 -31q49 0 92 10.5t75 24.5v266h-188 v146h381v-523q-66 -31 -161 -55t-228 -24q-102 0 -189.5 30.5t-151 96t-99 167t-35.5 240.5z" />
<glyph horiz-adv-x="1099" d="M129 0l12 127v956h209v-444h400v444h221l-13 -125v-958h-208v483h-400v-483h-221z" />
<glyph horiz-adv-x="493" d="M129 0l12 127v956h209v-1083h-221z" />
<glyph horiz-adv-x="493" d="M27 1237l362 223l82 -149l-381 -144zM129 0l12 127v956h209v-1083h-221z" />
<glyph horiz-adv-x="493" d="M-37 1255l213 172q18 16 36 20.5t30 4.5t29.5 -4t35.5 -21l213 -172l-63 -69l-215 94l-215 -94zM129 0l12 127v956h209v-1083h-221z" />
<glyph horiz-adv-x="493" d="M55 1196v254h142v-254h-142zM129 0l12 127v956h209v-1083h-221zM301 1196v254h139v-254h-139z" />
<glyph horiz-adv-x="493" d="M14 1311l82 149l363 -223l-64 -70zM129 0l12 127v956h209v-1083h-221z" />
<glyph horiz-adv-x="624" d="M16 145q10 -2 22.5 -3t20.5 -1q111 0 170.5 49.5t59.5 155.5v578l-238 16v143h459l-12 -127v-624q0 -86 -30 -150.5t-82 -109.5t-122.5 -67.5t-152.5 -22.5q-10 0 -34 1t-30 3z" />
<glyph horiz-adv-x="1009" d="M129 0l16 131v952h209v-442h8l21 61l305 381h256l-344 -415l387 -668h-235l-287 514h-8l-103 -123v-391h-225z" />
<glyph horiz-adv-x="772" d="M129 0l12 125v958h209v-925h402v-158h-623z" />
<glyph horiz-adv-x="1454" d="M104 0l17 135l43 948h315l232 -786l8 -59h10l8 59l244 786h326l-13 -137l23 -946h-211l-4 903h-10l-11 -61l-266 -842h-184l-254 844l-8 61h-11l-32 -905h-222z" />
<glyph horiz-adv-x="1116" d="M129 0l14 133v950h273l368 -854h9l-9 70l-14 784h217l-14 -135v-948h-266l-373 866h-10l8 -69l14 -797h-217z" />
<glyph horiz-adv-x="1116" d="M129 0l14 133v950h273l368 -854h9l-9 70l-14 784h217l-14 -135v-948h-266l-373 866h-10l8 -69l14 -797h-217zM254 1239l18 129q2 2 16.5 9t37 15.5t52.5 14.5t64 6q63 0 136 -18.5t147 -18.5q45 0 80 7.5t63 17.5l-16 -125q-8 -6 -54 -25.5t-114 -19.5q-66 0 -139.5 17.5 t-145.5 17.5q-47 0 -79.5 -8.5t-65.5 -18.5z" />
<glyph horiz-adv-x="1093" d="M74 530q0 129 31.5 234.5t94 180.5t154.5 116t211 41q113 0 199 -38t142.5 -109.5t85 -174t28.5 -229.5q0 -129 -33 -234.5t-95.5 -179.5t-154.5 -114.5t-211 -40.5q-227 0 -339.5 144t-112.5 404zM287 532q0 -78 12 -147.5t41 -122.5t76 -85t116 -32q74 0 126.5 34 t85 89.5t48 129t15.5 153.5q0 76 -13.5 146.5t-43 123.5t-77.5 85t-118 32q-74 0 -125 -34t-83 -91t-46 -130t-14 -151z" />
<glyph horiz-adv-x="1093" d="M74 530q0 129 31.5 234.5t94 180.5t154.5 116t211 41q113 0 199 -38t142.5 -109.5t85 -174t28.5 -229.5q0 -129 -33 -234.5t-95.5 -179.5t-154.5 -114.5t-211 -40.5q-227 0 -339.5 144t-112.5 404zM287 532q0 -78 12 -147.5t41 -122.5t76 -85t116 -32q74 0 126.5 34 t85 89.5t48 129t15.5 153.5q0 76 -13.5 146.5t-43 123.5t-77.5 85t-118 32q-74 0 -125 -34t-83 -91t-46 -130t-14 -151zM324 1237l362 223l82 -149l-381 -144z" />
<glyph horiz-adv-x="1093" d="M74 530q0 129 31.5 234.5t94 180.5t154.5 116t211 41q113 0 199 -38t142.5 -109.5t85 -174t28.5 -229.5q0 -129 -33 -234.5t-95.5 -179.5t-154.5 -114.5t-211 -40.5q-227 0 -339.5 144t-112.5 404zM270 1255l213 172q18 16 36 20.5t30 4.5t29.5 -4t35.5 -21l213 -172 l-63 -69l-215 94l-215 -94zM287 532q0 -78 12 -147.5t41 -122.5t76 -85t116 -32q74 0 126.5 34t85 89.5t48 129t15.5 153.5q0 76 -13.5 146.5t-43 123.5t-77.5 85t-118 32q-74 0 -125 -34t-83 -91t-46 -130t-14 -151z" />
<glyph horiz-adv-x="1093" d="M74 530q0 129 31.5 234.5t94 180.5t154.5 116t211 41q113 0 199 -38t142.5 -109.5t85 -174t28.5 -229.5q0 -129 -33 -234.5t-95.5 -179.5t-154.5 -114.5t-211 -40.5q-227 0 -339.5 144t-112.5 404zM287 532q0 -78 12 -147.5t41 -122.5t76 -85t116 -32q74 0 126.5 34 t85 89.5t48 129t15.5 153.5q0 76 -13.5 146.5t-43 123.5t-77.5 85t-118 32q-74 0 -125 -34t-83 -91t-46 -130t-14 -151zM358 1196v254h142v-254h-142zM604 1196v254h139v-254h-139z" />
<glyph horiz-adv-x="1093" d="M74 530q0 129 31.5 234.5t94 180.5t154.5 116t211 41q113 0 199 -38t142.5 -109.5t85 -174t28.5 -229.5q0 -129 -33 -234.5t-95.5 -179.5t-154.5 -114.5t-211 -40.5q-227 0 -339.5 144t-112.5 404zM287 532q0 -78 12 -147.5t41 -122.5t76 -85t116 -32q74 0 126.5 34 t85 89.5t48 129t15.5 153.5q0 76 -13.5 146.5t-43 123.5t-77.5 85t-118 32q-74 0 -125 -34t-83 -91t-46 -130t-14 -151zM350 1311l82 149l363 -223l-64 -70z" />
<glyph horiz-adv-x="1093" d="M74 530q0 129 31.5 234.5t94 180.5t154.5 116t211 41q113 0 199 -38t142.5 -109.5t85 -174t28.5 -229.5q0 -129 -33 -234.5t-95.5 -179.5t-154.5 -114.5t-211 -40.5q-227 0 -339.5 144t-112.5 404zM102 -82l123 203l72 -58l-86 -145h-109zM287 532q0 -78 12 -147.5 t41 -122.5t76 -85t116 -32q74 0 126.5 34t85 89.5t48 129t15.5 153.5q0 76 -13.5 146.5t-43 123.5t-77.5 85t-118 32q-74 0 -125 -34t-83 -91t-46 -130t-14 -151zM319 279l50 -97l391 656l-62 73zM768 1028l84 143h109l-115 -192z" />
<glyph horiz-adv-x="1093" d="M74 530q0 129 31.5 234.5t94 180.5t154.5 116t211 41q113 0 199 -38t142.5 -109.5t85 -174t28.5 -229.5q0 -129 -33 -234.5t-95.5 -179.5t-154.5 -114.5t-211 -40.5q-227 0 -339.5 144t-112.5 404zM248 1239l18 129q2 2 16.5 9t37 15.5t52 14.5t64.5 6q63 0 136 -18.5 t147 -18.5q45 0 81 7.5t62 17.5l-16 -125q-8 -6 -54 -25.5t-114 -19.5q-66 0 -139.5 17.5t-145.5 17.5q-47 0 -79.5 -8.5t-65.5 -18.5zM287 532q0 -78 12 -147.5t41 -122.5t76 -85t116 -32q74 0 126.5 34t85 89.5t48 129t15.5 153.5q0 76 -13.5 146.5t-43 123.5t-77.5 85 t-118 32q-74 0 -125 -34t-83 -91t-46 -130t-14 -151z" />
<glyph horiz-adv-x="1474" d="M74 526q0 268 133 412.5t375 144.5h827v-157h-489v-293h456v-158h-456v-317h501v-158h-893q-227 0 -340.5 134t-113.5 392zM287 530q0 -82 13 -150.5t45 -117.5t84 -76.5t132 -27.5h150v768h-115q-86 0 -145.5 -30t-96.5 -82t-52 -125t-15 -159z" />
<glyph horiz-adv-x="991" d="M129 0l10 135v948h408q180 0 283.5 -84t103.5 -260q0 -84 -27.5 -146.5t-78 -103t-119 -60t-150.5 -19.5h-211v-410h-219zM348 565h158q104 0 159.5 41t55.5 139q0 102 -58.5 142.5t-160.5 40.5h-154v-363z" />
<glyph horiz-adv-x="991" d="M129 0l10 92v991h209v-161h197q88 0 159.5 -20.5t123 -61.5t79 -105.5t27.5 -152.5q0 -86 -27.5 -148.5t-78 -103.5t-119 -61.5t-150.5 -20.5h-211v-248h-219zM348 406h160q104 0 159.5 41t55.5 139q0 102 -61.5 142t-161.5 40h-152v-362z" />
<glyph horiz-adv-x="1093" d="M74 530q0 129 31.5 234.5t94 180.5t154.5 116t211 41q113 0 199 -38t142.5 -109.5t85 -174t28.5 -229.5q0 -199 -75 -336t-216 -197l80 -217h-176l-66 183q-10 0 -20 -1t-21 -1q-227 0 -339.5 144t-112.5 404zM287 532q0 -74 11 -141t36.5 -119.5t67.5 -86t106 -40.5 l-55 154h176l41 -113q72 51 104.5 149.5t32.5 215.5q0 76 -13.5 146.5t-43 123.5t-77.5 85t-118 32q-74 0 -125 -34t-83 -91t-46 -130t-14 -151z" />
<glyph horiz-adv-x="1046" d="M129 0l12 135v948h445q80 0 146.5 -17t114.5 -54t74.5 -94.5t26.5 -137.5q0 -111 -51 -175t-131 -91v-8q29 -12 48.5 -27.5t33.5 -39t25.5 -58.5t23.5 -86l72 -295h-215l-68 289q-12 49 -27.5 79.5t-38 47t-55.5 21.5t-80 5h-135v-442h-221zM350 592h185q98 0 149 43 t51 125q0 168 -192 168h-193v-336z" />
<glyph horiz-adv-x="901" d="M53 18l39 168q29 -10 101.5 -28.5t177.5 -18.5q45 0 86 8.5t71.5 25.5t49 45t18.5 69q0 51 -38 85t-95 61.5t-123 55t-123 65.5t-95 92t-38 136q0 86 37 146.5t99.5 98.5t143 56.5t168.5 18.5q66 0 136.5 -9.5t132.5 -23.5l-39 -164q-27 10 -92.5 25.5t-132.5 15.5 q-43 0 -85 -7t-75 -24.5t-53.5 -45t-20.5 -68.5q0 -51 38 -85t95.5 -61.5t123 -54.5t122.5 -64.5t95 -93t38 -137.5q0 -84 -37 -145.5t-98.5 -101.5t-142 -58t-170.5 -18q-98 0 -184.5 11t-129.5 25z" />
<glyph horiz-adv-x="774" d="M29 926v157h716v-157h-253v-926h-222l13 127v799h-254z" />
<glyph horiz-adv-x="1089" d="M121 1083h223v-698q0 -119 41 -180.5t156 -61.5q117 0 165 63.5t48 182.5v553l-13 141h222v-708q0 -197 -115 -295t-313 -98q-399 0 -400 389v569z" />
<glyph horiz-adv-x="1089" d="M121 1083h223v-698q0 -119 41 -180.5t156 -61.5q117 0 165 63.5t48 182.5v553l-13 141h222v-708q0 -197 -115 -295t-313 -98q-399 0 -400 389v569zM334 1237l362 223l82 -149l-381 -144z" />
<glyph horiz-adv-x="1089" d="M121 1083h223v-698q0 -119 41 -180.5t156 -61.5q117 0 165 63.5t48 182.5v553l-13 141h222v-708q0 -197 -115 -295t-313 -98q-399 0 -400 389v569zM262 1255l213 172q18 16 36 20.5t30 4.5t29.5 -4t35.5 -21l213 -172l-63 -69l-215 94l-215 -94z" />
<glyph horiz-adv-x="1089" d="M121 1083h223v-698q0 -119 41 -180.5t156 -61.5q117 0 165 63.5t48 182.5v553l-13 141h222v-708q0 -197 -115 -295t-313 -98q-399 0 -400 389v569zM358 1196v254h142v-254h-142zM604 1196v254h139v-254h-139z" />
<glyph horiz-adv-x="1089" d="M121 1083h223v-698q0 -119 41 -180.5t156 -61.5q117 0 165 63.5t48 182.5v553l-13 141h222v-708q0 -197 -115 -295t-313 -98q-399 0 -400 389v569zM324 1311l82 149l362 -223l-63 -70z" />
<glyph horiz-adv-x="942" d="M23 1083h223l192 -852l11 -67h8l10 67l205 721l12 131h236l-320 -1083h-295z" />
<glyph horiz-adv-x="1548" d="M37 1083h231l172 -909h11v70l159 696l15 143h293l151 -839v-70h10l181 752l16 157h235l-278 -1083h-297l-148 813l-8 76h-10l-8 -76l-189 -813h-290z" />
<glyph horiz-adv-x="993" d="M31 0l307 565l-279 518h232l180 -348l23 -65h8l20 63l131 219l45 131h250l-293 -518l308 -565h-246l-195 393l-20 66h-8l-21 -66l-129 -246l-57 -147h-256z" />
<glyph horiz-adv-x="917" d="M23 1083h227l176 -456l14 -68h9l12 68l164 331l39 125h231l-350 -688v-395h-211v395z" />
<glyph horiz-adv-x="917" d="M23 1083h227l176 -456l14 -68h9l12 68l164 331l39 125h231l-350 -688v-395h-211v395zM233 1237l363 223l82 -149l-381 -144z" />
<glyph horiz-adv-x="917" d="M23 1083h227l176 -456l14 -68h9l12 68l164 331l39 125h231l-350 -688v-395h-211v395zM270 1196v254h142v-254h-142zM516 1196v254h139v-254h-139z" />
<glyph horiz-adv-x="858" d="M43 0v182l496 701l47 32l-2 11h-525v157h742v-180l-496 -702l-51 -33l2 -10h428l131 10v-168h-772z" />
<glyph horiz-adv-x="1011" d="M57 532q0 129 31 233.5t90.5 179.5t146.5 116t197 41q111 0 192 -38t134 -108.5t79.5 -173t26.5 -229.5q0 -129 -31.5 -233.5t-93 -180.5t-148.5 -116.5t-198 -40.5t-190.5 37.5t-131.5 109.5t-78 173t-26 230zM264 535q0 -78 11.5 -148t38 -124t71.5 -86t111 -32 q63 0 110 35t78 91.5t46 129t15 150.5q0 76 -12 145.5t-39.5 122.5t-71.5 85t-110 32q-68 0 -115 -34t-76.5 -90t-43 -129t-13.5 -148z" />
<glyph horiz-adv-x="866" d="M53 860q90 20 183.5 75.5t162.5 147.5h209l-26 -917h247v-166h-747v166h291l18 690l-10 2l-35 -63q-53 -43 -123.5 -72t-136.5 -47z" />
<glyph horiz-adv-x="937" d="M72 885l47 184q20 6 52 12t66.5 11.5t70.5 7.5t67 2q92 0 175 -23.5t146.5 -69.5t101.5 -115t38 -159q0 -82 -27 -149.5t-83 -132t-146.5 -130t-219.5 -145.5l5 -12h387l145 12v-178h-823v199q150 92 255 162.5t171.5 130t96.5 116t30 117.5q0 98 -77 151.5t-198 53.5 q-84 0 -153.5 -14.5t-126.5 -30.5z" />
<glyph horiz-adv-x="946" d="M63 197q16 -6 50 -14.5t76 -15.5t90.5 -13.5t93.5 -6.5q39 0 88 6.5t92 23t72.5 48t29.5 84.5q0 49 -23.5 82t-62.5 52.5t-90 26.5t-104 7h-154v139h152q51 0 98 8.5t83 27t57.5 49t21.5 77.5t-22.5 78t-58.5 48.5t-81 24.5t-92 7q-78 0 -158 -14.5t-129 -28.5l47 182 q8 2 34 7t60.5 9.5t77.5 7.5t86 3q88 0 169 -16.5t142.5 -52.5t97.5 -94t36 -142q0 -82 -40 -143.5t-122 -96.5v-8q80 -29 133 -90.5t53 -159.5q0 -86 -42 -146.5t-110.5 -98.5t-156.5 -55t-178 -17q-84 0 -164 11t-119 21z" />
<glyph horiz-adv-x="968" d="M39 211v197l455 675h288v-712h125v-160h-125v-211h-200v211h-543zM199 379l2 -10l381 2v495l20 64h-12l-342 -522z" />
<glyph horiz-adv-x="909" d="M59 197q41 -14 88 -25q41 -10 93.5 -16t107.5 -6q61 0 114.5 10t93.5 33.5t62.5 59.5t22.5 87q0 57 -34 95t-88 59.5t-123.5 29.5t-141.5 8h-119v551h658v-178l-136 13h-323v-242q98 0 191 -19.5t166 -60.5t117 -107.5t44 -160.5q0 -92 -38 -159t-102.5 -108t-150.5 -60 t-182 -19q-98 0 -169 9t-110 19z" />
<glyph horiz-adv-x="972" d="M57 532q0 127 32 231.5t98.5 180.5t167 117t237.5 41q66 0 127 -8.5t90 -14.5l45 -184q-37 12 -108.5 26.5t-139.5 14.5q-150 0 -235.5 -74t-96.5 -215q35 4 81 7t83 3q102 0 189.5 -20.5t152 -61t101.5 -105t37 -153.5q0 -78 -31 -140t-85 -105t-129 -66.5t-165 -23.5 q-121 0 -206 40.5t-139 114.5t-80 175.5t-26 219.5zM264 510q2 -76 13.5 -143.5t39 -117.5t75.5 -79t124 -29q90 0 144.5 48.5t54.5 132.5q0 55 -23.5 93t-63.5 61.5t-93.5 33.5t-114.5 10q-45 0 -82 -3t-74 -7z" />
<glyph horiz-adv-x="821" d="M31 905v178h760v-192q-115 -111 -182.5 -228.5t-102.5 -233.5t-46 -221.5t-11 -191.5v-16h-211v16q0 98 12 206t46 218.5t93.5 222t151.5 220.5l51 26v11h-402z" />
<glyph horiz-adv-x="1021" d="M84 274q0 90 54.5 160t140.5 111v8q-74 35 -121 96.5t-47 141.5q0 78 34.5 136t93 97t134.5 58.5t159 19.5q82 0 155 -18.5t128 -55.5t87 -92t32 -129q0 -86 -51.5 -149.5t-126.5 -96.5v-8q90 -45 138 -106.5t48 -153.5q0 -80 -37 -138.5t-97 -96.5t-139 -57t-165 -19 q-88 0 -165 17t-133 54t-89 92.5t-33 128.5zM274 295q0 -78 65 -117t159 -39q45 0 87 9.5t74.5 29t52 48t19.5 67.5q0 37 -18.5 63.5t-50 47t-72.5 36t-86 29.5l-47 14q-74 -29 -128.5 -72.5t-54.5 -115.5zM319 801q0 -37 17.5 -63.5t46.5 -45t66.5 -32t78.5 -25.5l45 -14 q31 8 62 24.5t54.5 39t38.5 50t15 62.5q0 76 -62.5 113.5t-145.5 37.5q-41 0 -79 -9t-69 -27.5t-49.5 -46t-18.5 -64.5z" />
<glyph horiz-adv-x="972" d="M49 766q0 78 31 140.5t85 105.5t129 66.5t165 23.5q119 0 205 -41t140 -115t79.5 -175t25.5 -220q0 -127 -32.5 -231.5t-98 -180.5t-166 -116.5t-237.5 -40.5q-66 0 -127.5 8t-89.5 14l-45 184q37 -12 108.5 -26.5t138.5 -14.5q150 0 236 74t96 215q-29 -4 -78 -7t-86 -3 q-102 0 -189 20.5t-151.5 61.5t-101.5 105.5t-37 152.5zM252 762q0 -55 22.5 -93t62.5 -61.5t94 -34t116 -10.5q45 0 82 3t73 7q-2 76 -13 143.5t-38.5 118t-75.5 79t-124 28.5q-90 0 -144.5 -48t-54.5 -132z" />
<glyph horiz-adv-x="565" d="M39 295q0 141 65.5 226.5t188.5 85.5t180 -80t57 -222q0 -141 -67.5 -227t-190.5 -86q-121 0 -177 81t-56 222zM152 295q0 -43 6 -81t21.5 -67.5t39 -47t60.5 -17.5q35 0 60.5 19.5t42.5 50.5t25.5 70.5t8.5 82.5q0 41 -6.5 79t-21.5 68t-39.5 47t-59.5 17 q-37 0 -63.5 -19t-43 -50t-23.5 -71t-7 -81z" />
<glyph horiz-adv-x="509" d="M49 471q49 10 100.5 41t90.5 82h112l-12 -504h135v-90h-409v90h159l11 379l-7 2l-20 -36q-29 -23 -67 -38.5t-74 -25.5z" />
<glyph horiz-adv-x="536" d="M43 490l27 100q23 8 64.5 13.5t74.5 5.5q51 0 97 -13.5t82 -38t56.5 -62.5t20.5 -87q0 -45 -14.5 -83t-46 -74t-82 -72.5t-119.5 -79.5l2 -6h215l80 6v-99h-455v109q82 51 140.5 90t95 73t53 64.5t16.5 65.5q0 53 -43 82.5t-110 29.5q-45 0 -85 -8t-69 -16z" />
<glyph horiz-adv-x="534" d="M43 111q18 -6 69.5 -16.5t100.5 -10.5q23 0 50.5 3t51 12.5t40 27t16.5 45.5q0 55 -48.5 75t-107.5 20h-84v75h82q57 0 100 18.5t43 71.5q0 27 -12 43.5t-31.5 25.5t-44 13t-51.5 4q-43 0 -87 -7t-71 -15l25 100q10 4 53 9.5t90 5.5q49 0 93.5 -9.5t78 -29t54 -52 t20.5 -77.5q0 -92 -90 -133v-9q45 -16 73.5 -48t28.5 -85q0 -49 -23.5 -81.5t-61.5 -54t-86 -31t-97 -9.5q-47 0 -90 7t-66 12z" />
<glyph horiz-adv-x="557" d="M43 115v109l250 370h160v-391h67v-88h-67v-115h-111v115h-299zM131 203h211v272l12 35h-8l-188 -284l-27 -15v-8z" />
<glyph horiz-adv-x="512" d="M41 113q25 -8 49 -14q23 -4 50.5 -8.5t58.5 -4.5q68 0 114.5 23.5t46.5 81.5q0 31 -18 51t-48 32.5t-69 16.5t-78 4h-65v303h360v-98l-73 8h-179v-133q55 0 106.5 -10t91.5 -34t63.5 -59.5t23.5 -86.5t-20.5 -87t-56.5 -59.5t-83 -34t-98 -10.5q-53 0 -92 5t-62 12z" />
<glyph horiz-adv-x="546" d="M43 297q0 139 71.5 225.5t221.5 86.5q37 0 69.5 -4.5t49.5 -8.5l24 -100q-20 6 -59 14t-76 8q-82 0 -130 -40.5t-52 -118.5q20 2 44.5 4t45.5 2q113 0 187.5 -45t74.5 -142q0 -86 -62.5 -135t-160.5 -49q-66 0 -113 22.5t-76.5 63.5t-44 96.5t-14.5 120.5zM156 283 q0 -41 7 -78t22.5 -64.5t42 -43t67.5 -15.5q49 0 78.5 25.5t29.5 73.5q0 61 -47 84.5t-114 23.5q-25 0 -44.5 -1t-41.5 -5z" />
<glyph horiz-adv-x="471" d="M23 490v98h413v-106q-61 -61 -98 -126t-56.5 -127.5t-25.5 -120.5t-6 -106v-8h-115v8q0 55 6 114t24.5 119t51.5 121.5t84 121.5l29 12v8h-219z" />
<glyph horiz-adv-x="569" d="M49 152q0 49 30 88t77 59v8q-41 18 -67 51t-26 76t19.5 75t51.5 53.5t74 32.5t87 11q92 0 156.5 -40.5t64.5 -120.5q0 -47 -28.5 -82t-69.5 -53v-9q49 -25 75.5 -57.5t26.5 -79.5q0 -43 -20.5 -75.5t-53 -54t-76.5 -32t-89 -10.5q-98 0 -165 39t-67 121zM154 164 q0 -43 35.5 -64.5t86.5 -21.5q49 0 88 21.5t39 64.5q0 41 -37.5 60.5t-84.5 33.5l-27 9q-41 -16 -70.5 -39t-29.5 -64zM178 443q0 -41 34 -58.5t81 -34.5l24 -8q35 10 65 35t30 62q0 41 -34 62.5t-81 21.5q-45 0 -82 -19.5t-37 -60.5z" />
<glyph horiz-adv-x="548" d="M33 426q0 86 63.5 135.5t161.5 49.5q131 0 189.5 -86t58.5 -218q0 -141 -71.5 -227t-223.5 -86q-35 0 -68.5 4t-50.5 8l-24 103q20 -8 59 -15.5t78 -7.5q82 0 129 40t53 118q-16 -2 -43 -4t-47 -2q-113 0 -188.5 45t-75.5 143zM143 424q0 -61 48.5 -85.5t115.5 -24.5 q25 0 44.5 1t41.5 5q-2 43 -8 80t-21.5 64.5t-42 43t-67.5 15.5q-49 0 -80 -27t-31 -72z" />
<glyph horiz-adv-x="565" d="M39 889q0 141 65.5 226t188.5 85t180 -80t57 -221t-67.5 -227t-190.5 -86q-121 0 -177 81t-56 222zM152 889q0 -43 6 -81t21.5 -67.5t39 -47t60.5 -17.5q35 0 60.5 19.5t42.5 50t25.5 70.5t8.5 83q0 41 -6.5 79t-21.5 67.5t-39.5 47t-59.5 17.5q-37 0 -63.5 -19.5 t-43 -50t-23.5 -70.5t-7 -81z" />
<glyph horiz-adv-x="509" d="M49 1067q49 10 100.5 41t90.5 82h112l-12 -504h135v-90h-409v90h159l11 379l-7 2l-20 -37q-29 -23 -67 -38t-74 -25z" />
<glyph horiz-adv-x="528" d="M43 1083l27 101q23 8 64.5 13t74.5 5q51 0 97 -13t82 -38t56.5 -62.5t20.5 -87.5q0 -45 -14.5 -82.5t-46 -73.5t-82 -73t-119.5 -80l2 -6h215l80 6v-98h-455v108q82 51 140.5 90t95 73t53 65t16.5 65q0 53 -43 83t-110 30q-45 0 -85 -8t-69 -17z" />
<glyph horiz-adv-x="534" d="M43 700q18 -6 69.5 -16t100.5 -10q23 0 50.5 3t51 12t40 26.5t16.5 46.5q0 55 -48.5 74.5t-107.5 19.5h-84v76h82q57 0 100 18.5t43 71.5q0 27 -12 43t-31.5 25.5t-44 13.5t-51.5 4q-43 0 -87 -7t-71 -16l25 101q10 4 53 9t90 5q49 0 93.5 -9t78 -28.5t54 -52.5t20.5 -78 q0 -92 -90 -133v-8q45 -16 73.5 -48t28.5 -85q0 -49 -23.5 -82t-61.5 -54.5t-86 -30.5t-97 -9q-47 0 -90 7t-66 11z" />
<glyph horiz-adv-x="557" d="M43 711v108l250 371h160v-391h67v-88h-67v-115h-111v115h-299zM131 799h211v272l12 35h-8l-188 -285l-27 -14v-8z" />
<glyph horiz-adv-x="512" d="M41 705q25 -8 49 -15q23 -4 50.5 -8t58.5 -4q68 0 114.5 23.5t46.5 80.5q0 31 -18 51.5t-48 33t-69 16.5t-78 4h-65v303h360v-98l-73 8h-179v-133q55 0 106.5 -10.5t91.5 -34t63.5 -59.5t23.5 -87t-20.5 -87t-56.5 -59.5t-83 -33.5t-98 -10q-53 0 -92 5t-62 11z" />
<glyph horiz-adv-x="546" d="M43 889q0 139 71.5 225t221.5 86q37 0 69.5 -4t49.5 -8l24 -101q-20 6 -59 14.5t-76 8.5q-82 0 -130 -41t-52 -119q20 2 44.5 4t45.5 2q113 0 187.5 -45t74.5 -141q0 -86 -62.5 -135t-160.5 -49q-66 0 -113 22.5t-76.5 63.5t-44 96t-14.5 121zM156 874q0 -41 7 -77.5 t22.5 -64t42 -43t67.5 -15.5q49 0 78.5 25.5t29.5 72.5q0 61 -47 85t-114 24q-25 0 -44.5 -1t-41.5 -6z" />
<glyph horiz-adv-x="471" d="M23 1092v98h413v-107q-61 -61 -98 -125.5t-56.5 -127t-25.5 -121t-6 -105.5v-8h-115v8q0 55 6 113.5t24.5 119t51.5 122t84 120.5l29 13v8h-219z" />
<glyph horiz-adv-x="569" d="M49 748q0 49 30 87.5t77 59.5v8q-41 18 -67 51t-26 76t19.5 75t51.5 53.5t74 32.5t87 11q92 0 156.5 -41t64.5 -121q0 -47 -28.5 -81.5t-69.5 -53.5v-8q49 -25 75.5 -57.5t26.5 -79.5q0 -43 -20.5 -76t-53 -54.5t-76.5 -31.5t-89 -10q-98 0 -165 39t-67 121zM154 760 q0 -43 35.5 -64.5t86.5 -21.5q49 0 88 21.5t39 64.5q0 41 -37.5 60.5t-84.5 33.5l-27 8q-41 -16 -70.5 -38.5t-29.5 -63.5zM178 1038q0 -41 34 -58t81 -34l24 -8q35 10 65 34.5t30 61.5q0 41 -34 62.5t-81 21.5q-45 0 -82 -19.5t-37 -60.5z" />
<glyph horiz-adv-x="548" d="M33 1016q0 86 63.5 135t161.5 49q131 0 189.5 -86t58.5 -217q0 -141 -71.5 -227t-223.5 -86q-35 0 -68.5 4t-50.5 8l-24 102q20 -8 59 -15t78 -7q82 0 129 40t53 118q-16 -2 -43 -4.5t-47 -2.5q-113 0 -188.5 45.5t-75.5 143.5zM143 1014q0 -61 48.5 -86t115.5 -25 q25 0 44.5 1t41.5 5q-2 43 -8 80t-21.5 64.5t-42 43t-67.5 15.5q-49 0 -80 -26.5t-31 -71.5z" />
<glyph horiz-adv-x="391" d="M98 1204q0 51 30 81t79 30q47 0 74.5 -29t27.5 -80q0 -49 -29.5 -78.5t-76.5 -29.5t-76 27.5t-29 78.5z" />
<glyph horiz-adv-x="1196" d="M78 315q0 96 39 167t108 130q-43 57 -60.5 106.5t-17.5 102.5q0 59 24 110.5t66 89.5t101 59.5t133 21.5q57 0 108.5 -12.5t90.5 -38t61.5 -65.5t24.5 -95h307l143 8l-24 -149h-199q0 -135 -17.5 -263.5t-64.5 -228.5q47 -29 106.5 -57.5t106.5 -48.5l-35 -170 q-23 8 -55.5 21t-69 30.5t-74.5 37t-75 42.5q-59 -59 -145.5 -95t-196.5 -36q-80 0 -150.5 22.5t-123 65.5t-82 104.5t-29.5 140.5zM258 324q0 -84 59.5 -138.5t143.5 -54.5q111 0 184 74q-41 27 -84 61.5t-85 72.5t-79 76t-63 68q-76 -59 -76 -159zM336 811 q0 -47 36 -105.5t94 -120t132 -123t147 -114.5q37 74 46.5 173.5t9.5 228.5h-215q14 39 14 79q0 119 -123 119q-59 0 -100 -35.5t-41 -101.5z" />
</font>
</defs>
</svg>
