<?xml version="1.0" standalone="no"?>
<!DOCTYPE svg PUBLIC "-//W3C//DTD SVG 1.1//EN" "http://www.w3.org/Graphics/SVG/1.1/DTD/svg11.dtd" >
<svg xmlns="http://www.w3.org/2000/svg">
<metadata></metadata>
<defs>
<font id="distefanoslabblack" horiz-adv-x="1042" >
<font-face units-per-em="2048" ascent="1536" descent="-512" />
<missing-glyph horiz-adv-x="409" />
<glyph unicode="&#xfb00;" horiz-adv-x="1179" d="M23 688v273l79 16v24q0 115 32 193t94.5 125t153.5 66.5t208 19.5l45 -301q-10 4 -21.5 6t-21.5 2q-43 0 -73 -22.5t-30 -69.5q0 -12 5 -29q2 -8 6 -14h143v27q0 111 31 187.5t92 124.5t153.5 68.5t213.5 20.5l51 -305q-25 10 -62 10q-39 0 -64.5 -23.5t-25.5 -64.5 q0 -16 4 -33q2 -8 6 -12h107v-289h-119v-688h-420l25 176v512h-148v-688h-417l24 176v512h-71z" />
<glyph unicode="&#xfb01;" horiz-adv-x="1105" d="M23 690v271l79 16v22q0 207 115 302.5t344 97.5l39 -2l29 -191l194 197l254 -252l-178 -174h131v-977h-418l19 178l8 512h-152v-690h-417l24 176v514h-71zM489 1018q0 -12 5 -29q2 -8 4 -12h250l-123 125q-20 4 -33 4q-43 0 -73 -22.5t-30 -65.5z" />
<glyph unicode="&#xfb02;" horiz-adv-x="1105" d="M23 688v273l79 16v35q0 119 38 194.5t107.5 118.5t167 58.5t218.5 15.5q39 0 95 -3t113.5 -8.5t108.5 -11.5t80 -12v-1364h-418l19 178l10 924q-4 2 -20.5 4t-34.5 2q-45 0 -71 -24.5t-26 -63.5q0 -12 5 -29q2 -8 4 -14h88v-289h-99v-688h-417l24 168v520h-71z" />
<glyph unicode="&#xfb03;" horiz-adv-x="1646" d="M23 688v273l79 16v29q0 115 35 191.5t98.5 122.5t153.5 65.5t201 19.5l45 -301q-4 2 -16.5 5t-28.5 3q-47 0 -74 -24.5t-27 -67.5q0 -12 3.5 -24.5t7.5 -18.5h141v29q0 111 35 187.5t98.5 122.5t154.5 67.5t206 21.5l34 -195l195 195l254 -252l-180 -176h143v-977h-418 l19 178l6 510h-158v-688h-420l25 176v512h-148v-688h-417l24 176v512h-71zM1026 1018q0 -12 4 -29q2 -8 4 -12h252l-129 129q-8 2 -16 3t-19 1q-43 0 -69.5 -24.5t-26.5 -67.5z" />
<glyph unicode="&#xfb04;" horiz-adv-x="1656" d="M23 688v273l79 16v27q0 115 33 192.5t95.5 123.5t153.5 65.5t206 19.5l45 -299q-12 4 -27.5 5t-21.5 1q-43 0 -70 -22.5t-27 -63.5q0 -18 5 -35q2 -8 6 -14h141v24q0 117 35 195t101.5 124t160.5 65.5t213 19.5q61 0 124.5 -3t122 -8t105.5 -11.5t78 -10.5v-1372h-418 l27 178v930q-10 2 -30.5 3t-29.5 1q-45 0 -74.5 -21.5t-29.5 -66.5q0 -14 4 -31l4 -16h92v-289h-96v-688h-420l25 176v512h-148v-688h-417l24 176v512h-71z" />
<glyph horiz-adv-x="0" />
<glyph unicode="&#xd;" horiz-adv-x="409" />
<glyph unicode=" "  horiz-adv-x="409" />
<glyph unicode="&#x09;" horiz-adv-x="409" />
<glyph unicode="&#xa0;" horiz-adv-x="409" />
<glyph unicode="!" horiz-adv-x="524" d="M88 150q0 80 54.5 130t146.5 50q86 0 132 -46t46 -126q0 -78 -52.5 -127t-138.5 -49q-92 0 -140 45t-48 123zM115 397v899h411l-80 -899h-331z" />
<glyph unicode="&#x22;" horiz-adv-x="632" d="M41 731v459h240v-459h-240zM352 731v459h240v-459h-240z" />
<glyph unicode="#" d="M29 240v225h178l41 215h-180v227h223l53 283h246l-53 -283h88l53 283h244l-54 -283h144v-227h-187l-39 -215h183v-225h-226l-45 -240h-245l45 240h-88l-45 -240h-246l45 240h-135zM453 465h88l39 215h-86z" />
<glyph unicode="$" d="M92 25v313h287l16 -70h31q117 0 117 51q0 27 -39 44.5t-98 37.5t-116 46t-100 63t-68.5 89t-25.5 128q0 150 95.5 239t252.5 119v211h203v-194q111 -2 187.5 -17.5t119.5 -25.5v-309h-272l-16 69h-21q-47 -2 -81 -12t-34 -43q0 -31 45.5 -48.5t104.5 -39.5 q55 -20 108.5 -44t95.5 -59.5t67.5 -88t25.5 -126.5q0 -150 -89 -234.5t-241 -119.5v-217h-203v195h-32q-102 0 -182 13t-138 30z" />
<glyph unicode="%" horiz-adv-x="1107" d="M14 895q0 63 16.5 119.5t50.5 97.5t85 64.5t121 23.5t118 -23.5t78.5 -64.5t44 -97.5t13.5 -119.5q0 -66 -17.5 -123t-51.5 -98t-85 -64.5t-121 -23.5t-118 23.5t-77.5 64.5t-43 98t-13.5 123zM111 0l696 1190h188l-696 -1190h-188zM229 895q0 -68 6.5 -110t36.5 -42 q33 0 44.5 42t11.5 110t-7.5 107.5t-39.5 39.5q-31 0 -41.5 -39.5t-10.5 -107.5zM567 301q0 63 16.5 119.5t50.5 97.5t85 64.5t121 23.5t118 -23.5t78.5 -64.5t44 -97t13.5 -120q0 -66 -17.5 -123t-51.5 -98t-85 -64.5t-121 -23.5t-118 23.5t-77.5 64.5t-43 98t-13.5 123z M782 301q0 -68 6.5 -109.5t36.5 -41.5q33 0 44.5 41.5t11.5 109.5t-7.5 108t-39.5 40q-31 0 -41.5 -40t-10.5 -108z" />
<glyph unicode="&#x26;" horiz-adv-x="1372" d="M18 371q0 94 41 173t113 138q-35 41 -55.5 95t-20.5 104q0 76 30 137t85 103t132 64.5t171 22.5q72 0 135.5 -13t111.5 -42t79.5 -72t38.5 -104h338l178 14l-54 -291h-190q-4 -72 -16.5 -154.5t-32.5 -139.5q51 -23 113.5 -46.5t119.5 -44.5l-57 -333q-39 8 -86 23 t-96 33.5t-96.5 40t-84.5 40.5q-74 -63 -176 -100t-235 -37q-104 0 -192.5 26.5t-154 75.5t-102.5 122t-37 165zM389 367q0 -41 31 -67t72 -26q29 0 47 7.5t34 21.5q-33 20 -77.5 53t-87.5 74q-18 -23 -19 -63zM487 846q0 -33 21.5 -64.5t56.5 -60.5q14 29 23.5 60.5 t9.5 56.5q0 63 -57 63q-23 0 -38.5 -15.5t-15.5 -39.5zM590 700q41 -33 88 -62.5t86 -51.5q6 18 11 52t5 62h-190z" />
<glyph unicode="'" horiz-adv-x="327" d="M41 731v459h246v-459h-246z" />
<glyph unicode="(" horiz-adv-x="448" d="M37 492q0 92 16.5 188t45 188.5t68.5 176t87 151.5l176 -117q-61 -100 -105 -249.5t-44 -337.5t44 -341t105 -251l-180 -113q-47 68 -87 152t-67.5 176t-43 188t-15.5 189z" />
<glyph unicode=")" horiz-adv-x="448" d="M18 -100q61 98 105.5 250.5t44.5 341.5q0 188 -44 337.5t-106 249.5l177 117q47 -68 87 -151.5t68.5 -176t45 -188.5t16.5 -188t-15.5 -188.5t-43 -188.5t-67.5 -176t-87 -152z" />
<glyph unicode="*" horiz-adv-x="743" d="M23 860l180 47l-176 56l127 217l129 -119l-47 172h274l-41 -170l127 117l125 -224l-172 -47l172 -49l-129 -221l-123 113l41 -162h-274l47 164l-129 -111z" />
<glyph unicode="+" d="M100 463v229h299v305h244v-305h297v-229h-297v-299h-244v299h-299z" />
<glyph unicode="," horiz-adv-x="442" d="M31 143q0 84 55 135.5t141 51.5t134.5 -44t48.5 -130q0 -59 -22.5 -104.5t-53.5 -90.5l-86 -125l-142 17l37 149q-18 6 -38.5 15.5t-37 25.5t-26.5 41t-10 59z" />
<glyph unicode="-" horiz-adv-x="624" d="M37 381v231h553v-231h-553z" />
<glyph unicode="." horiz-adv-x="442" d="M31 150q0 80 54 130t146 50q86 0 132.5 -46t46.5 -126q0 -78 -52.5 -127t-138.5 -49q-92 0 -140 45t-48 123z" />
<glyph unicode="/" horiz-adv-x="663" d="M2 0l401 1190h261l-400 -1190h-262z" />
<glyph unicode="0" d="M14 586q0 129 31 242.5t95.5 197.5t163.5 133t237 49q137 0 230 -46t150.5 -126t81 -190.5t23.5 -239.5q0 -133 -30.5 -246.5t-95 -197.5t-165 -132t-237.5 -48t-230.5 45t-150 124.5t-80 190.5t-23.5 244zM424 586q0 -68 2 -121t10 -90t26.5 -56.5t51.5 -19.5t53.5 22.5 t31.5 63.5t15 97.5t4 123.5q0 68 -1 121t-9 89t-26.5 55.5t-51.5 19.5q-66 0 -86 -85t-20 -220z" />
<glyph unicode="1" d="M61 983q92 12 191.5 66.5t165.5 140.5h373l-29 -871h235v-319h-934v319h281l21 447l-11 2l-37 -57q-14 -10 -38.5 -20.5t-52 -19.5t-56.5 -16.5t-51 -11.5z" />
<glyph unicode="2" d="M41 0v297q168 96 268.5 165.5t154.5 122t71.5 93.5t17.5 80q0 68 -45 94.5t-113 26.5h-8l-27 -142h-319v420q14 4 52 12.5t89 17.5t113.5 15t126.5 6q111 0 208 -23.5t170.5 -74.5t115.5 -129t42 -188q0 -131 -69.5 -241t-241.5 -220l4 -15h170l180 19v-336h-960z" />
<glyph unicode="3" d="M41 356q16 -8 54 -17t88 -17.5t106.5 -13.5t111.5 -5q68 0 116 15.5t48 58.5q0 47 -49 57t-123 10h-174v291h178q72 0 116 17.5t44 64.5q0 35 -42 56.5t-112 21.5h-12l-18 -86h-307v352q53 12 116 23q53 10 122 17t142 7q106 0 201.5 -17t166.5 -58t113 -106.5t42 -162.5 q0 -86 -39 -151.5t-111 -100.5v-10q29 -14 57.5 -35.5t52 -51.5t38 -71t14.5 -96q0 -102 -48 -173t-127 -114t-179.5 -61t-204.5 -18q-39 0 -87 1t-97.5 4t-94.5 8t-75 15z" />
<glyph unicode="4" d="M20 170v324l381 696h492v-723h113v-297h-115v-170h-391v170h-480zM344 477l2 -10h170v262l14 59q-2 0 -5 2.5t-7 2.5l-127 -285z" />
<glyph unicode="5" d="M61 33v352h322l18 -86h29q154 4 154 92q0 20 -12.5 41t-45 35t-88 23.5t-143.5 9.5h-164v690h805v-342l-182 20h-219v-92q104 -10 189 -37.5t145.5 -75t93 -114t32.5 -156.5q0 -109 -44 -186.5t-117.5 -127.5t-172 -73.5t-206.5 -23.5q-106 0 -213 14t-181 37z" />
<glyph unicode="6" d="M29 555q0 133 30.5 252t101 208t185.5 141t283 52q47 0 98 -5t97 -13t83 -17.5t56 -15.5v-346h-322l-18 80h-31q-53 0 -92 -33t-43 -106h32q109 0 205.5 -16.5t169 -57.5t115.5 -111.5t43 -179.5q0 -92 -35 -168t-98.5 -128t-153.5 -80.5t-200 -28.5q-141 0 -237.5 45 t-157 123.5t-86 183t-25.5 221.5zM434 475q0 -84 22.5 -130t88.5 -46q37 0 60.5 24.5t23.5 61.5q0 31 -15.5 48.5t-40 26.5t-54.5 12t-60 3h-25z" />
<glyph unicode="7" d="M43 756v434h952v-340q-104 -90 -167.5 -204t-96.5 -229.5t-43 -222t-10 -178.5v-16h-416v16q0 244 73 457t197 361l64 24l-2 12h-223l-23 -114h-305z" />
<glyph unicode="8" d="M16 315q0 82 48.5 152t119.5 117v10q-51 37 -95 98.5t-44 153.5t43 160.5t113.5 112.5t161 66.5t182.5 22.5q88 0 172 -17t149.5 -55t105.5 -101.5t40 -155.5q0 -82 -42 -146.5t-102 -105.5v-11q27 -18 53.5 -43.5t47 -58.5t34 -73t13.5 -87q0 -96 -44 -165.5 t-118 -115.5t-169 -68.5t-198 -22.5q-92 0 -177 16t-150.5 55t-104.5 102.5t-39 159.5zM365 367q0 -41 34.5 -58.5t85.5 -17.5q43 0 85 19.5t42 56.5q0 61 -118 92l-29 6q-43 -16 -71.5 -43t-28.5 -55zM434 844q0 -33 34 -54.5t91 -37.5l21 -4q35 14 61.5 37.5t26.5 52.5 q0 39 -33 58t-86 19q-41 0 -78 -18t-37 -53z" />
<glyph unicode="9" d="M14 803q0 92 35 168t98.5 128t153.5 80.5t201 28.5q141 0 237.5 -45t156.5 -123.5t86 -183t26 -221.5q0 -133 -31 -252t-101.5 -208t-185.5 -141t-282 -52q-47 0 -98.5 4t-97.5 11t-83 15t-55 15v352h321l19 -80h30q53 0 92 33t44 106h-33q-109 0 -205 16.5t-169 57.5 t-116 111.5t-43 179.5zM408 805q0 -31 15 -48.5t39.5 -26.5t54.5 -12t61 -3h24q0 84 -21.5 130t-86.5 46q-37 0 -61.5 -24.5t-24.5 -61.5z" />
<glyph unicode=":" horiz-adv-x="442" d="M31 150q0 80 54 130t146 50q86 0 132.5 -46t46.5 -126q0 -78 -52.5 -127t-138.5 -49q-92 0 -140 45t-48 123zM31 815q0 80 54 130t146 50q86 0 132.5 -46t46.5 -126q0 -78 -52.5 -127t-138.5 -49q-92 0 -140 45t-48 123z" />
<glyph unicode=";" horiz-adv-x="442" d="M31 143q0 84 55 135.5t141 51.5t134.5 -44t48.5 -130q0 -59 -22.5 -104.5t-53.5 -90.5l-86 -125l-142 17l37 149q-18 6 -38.5 15.5t-37 25.5t-26.5 41t-10 59zM31 815q0 80 54 130t146 50q86 0 132.5 -46t46.5 -126q0 -78 -52.5 -127t-138.5 -49q-92 0 -140 45t-48 123z " />
<glyph unicode="&#x3c;" d="M72 600l712 502l121 -180l-459 -322l463 -326l-129 -180z" />
<glyph unicode="=" d="M100 299v231h840v-231h-840zM100 629v231h840v-231h-840z" />
<glyph unicode="&#x3e;" d="M133 274l463 326l-459 322l121 180l713 -502l-709 -506z" />
<glyph unicode="?" horiz-adv-x="880" d="M25 846v428q18 4 54 11t80 13.5t92 11.5t95 5q106 0 200.5 -24.5t164 -75t110.5 -127t41 -181.5q0 -72 -26.5 -136t-73.5 -116.5t-110.5 -89.5t-139.5 -55l-10 -111h-326v291q117 10 197 57.5t80 137.5q0 41 -21.5 68.5t-56.5 31.5l-19 2l-26 -141h-305zM150 150 q0 80 54 130t146 50q86 0 132 -46t46 -126q0 -78 -52 -127t-138 -49q-92 0 -140 45t-48 123z" />
<glyph unicode="@" horiz-adv-x="1214" d="M14 334q0 131 43 252t125 211t202 144t273 54q131 0 231.5 -42t170 -113.5t105.5 -168t36 -202.5q0 -96 -27.5 -182t-85 -149.5t-145.5 -100.5t-211 -37l-22 82h-9q-14 -29 -57 -55.5t-100 -26.5q-55 0 -98.5 27.5t-72 71.5t-43 100.5t-14.5 111.5q0 182 94.5 283.5 t276.5 101.5q76 0 116 -5t68 -9l-12 -133v-258l12 -64q23 10 42.5 34t32.5 55.5t20.5 67.5t7.5 73q0 330 -322 329q-98 0 -173 -34.5t-126 -95t-76.5 -144.5t-25.5 -182q0 -205 100.5 -316.5t294.5 -111.5q131 0 227.5 34.5t167.5 73.5v-223q-74 -37 -180 -63.5t-229 -26.5 q-156 0 -271.5 48t-192.5 133t-115 202t-38 254zM555 330q0 -53 9 -86t28 -33q29 0 41 34t12 122v143h-8q-39 0 -60.5 -52t-21.5 -128z" />
<glyph unicode="A" horiz-adv-x="1239" d="M0 0l252 975l-88 14v307h829l160 -977l80 -12v-307h-510v176l-4 33h-211l-31 -209h-477zM565 541h125l-41 377l-4 83h-10l-6 -83z" />
<glyph unicode="B" horiz-adv-x="1200" d="M31 989v307h674q98 0 180 -20.5t141 -63.5t93 -109.5t34 -160.5q0 -104 -50 -173t-112 -91v-10q76 -35 130.5 -109t54.5 -199q0 -168 -110 -264t-327 -96h-657l16 201l15 776zM549 786h80q41 0 61.5 27t20.5 59q0 41 -23.5 67t-66.5 26h-72v-179zM551 336h70 q47 0 73.5 22.5t26.5 69.5t-31 69.5t-72 22.5h-67v-184z" />
<glyph unicode="C" horiz-adv-x="1093" d="M16 610q0 162 43 292t128 222.5t209 141.5t286 49q125 0 221 -19.5t150 -35.5v-457h-326l-16 143h-17q-53 -4 -92 -30.5t-63.5 -68.5t-37 -96.5t-12.5 -113.5q0 -135 66 -211t190 -76q78 0 151 35t122 88l65 -373q-63 -41 -174.5 -79.5t-261.5 -38.5q-141 0 -258 39.5 t-200 118.5t-128 197t-45 273z" />
<glyph unicode="D" horiz-adv-x="1243" d="M31 989v307h510q344 0 515 -155.5t171 -501.5q0 -328 -161 -483.5t-505 -155.5h-481l18 201l15 776zM551 354h18q57 0 96.5 15.5t63 49.5t32.5 88t9 134q0 164 -41 232.5t-158 68.5h-20v-588z" />
<glyph unicode="E" horiz-adv-x="1077" d="M31 989v307h997v-354h-479v-141h446v-314h-444v-151h496v-336h-965l16 201l15 776z" />
<glyph unicode="F" horiz-adv-x="1017" d="M31 989v307h966v-422h-317l-14 68h-117v-168h418v-313h-416v-139l82 -15v-307h-551l18 201l13 776z" />
<glyph unicode="G" horiz-adv-x="1210" d="M16 606q0 168 43 299t130 222.5t217.5 139.5t306.5 48q113 0 210 -16.5t185 -38.5v-408h-336l-16 115h-19q-80 0 -131 -24.5t-81.5 -71t-43 -110t-12.5 -143.5q0 -68 9 -123t29.5 -94t54.5 -60.5t85 -21.5q35 0 53.5 4.5t32.5 8.5v149h-135v289h530v-704 q-92 -29 -227 -56.5t-280 -27.5q-303 0 -454 160.5t-151 463.5z" />
<glyph unicode="H" horiz-adv-x="1255" d="M31 989v307h520v-460h154v460h469l-17 -200l-14 -777l82 -12v-307h-520v492h-154v-492h-469l16 201l15 776z" />
<glyph unicode="I" horiz-adv-x="632" d="M31 989v307h520v-1296h-469l16 201l15 776z" />
<glyph unicode="J" horiz-adv-x="755" d="M-20 356q29 -6 45 -9t45 -3q78 0 122 33t44 110v474l-211 28v307h673l-16 -200v-619q0 -260 -150.5 -376.5t-447.5 -116.5q-20 0 -39.5 2t-26.5 4z" />
<glyph unicode="K" horiz-adv-x="1202" d="M31 989v307h514v-450h12l8 72l133 378h492l-275 -573l177 -401l96 -15v-307h-479l-142 428h-8l-14 -39v-389h-467l20 201l15 776z" />
<glyph unicode="L" horiz-adv-x="886" d="M31 989v307h514v-942h332v-354h-797l18 201l15 776z" />
<glyph unicode="M" horiz-adv-x="1712" d="M39 989v307h739l78 -710v-72h12l4 72l84 710h668l-14 -200l18 -1096h-436v938h-14v-55l-158 -883h-330l-135 879v61h-12l-19 -940h-469l25 201l41 776z" />
<glyph unicode="N" horiz-adv-x="1282" d="M31 989v307h571l209 -735h10l-10 78l-59 657h458l-20 -200l-12 -1096h-488l-198 737h-13l13 -78l49 -659h-457l18 201l11 776z" />
<glyph unicode="O" horiz-adv-x="1251" d="M16 637q0 154 42 278.5t124 214t203 137.5t277 48q160 0 269 -43t177 -126t97.5 -206t29.5 -283q0 -322 -155.5 -498.5t-481.5 -176.5q-160 0 -270.5 42t-179 124.5t-100.5 205.5t-32 283zM502 635q0 -53 2 -107.5t12 -97.5t34.5 -69.5t67.5 -26.5q49 0 78 29.5 t43.5 75.5t18.5 103.5t4 112.5q0 51 -2 104.5t-12.5 95.5t-35 68.5t-67.5 26.5q-47 0 -75.5 -28.5t-44 -73.5t-19.5 -101.5t-4 -111.5z" />
<glyph unicode="P" horiz-adv-x="1163" d="M31 989v307h655q106 0 191.5 -32.5t144.5 -93t92 -145.5t33 -191q0 -104 -33 -187.5t-93 -140.5t-146.5 -87t-192.5 -30h-133v-70l82 -12v-307h-545l16 201l11 776zM549 739h43q102 0 102 101q0 106 -102 106h-43v-207z" />
<glyph unicode="Q" horiz-adv-x="1251" d="M16 633q0 336 158 509t479 173q166 0 277.5 -43t179.5 -126t96.5 -206t28.5 -283q0 -135 -21.5 -235t-64.5 -175t-110.5 -128t-159.5 -92l-5 -13l138 -247h-453l-88 225q-129 16 -217 66.5t-140.5 132t-75 192.5t-22.5 250zM492 641q0 -53 2 -107.5t13 -97.5t35.5 -69.5 t69.5 -26.5q51 0 80 29.5t44.5 76t19.5 103.5t4 113q0 51 -2 104t-13.5 95t-36 68.5t-69.5 26.5q-49 0 -79 -28.5t-45 -73.5t-19 -101.5t-4 -111.5z" />
<glyph unicode="R" horiz-adv-x="1214" d="M31 989v307h671q98 0 181.5 -22.5t142.5 -68.5t92 -117.5t33 -172.5q0 -109 -52 -190.5t-147 -110.5v-8q68 -20 97.5 -66t48.5 -141l14 -80l86 -12v-307h-471l-47 358q-10 68 -33.5 95.5t-79.5 27.5h-16v-481h-469l16 201l15 776zM551 752h57q96 0 97 104q0 100 -97 100 h-57v-204z" />
<glyph unicode="S" horiz-adv-x="1069" d="M39 31v393h307l23 -109q8 0 29.5 -1t37.5 -1q59 0 99 17.5t40 52.5q0 37 -34.5 56.5t-116.5 49.5q-57 20 -122.5 50t-122 74t-95.5 106.5t-45 150.5q0 119 42 203t116.5 137.5t178 79t226.5 25.5q113 0 216.5 -14.5t195.5 -34.5v-392h-307l-21 111q-4 0 -26.5 1t-32.5 1 q-57 0 -95 -16.5t-38 -57.5q0 -35 44 -57t121 -51q68 -25 135.5 -55.5t122 -74.5t88 -107.5t33.5 -153.5q0 -121 -49 -204t-132 -133t-193.5 -72.5t-231.5 -22.5q-98 0 -198.5 12t-194.5 37z" />
<glyph unicode="T" horiz-adv-x="950" d="M10 942v354h930v-354h-246v-942h-469l19 201l14 741h-248z" />
<glyph unicode="U" horiz-adv-x="1210" d="M25 989v307h510v-833q0 -55 14 -84t59 -29q47 0 64.5 28t17.5 85v633l-20 200h467v-829q0 -250 -140.5 -367.5t-402.5 -117.5t-387 115.5t-125 365.5l14 514z" />
<glyph unicode="V" horiz-adv-x="1193" d="M6 989v307h494l82 -856v-88h14l6 88l88 656v200h504l-285 -1296h-641l-182 977z" />
<glyph unicode="W" horiz-adv-x="1818" d="M6 989v307h500l59 -942h15v88l73 654v200h531l73 -854v-88h15l59 742v200h488l-217 -1296h-588l-78 821l-4 92h-14l-7 -92l-106 -821h-584l-139 977z" />
<glyph unicode="X" horiz-adv-x="1214" d="M2 0l221 666l-100 303l-100 20v307h495l72 -374l6 -78h12l4 78l37 174l25 200h524l-219 -630l113 -340l100 -19v-307h-500l-82 424l-4 59h-12l-4 -59l-33 -223l-20 -201h-535z" />
<glyph unicode="Y" horiz-adv-x="1134" d="M6 989v307h461l78 -444l6 -82h10l6 82l39 248l21 196h508l-355 -870v-426h-461v426l-210 547z" />
<glyph unicode="Z" horiz-adv-x="1116" d="M41 0v395l502 535l51 20l-4 13h-193l-22 -99h-314v432h1000v-395l-453 -526l-59 -23l4 -12h190l25 96h307v-436h-1034z" />
<glyph unicode="[" horiz-adv-x="493" d="M76 -211v1401h397v-221h-156v-961h156v-219h-397z" />
<glyph unicode="\" horiz-adv-x="663" d="M2 1190h246l416 -1190h-250z" />
<glyph unicode="]" horiz-adv-x="493" d="M27 8h153v961h-153v221h391v-1401h-391v219z" />
<glyph unicode="^" d="M16 369l502 692l506 -688l-182 -133l-324 452l-317 -448z" />
<glyph unicode="_" horiz-adv-x="1120" d="M0 -127h1120v-231h-1120v231z" />
<glyph unicode="`" horiz-adv-x="1034" d="M221 1149l88 237l506 -198l-104 -115z" />
<glyph unicode="a" horiz-adv-x="1032" d="M25 276q0 86 34.5 147.5t97 102.5t149.5 62.5t192 27.5h57q0 59 -35 77t-104 20h-33l-21 -74h-286v309q86 18 192.5 32.5t233.5 14.5q119 0 204 -22.5t139 -73.5t79.5 -135t25.5 -209v-258l58 -10v-287h-334l-43 102h-13q-45 -47 -120.5 -83.5t-180.5 -36.5 q-129 0 -210.5 74.5t-81.5 219.5zM401 330q0 -33 19.5 -49.5t48.5 -16.5q51 0 69.5 41t20.5 101v32q-158 0 -158 -108z" />
<glyph unicode="b" horiz-adv-x="1046" d="M59 10l19 187v1185h504v-266l-103 -16v-154h15q14 10 63 29.5t115 19.5q86 0 152.5 -31.5t112.5 -88t69.5 -136.5t23.5 -174q0 -119 -30.5 -224t-103.5 -185t-191.5 -127t-294.5 -47q-33 0 -76 2t-91 5t-95.5 8t-88.5 13zM461 381q0 -19 2 -37q0 -23 2 -45h18 q41 0 68 18.5t43 48t23.5 68.5t7.5 80q0 82 -16.5 124t-57.5 42q-33 0 -51.5 -25.5t-26.5 -64.5t-10 -87t-2 -91v-31z" />
<glyph unicode="c" horiz-adv-x="892" d="M16 465q0 248 140.5 389t396.5 141q72 0 153.5 -9t145.5 -28v-370h-283l-18 100q-10 0 -16 -2q-55 -16 -83 -67.5t-28 -124.5q0 -94 52 -144.5t138 -50.5q63 0 116.5 25.5t88.5 60.5l53 -313q-18 -10 -48.5 -25.5t-73.5 -30t-99.5 -24.5t-126.5 -10q-117 0 -211 32.5 t-160.5 95t-101.5 152.5t-35 203z" />
<glyph unicode="d" horiz-adv-x="1046" d="M16 424q0 121 32 225.5t96.5 181t165 120.5t239.5 44h24v105l-92 16v266h490l-15 -221v-866l62 -8v-287h-334l-33 100h-12q-53 -61 -123 -89.5t-147 -28.5q-90 0 -157 33.5t-110 92t-64.5 139.5t-21.5 177zM420 469q0 -78 16.5 -125t57.5 -47q33 0 50 24.5t26.5 62.5 t11.5 86t2 97q0 27 -1 47.5t-1 34.5q-2 16 -2 29h-13q-41 0 -68.5 -17.5t-45 -46t-25.5 -66.5t-8 -79z" />
<glyph unicode="e" horiz-adv-x="1001" d="M16 477q0 111 34 205t98.5 163.5t161 109.5t220.5 40q127 0 213 -41t138.5 -111.5t74 -165.5t21.5 -206v-29.5t-2 -44.5h-539q8 -72 52 -100.5t149 -28.5h10l19 70h282v-295q-23 -8 -63.5 -18.5t-93 -19.5t-114 -16t-124.5 -7q-274 0 -405.5 127t-131.5 368zM428 590h186 l9 14q0 41 -18.5 76t-69.5 35q-49 0 -76 -38t-31 -87z" />
<glyph unicode="f" horiz-adv-x="636" d="M23 690v271l79 16v31q0 111 32 185.5t94.5 120.5t153.5 65.5t212 19.5l47 -303q-27 8 -61 8q-41 0 -66 -19.5t-25 -58.5q0 -18 5 -35q2 -8 6 -14h106v-287h-119v-690h-417l18 178l6 512h-71z" />
<glyph unicode="g" horiz-adv-x="1046" d="M18 -88q0 102 70 164.5t201 103.5v111q-111 29 -177.5 99.5t-66.5 205.5q0 209 135 304t385 95q123 0 245 -9t214 -19v-271l-117 -8v-12q18 -20 30.5 -56t12.5 -77q0 -104 -68.5 -167t-195.5 -87v-53l107 -43q106 -43 165.5 -101.5t59.5 -150.5q0 -82 -45 -139.5 t-119 -92.5t-166 -51t-186 -16q-96 0 -183.5 15t-154 48t-106.5 84t-40 123zM369 -8q0 -51 42 -67.5t99 -16.5q59 0 96 19.5t37 52.5q0 18 -15.5 35.5t-62.5 33.5l-149 49q-12 -16 -29.5 -43.5t-17.5 -62.5zM422 594q0 -66 15.5 -87.5t58.5 -21.5t64.5 21.5t21.5 87.5 q0 63 -15.5 88t-58.5 25t-64.5 -25t-21.5 -88z" />
<glyph unicode="h" horiz-adv-x="1069" d="M76 0v1382h495v-266l-94 -16v-201h12q27 35 91.5 66.5t140.5 31.5q143 0 208.5 -85t65.5 -230l-8 -387l57 -8v-287h-454v635q0 45 -43 45q-41 0 -54.5 -37t-13.5 -108v-535h-403z" />
<glyph unicode="i" horiz-adv-x="557" d="M25 1153l249 252l256 -252l-178 -176h129v-977h-420l19 176l10 504l-61 10v287h170z" />
<glyph unicode="j" horiz-adv-x="593" d="M-37 -45q31 -10 53 -10q53 0 75 27.5t22 80.5v621l-93 16v287h201l-174 176l250 252l256 -252l-180 -176h164l-21 -180v-742q0 -225 -107.5 -321t-340.5 -96q-10 0 -26.5 1t-25.5 3z" />
<glyph unicode="k" horiz-adv-x="1050" d="M29 1116v266h452v-710h13l12 59l94 246h432l-205 -367l101 -309l88 -14v-287h-412l-100 362h-10l-13 -26v-336h-418l19 178l10 928z" />
<glyph unicode="l" horiz-adv-x="557" d="M29 1116v266h452v-1382h-420l19 178l12 928z" />
<glyph unicode="m" horiz-adv-x="1583" d="M29 690v287h333l44 -103h12q41 47 106.5 84t169.5 37q84 0 145.5 -29.5t98.5 -91.5h12q39 47 109.5 84t163.5 37q152 -1 221 -81q65 -76 65 -216v-16l-8 -387l58 -8v-287h-455v635q0 45 -45 45q-41 0 -53.5 -41t-12.5 -109v-530h-401v635q0 45 -45 45q-41 0 -53.5 -36 t-12.5 -114v-530h-403l10 680z" />
<glyph unicode="n" horiz-adv-x="1071" d="M29 690v287h333l44 -103h12q45 47 113.5 84t179.5 37q147 -1 219 -81q68 -76 67 -216v-16l-8 -387l58 -8v-287h-455v633q0 20 -11.5 33.5t-31.5 13.5q-41 0 -54.5 -37t-13.5 -115v-528h-403l10 680z" />
<glyph unicode="o" horiz-adv-x="1026" d="M16 479q0 113 33 208t98.5 164t160.5 106.5t222 37.5t217.5 -34.5t148.5 -99t86 -157t28 -204.5q0 -113 -35 -208t-101.5 -164t-165 -107.5t-223.5 -38.5q-127 0 -216 35.5t-145 100t-82 156.5t-26 205zM424 489q0 -41 2 -76.5t10 -63t23.5 -43t44.5 -15.5q63 0 81.5 54 t18.5 144q0 82 -13 138.5t-71 56.5q-33 0 -51 -16.5t-28.5 -43t-13.5 -62.5t-3 -73z" />
<glyph unicode="p" horiz-adv-x="1046" d="M29 690v287h333l44 -103h12q106 121 260 121q90 0 156.5 -33.5t109.5 -92t64.5 -140.5t21.5 -176q0 -121 -32.5 -222.5t-100.5 -175t-170 -114.5t-240 -41h-10v-70l82 -12v-258h-498l19 182l10 838zM463 361.5q0 -19.5 2 -33.5q0 -16 2 -29h12q41 0 68.5 17.5t45 46 t26 66.5t8.5 79q0 78 -16.5 125t-57.5 47q-33 0 -50.5 -24.5t-26.5 -62.5t-11 -86t-2 -97v-48.5z" />
<glyph unicode="q" horiz-adv-x="1046" d="M16 412q0 119 31 224t102.5 185t191.5 127t296 47q33 0 75 -1t89 -3t95 -5t91 -9l-18 -186v-1133h-504v262l102 17v98h-12q-20 -16 -68.5 -34.5t-111.5 -18.5q-86 0 -152.5 31.5t-113 88t-70 135t-23.5 175.5zM422 463q0 -82 16.5 -124t57.5 -42q33 0 51 25.5t26.5 64.5 t10.5 87t2 91q0 10 -1 29.5t-1 38.5q-2 23 -2 45h-19q-41 0 -67.5 -18.5t-43 -48t-23.5 -68.5t-7 -80z" />
<glyph unicode="r" horiz-adv-x="724" d="M29 690v287h321l35 -121h12q47 66 112.5 102.5t178.5 36.5l35 -325q-16 4 -31.5 6t-32.5 2q-104 0 -141 -59.5t-37 -163.5v-455h-403l10 680z" />
<glyph unicode="s" horiz-adv-x="903" d="M37 682q0 92 42 152.5t110.5 96.5t153.5 50t171 14q98 0 180 -13t154 -30v-309h-273l-22 90h-21q-35 0 -59 -14t-24 -43q0 -37 55 -58q70 -23 135.5 -47t116.5 -58t82.5 -83t31.5 -121q0 -92 -42 -154.5t-110.5 -101.5t-156.5 -55t-180 -16q-86 0 -176 13t-164 34v309 h278l19 -78h47q43 0 64.5 16.5t21.5 38.5q0 16 -14.5 29.5t-59.5 30.5q-61 20 -125.5 44.5t-117 59.5t-85 84t-32.5 119z" />
<glyph unicode="t" horiz-adv-x="647" d="M27 690v275l82 12l38 215l347 104v-319h118v-287h-116v-315q0 -92 84 -92q18 0 32.5 3t30.5 9l-51 -301q-6 -2 -22.5 -4t-35 -4t-37 -3t-28.5 -1q-98 0 -170 19t-118 64.5t-68.5 120t-22.5 187.5v317h-63z" />
<glyph unicode="u" horiz-adv-x="1071" d="M25 690v287h454v-629q0 -51 41 -51t55.5 37t14.5 115v528h403l-10 -682l59 -8v-287h-344l-32 102h-13q-45 -51 -114.5 -85.5t-180.5 -34.5q-148 0 -218 82q-67 77 -66 217v16l8 383z" />
<glyph unicode="v" horiz-adv-x="1021" d="M6 690v287h432l60 -590v-68h12l59 451v207h453l-246 -977h-543l-157 678z" />
<glyph unicode="w" horiz-adv-x="1585" d="M6 690v287h430l49 -660h13v74l55 406v180h483l60 -586v-74h12l47 480v180h430l-176 -977h-541l-55 608v72h-12l-4 -72l-70 -608h-541l-112 680z" />
<glyph unicode="x" horiz-adv-x="1040" d="M16 0l168 516l-73 156l-84 18v287h419l56 -277l6 -65h12l4 65l25 93l31 184h444l-180 -463l82 -211l86 -16v-287h-420l-68 293l-4 67h-12l-4 -67l-23 -121l-20 -172h-445z" />
<glyph unicode="y" horiz-adv-x="1005" d="M6 686v291h416l86 -561h12v73l39 312v176h447l-283 -959q-61 -209 -206.5 -291.5t-369.5 -82.5q-18 0 -40.5 1t-40.5 3l-43 301q23 -4 43 -5t55 -1q72 0 119 26.5t55 85.5l6 43l-207 574z" />
<glyph unicode="z" horiz-adv-x="919" d="M31 0v307l430 389l49 19l-2 10h-164l-27 -92h-270v344h830v-320l-392 -372l-51 -21l4 -10h154l20 80h277v-334h-858z" />
<glyph unicode="{" horiz-adv-x="493" d="M-29 485v9l68 79q14 16 21.5 27.5t10.5 23t4 23.5t1 31v274q0 131 53 184.5t186 53.5h158v-221h-111q-29 0 -37 -6.5t-8 -36.5v-301q0 -35 -7 -55.5t-36 -55.5l-20 -25l20 -26q29 -35 36 -54.5t7 -54.5v-301q0 -31 8.5 -38t36.5 -7h111v-219h-158q-133 0 -186 53.5 t-53 184.5v274q0 18 -1 30.5t-4 23t-10.5 22.5t-21.5 29z" />
<glyph unicode="|" horiz-adv-x="391" d="M74 -264v1454h243v-1454h-243z" />
<glyph unicode="}" horiz-adv-x="493" d="M18 8h111q29 0 37 7.5t8 37.5v301q0 35 7 54.5t36 54.5l21 26l-21 25q-29 35 -36 55.5t-7 55.5v301q0 31 -8 37t-37 6h-111v221h158q133 0 186.5 -53.5t53.5 -184.5v-274q0 -37 4 -54.5t33 -50.5l67 -79v-9l-67 -79q-14 -16 -21.5 -28.5t-10.5 -23t-4 -23t-1 -30.5v-274 q0 -131 -53.5 -184.5t-186.5 -53.5h-158v219z" />
<glyph unicode="~" d="M100 426v238q29 23 93.5 46t148.5 23q41 0 87 -12t94 -27.5t94.5 -28t87.5 -12.5q84 0 145 31t90 51v-239q-29 -23 -93.5 -46.5t-148.5 -23.5q-41 0 -87 12.5t-93 26.5t-94 26.5t-88 12.5q-82 0 -144.5 -29t-91.5 -49z" />
<glyph unicode="&#xa1;" horiz-adv-x="524" d="M0 -319l80 899h332v-899h-412zM59 819q0 78 52.5 127t138.5 49q92 0 140 -45t48 -123q0 -80 -54 -130t-146 -50q-86 0 -132.5 46t-46.5 126z" />
<glyph unicode="&#xa2;" d="M53 522q0 115 32 209t89 166t139 119t183 69v211h202v-194q98 -4 169 -19.5t112 -25.5v-387h-289l-12 100h-33q-84 -10 -128 -78.5t-44 -161.5q0 -102 55.5 -160.5t157.5 -58.5q86 0 153.5 36t102.5 81l57 -342q-47 -33 -123.5 -60.5t-177.5 -37.5v-201h-202v201 q-94 12 -175 49t-140.5 102.5t-93.5 160.5t-34 222z" />
<glyph unicode="&#xa3;" d="M8 436l27 197h143v37q0 119 34 200.5t100.5 133t161.5 75t218 23.5q37 0 83 -4t90 -11.5t81 -14.5t55 -13v-346h-278l-16 78h-23q-94 0 -94 -123v-35h344l-27 -197h-317v-117h235l179 17v-336h-963l20 281l117 28v127h-170z" />
<glyph unicode="&#xa4;" d="M51 883l174 174l131 -133q82 41 172 41t172 -41l129 131l164 -164l-129 -129q47 -82 47 -180q0 -90 -41 -172l129 -127l-174 -172l-129 129q-76 -39 -168 -39q-49 0 -94 11t-86 32l-133 -129l-162 161l135 134q-20 41 -31.5 83t-11.5 89q0 90 41 168zM377 582 q0 -63 44 -107.5t107 -44.5t108.5 44t45.5 108q0 63 -45 107t-109 44q-63 0 -107 -44t-44 -107z" />
<glyph unicode="&#xa5;" d="M10 1083h424l74 -319l6 -68h10l6 68l39 154l15 165h446l-127 -303h113l-27 -196h-168l-33 -80h228l-27 -197h-262v-307h-416v307h-282l26 197h195l-33 80h-188l26 196h80z" />
<glyph unicode="&#xa6;" horiz-adv-x="391" d="M74 -264v612h243v-612h-243zM74 580v610h243v-610h-243z" />
<glyph unicode="&#xa7;" horiz-adv-x="804" d="M31 520q0 66 30.5 127.5t71.5 102.5q-20 29 -34.5 68.5t-14.5 90.5q0 74 35 130.5t91 94t130 56t152 18.5q82 0 137 -9t116 -23v-299h-215l-24 122h-14q-51 -4 -90.5 -24.5t-39.5 -61.5q0 -39 31 -62.5t96 -57.5q68 -35 119 -68t87 -70t54.5 -83t18.5 -109 q0 -66 -30.5 -128.5t-69.5 -103.5q20 -29 33.5 -67.5t13.5 -89.5q0 -74 -34 -130.5t-89 -94t-129 -57t-154 -19.5q-92 0 -150.5 10t-105.5 22v299h215l25 -122h18q53 4 89 25.5t36 62.5q0 35 -27.5 58.5t-89.5 55.5q-68 35 -121 68t-89.5 71.5t-57 86t-20.5 110.5zM295 530 q0 -41 44 -70.5t99 -58.5l41 -22q12 16 18.5 31.5t6.5 38.5q0 41 -40 69.5t-97 56.5l-48 25q-16 -16 -20 -32.5t-4 -37.5z" />
<glyph unicode="&#xa8;" horiz-adv-x="1034" d="M244 1100v286h227v-286h-227zM567 1100v286h226v-286h-226z" />
<glyph unicode="&#xa9;" horiz-adv-x="1083" d="M55 901q0 104 38 195.5t103.5 159t154 106.5t190.5 39q100 0 189 -39t154.5 -106.5t104.5 -158.5t39 -196q0 -104 -39 -194.5t-104.5 -158t-154.5 -106.5t-189 -39q-102 0 -190.5 39t-154 106.5t-103.5 158t-38 194.5zM154 901q0 -84 30.5 -155.5t82.5 -126t123 -85 t151 -30.5t150.5 30.5t123.5 85t84 126t31 155.5q0 82 -31 154.5t-84 126t-123.5 85t-150.5 31.5t-151 -31.5t-123 -85t-82.5 -126t-30.5 -154.5zM283 887q0 139 80.5 215t216.5 76q57 0 94 -7.5t59 -11.5v-198h-145l-6 45h-11q-39 -4 -57 -38t-18 -77q0 -47 27.5 -78 t74.5 -31q39 0 69.5 15.5t47.5 38.5l30 -166q-29 -23 -81 -38.5t-111 -15.5q-55 0 -104.5 15.5t-86 49.5t-58 84t-21.5 122z" />
<glyph unicode="&#xaa;" horiz-adv-x="618" d="M12 764q0 104 79 152.5t208 52.5l35 2q0 59 -98 59l-13 -43h-174v184q51 14 112.5 23.5t139.5 9.5q145 0 208.5 -59.5t63.5 -210.5v-158l35 -6v-174h-202l-27 61h-8q-29 -31 -73 -51t-108 -20q-78 0 -128 45t-50 133zM250 791q0 -33 33 -33q51 0 51 71v17 q-39 0 -61.5 -13.5t-22.5 -41.5z" />
<glyph unicode="&#xab;" horiz-adv-x="1089" d="M14 553l451 485l180 -172l-301 -313l303 -315l-184 -170zM438 553l451 485l180 -172l-301 -313l303 -315l-184 -170z" />
<glyph unicode="&#xac;" d="M80 629v231h858v-561h-244v330h-614z" />
<glyph unicode="&#xad;" horiz-adv-x="624" d="M37 381v231h553v-231h-553z" />
<glyph unicode="&#xae;" horiz-adv-x="1083" d="M55 901q0 104 38 195.5t103.5 159t154 106.5t190.5 39q100 0 189 -39t154.5 -106.5t104.5 -158.5t39 -196q0 -104 -39 -194.5t-104.5 -158t-154.5 -106.5t-189 -39q-102 0 -190.5 39t-154 106.5t-103.5 158t-38 194.5zM154 901q0 -84 30.5 -155.5t82.5 -126t123 -85 t151 -30.5t150.5 30.5t123.5 85t84 126t31 155.5q0 82 -31 154.5t-84 126t-123.5 85t-150.5 31.5t-151 -31.5t-123 -85t-82.5 -126t-30.5 -154.5zM283 1026v143h327q82 0 134.5 -35.5t52.5 -119.5q0 -47 -21.5 -81t-62.5 -46v-6q29 -10 40 -24.5t19 -53.5l6 -29l35 -4v-143 h-213l-20 153q-6 47 -41 47h-17v-200h-215l8 92l7 303zM520 938h25q45 0 45 47q0 43 -45 43h-25v-90z" />
<glyph unicode="&#xaf;" horiz-adv-x="1034" d="M190 1126v224h656v-224h-656z" />
<glyph unicode="&#xb0;" horiz-adv-x="616" d="M23 934q0 123 75.5 198.5t212.5 75.5q145 0 214 -75.5t69 -198.5q0 -127 -75 -199.5t-222 -72.5q-141 0 -207.5 74.5t-66.5 197.5zM131 430l174 178l182 -178l-182 -170zM236 934q0 -41 11 -78t54 -37q49 0 62.5 34t13.5 81q0 43 -10.5 81t-55.5 38q-49 0 -62 -38 t-13 -81z" />
<glyph unicode="&#xb1;" d="M119 0v231h803v-231h-803zM119 567v230h278v274h246v-274h277v-230h-277v-274h-246v274h-278z" />
<glyph unicode="&#xb2;" horiz-adv-x="555" d="M25 594v164q92 45 145 76.5t81 55t36 41t8 34.5q0 53 -66 59l-12 2l-10 -86h-182v234q23 8 78 17t120 9q55 0 107.5 -12t94.5 -38t67.5 -66t25.5 -95q0 -72 -40 -123t-138 -110l2 -8l45 20h59l99 10v-184h-520z" />
<glyph unicode="&#xb3;" horiz-adv-x="557" d="M10 788q16 -6 72.5 -22t134.5 -16q37 0 61.5 8t24.5 33t-25.5 31.5t-66.5 6.5h-94v117h94q41 0 65.5 12.5t24.5 36.5q0 23 -26.5 31t-61.5 8l-4 -47h-182v189q35 10 91 17t122 7q55 0 107 -8t92 -28.5t63.5 -53.5t23.5 -84q0 -41 -22.5 -76t-59.5 -53v-8q27 -10 57.5 -40 t30.5 -83t-26.5 -89t-69.5 -57.5t-98 -29.5t-113 -8q-51 0 -99 5t-81 15z" />
<glyph unicode="&#xb4;" horiz-adv-x="1034" d="M223 1188l506 198l88 -237l-489 -76z" />
<glyph unicode="&#xb5;" horiz-adv-x="1071" d="M25 690v287h454v-629q0 -51 45 -51q37 0 51.5 30.5t14.5 102.5v547h403l-10 -682l59 -8v-287h-342l-34 102h-11q-31 -35 -75.5 -64.5t-104.5 -39.5v-340h-422l19 207l8 815z" />
<glyph unicode="&#xb6;" horiz-adv-x="1011" d="M16 750q0 88 31 160.5t90.5 124.5t143.5 82t192 30h522v-215l-90 -12v-1278h-250v1273h-88v-1273h-327v215l90 12v549q-78 0 -136.5 24.5t-98.5 69.5t-59.5 105.5t-19.5 132.5z" />
<glyph unicode="&#xb7;" horiz-adv-x="442" d="M31 573q0 80 54 130.5t146 50.5q86 0 132.5 -46t46.5 -126q0 -78 -52.5 -127t-138.5 -49q-92 0 -140 45t-48 122z" />
<glyph unicode="&#xb8;" horiz-adv-x="1034" d="M313 -338l29 135q20 -4 45 -6t45 -2q29 0 50.5 6t21.5 27q0 16 -18.5 24.5t-43.5 8.5q-20 0 -40.5 -3.5t-32.5 -5.5l30 154h174v-45q68 0 108 -43t40 -102q0 -80 -62.5 -124t-166.5 -44q-74 0 -118 8t-61 12z" />
<glyph unicode="&#xb9;" horiz-adv-x="522" d="M20 1087q45 6 101.5 34t89.5 69h182l-6 -434h119v-160h-467v160h139l4 176l8 47l-8 2l-20 -31q-16 -10 -47 -19t-54 -13z" />
<glyph unicode="&#xba;" horiz-adv-x="630" d="M14 887q0 137 79 225t233 88q156 0 223 -82t67 -219q0 -150 -74.5 -231.5t-242.5 -81.5q-154 0 -219.5 82t-65.5 219zM258 893q0 -49 8 -84t43 -35q41 0 52.5 33t11.5 86q0 49 -9.5 84t-44.5 35q-39 0 -50 -36t-11 -83z" />
<glyph unicode="&#xbb;" horiz-adv-x="1089" d="M18 238l304 315l-302 313l181 172l450 -485l-448 -485zM442 238l303 315l-301 313l181 172l450 -485l-450 -485z" />
<glyph unicode="&#xbc;" horiz-adv-x="1259" d="M20 1087q45 6 101.5 34t89.5 69h182l-6 -434h119v-160h-467v160h139l4 176l8 47l-8 2l-20 -31q-16 -10 -47 -19t-54 -13zM190 0l697 1190h188l-696 -1190h-189zM700 94v166l201 334h285v-338h61v-162h-61v-94h-217v94h-269zM868 258l4 -6l29 4h74v143l4 35h-8l-6 -33 l-70 -122z" />
<glyph unicode="&#xbd;" horiz-adv-x="1318" d="M20 1087q45 6 101.5 34t89.5 69h182l-6 -434h119v-160h-467v160h139l4 176l8 47l-8 2l-20 -31q-16 -10 -47 -19t-54 -13zM190 0l697 1190h188l-696 -1190h-189zM768 0v164q92 45 145.5 76.5t81 55t35.5 41t8 34.5q0 53 -65 59l-12 2l-11 -86h-182v240q16 4 74.5 12 t124.5 8q55 0 107 -12t94 -38t68 -65.5t26 -95.5q0 -72 -40 -123t-139 -110l2 -8l45 20h60l98 10v-184h-520z" />
<glyph unicode="&#xbe;" horiz-adv-x="1179" d="M10 788q16 -6 72.5 -22t134.5 -16q37 0 61.5 8t24.5 33t-25.5 31.5t-66.5 6.5h-94v117h94q41 0 65.5 12.5t24.5 36.5q0 23 -26.5 31t-61.5 8l-4 -47h-182v189q35 10 91 17t122 7q55 0 107 -8t92 -28.5t63.5 -53.5t23.5 -84q0 -41 -22.5 -76t-59.5 -53v-8q27 -10 57.5 -40 t30.5 -83t-26.5 -89t-69.5 -57.5t-98 -29.5t-113 -8q-51 0 -99 5t-81 15zM166 0l696 1190h189l-697 -1190h-188zM621 94v166l200 334h285v-338h61v-162h-61v-94h-217v94h-268zM788 258l5 -6l28 4h74v143l4 35h-8l-6 -33l-70 -122z" />
<glyph unicode="&#xbf;" horiz-adv-x="880" d="M18 68q0 72 27 136t74 116.5t110.5 89t139.5 55.5l10 110h326v-290q-117 -10 -197 -57.5t-80 -137.5q0 -41 21.5 -68.5t56.5 -31.5l18 -2l27 141h305v-428q-18 -4 -54 -11t-80 -13.5t-93 -11.5t-94 -5q-106 0 -200.5 24.5t-164.5 75t-111 127t-41 181.5zM352 817 q0 78 52.5 127t138.5 49q92 0 140 -45t48 -123q0 -80 -54 -130t-147 -50q-86 0 -132 46t-46 126z" />
<glyph unicode="&#xc0;" horiz-adv-x="1239" d="M0 0l252 975l-88 14v307h829l160 -977l80 -12v-307h-510v176l-4 33h-211l-31 -209h-477zM330 1444l88 237l506 -198l-105 -115zM565 541h125l-41 377l-4 83h-10l-6 -83z" />
<glyph unicode="&#xc1;" horiz-adv-x="1239" d="M0 0l252 975l-88 14v307h829l160 -977l80 -12v-307h-510v176l-4 33h-211l-31 -209h-477zM301 1483l506 198l88 -237l-489 -76zM565 541h125l-41 377l-4 83h-10l-6 -83z" />
<glyph unicode="&#xc2;" horiz-adv-x="1239" d="M0 0l252 975l-88 14v307h829l160 -977l80 -12v-307h-510v176l-4 33h-211l-31 -209h-477zM279 1462l260 183q18 14 40.5 19t38.5 5q18 0 42 -5t45 -19l258 -183l-103 -112l-242 73l-241 -73zM565 541h125l-41 377l-4 83h-10l-6 -83z" />
<glyph unicode="&#xc3;" horiz-adv-x="1239" d="M0 0l252 975l-88 14v307h829l160 -977l80 -12v-307h-510v176l-4 33h-211l-31 -209h-477zM262 1393l33 200q23 12 73 32t138 20q25 0 59.5 -5.5t71.5 -11.5t74 -11t65 -5q86 0 133 11t74 24l-31 -201q-23 -12 -74 -31.5t-135 -19.5q-25 0 -60.5 5t-73.5 11t-74.5 11 t-65.5 5q-86 0 -134 -13t-73 -21zM565 541h125l-41 377l-4 83h-10l-6 -83z" />
<glyph unicode="&#xc4;" horiz-adv-x="1239" d="M0 0l252 975l-88 14v307h829l160 -977l80 -12v-307h-510v176l-4 33h-211l-31 -209h-477zM350 1380v287h228v-287h-228zM565 541h125l-41 377l-4 83h-10l-6 -83zM674 1380v287h225v-287h-225z" />
<glyph unicode="&#xc5;" horiz-adv-x="1239" d="M0 0l252 975l-88 14v307h829l160 -977l80 -12v-307h-510v176l-4 33h-211l-31 -209h-477zM379 1511q0 78 62.5 134.5t185.5 56.5q127 0 186 -52t59 -130t-63.5 -130.5t-190.5 -52.5q-123 0 -181 51.5t-58 122.5zM565 541h125l-41 377l-4 83h-10l-6 -83zM586 1516 q0 -10 5 -25.5t30 -15.5q29 0 36 15t7 26q0 14 -5.5 31.5t-33.5 17.5q-25 0 -32 -17.5t-7 -31.5z" />
<glyph unicode="&#xc6;" horiz-adv-x="1677" d="M0 0l231 977l-88 12v307h1399l27 -354h-459l10 -141h426l25 -314h-426l12 -151h475l31 -336h-936l14 176l-2 33h-227l-37 -209h-475zM571 551h146l-27 356v33h-55z" />
<glyph unicode="&#xc7;" horiz-adv-x="1093" d="M16 610q0 162 43 292t128 222.5t209 141.5t286 49q125 0 221 -19.5t150 -35.5v-457h-326l-16 143h-17q-53 -4 -92 -30.5t-63.5 -68.5t-37 -96.5t-12.5 -113.5q0 -135 66 -211t190 -76q78 0 151 35t122 88l65 -373q-59 -39 -157.5 -74.5t-229.5 -41.5v-29q68 0 108 -43 t40 -102q0 -80 -62.5 -124t-167.5 -44q-74 0 -117.5 8t-60.5 12l29 135q20 -4 45 -6t45 -2q29 0 50.5 6t21.5 27q0 16 -18.5 24.5t-43.5 8.5q-20 0 -40.5 -3.5t-32.5 -5.5l28 146q-115 16 -208 63t-158.5 125t-101.5 185.5t-36 244.5z" />
<glyph unicode="&#xc8;" horiz-adv-x="1077" d="M31 989v307h997v-354h-479v-141h446v-314h-444v-151h496v-336h-965l16 201l15 776zM283 1444l88 237l506 -198l-105 -115z" />
<glyph unicode="&#xc9;" horiz-adv-x="1077" d="M31 989v307h997v-354h-479v-141h446v-314h-444v-151h496v-336h-965l16 201l15 776zM276 1483l506 198l88 -237l-489 -76z" />
<glyph unicode="&#xca;" horiz-adv-x="1077" d="M31 989v307h997v-354h-479v-141h446v-314h-444v-151h496v-336h-965l16 201l15 776zM227 1462l260 183q18 14 41 19t39 5q18 0 42 -5t44 -19l258 -183l-102 -112l-242 73l-241 -73z" />
<glyph unicode="&#xcb;" horiz-adv-x="1077" d="M31 989v307h997v-354h-479v-141h446v-314h-444v-151h496v-336h-965l16 201l15 776zM291 1380v287h227v-287h-227zM614 1380v287h226v-287h-226z" />
<glyph unicode="&#xcc;" horiz-adv-x="632" d="M6 1444l88 237l506 -198l-104 -115zM31 989v307h520v-1296h-469l16 201l15 776z" />
<glyph unicode="&#xcd;" horiz-adv-x="632" d="M4 1483l506 198l88 -237l-489 -76zM31 989v307h520v-1296h-469l16 201l15 776z" />
<glyph unicode="&#xce;" horiz-adv-x="632" d="M-35 1462l260 183q18 14 41 19t39 5q18 0 42 -5t44 -19l258 -183l-102 -112l-242 73l-242 -73zM31 989v307h520v-1296h-469l16 201l15 776z" />
<glyph unicode="&#xcf;" horiz-adv-x="632" d="M31 989v307h520v-1296h-469l16 201l15 776zM37 1380v287h227v-287h-227zM360 1380v287h226v-287h-226z" />
<glyph unicode="&#xd0;" horiz-adv-x="1243" d="M-14 674l123 24l4 279l-82 12v307h510q332 0 509 -161.5t177 -495.5q0 -315 -167 -477t-499 -162h-479l16 201l6 260l-73 -15zM551 354h14q59 0 98 15.5t63 49.5t34 90t10 140q0 82 -9 137.5t-32.5 89t-61.5 49t-96 17.5h-20v-151l94 20l49 -225l-143 -31v-201z" />
<glyph unicode="&#xd1;" horiz-adv-x="1282" d="M31 989v307h571l209 -735h10l-10 78l-59 657h458l-20 -200l-12 -1096h-488l-198 737h-13l13 -78l49 -659h-457l18 201l11 776zM297 1393l33 200q23 12 73 32t138 20q25 0 59.5 -5.5t71.5 -11.5t73.5 -11t65.5 -5q86 0 133 11t74 24l-31 -201q-23 -12 -74 -31.5 t-135 -19.5q-25 0 -60.5 5t-73.5 11t-75 11t-65 5q-86 0 -134 -13t-73 -21z" />
<glyph unicode="&#xd2;" horiz-adv-x="1251" d="M16 637q0 154 42 278.5t124 214t203 137.5t277 48q160 0 269 -43t177 -126t97.5 -206t29.5 -283q0 -322 -155.5 -498.5t-481.5 -176.5q-160 0 -270.5 42t-179 124.5t-100.5 205.5t-32 283zM356 1444l88 237l506 -198l-104 -115zM502 635q0 -53 2 -107.5t12 -97.5 t34.5 -69.5t67.5 -26.5q49 0 78 29.5t43.5 75.5t18.5 103.5t4 112.5q0 51 -2 104.5t-12.5 95.5t-35 68.5t-67.5 26.5q-47 0 -75.5 -28.5t-44 -73.5t-19.5 -101.5t-4 -111.5z" />
<glyph unicode="&#xd3;" horiz-adv-x="1251" d="M16 637q0 154 42 278.5t124 214t203 137.5t277 48q160 0 269 -43t177 -126t97.5 -206t29.5 -283q0 -322 -155.5 -498.5t-481.5 -176.5q-160 0 -270.5 42t-179 124.5t-100.5 205.5t-32 283zM340 1483l506 198l88 -237l-490 -76zM502 635q0 -53 2 -107.5t12 -97.5 t34.5 -69.5t67.5 -26.5q49 0 78 29.5t43.5 75.5t18.5 103.5t4 112.5q0 51 -2 104.5t-12.5 95.5t-35 68.5t-67.5 26.5q-47 0 -75.5 -28.5t-44 -73.5t-19.5 -101.5t-4 -111.5z" />
<glyph unicode="&#xd4;" horiz-adv-x="1251" d="M16 637q0 154 42 278.5t124 214t203 137.5t277 48q160 0 269 -43t177 -126t97.5 -206t29.5 -283q0 -322 -155.5 -498.5t-481.5 -176.5q-160 0 -270.5 42t-179 124.5t-100.5 205.5t-32 283zM297 1462l260 183q18 14 41 19t39 5q18 0 41.5 -5t44.5 -19l258 -183l-102 -112 l-242 73l-242 -73zM502 635q0 -53 2 -107.5t12 -97.5t34.5 -69.5t67.5 -26.5q49 0 78 29.5t43.5 75.5t18.5 103.5t4 112.5q0 51 -2 104.5t-12.5 95.5t-35 68.5t-67.5 26.5q-47 0 -75.5 -28.5t-44 -73.5t-19.5 -101.5t-4 -111.5z" />
<glyph unicode="&#xd5;" horiz-adv-x="1251" d="M16 637q0 154 42 278.5t124 214t203 137.5t277 48q160 0 269 -43t177 -126t97.5 -206t29.5 -283q0 -322 -155.5 -498.5t-481.5 -176.5q-160 0 -270.5 42t-179 124.5t-100.5 205.5t-32 283zM283 1393l32 200q23 12 73 32t138 20q25 0 60 -5.5t71.5 -11.5t73.5 -11t66 -5 q86 0 133 11t74 24l-31 -201q-23 -12 -74 -31.5t-135 -19.5q-25 0 -60.5 5t-73.5 11t-75 11t-66 5q-86 0 -134 -13t-72 -21zM502 635q0 -53 2 -107.5t12 -97.5t34.5 -69.5t67.5 -26.5q49 0 78 29.5t43.5 75.5t18.5 103.5t4 112.5q0 51 -2 104.5t-12.5 95.5t-35 68.5 t-67.5 26.5q-47 0 -75.5 -28.5t-44 -73.5t-19.5 -101.5t-4 -111.5z" />
<glyph unicode="&#xd6;" horiz-adv-x="1251" d="M16 637q0 154 42 278.5t124 214t203 137.5t277 48q160 0 269 -43t177 -126t97.5 -206t29.5 -283q0 -322 -155.5 -498.5t-481.5 -176.5q-160 0 -270.5 42t-179 124.5t-100.5 205.5t-32 283zM362 1380v287h228v-287h-228zM502 635q0 -53 2 -107.5t12 -97.5t34.5 -69.5 t67.5 -26.5q49 0 78 29.5t43.5 75.5t18.5 103.5t4 112.5q0 51 -2 104.5t-12.5 95.5t-35 68.5t-67.5 26.5q-47 0 -75.5 -28.5t-44 -73.5t-19.5 -101.5t-4 -111.5zM686 1380v287h225v-287h-225z" />
<glyph unicode="&#xd7;" d="M115 340l239 240l-239 237l174 174l239 -239l236 239l164 -164l-238 -237l240 -240l-174 -172l-240 238l-240 -238z" />
<glyph unicode="&#xd8;" horiz-adv-x="1251" d="M16 637q0 154 42 278.5t124 214t203 137.5t277 48q74 0 137 -10.5t116 -28.5l52 84h145l-84 -139q111 -78 159 -219.5t48 -344.5q0 -322 -155.5 -498.5t-481.5 -176.5q-166 0 -285 47l-65 -111h-146l105 174q-102 80 -146.5 216t-44.5 329zM502 584l205 344 q-23 23 -62 22q-47 0 -75.5 -28.5t-44 -73.5t-19.5 -101.5t-4 -111.5v-51zM530 389q27 -55 88 -55q49 0 78 29.5t43.5 75.5t18.5 103.5t4 112.5v58.5t-2 58.5z" />
<glyph unicode="&#xd9;" horiz-adv-x="1210" d="M25 989v307h510v-833q0 -55 14 -84t59 -29q47 0 64.5 28t17.5 85v633l-20 200h467v-829q0 -250 -140.5 -367.5t-402.5 -117.5t-387 115.5t-125 365.5l14 514zM317 1444l89 237l505 -198l-104 -115z" />
<glyph unicode="&#xda;" horiz-adv-x="1210" d="M25 989v307h510v-833q0 -55 14 -84t59 -29q47 0 64.5 28t17.5 85v633l-20 200h467v-829q0 -250 -140.5 -367.5t-402.5 -117.5t-387 115.5t-125 365.5l14 514zM315 1483l506 198l88 -237l-489 -76z" />
<glyph unicode="&#xdb;" horiz-adv-x="1210" d="M25 989v307h510v-833q0 -55 14 -84t59 -29q47 0 64.5 28t17.5 85v633l-20 200h467v-829q0 -250 -140.5 -367.5t-402.5 -117.5t-387 115.5t-125 365.5l14 514zM272 1462l260 183q18 14 41 19t39 5q18 0 42 -5t44 -19l258 -183l-102 -112l-242 73l-241 -73z" />
<glyph unicode="&#xdc;" horiz-adv-x="1210" d="M25 989v307h510v-833q0 -55 14 -84t59 -29q47 0 64.5 28t17.5 85v633l-20 200h467v-829q0 -250 -140.5 -367.5t-402.5 -117.5t-387 115.5t-125 365.5l14 514zM340 1380v287h227v-287h-227zM664 1380v287h225v-287h-225z" />
<glyph unicode="&#xdd;" horiz-adv-x="1134" d="M6 989v307h461l78 -444l6 -82h10l6 82l39 248l21 196h508l-355 -870v-426h-461v426l-210 547zM287 1483l506 198l88 -237l-490 -76z" />
<glyph unicode="&#xde;" horiz-adv-x="1163" d="M31 989v307h518v-145h137q106 0 191.5 -33t144.5 -94t92 -147t33 -191q0 -211 -126 -326.5t-339 -115.5h-133v-244h-463l16 201l11 776zM549 594h43q102 0 102 104q0 102 -102 103h-43v-207z" />
<glyph unicode="&#xdf;" horiz-adv-x="1161" d="M16 690v268l76 19v8q0 102 35 181t98.5 132.5t150.5 80t191 26.5q92 0 178 -21.5t152 -66.5t105.5 -112.5t39.5 -160.5q0 -74 -24.5 -129t-56.5 -96l-33 -41v-10l37 -37q35 -35 67.5 -72.5t57 -82t40 -94.5t15.5 -107q0 -94 -33 -168t-90 -124t-137 -75.5t-174 -25.5 q-12 0 -36 1t-50.5 4t-52 6t-44.5 7l52 303q20 -4 45 -4q51 0 78.5 30.5t27.5 73.5q0 55 -33.5 94.5t-91.5 104.5q-29 35 -51.5 74t-22.5 80q0 23 4.5 41t12.5 37.5t22.5 43t34.5 58.5q16 27 25.5 49.5t9.5 46.5q0 29 -17.5 49.5t-52.5 20.5q-47 0 -68.5 -35t-21.5 -86v-981 h-415l22 178v512h-72z" />
<glyph unicode="&#xe0;" horiz-adv-x="1032" d="M25 276q0 86 34.5 147.5t97 102.5t149.5 62.5t192 27.5h57q0 59 -35 77t-104 20h-33l-21 -74h-286v309q86 18 192.5 32.5t233.5 14.5q119 0 204 -22.5t139 -73.5t79.5 -135t25.5 -209v-258l58 -10v-287h-334l-43 102h-13q-45 -47 -120.5 -83.5t-180.5 -36.5 q-129 0 -210.5 74.5t-81.5 219.5zM225 1169l88 238l506 -199l-104 -114zM401 330q0 -33 19.5 -49.5t48.5 -16.5q51 0 69.5 41t20.5 101v32q-158 0 -158 -108z" />
<glyph unicode="&#xe1;" horiz-adv-x="1032" d="M25 276q0 86 34.5 147.5t97 102.5t149.5 62.5t192 27.5h57q0 59 -35 77t-104 20h-33l-21 -74h-286v309q86 18 192.5 32.5t233.5 14.5q119 0 204 -22.5t139 -73.5t79.5 -135t25.5 -209v-258l58 -10v-287h-334l-43 102h-13q-45 -47 -120.5 -83.5t-180.5 -36.5 q-129 0 -210.5 74.5t-81.5 219.5zM221 1208l506 199l88 -238l-489 -75zM401 330q0 -33 19.5 -49.5t48.5 -16.5q51 0 69.5 41t20.5 101v32q-158 0 -158 -108z" />
<glyph unicode="&#xe2;" horiz-adv-x="1032" d="M25 276q0 86 34.5 147.5t97 102.5t149.5 62.5t192 27.5h57q0 59 -35 77t-104 20h-33l-21 -74h-286v309q86 18 192.5 32.5t233.5 14.5q119 0 204 -22.5t139 -73.5t79.5 -135t25.5 -209v-258l58 -10v-287h-334l-43 102h-13q-45 -47 -120.5 -83.5t-180.5 -36.5 q-129 0 -210.5 74.5t-81.5 219.5zM168 1200l260 182q18 14 41 19.5t39 5.5q18 0 41.5 -5t44.5 -20l258 -182l-102 -113l-242 74l-242 -74zM401 330q0 -33 19.5 -49.5t48.5 -16.5q51 0 69.5 41t20.5 101v32q-158 0 -158 -108z" />
<glyph unicode="&#xe3;" horiz-adv-x="1032" d="M25 276q0 86 34.5 147.5t97 102.5t149.5 62.5t192 27.5h57q0 59 -35 77t-104 20h-33l-21 -74h-286v309q86 18 192.5 32.5t233.5 14.5q119 0 204 -22.5t139 -73.5t79.5 -135t25.5 -209v-258l58 -10v-287h-334l-43 102h-13q-45 -47 -120.5 -83.5t-180.5 -36.5 q-129 0 -210.5 74.5t-81.5 219.5zM154 1112l32 201q23 12 73 31.5t138 19.5q25 0 60 -5t71.5 -11.5t73.5 -11.5t66 -5q86 0 133 11.5t73 23.5l-30 -201q-23 -12 -74 -31.5t-135 -19.5q-25 0 -60.5 5t-73.5 11.5t-75 11.5t-66 5q-86 0 -134 -13.5t-72 -21.5zM401 330 q0 -33 19.5 -49.5t48.5 -16.5q51 0 69.5 41t20.5 101v32q-158 0 -158 -108z" />
<glyph unicode="&#xe4;" horiz-adv-x="1032" d="M25 276q0 86 34.5 147.5t97 102.5t149.5 62.5t192 27.5h57q0 59 -35 77t-104 20h-33l-21 -74h-286v309q86 18 192.5 32.5t233.5 14.5q119 0 204 -22.5t139 -73.5t79.5 -135t25.5 -209v-258l58 -10v-287h-334l-43 102h-13q-45 -47 -120.5 -83.5t-180.5 -36.5 q-129 0 -210.5 74.5t-81.5 219.5zM248 1114v287h227v-287h-227zM401 330q0 -33 19.5 -49.5t48.5 -16.5q51 0 69.5 41t20.5 101v32q-158 0 -158 -108zM571 1114v287h226v-287h-226z" />
<glyph unicode="&#xe5;" horiz-adv-x="1032" d="M25 276q0 86 34.5 147.5t97 102.5t149.5 62.5t192 27.5h57q0 59 -35 77t-104 20h-33l-21 -74h-286v309q86 18 192.5 32.5t233.5 14.5q119 0 204 -22.5t139 -73.5t79.5 -135t25.5 -209v-258l58 -10v-287h-334l-43 102h-13q-45 -47 -120.5 -83.5t-180.5 -36.5 q-129 0 -210.5 74.5t-81.5 219.5zM283 1229q0 78 62.5 134t184.5 56q127 0 186.5 -52t59.5 -130t-63.5 -130t-190.5 -52q-123 0 -181 51t-58 123zM401 330q0 -33 19.5 -49.5t48.5 -16.5q51 0 69.5 41t20.5 101v32q-158 0 -158 -108zM489 1233q0 -10 5.5 -25.5t29.5 -15.5 q29 0 36 15.5t7 25.5q0 14 -5 31.5t-34 17.5q-25 0 -32 -17.5t-7 -31.5z" />
<glyph unicode="&#xe6;" horiz-adv-x="1509" d="M25 276q0 86 34.5 148.5t98 103.5t149.5 62.5t191 25.5h61q-6 59 -46 76t-105 21h-17l-18 -74h-287v309q27 6 68 13.5t89 14.5t99 12t98 5q125 0 221.5 -25.5t145.5 -86.5h16q55 49 136 81.5t192 32.5q152 0 243 -80.5t91 -214.5q0 -86 -35 -148.5t-98.5 -103t-149.5 -62 t-190 -26.5h-62q6 -59 46 -75.5t106 -20.5h16l19 74h286v-309q-27 -6 -67.5 -13.5t-88.5 -14.5t-99.5 -12t-98.5 -5q-53 0 -107.5 5t-103.5 18t-89 34.5t-64 54.5h-17q-31 -25 -63.5 -46t-71.5 -36.5t-86 -23.5t-109 -8q-152 0 -242.5 80.5t-90.5 213.5zM401 330 q0 -35 19.5 -50.5t48.5 -15.5q51 0 69.5 38t20.5 104v32q-158 0 -158 -108zM950 539q158 0 158 108q0 35 -19.5 50.5t-48.5 15.5q-51 0 -69.5 -38t-20.5 -104v-32z" />
<glyph unicode="&#xe7;" horiz-adv-x="892" d="M16 465q0 248 140.5 389t396.5 141q72 0 153.5 -9t145.5 -28v-370h-283l-18 100q-10 0 -16 -2q-55 -16 -83 -67.5t-28 -124.5q0 -94 52 -144.5t138 -50.5q63 0 116.5 25.5t88.5 60.5l53 -313q-18 -10 -45.5 -24.5t-66.5 -28t-89 -23.5t-112 -12v-29q68 0 108 -43t40 -102 q0 -80 -62.5 -124t-167.5 -44q-74 0 -118 8t-60 12l29 135q20 -4 44.5 -6t45.5 -2q29 0 50 6t21 27q0 16 -18 24.5t-43 8.5q-20 0 -40.5 -3.5t-33.5 -5.5l29 150q-174 35 -270.5 155.5t-96.5 313.5z" />
<glyph unicode="&#xe8;" horiz-adv-x="1001" d="M16 477q0 111 34 205t98.5 163.5t161 109.5t220.5 40q127 0 213 -41t138.5 -111.5t74 -165.5t21.5 -206v-29.5t-2 -44.5h-539q8 -72 52 -100.5t149 -28.5h10l19 70h282v-295q-23 -8 -63.5 -18.5t-93 -19.5t-114 -16t-124.5 -7q-274 0 -405.5 127t-131.5 368zM244 1169 l88 238l506 -199l-105 -114zM428 590h186l9 14q0 41 -18.5 76t-69.5 35q-49 0 -76 -38t-31 -87z" />
<glyph unicode="&#xe9;" horiz-adv-x="1001" d="M16 477q0 111 34 205t98.5 163.5t161 109.5t220.5 40q127 0 213 -41t138.5 -111.5t74 -165.5t21.5 -206v-29.5t-2 -44.5h-539q8 -72 52 -100.5t149 -28.5h10l19 70h282v-295q-23 -8 -63.5 -18.5t-93 -19.5t-114 -16t-124.5 -7q-274 0 -405.5 127t-131.5 368zM250 1208 l506 199l88 -238l-490 -75zM428 590h186l9 14q0 41 -18.5 76t-69.5 35q-49 0 -76 -38t-31 -87z" />
<glyph unicode="&#xea;" horiz-adv-x="1001" d="M16 477q0 111 34 205t98.5 163.5t161 109.5t220.5 40q127 0 213 -41t138.5 -111.5t74 -165.5t21.5 -206v-29.5t-2 -44.5h-539q8 -72 52 -100.5t149 -28.5h10l19 70h282v-295q-23 -8 -63.5 -18.5t-93 -19.5t-114 -16t-124.5 -7q-274 0 -405.5 127t-131.5 368zM184 1196 l260 182q18 14 41 19.5t39 5.5q18 0 42 -5t44 -20l258 -182l-102 -113l-242 74l-241 -74zM428 590h186l9 14q0 41 -18.5 76t-69.5 35q-49 0 -76 -38t-31 -87z" />
<glyph unicode="&#xeb;" horiz-adv-x="1001" d="M16 477q0 111 34 205t98.5 163.5t161 109.5t220.5 40q127 0 213 -41t138.5 -111.5t74 -165.5t21.5 -206v-29.5t-2 -44.5h-539q8 -72 52 -100.5t149 -28.5h10l19 70h282v-295q-23 -8 -63.5 -18.5t-93 -19.5t-114 -16t-124.5 -7q-274 0 -405.5 127t-131.5 368zM256 1112 v287h227v-287h-227zM428 590h186l9 14q0 41 -18.5 76t-69.5 35q-49 0 -76 -38t-31 -87zM580 1112v287h225v-287h-225z" />
<glyph unicode="&#xec;" horiz-adv-x="557" d="M-29 1169l88 238l506 -199l-104 -114zM31 690v287h452v-977h-420l19 176l10 504z" />
<glyph unicode="&#xed;" horiz-adv-x="557" d="M-39 1208l506 199l88 -238l-489 -75zM31 690v287h452v-977h-420l19 176l10 504z" />
<glyph unicode="&#xee;" horiz-adv-x="557" d="M-72 1200l260 182q18 14 41 19.5t39 5.5q18 0 42 -5t44 -20l258 -182l-102 -113l-242 74l-241 -74zM29 690v287h452v-977h-420l19 176l10 504z" />
<glyph unicode="&#xef;" horiz-adv-x="557" d="M-6 1114v287h227v-287h-227zM31 690v287h452v-977h-420l19 176l10 504zM317 1114v287h226v-287h-226z" />
<glyph unicode="&#xf0;" horiz-adv-x="1024" d="M16 446q0 98 28 177t75 136.5t109.5 92.5t133.5 45l17 2l53 -20l4 10l-63 86l-187 -39l-49 227l101 21l-82 133l424 90l79 -135l179 39l47 -228l-105 -22q51 -92 97.5 -173t72.5 -145q20 -51 39 -122.5t19 -165.5q0 -233 -140.5 -353t-392.5 -120q-121 0 -208 34.5 t-142 97t-82 147.5t-27 185zM418 446q0 -63 18.5 -107t69.5 -44q33 0 53.5 13.5t30.5 35t14 48t4 54.5q0 23 -2 49.5t-10 48t-24.5 36t-47.5 14.5q-68 0 -87 -43.5t-19 -104.5z" />
<glyph unicode="&#xf1;" horiz-adv-x="1071" d="M29 690v287h333l44 -103h12q45 47 113.5 84t179.5 37q147 0 218.5 -80.5t67.5 -232.5l-8 -387l58 -8v-287h-455v633q0 20 -11.5 33.5t-31.5 13.5q-41 0 -54.5 -37t-13.5 -115v-528h-403l10 680zM174 1112l33 201q23 12 73 31.5t138 19.5q25 0 59.5 -5t71.5 -11.5 t73.5 -11.5t65.5 -5q86 0 133 11.5t74 23.5l-31 -201q-23 -12 -74 -31.5t-135 -19.5q-25 0 -60.5 5t-73.5 11.5t-74.5 11.5t-65.5 5q-86 0 -134 -13.5t-73 -21.5z" />
<glyph unicode="&#xf2;" horiz-adv-x="1026" d="M16 479q0 113 33 208t98.5 164t160.5 106.5t222 37.5t217.5 -34.5t148.5 -99t86 -157t28 -204.5q0 -113 -35 -208t-101.5 -164t-165 -107.5t-223.5 -38.5q-127 0 -216 35.5t-145 100t-82 156.5t-26 205zM225 1169l88 238l506 -199l-104 -114zM424 489q0 -41 2 -76.5 t10 -63t23.5 -43t44.5 -15.5q63 0 81.5 54t18.5 144q0 82 -13 138.5t-71 56.5q-33 0 -51 -16.5t-28.5 -43t-13.5 -62.5t-3 -73z" />
<glyph unicode="&#xf3;" horiz-adv-x="1026" d="M16 479q0 113 33 208t98.5 164t160.5 106.5t222 37.5t217.5 -34.5t148.5 -99t86 -157t28 -204.5q0 -113 -35 -208t-101.5 -164t-165 -107.5t-223.5 -38.5q-127 0 -216 35.5t-145 100t-82 156.5t-26 205zM225 1208l506 199l88 -238l-489 -75zM424 489q0 -41 2 -76.5 t10 -63t23.5 -43t44.5 -15.5q63 0 81.5 54t18.5 144q0 82 -13 138.5t-71 56.5q-33 0 -51 -16.5t-28.5 -43t-13.5 -62.5t-3 -73z" />
<glyph unicode="&#xf4;" horiz-adv-x="1026" d="M16 479q0 113 33 208t98.5 164t160.5 106.5t222 37.5t217.5 -34.5t148.5 -99t86 -157t28 -204.5q0 -113 -35 -208t-101.5 -164t-165 -107.5t-223.5 -38.5q-127 0 -216 35.5t-145 100t-82 156.5t-26 205zM172 1200l260 182q18 14 41 19.5t39 5.5q18 0 42 -5t44 -20 l258 -182l-102 -113l-242 74l-242 -74zM424 489q0 -41 2 -76.5t10 -63t23.5 -43t44.5 -15.5q63 0 81.5 54t18.5 144q0 82 -13 138.5t-71 56.5q-33 0 -51 -16.5t-28.5 -43t-13.5 -62.5t-3 -73z" />
<glyph unicode="&#xf5;" horiz-adv-x="1026" d="M16 479q0 113 33 208t98.5 164t160.5 106.5t222 37.5t217.5 -34.5t148.5 -99t86 -157t28 -204.5q0 -113 -35 -208t-101.5 -164t-165 -107.5t-223.5 -38.5q-127 0 -216 35.5t-145 100t-82 156.5t-26 205zM164 1112l33 201q23 12 72.5 31.5t138.5 19.5q25 0 59.5 -5 t71 -11.5t73.5 -11.5t66 -5q86 0 133 11.5t74 23.5l-31 -201q-23 -12 -74 -31.5t-135 -19.5q-25 0 -60.5 5t-73.5 11.5t-75 11.5t-65 5q-86 0 -134.5 -13.5t-72.5 -21.5zM424 489q0 -41 2 -76.5t10 -63t23.5 -43t44.5 -15.5q63 0 81.5 54t18.5 144q0 82 -13 138.5t-71 56.5 q-33 0 -51 -16.5t-28.5 -43t-13.5 -62.5t-3 -73z" />
<glyph unicode="&#xf6;" horiz-adv-x="1026" d="M16 479q0 113 33 208t98.5 164t160.5 106.5t222 37.5t217.5 -34.5t148.5 -99t86 -157t28 -204.5q0 -113 -35 -208t-101.5 -164t-165 -107.5t-223.5 -38.5q-127 0 -216 35.5t-145 100t-82 156.5t-26 205zM240 1112v287h227v-287h-227zM424 489q0 -41 2 -76.5t10 -63 t23.5 -43t44.5 -15.5q63 0 81.5 54t18.5 144q0 82 -13 138.5t-71 56.5q-33 0 -51 -16.5t-28.5 -43t-13.5 -62.5t-3 -73zM563 1112v287h225v-287h-225z" />
<glyph unicode="&#xf7;" d="M102 461v231h838v-231h-838zM332 236q0 80 54 130t146 50q86 0 132.5 -46t46.5 -126q0 -78 -52.5 -127t-138.5 -49q-92 0 -140 45t-48 123zM332 901q0 80 54 130t146 50q86 0 132.5 -46t46.5 -126q0 -78 -52.5 -127t-138.5 -49q-92 0 -140 45t-48 123z" />
<glyph unicode="&#xf8;" horiz-adv-x="1026" d="M16 479q0 113 33 208t98.5 164t160.5 106.5t222 37.5q61 0 113.5 -8t97.5 -24l62 100h102l-84 -139q98 -63 143.5 -171t45.5 -253q0 -113 -35 -208t-101.5 -164t-165 -107.5t-223.5 -38.5q-59 0 -111 8t-95 24l-58 -96h-102l80 135q-96 61 -139.5 170t-43.5 256zM424 430 l143 238q-20 16 -47 16q-33 0 -51 -16.5t-28.5 -43t-13.5 -62.5t-3 -73v-59zM455 311q18 -20 49 -20q63 0 81.5 54t18.5 144v34t-2 34z" />
<glyph unicode="&#xf9;" horiz-adv-x="1071" d="M25 690v287h454v-629q0 -51 41 -51t55.5 37t14.5 115v528h403l-10 -682l59 -8v-287h-344l-32 102h-13q-45 -51 -114.5 -85.5t-180.5 -34.5q-147 0 -217.5 81.5t-66.5 233.5l8 383zM240 1169l88 238l506 -199l-105 -114z" />
<glyph unicode="&#xfa;" horiz-adv-x="1071" d="M25 690v287h454v-629q0 -51 41 -51t55.5 37t14.5 115v528h403l-10 -682l59 -8v-287h-344l-32 102h-13q-45 -51 -114.5 -85.5t-180.5 -34.5q-147 0 -217.5 81.5t-66.5 233.5l8 383zM229 1208l506 199l88 -238l-489 -75z" />
<glyph unicode="&#xfb;" horiz-adv-x="1071" d="M25 690v287h454v-629q0 -51 41 -51t55.5 37t14.5 115v528h403l-10 -682l59 -8v-287h-344l-32 102h-13q-45 -51 -114.5 -85.5t-180.5 -34.5q-147 0 -217.5 81.5t-66.5 233.5l8 383zM193 1198l260 182q18 14 40.5 19.5t38.5 5.5q18 0 42 -5t44 -20l259 -182l-103 -113 l-242 74l-241 -74z" />
<glyph unicode="&#xfc;" horiz-adv-x="1071" d="M25 690v287h454v-629q0 -51 41 -51t55.5 37t14.5 115v528h403l-10 -682l59 -8v-287h-344l-32 102h-13q-45 -51 -114.5 -85.5t-180.5 -34.5q-147 0 -217.5 81.5t-66.5 233.5l8 383zM260 1112v287h227v-287h-227zM584 1112v287h225v-287h-225z" />
<glyph unicode="&#xfd;" horiz-adv-x="1005" d="M6 686v291h416l86 -561h12v73l39 312v176h447l-283 -959q-61 -209 -206.5 -291.5t-369.5 -82.5q-18 0 -40.5 1t-40.5 3l-43 301q23 -4 43 -5t55 -1q72 0 119 26.5t55 85.5l6 43l-207 574zM215 1208l506 199l88 -238l-490 -75z" />
<glyph unicode="&#xfe;" horiz-adv-x="1032" d="M14 1096v286h447v-442l8 -4q39 27 89 44t106 17q90 0 156.5 -33.5t109.5 -93t64.5 -141.5t21.5 -176q0 -121 -34 -222.5t-101.5 -175t-171 -114.5t-240.5 -41h-10v-59l82 -13v-268h-498l31 182v1243zM449 361.5q0 -19.5 2 -33.5q0 -16 2 -29h12q41 0 68.5 17.5t45 46 t25.5 66.5t8 79q0 78 -16 125t-57 47q-33 0 -50.5 -24.5t-26.5 -62.5t-11 -86t-2 -97v-48.5z" />
<glyph unicode="&#xff;" horiz-adv-x="1005" d="M6 686v291h416l86 -561h12v73l39 312v176h447l-283 -959q-61 -209 -206.5 -291.5t-369.5 -82.5q-18 0 -40.5 1t-40.5 3l-43 301q23 -4 43 -5t55 -1q72 0 119 26.5t55 85.5l6 43l-207 574zM225 1112v287h228v-287h-228zM549 1112v287h225v-287h-225z" />
<glyph unicode="&#x152;" horiz-adv-x="1669" d="M16 633q0 156 41 278.5t121 208.5t200 131t277 45h965v-354h-479v-141h446v-314h-444v-151h495v-336h-1048q-154 0 -262.5 42t-178 123t-101.5 198.5t-32 269.5zM485 639q0 -68 5.5 -122t20.5 -91t44 -57.5t76 -20.5h67v602h-26q-59 0 -95 -24.5t-56.5 -67.5t-28 -99.5 t-7.5 -119.5z" />
<glyph unicode="&#x153;" horiz-adv-x="1536" d="M16 477q0 113 33 208t98.5 164t160.5 107.5t222 38.5q80 0 168 -24.5t144 -89.5h16q55 49 136 81.5t192 32.5q152 0 243 -80.5t91 -214.5q0 -86 -35 -148.5t-98.5 -103t-149.5 -62t-190 -26.5h-62q6 -59 46 -75.5t106 -20.5h16l18 74h287v-305q-53 -18 -148.5 -33.5 t-205.5 -15.5q-92 0 -174 18t-137 64h-13q-57 -37 -133 -60.5t-162 -23.5q-127 0 -216 34.5t-145 99t-82 157t-26 204.5zM424 489q0 -41 2 -76.5t10 -63t23.5 -43t44.5 -15.5q63 0 81.5 54t18.5 144q0 82 -13 138.5t-71 56.5q-33 0 -51 -16.5t-28.5 -43t-13.5 -62.5t-3 -73z M981 539q158 0 158 108q0 35 -19.5 50.5t-48.5 15.5q-51 0 -69.5 -38t-20.5 -104v-32z" />
<glyph unicode="&#x178;" horiz-adv-x="1134" d="M6 989v307h461l78 -444l6 -82h10l6 82l39 248l21 196h508l-355 -870v-426h-461v426l-210 547zM285 1380v287h227v-287h-227zM608 1380v287h226v-287h-226z" />
<glyph unicode="&#x2c6;" horiz-adv-x="1034" d="M176 1182l260 182q18 14 41 19.5t39 5.5q18 0 42 -5.5t44 -19.5l258 -182l-102 -113l-242 74l-242 -74z" />
<glyph unicode="&#x2dc;" horiz-adv-x="1034" d="M158 1112l32 201q23 12 73 31.5t138 19.5q25 0 60 -5t71.5 -11.5t73.5 -11.5t66 -5q86 0 133 11.5t74 23.5l-31 -201q-23 -12 -74 -31.5t-135 -19.5q-25 0 -60.5 5t-73.5 11.5t-75 11.5t-65 5q-86 0 -134.5 -13.5t-72.5 -21.5z" />
<glyph unicode="&#x2000;" horiz-adv-x="851" />
<glyph unicode="&#x2001;" horiz-adv-x="1702" />
<glyph unicode="&#x2002;" horiz-adv-x="851" />
<glyph unicode="&#x2003;" horiz-adv-x="1702" />
<glyph unicode="&#x2004;" horiz-adv-x="567" />
<glyph unicode="&#x2005;" horiz-adv-x="425" />
<glyph unicode="&#x2006;" horiz-adv-x="283" />
<glyph unicode="&#x2007;" horiz-adv-x="283" />
<glyph unicode="&#x2008;" horiz-adv-x="212" />
<glyph unicode="&#x2009;" horiz-adv-x="340" />
<glyph unicode="&#x200a;" horiz-adv-x="94" />
<glyph unicode="&#x2010;" horiz-adv-x="624" d="M37 381v231h553v-231h-553z" />
<glyph unicode="&#x2011;" horiz-adv-x="624" d="M37 381v231h553v-231h-553z" />
<glyph unicode="&#x2012;" horiz-adv-x="624" d="M37 381v231h553v-231h-553z" />
<glyph unicode="&#x2013;" horiz-adv-x="1024" d="M0 381v231h1024v-231h-1024z" />
<glyph unicode="&#x2014;" horiz-adv-x="2048" d="M0 381v231h2048v-231h-2048z" />
<glyph unicode="&#x2018;" horiz-adv-x="442" d="M31 1090q0 59 22.5 104t52.5 90l87 125l141 -16l-37 -150q39 -12 76 -42t37 -99q0 -84 -55.5 -135.5t-141.5 -51.5t-134 44.5t-48 130.5z" />
<glyph unicode="&#x2019;" horiz-adv-x="442" d="M31 1124q0 84 55 135.5t141 51.5t134.5 -44t48.5 -130q0 -59 -22.5 -104.5t-53.5 -90.5l-86 -125l-142 17l37 149q-18 6 -38.5 15.5t-37 25.5t-26.5 41t-10 59z" />
<glyph unicode="&#x201a;" horiz-adv-x="442" d="M31 143q0 84 55 135.5t141 51.5t134.5 -44t48.5 -130q0 -59 -22.5 -104.5t-53.5 -90.5l-86 -125l-142 17l37 149q-18 6 -38.5 15.5t-37 25.5t-26.5 41t-10 59z" />
<glyph unicode="&#x201c;" horiz-adv-x="884" d="M31 1090q0 59 22.5 104t52.5 90l87 125l141 -16l-37 -150q39 -12 76 -42t37 -99q0 -84 -55.5 -135.5t-141.5 -51.5t-134 44.5t-48 130.5zM473 1090q0 59 22.5 104t53.5 90l86 125l141 -16l-37 -150q39 -12 76 -42t37 -99q0 -84 -55.5 -135.5t-141.5 -51.5t-134 44.5 t-48 130.5z" />
<glyph unicode="&#x201d;" horiz-adv-x="884" d="M31 1124q0 84 55 135.5t141 51.5t134.5 -44t48.5 -130q0 -59 -22.5 -104.5t-53.5 -90.5l-86 -125l-142 17l37 149q-18 6 -38.5 15.5t-37 25.5t-26.5 41t-10 59zM473 1124q0 84 55.5 135.5t141.5 51.5t134 -44t48 -130q0 -59 -22.5 -104.5t-53.5 -90.5l-86 -125l-141 17 l37 149q-18 6 -39 15.5t-37 25.5t-26.5 41t-10.5 59z" />
<glyph unicode="&#x201e;" horiz-adv-x="884" d="M31 143q0 84 55 135.5t141 51.5t134.5 -44t48.5 -130q0 -59 -22.5 -104.5t-53.5 -90.5l-86 -125l-142 17l37 149q-18 6 -38.5 15.5t-37 25.5t-26.5 41t-10 59zM473 143q0 84 55.5 135.5t141.5 51.5t134 -44t48 -130q0 -59 -22.5 -104.5t-53.5 -90.5l-86 -125l-141 17 l37 149q-18 6 -39 15.5t-37 25.5t-26.5 41t-10.5 59z" />
<glyph unicode="&#x2022;" horiz-adv-x="557" d="M31 563q0 104 70.5 169t187.5 65q115 0 175 -59.5t60 -166.5q0 -104 -68.5 -166.5t-179.5 -62.5q-119 0 -182 58.5t-63 162.5z" />
<glyph unicode="&#x2026;" horiz-adv-x="1323" d="M31 150q0 80 54 130t146 50q86 0 132.5 -46t46.5 -126q0 -78 -52.5 -127t-138.5 -49q-92 0 -140 45t-48 123zM471 150q0 80 54.5 130t146.5 50q86 0 132 -46t46 -126q0 -78 -52.5 -127t-138.5 -49q-92 0 -140 45t-48 123zM913 150q0 80 54.5 130t146.5 50q86 0 132 -46 t46 -126q0 -78 -52 -127t-138 -49q-92 0 -140.5 45t-48.5 123z" />
<glyph unicode="&#x202f;" horiz-adv-x="340" />
<glyph unicode="&#x2039;" horiz-adv-x="665" d="M14 553l451 485l180 -172l-301 -313l303 -315l-184 -170z" />
<glyph unicode="&#x203a;" horiz-adv-x="665" d="M18 238l304 315l-302 313l181 172l450 -485l-448 -485z" />
<glyph unicode="&#x2044;" horiz-adv-x="301" d="M-205 0l586 1190h186l-583 -1190h-189z" />
<glyph unicode="&#x205f;" horiz-adv-x="425" />
<glyph unicode="&#x2070;" horiz-adv-x="595" d="M20 891q0 141 70 225t213 84t207.5 -79t64.5 -220t-75.5 -227t-218.5 -86t-202 81t-59 222zM244 893q0 -51 7 -91t44 -40q35 0 45 42t10 93q0 53 -7 90t-42 37q-37 0 -47 -39t-10 -92z" />
<glyph unicode="&#x2074;" horiz-adv-x="573" d="M12 690v166l201 334h285v-338h61v-162h-61v-94h-217v94h-269zM180 854l4 -6l29 4h74v143l4 35h-8l-7 -33l-69 -123z" />
<glyph unicode="&#x2075;" horiz-adv-x="528" d="M27 612v193h178l8 -45h10q31 0 49.5 12t18.5 35q0 25 -34 40t-130 15h-68v328h418v-186l-98 12h-111v-35q47 -2 91 -13.5t79 -35t56.5 -58t21.5 -86.5q0 -57 -24.5 -96t-64.5 -63.5t-92 -34.5t-110 -10q-51 0 -104 8t-94 20z" />
<glyph unicode="&#x2076;" horiz-adv-x="587" d="M31 887q0 141 78.5 227t248.5 86q20 0 47 -3t53.5 -7t48 -9t34.5 -10v-188h-183l-4 43h-8q-31 0 -54.5 -15.5t-27.5 -49.5h19q61 0 114.5 -8.5t92 -28t61 -54t22.5 -88.5q0 -88 -71.5 -142t-192.5 -54q-72 0 -125 22.5t-87 62.5t-50 95t-16 121zM252 854q0 -47 12 -76.5 t49 -29.5q18 0 31.5 13t13.5 34q0 35 -28.5 47t-63.5 12h-14z" />
<glyph unicode="&#x2077;" horiz-adv-x="516" d="M8 952v238h498v-174q-55 -45 -88 -100.5t-50.5 -110.5t-23.5 -108.5t-6 -92.5v-8h-225v8q0 127 36.5 221.5t114.5 171.5l37 27l-2 8l-43 -16h-59l-7 -64h-182z" />
<glyph unicode="&#x2078;" horiz-adv-x="583" d="M14 752q0 43 26 77.5t66 55.5v8q-29 16 -52 46t-23 73q0 51 23.5 87t60.5 58.5t84 32.5t96 10q51 0 99 -9t86 -28.5t60.5 -52.5t22.5 -80t-24.5 -77.5t-53.5 -47.5v-8q29 -16 53.5 -47t24.5 -78q0 -49 -23.5 -84t-61.5 -58.5t-88 -33.5t-105 -10q-53 0 -102.5 7 t-86.5 26.5t-59.5 51t-22.5 81.5zM207 786q0 -23 19.5 -33t47.5 -10q25 0 47.5 10.5t22.5 30.5q0 39 -61 52l-21 4q-25 -8 -40 -22.5t-15 -31.5zM246 1006q0 -37 69 -50l11 -2q20 8 32.5 22.5t12.5 24.5q0 23 -18.5 34.5t-45.5 11.5q-23 0 -42 -10.5t-19 -30.5z" />
<glyph unicode="&#x2079;" horiz-adv-x="589" d="M16 1004q0 88 72 142t195 54q145 0 211.5 -85t66.5 -216q0 -141 -77.5 -228t-250.5 -87q-23 0 -49 3t-53 7t-48.5 9t-33.5 9v189h178l9 -43h10q35 0 56.5 15t25.5 50h-19q-63 0 -116.5 8.5t-92.5 28t-61.5 54t-22.5 90.5zM231 991q0 -35 30 -47t65 -12h14 q0 47 -12.5 76.5t-46.5 29.5q-23 0 -36.5 -13t-13.5 -34z" />
<glyph unicode="&#x207d;" horiz-adv-x="292" d="M37 905q0 113 37 228.5t96 199.5l104 -71q-37 -59 -63.5 -150.5t-26.5 -206.5q0 -113 27 -205t63 -151l-108 -70q-29 41 -52.5 92.5t-41 106.5t-26.5 113.5t-9 113.5z" />
<glyph unicode="&#x207e;" horiz-adv-x="292" d="M18 549q37 59 64 151.5t27 204.5q0 115 -27 206t-64 151l105 71q59 -84 96 -199.5t37 -228.5q0 -55 -9 -113.5t-26.5 -113.5t-41 -106.5t-52.5 -92.5z" />
<glyph unicode="&#x207f;" horiz-adv-x="651" d="M16 1016v174h203l27 -62h8q29 29 70 51.5t108 22.5q90 0 133 -49t41 -141l-4 -238l35 -4v-174h-279v385q0 29 -26 29q-23 0 -31 -22.5t-8 -69.5v-322h-246l6 414z" />
<glyph unicode="&#x20ac;" d="M14 326l45 178h70v20v27.5t2 28.5h-117l45 178h105q57 164 197.5 254t355.5 90q104 0 171.5 -16.5t108.5 -26.5l-49 -256q-35 10 -76 15t-75 5q-76 0 -123 -17.5t-80 -47.5h278l-45 -178h-301q-2 -4 -2 -13v-30v-23q0 -6 2 -10h346l-45 -178h-245q29 -29 69.5 -46.5 t112.5 -17.5q47 0 102.5 13.5t96.5 39.5l45 -254q-47 -27 -129 -53t-209 -26q-180 0 -318.5 87t-193.5 257h-144z" />
<glyph unicode="&#x2122;" horiz-adv-x="1060" d="M14 1249v154h658l28 -270v-37h9l2 37l41 270h268l-4 -90v-457h-193l25 346l4 27h-8l-74 -373h-137l-51 371h-9l5 -25v-346h-199l12 92l17 301h-101v-391h-186l6 92v299h-113z" />
<glyph unicode="&#x2153;" horiz-adv-x="1261" d="M20 1087q45 6 101.5 34t89.5 69h182l-6 -434h119v-160h-467v160h139l4 176l8 47l-8 2l-20 -31q-16 -10 -47 -19t-54 -13zM190 0l697 1190h188l-696 -1190h-189zM717 199q16 -6 72.5 -22.5t134.5 -16.5q37 0 61.5 8t24.5 33t-26 32t-66 7h-95v116h95q41 0 65.5 12.5 t24.5 37.5q0 23 -27 30.5t-61 7.5l-5 -47h-182v189q35 10 91.5 17t121.5 7q55 0 107.5 -8t92.5 -28.5t63.5 -53.5t23.5 -84q0 -41 -22.5 -75.5t-59.5 -53.5v-8q27 -10 57.5 -40t30.5 -83t-26.5 -89t-69.5 -57.5t-98.5 -29.5t-112.5 -8q-51 0 -99.5 5t-80.5 15z" />
<glyph unicode="&#x2154;" horiz-adv-x="1308" d="M25 594v164q92 45 145 76.5t81 55t36 41t8 34.5q0 53 -66 59l-14 2l-14 -86h-176v240q16 4 74.5 12t123.5 8q55 0 107.5 -12t94.5 -38t67.5 -66t25.5 -95q0 -72 -40 -123t-138 -110l2 -8l45 20h59l99 10v-184h-520zM223 0l697 1190h188l-696 -1190h-189zM764 199 q16 -6 72.5 -22.5t134.5 -16.5q37 0 61.5 8t24.5 33t-25.5 32t-66.5 7h-95v116h95q41 0 65.5 12.5t24.5 37.5q0 23 -27 30.5t-61 7.5l-4 -47h-183v189q35 10 91.5 17t121.5 7q55 0 107.5 -8t92.5 -28.5t63.5 -53.5t23.5 -84q0 -41 -22.5 -75.5t-59.5 -53.5v-8 q27 -10 57.5 -40t30.5 -83t-26.5 -89t-69.5 -57.5t-98.5 -29.5t-112.5 -8q-51 0 -99.5 5t-80.5 15z" />
<glyph unicode="&#x215b;" horiz-adv-x="1267" d="M20 1087q45 6 101.5 34t89.5 69h182l-6 -434h119v-160h-467v160h139l4 176l8 47l-8 2l-20 -31q-16 -10 -47 -19t-54 -13zM190 0l697 1192h188l-696 -1192h-189zM698 158q0 43 26 77.5t67 55.5v8q-29 16 -52.5 46t-23.5 73q0 51 23.5 87t60.5 58.5t84 32.5t96 10 q51 0 99 -9t86 -28.5t60.5 -52.5t22.5 -80t-24.5 -77.5t-53.5 -47.5v-8q29 -16 53.5 -47t24.5 -78q0 -49 -23.5 -84t-61.5 -58.5t-88 -33.5t-105 -10q-53 0 -102.5 7t-86.5 26.5t-59.5 51.5t-22.5 81zM891 193q0 -23 19.5 -33t47.5 -10q25 0 47.5 10t22.5 30q0 31 -65 54 l-17 2q-25 -8 -40 -22.5t-15 -30.5zM930 412q0 -29 69 -50l11 -2q20 8 32.5 22.5t12.5 25.5q0 23 -18.5 34t-45.5 11q-23 0 -42 -10.5t-19 -30.5z" />
<glyph unicode="&#x215c;" horiz-adv-x="1243" d="M10 788q16 -6 72.5 -22t134.5 -16q37 0 61.5 8t24.5 33t-25.5 31.5t-66.5 6.5h-94v117h94q41 0 65.5 12.5t24.5 36.5q0 23 -26.5 31t-61.5 8l-4 -47h-182v189q35 10 91 17t122 7q55 0 107 -8t92 -28.5t63.5 -53.5t23.5 -84q0 -41 -22.5 -76t-59.5 -53v-8q27 -10 57.5 -40 t30.5 -83t-26.5 -89t-69.5 -57.5t-98 -29.5t-113 -8q-51 0 -99 5t-81 15zM166 0l696 1190h189l-697 -1190h-188zM676 158q0 43 25.5 77.5t66.5 55.5v8q-29 16 -52.5 46t-23.5 73q0 51 23.5 87t60.5 58.5t84 32.5t96 10q51 0 99.5 -9t86.5 -28.5t60.5 -52.5t22.5 -80 t-24.5 -77.5t-53.5 -47.5v-8q29 -16 53.5 -47t24.5 -78q0 -49 -23.5 -84t-61.5 -58.5t-88.5 -33.5t-105.5 -10q-53 0 -102 7t-86 26.5t-59.5 51.5t-22.5 81zM868 193q0 -23 19.5 -33t48.5 -10q25 0 47.5 10t22.5 30q0 39 -62 52l-20 4q-25 -8 -40.5 -22.5t-15.5 -30.5z M907 412q0 -37 70 -50l10 -2q20 8 32.5 22.5t12.5 25.5q0 23 -18.5 34t-44.5 11q-23 0 -42.5 -10.5t-19.5 -30.5z" />
<glyph unicode="&#x215d;" horiz-adv-x="1259" d="M45 612v193h178l8 -45h11q31 0 49 12t18 35q0 25 -33.5 40t-130.5 15h-67v328h418v-186l-99 10h-110v-33q47 -2 91 -13.5t79 -35t56.5 -58t21.5 -86.5q0 -57 -25 -96t-64.5 -63.5t-92 -34.5t-109.5 -10q-51 0 -104.5 8t-94.5 20zM182 0l697 1190h188l-696 -1190h-189z M690 158q0 43 25.5 77.5t66.5 55.5v8q-29 16 -52 46t-23 73q0 51 23.5 87t60 58.5t84 32.5t96.5 10q51 0 99 -9t86 -28.5t60.5 -52.5t22.5 -80t-24.5 -77.5t-53.5 -47.5v-8q29 -16 53.5 -47t24.5 -78q0 -49 -23.5 -84t-61.5 -58.5t-88 -33.5t-105 -10q-53 0 -102.5 7 t-86.5 26.5t-59.5 51.5t-22.5 81zM883 193q0 -23 19.5 -33t47.5 -10q25 0 47.5 10t22.5 30q0 39 -62 52l-20 4q-25 -8 -40 -22.5t-15 -30.5zM922 412q0 -37 69 -50l10 -2q20 8 33 22.5t13 25.5q0 23 -18.5 34t-45.5 11q-23 0 -42 -10.5t-19 -30.5z" />
<glyph unicode="&#x215e;" horiz-adv-x="1167" d="M8 952v238h498v-174q-55 -45 -88 -100.5t-50.5 -110.5t-23.5 -108.5t-6 -92.5v-8h-225v8q0 127 36.5 221.5t114.5 171.5l39 29l-4 6l-43 -16h-59l-7 -64h-182zM74 0l694 1192h188l-696 -1192h-186zM598 158q0 43 25.5 77.5t66.5 55.5v8q-29 16 -52.5 46t-23.5 73 q0 51 24 87t60.5 58.5t83.5 32.5t97 10q51 0 99 -9t86 -28.5t60.5 -52.5t22.5 -80t-24.5 -77.5t-53.5 -47.5v-8q29 -16 53.5 -47t24.5 -78q0 -49 -23.5 -84t-61.5 -58.5t-88 -33.5t-106 -10q-53 0 -102 7t-86 26.5t-59.5 51.5t-22.5 81zM791 193q0 -23 19 -33t48 -10 q25 0 47.5 10t22.5 30q0 39 -62 52l-20 4q-25 -8 -40 -22.5t-15 -30.5zM829 412q0 -37 70 -50l10 -2q20 8 32.5 22.5t12.5 25.5q0 23 -18 34t-45 11q-23 0 -42.5 -10.5t-19.5 -30.5z" />
<glyph unicode="&#x2160;" horiz-adv-x="620" d="M-4 0v88h98l8 98v809h-106v88h629v-88h-107v-907h107v-88h-629z" />
<glyph unicode="&#x2164;" horiz-adv-x="1153" d="M-4 0v88h256l-193 907h-63v88h1161v-88h-70l-196 -907h266v-88h-1161zM492 995l73 -626l4 -74h13v74l65 528v98h-155z" />
<glyph unicode="&#x2169;" horiz-adv-x="1122" d="M-4 0v88h33l221 467l-201 440h-53v88h1130v-88h-59l-199 -440l222 -467h36v-88h-1130zM485 88h154l-66 201l-8 51h-10l-6 -51l-43 -121zM485 995l60 -209l10 -63h10l8 63l35 125l13 84h-136z" />
<glyph unicode="&#x216c;" horiz-adv-x="843" d="M-4 0v88h98l8 98v809h-106v88h852v-88h-330v-678h273v-229h57v-88h-852z" />
<glyph unicode="&#x216d;" horiz-adv-x="1007" d="M-4 0v88h237q-92 55 -149 163.5t-57 272.5q0 166 62.5 284t166.5 187h-260v88h1016v-88h-92l-62 -272q-29 18 -72 33.5t-100 15.5q-104 0 -172 -62.5t-68 -172.5q0 -98 58.5 -162t163.5 -64q63 0 121.5 28t97.5 87l78 -338h47v-88h-1016z" />
<glyph unicode="&#x216e;" horiz-adv-x="1214" d="M-4 0v88h145l9 98l12 600l-80 17v192h-86v88h1221v-88h-263q104 -66 158.5 -178t54.5 -278q0 -317 -200 -451h250v-88h-1221zM565 307h10q47 0 80 11.5t53.5 37t30 69.5t9.5 112t-9.5 113.5t-29 73.5t-52 39t-82.5 11h-10v-467z" />
<glyph unicode="&#x216f;" horiz-adv-x="1554" d="M-4 0v88h43l16 98l54 809h-113v88h1563v-88h-105l-6 -98l53 -809h58v-88h-1563zM457 88h155l-116 596l-7 53h-10zM694 995l76 -487l4 -59h10v59l74 487h-164zM942 88h154l-21 647h-10l-6 -47z" />
<glyph unicode="&#x25fc;" horiz-adv-x="972" d="M0 0v973h973v-973h-973z" />
<glyph horiz-adv-x="2254" d="M16 623q0 156 44 283.5t127 219t204 140.5t277 49q51 0 107 -4t108.5 -10.5t94.5 -13.5t64 -13v-471h-325l-19 145q-4 0 -7 -1t-7 -1q-104 -14 -152.5 -89t-48.5 -200q0 -166 87 -239.5t259 -73.5q84 0 158 12.5t133 26.5l10 913h429v-460h153v460h463l-18 -200l-15 -777 l82 -12v-307h-512v492h-153v-410q-188 -39 -382 -69.5t-415 -30.5q-164 0 -301 33.5t-235.5 110.5t-154 198.5t-55.5 298.5z" />
<glyph horiz-adv-x="2103" d="M16 623q0 156 44 283.5t127 219t204 140.5t277 49q59 0 116.5 -4t107.5 -10.5t89 -12.5t61 -10v-475h-325l-19 145q-4 0 -9 -1t-9 -1q-104 -14 -150.5 -89t-46.5 -200q0 -166 87 -239.5t259 -73.5q78 0 153 9t128 20v1009h506v-286l-105 -17v-180h13q27 35 91 66.5 t140 31.5q143 0 211 -85t64 -230l-9 -387l58 -8v-287h-455v635q0 45 -43 45q-41 0 -54.5 -37t-13.5 -108v-469q-168 -35 -354 -59.5t-397 -24.5q-164 0 -301 33.5t-235.5 110.5t-154 198.5t-55.5 298.5z" />
<glyph horiz-adv-x="1894" d="M16 475q0 119 35 215t103.5 164t170 104.5t232.5 36.5q41 0 88 -3t89 -7t75 -9t43 -7v-381h-287l-14 94l-21 -4q-57 -23 -81.5 -69t-24.5 -111q0 -98 56.5 -150.5t172.5 -52.5q27 0 62 2t69.5 5t65.5 8t51 12v1060h506v-286l-104 -17v-180h12q27 35 90 66.5t139 31.5 q143 0 210 -85t67 -230l-9 -387l58 -8v-287h-455v635q0 45 -45 45q-41 0 -53 -38t-12 -116v-460q-63 -12 -144.5 -27.5t-174.5 -28t-194.5 -20.5t-203.5 -8q-125 0 -230.5 27.5t-181.5 88t-118 153.5t-42 224z" />
<glyph horiz-adv-x="2181" d="M16 623q0 156 44 283.5t127 219t204 140.5t277 49q135 0 233 -13.5t141 -23.5v-475h-325l-19 145q-4 0 -9 -1t-9 -1q-104 -14 -150.5 -89t-46.5 -200q0 -166 87 -239.5t259 -73.5q96 0 164 12.5t127 26.5l8 700h404v-403h137v403h430l-14 -188l-12 -598l77 -10v-287h-481 v412h-137v-336q-90 -18 -179 -35.5t-183.5 -30t-195 -20.5t-212.5 -8q-164 0 -301 33.5t-235.5 110.5t-154 198.5t-55.5 298.5z" />
<glyph horiz-adv-x="2052" d="M16 522q0 133 41 240.5t116 182.5t182.5 116t242.5 41q119 0 200 -11.5t115 -15.5v-405h-288l-15 102h-16q-82 0 -118 -67.5t-36 -159.5q0 -129 72 -185.5t205 -56.5q86 0 158.5 14.5t113.5 26.5l10 739h404v-403h137v403h430l-14 -188l-12 -598l77 -10v-287h-481v412 h-137v-336q-121 -27 -311.5 -59.5t-450.5 -32.5q-145 0 -261 30.5t-197 96t-124 168t-43 243.5z" />
<glyph horiz-adv-x="1122" d="M0 0l203 786l-70 11v286h764l147 -784l72 -12v-287h-459v150l-4 26h-192l-29 -176h-432zM504 451h125l-41 329l-4 70h-11l-6 -70z" />
<glyph horiz-adv-x="1122" d="M0 0l203 786l-70 17v280h764l147 -784l72 -12v-287h-459v150l-4 26h-192l-29 -176h-432zM223 1294l506 199l88 -238l-489 -75zM504 451h125l-41 329l-4 70h-11l-6 -70z" />
<glyph horiz-adv-x="1122" d="M0 0l203 786l-70 11v286h764l147 -784l72 -12v-287h-459v150l-4 26h-192l-29 -176h-432zM221 1284l260 182q18 14 41 19.5t39 5.5q18 0 42 -5t44 -20l258 -182l-102 -113l-242 74l-242 -74zM504 451h125l-41 329l-4 70h-11l-6 -70z" />
<glyph horiz-adv-x="1122" d="M0 0l203 786l-70 11v286h764l147 -784l72 -12v-287h-459v150l-4 26h-192l-29 -176h-432zM289 1202v285h227v-285h-227zM504 451h125l-41 329l-4 70h-11l-6 -70zM610 1202v285h228v-285h-228z" />
<glyph horiz-adv-x="1447" d="M0 0l203 786l-70 17v280h1198l23 -297h-385l12 -129h356l17 -217h-357l15 -141h397l25 -299h-791l12 147l-4 29h-202l-31 -176h-418zM498 451h135l-37 325l-4 70h-33l-4 -70z" />
<glyph horiz-adv-x="1122" d="M0 0l203 786l-70 17v280h764l147 -784l72 -12v-287h-459v150l-4 26h-192l-29 -176h-432zM266 1255l88 238l506 -199l-104 -114zM504 451h125l-41 329l-4 70h-11l-6 -70z" />
<glyph horiz-adv-x="1122" d="M0 0l203 786l-70 11v286h764l147 -784l72 -12v-287h-459v150l-4 26h-192l-29 -176h-432zM317 1327q0 78 60.5 129t183.5 51q129 0 189.5 -51t60.5 -129t-60.5 -126t-189.5 -48q-123 0 -183.5 51t-60.5 123zM504 451h125l-41 329l-4 70h-11l-6 -70zM524 1327 q0 -10 7.5 -23.5t29.5 -13.5q29 0 36 13.5t7 23.5q0 12 -7 28.5t-36 16.5q-23 0 -30 -16.5t-7 -28.5z" />
<glyph horiz-adv-x="1122" d="M0 0l203 786l-70 11v286h764l147 -784l72 -12v-287h-459v150l-4 26h-192l-29 -176h-432zM205 1223l33 200q23 12 72.5 32t135.5 20q25 0 61 -5.5t72.5 -11.5t72.5 -11t65 -5q86 0 134 12t73 23l-29 -201q-23 -12 -75 -32.5t-136 -20.5q-25 0 -59.5 5t-73.5 12t-76 12 t-65 5q-84 0 -132.5 -13t-72.5 -21zM504 451h125l-41 329l-4 70h-11l-6 -70z" />
<glyph horiz-adv-x="1105" d="M31 801v282h651q82 0 151.5 -16t121 -52t80 -92.5t28.5 -136.5q0 -86 -42 -143t-95 -76v-8q61 -29 108 -90t47 -166q0 -141 -92 -222t-272 -81h-635l16 186l13 600zM510 659h76q29 0 45 19.5t16 48.5t-16.5 49.5t-52.5 20.5h-68v-138zM512 295h63q39 0 61.5 19.5 t22.5 58.5t-25.5 57.5t-60.5 18.5h-61v-154z" />
<glyph horiz-adv-x="942" d="M16 522q0 285 157 432.5t437 147.5q115 0 187.5 -15.5t115.5 -27.5v-389h-288l-13 90h-18q-78 -10 -116 -76t-38 -154q0 -98 53.5 -158.5t151.5 -60.5q76 0 134.5 35t92.5 82l60 -342q-59 -43 -154.5 -73.5t-224.5 -30.5q-113 0 -210 30.5t-170 95t-115 167t-42 247.5z " />
<glyph horiz-adv-x="942" d="M16 522q0 285 157 432.5t437 147.5q115 0 187.5 -10.5t115.5 -16.5v-405h-288l-13 90l-18 -2q-78 -10 -116 -75t-38 -153q0 -98 53.5 -158.5t151.5 -60.5q76 0 134.5 35t92.5 82l60 -342q-49 -37 -130 -63.5t-184 -36.5v-31q68 0 108 -40t40 -99q0 -80 -62.5 -124 t-166.5 -44q-74 0 -118 8t-61 12l29 135q20 -4 45 -6t45 -2q29 0 50.5 6t21.5 27q0 16 -19.5 21.5t-42.5 5.5q-20 0 -39.5 -3.5t-33.5 -5.5l26 142q-94 10 -172 46t-134 101.5t-87 160.5t-31 226z" />
<glyph horiz-adv-x="1132" d="M31 803v280h504q276 0 428.5 -133t152.5 -411q0 -264 -137 -401.5t-416 -137.5h-479l14 186l13 600zM514 307h10q47 0 80 11.5t53.5 37t29.5 69.5t9 112t-9 113.5t-28.5 73.5t-52.5 39t-82 11h-10v-467z" />
<glyph horiz-adv-x="993" d="M31 803v280h917v-297h-434v-127h406v-217h-406v-143h449v-299h-879l14 184l13 602z" />
<glyph horiz-adv-x="993" d="M31 803v280h917v-297h-434v-127h406v-217h-406v-143h449v-299h-879l14 184l13 602zM223 1294l506 199l88 -238l-489 -75z" />
<glyph horiz-adv-x="993" d="M31 803v280h917v-297h-434v-127h406v-217h-406v-143h449v-299h-879l14 184l13 602zM186 1272l260 182q18 14 41 19.5t39 5.5q18 0 42 -5.5t44 -19.5l258 -182l-102 -113l-242 74l-241 -74z" />
<glyph horiz-adv-x="993" d="M31 803v280h917v-297h-434v-127h406v-217h-406v-143h449v-299h-879l14 184l13 602zM242 1202v285h225v-285h-225zM563 1202v285h228v-285h-228z" />
<glyph horiz-adv-x="993" d="M31 803v280h917v-297h-434v-127h406v-217h-406v-143h449v-299h-879l14 184l13 602zM242 1255l88 238l506 -199l-105 -114z" />
<glyph horiz-adv-x="1132" d="M-18 563l124 27l5 196l-80 17v280h508q276 0 426.5 -134t150.5 -412q0 -264 -137 -400.5t-416 -136.5h-479l16 186v164l-71 -14zM514 307h8q49 0 82 11.5t53.5 38t29.5 71.5t9 115q0 131 -36.5 181t-131.5 50h-14v-100l61 12l50 -225l-111 -23v-131z" />
<glyph horiz-adv-x="937" d="M31 803v280h887v-354h-277l-12 70h-115v-154h375v-262h-375v-96l66 -11v-276h-496l14 184l13 602z" />
<glyph horiz-adv-x="1107" d="M16 508q0 281 158 438.5t477 157.5q102 0 190.5 -14.5t168.5 -32.5v-342h-305l-17 96h-16q-72 0 -119 -21.5t-74.5 -59.5t-38 -92t-10.5 -120q0 -115 34 -183.5t124 -68.5q37 0 53 3t29 7v125h-121v244h477v-592q-82 -25 -205 -48t-256 -23q-276 0 -412.5 135t-136.5 391 z" />
<glyph horiz-adv-x="1161" d="M31 803v280h481v-403h137v403h430l-14 -188l-12 -598l77 -16v-281h-481v412h-137v-412h-430l14 186l13 600z" />
<glyph horiz-adv-x="593" d="M31 801v282h481v-1083h-430l14 186l13 600z" />
<glyph horiz-adv-x="593" d="M-23 1294l506 199l88 -238l-489 -75zM31 801v282h481v-1083h-430l14 186l13 600z" />
<glyph horiz-adv-x="593" d="M-47 1272l260 182q18 14 40.5 19.5t39.5 5.5q18 0 41.5 -5.5t44.5 -19.5l258 -182l-102 -113l-242 74l-242 -74zM31 801v282h481v-1083h-430l14 186l13 600z" />
<glyph horiz-adv-x="593" d="M4 1202v285h227v-285h-227zM31 801v282h481v-1083h-430l14 186l13 600zM326 1202v285h227v-285h-227z" />
<glyph horiz-adv-x="593" d="M16 1255l88 238l506 -199l-104 -114zM31 801v282h481v-1083h-430l14 186l13 600z" />
<glyph horiz-adv-x="681" d="M-20 297q12 -4 32.5 -7t42.5 -3q66 0 104 27.5t38 93.5v370l-181 21v284h609l-15 -186v-514q0 -106 -36.5 -182t-102 -125t-157 -71.5t-199.5 -22.5q-18 0 -50 2t-53 6z" />
<glyph horiz-adv-x="1093" d="M31 803v280h481v-372h10l15 69l92 303h450l-221 -475l129 -311l92 -16v-281h-438l-111 358h-8l-10 -26v-332h-434l18 186l13 600z" />
<glyph horiz-adv-x="837" d="M31 803v280h483v-766h313v-317h-743l14 186l13 600z" />
<glyph horiz-adv-x="1554" d="M39 803v280h663l74 -589v-60h15v60l69 589h590l-12 -186l32 -897h-401v786h-14v-47l-117 -739h-313l-117 735v53h-8v-788h-424l20 186l23 598z" />
<glyph horiz-adv-x="1165" d="M31 803v280h516l176 -610h12l-12 68l-51 542h422l-19 -184v-899h-446l-172 614h-13l13 -71l47 -543h-422l16 186l13 598z" />
<glyph horiz-adv-x="1165" d="M31 803v280h516l176 -610h12l-12 68l-51 542h422l-19 -184v-899h-446l-172 614h-13l13 -71l47 -543h-422l16 186l13 598zM221 1223l33 200q23 12 73 32t138 20q25 0 59.5 -5.5t71.5 -11.5t74 -11t65 -5q86 0 133 12t72 23l-29 -201q-23 -12 -75 -32.5t-134 -20.5 q-25 0 -60.5 5t-73.5 12t-74.5 12t-65.5 5q-86 0 -134 -13t-73 -21z" />
<glyph horiz-adv-x="1126" d="M16 532q0 131 37 236.5t110 179.5t179.5 114t245.5 40q264 0 393 -140.5t129 -408.5q0 -131 -37 -236.5t-108.5 -180.5t-177 -114.5t-242.5 -39.5q-268 0 -398.5 141t-130.5 409zM442 541q0 -45 3.5 -89t14.5 -78t32.5 -54.5t60.5 -20.5q43 0 68.5 22.5t39 59.5t18.5 82 t5 90q0 43 -3 85t-14.5 74.5t-34 53t-61.5 20.5q-43 0 -67.5 -21.5t-38.5 -56t-18.5 -78.5t-4.5 -89z" />
<glyph horiz-adv-x="1126" d="M16 543q0 264 145.5 411.5t426.5 147.5q264 0 393 -145.5t129 -413.5q0 -264 -145.5 -412.5t-419.5 -148.5q-268 0 -398.5 146.5t-130.5 414.5zM258 1294l506 199l88 -238l-490 -75zM440 547q0 -45 2 -89t13.5 -80t34 -57.5t63.5 -21.5q45 0 71.5 21.5t40 57.5t17.5 80 t4 89q0 43 -3 87t-14.5 77.5t-34 55t-63.5 21.5q-45 0 -71.5 -21.5t-40 -55t-16.5 -76.5t-3 -88z" />
<glyph horiz-adv-x="1126" d="M16 543q0 264 145.5 411.5t426.5 147.5q264 0 393 -145.5t129 -413.5q0 -264 -145.5 -412.5t-419.5 -148.5q-268 0 -398.5 146.5t-130.5 414.5zM223 1272l260 182q18 14 41 19.5t39 5.5q18 0 42 -5.5t44 -19.5l258 -182l-102 -113l-242 74l-241 -74zM440 547q0 -45 2 -89 t13.5 -80t34 -57.5t63.5 -21.5q45 0 71.5 21.5t40 57.5t17.5 80t4 89q0 43 -3 87t-14.5 77.5t-34 55t-63.5 21.5q-45 0 -71.5 -21.5t-40 -55t-16.5 -76.5t-3 -88z" />
<glyph horiz-adv-x="1126" d="M16 543q0 264 145.5 411.5t426.5 147.5q264 0 393 -145.5t129 -413.5q0 -264 -145.5 -412.5t-419.5 -148.5q-268 0 -398.5 146.5t-130.5 414.5zM293 1202v285h227v-285h-227zM440 547q0 -45 2 -89t13.5 -80t34 -57.5t63.5 -21.5q45 0 71.5 21.5t40 57.5t17.5 80t4 89 q0 43 -3 87t-14.5 77.5t-34 55t-63.5 21.5q-45 0 -71.5 -21.5t-40 -55t-16.5 -76.5t-3 -88zM614 1202v285h228v-285h-228z" />
<glyph horiz-adv-x="1466" d="M16 535q0 260 141.5 404t409.5 144h854v-297h-399v-133h371v-217h-371v-137h414v-299h-928q-250 0 -371 142.5t-121 392.5zM438 545q0 -51 4 -96.5t18.5 -78t40 -52t68.5 -19.5h41v487h-28q-47 0 -75 -20.5t-43 -54t-20.5 -76.5t-5.5 -90z" />
<glyph horiz-adv-x="1126" d="M16 543q0 264 145.5 411.5t426.5 147.5q264 0 393 -145.5t129 -413.5q0 -264 -145.5 -412.5t-419.5 -148.5q-268 0 -398.5 146.5t-130.5 414.5zM283 1255l88 238l506 -199l-105 -114zM440 547q0 -45 2 -89t13.5 -80t34 -57.5t63.5 -21.5q45 0 71.5 21.5t40 57.5t17.5 80 t4 89q0 43 -3 87t-14.5 77.5t-34 55t-63.5 21.5q-45 0 -71.5 -21.5t-40 -55t-16.5 -76.5t-3 -88z" />
<glyph horiz-adv-x="1126" d="M16 532q0 131 37 236.5t110 179.5t179.5 114t245.5 40q127 0 217 -33l61 102h146l-94 -157q98 -66 145 -182.5t47 -278.5q0 -131 -37 -236.5t-108.5 -180.5t-177 -114.5t-242.5 -39.5q-129 0 -230 34l-57 -98h-145l92 154q-96 68 -142.5 184.5t-46.5 275.5zM442 504 q0 -19 2 -35l181 301q-23 16 -54 16q-43 0 -67.5 -21.5t-38.5 -56t-18.5 -78.5t-4.5 -89v-37zM496 315q23 -16 57 -16q43 0 68.5 22.5t39 59.5t18.5 82t5 90v35.5t-2 36.5z" />
<glyph horiz-adv-x="1126" d="M16 543q0 264 145.5 411.5t426.5 147.5q264 0 393 -145.5t129 -413.5q0 -264 -145.5 -412.5t-419.5 -148.5q-268 0 -398.5 146.5t-130.5 414.5zM205 1223l33 200q23 12 72.5 32t135.5 20q25 0 61 -5.5t72.5 -11.5t72.5 -11t65 -5q86 0 134 12t73 23l-29 -201 q-23 -12 -75 -32.5t-136 -20.5q-25 0 -59.5 5t-73.5 12t-76 12t-65 5q-84 0 -132.5 -13t-72.5 -21zM440 547q0 -45 2 -89t13.5 -80t34 -57.5t63.5 -21.5q45 0 71.5 21.5t40 57.5t17.5 80t4 89q0 43 -3 87t-14.5 77.5t-34 55t-63.5 21.5q-45 0 -71.5 -21.5t-40 -55 t-16.5 -76.5t-3 -88z" />
<glyph horiz-adv-x="1073" d="M31 803v280h622q193 0 298.5 -96t105.5 -276q0 -176 -107.5 -266.5t-283.5 -90.5h-154v-57l80 -16v-281h-508l14 186l13 600zM512 616h39q41 0 63.5 26t22.5 67q0 88 -86 88h-39v-181z" />
<glyph horiz-adv-x="1126" d="M16 532q0 133 39 239t112 179.5t178.5 112.5t238.5 39q268 0 397 -143.5t129 -405.5q0 -219 -90 -348t-240 -187l-6 -12l115 -205h-344l-78 185q-236 20 -343.5 164.5t-107.5 381.5zM442 543q0 -45 2 -89t13.5 -78t33 -55.5t62.5 -21.5q43 0 68.5 22.5t40 58.5t18.5 81 t4 90q0 43 -3 86t-13.5 75.5t-34 53t-62.5 20.5q-43 0 -68.5 -21.5t-38.5 -56t-17.5 -77.5t-4.5 -88z" />
<glyph horiz-adv-x="1114" d="M31 803v280h657q82 0 151.5 -17t120 -56t78 -98.5t27.5 -141.5q0 -94 -45 -162.5t-125 -91.5v-10q57 -16 80.5 -49t40.5 -111l10 -49l72 -16v-281h-430l-39 301q-6 53 -24.5 73.5t-59.5 20.5h-33v-395h-428l14 186l13 600zM510 618h49q41 0 64.5 26t23.5 67q0 88 -88 88 h-49v-181z" />
<glyph horiz-adv-x="956" d="M39 25v313h287l16 -68q4 0 15.5 -1t15.5 -1q117 0 116 51q0 27 -38.5 44.5t-98.5 37.5q-59 20 -115.5 46t-99.5 63t-68.5 89t-25.5 128q0 94 40 165t110.5 118t169 69.5t212.5 22.5q117 0 198 -14.5t128 -26.5v-311h-272l-17 67l-20 2q-47 -2 -81 -12t-34 -43 q0 -31 45 -48.5t105 -39.5q55 -20 108 -44t95 -59.5t68 -88t26 -126.5q0 -100 -42 -171.5t-117 -116.5t-179.5 -66.5t-227.5 -21.5q-100 0 -181 13t-138 30z" />
<glyph horiz-adv-x="907" d="M10 786v297h887v-297h-235v-786h-426l10 186v600h-236z" />
<glyph horiz-adv-x="1073" d="M31 803v280h481v-122h141q186 0 295 -100.5t109 -287.5q0 -178 -106.5 -274t-284.5 -96h-154v-203h-428l14 186l13 600zM512 494h39q41 0 63.5 25.5t22.5 66.5q0 88 -86 88h-39v-180z" />
<glyph horiz-adv-x="1130" d="M25 803v280h485v-682q0 -53 11 -81.5t52 -28.5t57.5 27.5t16.5 82.5v494l-16 188h426v-694q0 -104 -36 -181t-100.5 -127t-155.5 -74.5t-200 -24.5q-219 0 -345 97t-126 308l10 399z" />
<glyph horiz-adv-x="1130" d="M25 803v280h485v-682q0 -53 11 -81.5t52 -28.5t57.5 27.5t16.5 82.5v494l-16 188h426v-694q0 -104 -36 -181t-100.5 -127t-155.5 -74.5t-200 -24.5q-219 0 -345 97t-126 308l10 399zM258 1294l506 199l88 -238l-490 -75z" />
<glyph horiz-adv-x="1130" d="M25 803v280h485v-682q0 -53 11 -81.5t52 -28.5t57.5 27.5t16.5 82.5v494l-16 188h426v-694q0 -104 -36 -181t-100.5 -127t-155.5 -74.5t-200 -24.5q-219 0 -345 97t-126 308l10 399zM225 1272l260 182q18 14 41 19.5t39 5.5q18 0 42 -5.5t44 -19.5l258 -182l-102 -113 l-242 74l-241 -74z" />
<glyph horiz-adv-x="1130" d="M25 803v280h485v-682q0 -53 11 -81.5t52 -28.5t57.5 27.5t16.5 82.5v494l-16 188h426v-694q0 -104 -36 -181t-100.5 -127t-155.5 -74.5t-200 -24.5q-219 0 -345 97t-126 308l10 399zM297 1204v285h227v-285h-227zM618 1204v285h228v-285h-228z" />
<glyph horiz-adv-x="1130" d="M25 803v280h485v-682q0 -53 11 -81.5t52 -28.5t57.5 27.5t16.5 82.5v494l-16 188h426v-694q0 -104 -36 -181t-100.5 -127t-155.5 -74.5t-200 -24.5q-219 0 -345 97t-126 308l10 399zM283 1255l88 238l506 -199l-105 -114z" />
<glyph horiz-adv-x="1077" d="M6 803v280h447l59 -714v-74h16v74l90 528v186h459l-258 -1083h-602l-143 788z" />
<glyph horiz-adv-x="1617" d="M6 803v280h451l45 -786h10l4 74l70 526v186h454l74 -712v-74h10l54 600v186h440l-178 -1083h-539l-70 684l-4 76h-10l-4 -76l-90 -684h-535l-112 788z" />
<glyph horiz-adv-x="1085" d="M2 0l207 555l-92 223l-97 19v286h437l71 -313l7 -63h10l4 63l29 143l18 170h473l-197 -528l97 -252l98 -16v-287h-449l-61 354l-4 52h-10l-4 -52l-41 -166l-31 -188h-465z" />
<glyph horiz-adv-x="1013" d="M6 799v284h391l84 -370l4 -68h13l4 68l45 205l16 165h451l-316 -729v-354h-415v354l-185 424z" />
<glyph horiz-adv-x="1013" d="M6 799v284h391l84 -370l4 -68h13l4 68l45 205l16 165h451l-316 -729v-354h-415v354l-185 424zM207 1294l506 199l88 -238l-490 -75z" />
<glyph horiz-adv-x="1013" d="M6 799v284h391l84 -370l4 -68h13l4 68l45 205l16 165h451l-316 -729v-354h-415v354l-185 424zM229 1202v285h226v-285h-226zM551 1202v285h227v-285h-227z" />
<glyph horiz-adv-x="980" d="M41 0v307l424 461l53 29l-2 10h-164l-18 -84h-277v360h871v-311l-391 -444l-56 -31l4 -10h154l25 78h276v-365h-899z" />
<glyph horiz-adv-x="618" d="M12 764q0 104 79 152.5t208 52.5l35 2q0 59 -98 59l-13 -43h-174v189q51 10 112.5 19t139.5 9q145 0 208.5 -59.5t63.5 -210.5v-158l35 -6v-174h-202l-27 61h-8q-29 -31 -73 -51t-108 -20q-78 0 -128 45t-50 133zM250 791q0 -33 33 -33q51 0 51 71v17q-39 0 -61.5 -13.5 t-22.5 -41.5z" />
<glyph horiz-adv-x="634" d="M35 600l10 115v721h307v-174l-63 -11v-82h10q8 6 37 17.5t70 11.5q104 0 160.5 -71.5t56.5 -186.5q0 -72 -18.5 -136.5t-62.5 -112.5t-116 -76.5t-178 -28.5q-41 0 -100.5 2t-112.5 12zM279 805q0 -12 2 -27h12q49 0 65.5 40t18.5 91q0 100 -43 101q-20 0 -31.5 -15.5 t-16.5 -40t-6 -53.5t-1 -55v-41z" />
<glyph horiz-adv-x="550" d="M14 879q0 152 84 236.5t238 84.5q43 0 89 -5t97 -17v-226h-174l-8 62q-39 -6 -58.5 -40t-19.5 -81q0 -53 30 -84t79 -31q39 0 69.5 15.5t53.5 35.5l47 -190q-23 -12 -82.5 -32.5t-145.5 -20.5q-137 0 -218 77.5t-81 215.5z" />
<glyph horiz-adv-x="632" d="M12 852q0 74 18.5 137.5t58.5 110.5t100.5 73.5t144.5 26.5h14v64l-61 10v164h301l-10 -664l38 -4v-174h-202l-25 61h-8q-63 -72 -156 -71q-109 0 -161 75.5t-52 190.5zM256 879q0 -47 9 -75t34 -28q20 0 31.5 14.5t16.5 37t6 52t1 58.5q0 16 -1 29.5t-1 23.5v21h-8 q-49 0 -67.5 -41t-20.5 -92z" />
<glyph horiz-adv-x="608" d="M10 887q0 66 20.5 123t59.5 99t97.5 66.5t134.5 24.5q78 0 130 -24.5t82.5 -67.5t44 -100.5t13.5 -124.5v-45h-328q4 -39 29.5 -57.5t99.5 -20.5l10 41h172v-187q-10 -4 -34.5 -9t-57 -9t-71.5 -7t-76 -3q-166 0 -246 76.5t-80 224.5zM268 965h97l4 6q0 20 -11.5 35.5 t-33.5 15.5q-27 0 -40.5 -17.5t-15.5 -39.5z" />
<glyph horiz-adv-x="337" d="M14 1018v174h136l-125 127l143 145l147 -145l-129 -127h105v-596h-256l10 106l6 310z" />
<glyph horiz-adv-x="325" d="M14 1264v174h275v-840h-254l10 109l8 550z" />
<glyph horiz-adv-x="956" d="M14 1016v174h205l23 -62h10q25 29 63.5 51.5t104.5 22.5q100 0 147 -74h8q23 29 67 51.5t99 22.5q92 0 135.5 -49t41.5 -141l-5 -236l31 -6v-174h-274v385q0 29 -29 29q-25 0 -32 -26t-7 -66v-322h-246v385q0 29 -26 29q-23 0 -31 -22.5t-8 -69.5v-322h-246l6 414z" />
<glyph horiz-adv-x="628" d="M12 893q0 139 78 224t232 85q78 0 134 -22.5t92 -63.5t52 -97t16 -126q0 -150 -72.5 -228.5t-242.5 -78.5q-154 0 -221.5 85t-67.5 222zM258 893q0 -49 8 -85t43 -36q39 0 50.5 34t11.5 87q0 49 -8.5 84t-45.5 35q-41 0 -50 -37t-9 -82z" />
<glyph horiz-adv-x="438" d="M14 1016v174h205l27 -62h8q18 23 50 48.5t97 25.5l35 -192q-10 2 -19 3t-20 1q-61 0 -82.5 -39t-21.5 -101v-278h-248l6 414z" />
<glyph horiz-adv-x="536" d="M16 1010q0 55 26 92t67 58.5t92 30.5t104 9q59 0 111.5 -8t91.5 -18v-187h-166l-10 49h-13q-20 0 -36.5 -7t-16.5 -23q0 -20 33 -33q45 -16 86 -31.5t71.5 -37t48 -50.5t17.5 -70q0 -55 -25.5 -94t-66.5 -61.5t-95 -32.5t-110 -10q-53 0 -106 8t-99 20v187h175l10 -41h18 q55 0 56 28q0 10 -8.5 17.5t-34.5 17.5q-37 12 -76 26.5t-71 36t-52.5 51.5t-20.5 73z" />
<glyph horiz-adv-x="401" d="M14 1016v166l47 8l25 129l221 65v-194h74v-174h-72v-193q0 -57 51 -57q23 0 41 8l-34 -186q-4 -2 -13 -2q-8 -2 -28 -2q-68 0 -118 11t-83 40t-48.5 77t-15.5 122v182h-47z" />
<glyph horiz-adv-x="595" d="M20 55q0 141 70 225.5t213 84.5t207.5 -79t64.5 -220t-75.5 -227.5t-218.5 -86.5t-202 81t-59 222zM244 57q0 -51 7 -91t44 -40q35 0 45 42t10 93q0 53 -7 90t-42 37q-37 0 -47 -39t-10 -92z" />
<glyph horiz-adv-x="522" d="M20 252q45 6 101.5 33.5t89.5 68.5h182l-6 -434h119v-160h-467v160h139l4 176l8 47l-8 2l-20 -30q-16 -10 -47 -19.5t-54 -13.5z" />
<glyph horiz-adv-x="555" d="M25 -76q92 45 145 77t81 55.5t36 41t8 33.5q0 53 -66 59h-12l-10 -84h-182v240q16 4 74.5 12.5t123.5 8.5q55 0 107.5 -12.5t94.5 -38t67.5 -65.5t25.5 -95q0 -72 -40 -123t-138 -111l2 -8l45 20h59l99 11v-185h-520v164z" />
<glyph horiz-adv-x="557" d="M12 -45q16 -6 72.5 -22.5t134.5 -16.5q37 0 61.5 8t24.5 33t-25.5 32t-66.5 7h-94v117h94q41 0 65.5 12t24.5 37q0 23 -26.5 31t-61.5 8l-4 -47h-182v188q35 10 91 17.5t122 7.5q55 0 107 -8.5t92 -29t63.5 -53t23.5 -83.5q0 -41 -22.5 -76t-59.5 -54v-8q27 -10 58 -39.5 t31 -83.5q0 -53 -27 -89t-70 -57.5t-98 -29.5t-113 -8q-51 0 -99 5t-81 16z" />
<glyph horiz-adv-x="573" d="M12 18l201 334h285v-338h61v-161h-61v-95h-217v95h-269v165zM180 16l4 -6l29 4h74v144l4 35h-8l-7 -33l-69 -123z" />
<glyph horiz-adv-x="528" d="M27 -29h182l4 -47h10q31 0 49.5 12.5t18.5 34.5q0 25 -34 40.5t-130 15.5h-68v327h418v-186l-98 12h-111v-35q47 -2 91 -13t79 -34.5t56.5 -58.5t21.5 -86q0 -57 -24.5 -96t-64.5 -63.5t-92 -35t-110 -10.5q-51 0 -104 8t-94 21v194z" />
<glyph horiz-adv-x="587" d="M31 51q0 141 78.5 227.5t248.5 86.5q20 0 47 -3.5t53.5 -7.5t48 -9t34.5 -9v-189h-183l-4 43h-10q-31 0 -53.5 -15t-26.5 -50h19q61 0 114.5 -8t92 -27.5t61 -54.5t22.5 -88q0 -88 -71.5 -142.5t-192.5 -54.5q-72 0 -125 22.5t-87 62.5t-50 95.5t-16 120.5zM252 18 q0 -47 12 -76.5t49 -29.5q18 0 31.5 13.5t13.5 33.5q0 35 -28.5 47t-63.5 12h-14z" />
<glyph horiz-adv-x="516" d="M8 117v237h498v-174q-55 -45 -88 -100t-50.5 -110.5t-23.5 -109t-6 -91.5v-9h-225v9q0 127 36.5 221t114.5 172l37 28l-4 7l-41 -17h-59l-7 -63h-182z" />
<glyph horiz-adv-x="583" d="M14 -84q0 43 26 78t66 55v8q-29 16 -52 46t-23 73q0 51 23.5 87t60.5 58.5t84 33t96 10.5q51 0 99 -9.5t86 -29t60.5 -52t22.5 -79.5t-24.5 -78t-53.5 -47v-9q29 -16 53.5 -46.5t24.5 -77.5q0 -49 -23.5 -84t-61.5 -58.5t-88 -34t-105 -10.5q-53 0 -102.5 7t-86.5 26.5 t-59.5 51.5t-22.5 81zM207 -49q0 -23 19.5 -33t47.5 -10q25 0 47.5 10t22.5 31q0 39 -61 51l-21 4q-25 -8 -40 -22.5t-15 -30.5zM246 170q0 -37 69 -49l11 -2q20 8 32.5 22.5t12.5 24.5q0 23 -18.5 34t-45.5 11q-23 0 -42 -10.5t-19 -30.5z" />
<glyph horiz-adv-x="589" d="M16 170q0 88 72 142.5t195 54.5q145 0 211.5 -85t66.5 -216q0 -141 -77.5 -228.5t-250.5 -87.5q-23 0 -49 3t-53 7t-48.5 9.5t-33.5 9.5v188h182l5 -43h10q35 0 56.5 15.5t25.5 50.5h-19q-63 0 -116.5 8t-92.5 27.5t-61.5 54.5t-22.5 90zM231 158q0 -35 30 -47.5 t65 -12.5h14q0 47 -12.5 77t-46.5 30q-23 0 -36.5 -13.5t-13.5 -33.5z" />
<glyph horiz-adv-x="292" d="M37 170q0 113 37 228.5t96 199.5l104 -72q-37 -59 -63.5 -150t-26.5 -206q0 -113 27 -205t63 -151l-108 -70q-29 41 -52.5 92t-41 106.5t-26.5 114t-9 113.5z" />
<glyph horiz-adv-x="292" d="M18 -186q37 59 64 151t27 205q0 115 -27 206t-64 150l105 72q59 -84 96 -199.5t37 -228.5q0 -55 -9 -113.5t-26.5 -114t-41 -106.5t-52.5 -92z" />
<glyph horiz-adv-x="1056" d="M20 537q0 129 32 233t96.5 178t162 114t228.5 40t225 -38t154.5 -108.5t89 -172t28.5 -230.5t-34.5 -233.5t-103.5 -180.5t-170 -116.5t-232 -40.5t-221.5 38.5t-146.5 110.5t-82 174.5t-26 231.5zM430 541q0 -47 2 -90t11.5 -77t27.5 -54.5t51 -20.5t53.5 21.5 t30.5 56.5t14.5 80t4.5 92t-2 89t-11.5 73.5t-28 50t-51.5 18.5t-53 -19.5t-30.5 -53t-14.5 -76.5t-4 -90z" />
<glyph horiz-adv-x="931" d="M25 879q92 12 187 65t161 139h370l-20 -764h190v-319h-854v319h248l15 340l-11 5l-39 -60q-14 -10 -36.5 -20.5t-49 -19.5t-53.5 -16t-49 -11z" />
<glyph horiz-adv-x="991" d="M31 0v297q168 82 265 139.5t147.5 100.5t64.5 74.5t14 62.5q0 96 -119 108l-24 2l-19 -153h-329v424q18 6 55 13t86 15.5t105.5 13.5t113.5 5q100 0 196.5 -22.5t172.5 -69.5t122 -119t46 -172q0 -117 -68.5 -207t-226.5 -180l6 -15h158l180 19v-336h-946z" />
<glyph horiz-adv-x="972" d="M12 342q53 -16 144.5 -34.5t216.5 -18.5q68 0 116 15t48 58q0 47 -46.5 58.5t-123.5 11.5h-172v211h174q72 0 117.5 19.5t45.5 66.5q0 41 -39.5 55.5t-109.5 14.5h-12l-17 -86h-323v342q66 16 167 31.5t222 15.5q102 0 196.5 -15.5t166 -51.5t114.5 -96t43 -153 q0 -76 -41 -135t-108 -92v-14q25 -10 52 -27.5t52 -45.5t41 -66.5t16 -88.5q0 -98 -48 -162.5t-126 -102.5t-179 -54t-206 -16q-92 0 -180 10t-147 28z" />
<glyph horiz-adv-x="1024" d="M14 170v324l365 589h518v-616h113v-297h-115v-170h-391v170h-490zM322 479l2 -12h190v260l23 61q-4 0 -7.5 1.5t-7.5 1.5l-155 -283z" />
<glyph horiz-adv-x="925" d="M14 33v352h324l16 -86h8q66 0 100 23.5t34 64.5q0 20 -14.5 38.5t-48.5 33t-91 21.5t-145 7h-123v596h762v-338l-181 21h-200v-61q84 -4 164.5 -26t144 -63t102.5 -106.5t39 -157.5q0 -104 -44 -175t-116.5 -115t-168 -62t-199.5 -18q-94 0 -192.5 14t-170.5 37z" />
<glyph horiz-adv-x="1032" d="M20 528q0 129 35 234.5t109 180.5t186.5 117t267.5 42q39 0 87.5 -5t96.5 -12.5t88 -16.5t62 -17v-344h-323l-17 79h-10q-59 0 -104 -26.5t-52 -91.5h33q115 0 212 -14.5t169 -51.5t112 -100.5t40 -161.5q0 -80 -35 -145.5t-97.5 -113.5t-152.5 -73.5t-201 -25.5 q-131 0 -226 40.5t-157.5 113.5t-92.5 173.5t-30 218.5zM424 469q0 -94 23.5 -143.5t89.5 -49.5q39 0 61.5 26t22.5 63q0 31 -15.5 51t-40 31.5t-55.5 16.5t-61 5h-25z" />
<glyph horiz-adv-x="935" d="M14 653v430h908v-315q-98 -82 -159 -182.5t-92.5 -203.5t-42 -198.5t-10.5 -169.5v-14h-415v14q0 96 19.5 195.5t56 195t88 180.5t114.5 150l66 23l-4 10h-197l-24 -115h-308z" />
<glyph horiz-adv-x="1038" d="M20 289q0 78 46.5 141.5t119.5 99.5v9q-51 29 -97 86t-46 137q0 92 43 156.5t111.5 105.5t154.5 59.5t174 18.5q92 0 179.5 -15.5t156 -52.5t110.5 -96t42 -145t-43 -140.5t-101 -83.5v-8q53 -31 100.5 -91t47.5 -142q0 -90 -43 -154.5t-113.5 -107.5t-162 -63.5 t-189.5 -20.5q-96 0 -185 15t-157 50t-108 94.5t-40 147.5zM367 350q0 -41 36.5 -59.5t88.5 -18.5q53 0 87.5 19.5t34.5 56.5q0 35 -36.5 53.5t-94.5 34.5l-28 6q-45 -16 -66.5 -39.5t-21.5 -52.5zM436 756q0 -33 39 -52.5t96 -33.5l25 -6q29 12 49.5 35.5t20.5 50.5 q0 41 -34 57t-81 16q-41 0 -78 -16t-37 -51z" />
<glyph horiz-adv-x="1032" d="M20 743q0 80 35 145.5t97.5 114t152.5 74t201 25.5q131 0 226 -41t157.5 -114t92.5 -173t30 -219q0 -129 -35 -234.5t-108.5 -180t-186.5 -116.5t-268 -42q-39 0 -88.5 5t-96.5 12t-88 16.5t-61 17.5v344h323l17 -80h10q59 0 104.5 26.5t51.5 92.5h-33q-115 0 -212 14 t-169 51t-112 100.5t-40 161.5zM412 719q0 -31 15 -51.5t40 -31.5t55.5 -16.5t61.5 -5.5h24q0 94 -23.5 143.5t-88.5 49.5q-39 0 -61.5 -25.5t-22.5 -62.5z" />
<glyph horiz-adv-x="595" d="M20 240q0 141 70 225t213 84t207.5 -79t64.5 -220t-75.5 -227t-218.5 -86t-202 81t-59 222zM244 242q0 -51 7 -91t44 -40q35 0 45 42t10 93q0 53 -7 90t-42 37q-37 0 -47 -39t-10 -92z" />
<glyph horiz-adv-x="522" d="M20 436q45 6 101.5 34t89.5 69h182l-6 -435h119v-159h-467v159h139l4 177l8 47l-8 2l-20 -31q-16 -10 -47 -19.5t-54 -13.5z" />
<glyph horiz-adv-x="555" d="M25 -55v164q92 45 145 76.5t81 55t36 41t8 33.5q0 53 -66 60h-12l-10 -84h-182v239q16 4 74.5 12.5t123.5 8.5q55 0 107.5 -12.5t94.5 -38t67.5 -65.5t25.5 -95q0 -72 -40 -123t-138 -111l2 -8l45 21h59l99 10v-184h-520z" />
<glyph horiz-adv-x="557" d="M12 139q16 -6 72.5 -22.5t134.5 -16.5q37 0 61.5 8.5t24.5 32.5q0 25 -25.5 32t-66.5 7h-94v117h94q41 0 65.5 12.5t24.5 36.5q0 23 -26.5 31t-61.5 8l-4 -47h-182v188q35 10 91 17.5t122 7.5q55 0 107 -8t92 -28.5t63.5 -53.5t23.5 -84q0 -41 -22.5 -76t-59.5 -53v-8 q27 -10 58 -40t31 -83t-27 -89t-70 -57.5t-98 -30t-113 -8.5q-51 0 -99 5.5t-81 15.5z" />
<glyph horiz-adv-x="573" d="M12 37v166l201 334h285v-338h61v-162h-61v-94h-217v94h-269zM180 201l4 -6l29 4h74v143l4 35h-8l-7 -33l-69 -123z" />
<glyph horiz-adv-x="528" d="M27 -39v195h182l4 -47h10q31 0 49.5 12t18.5 35q0 25 -34 40t-130 15h-68v328h418v-187l-98 13h-111v-35q47 -2 91 -13.5t79 -35t56.5 -58.5t21.5 -86q0 -57 -24.5 -96t-64.5 -63.5t-92 -35t-110 -10.5q-51 0 -104 8.5t-94 20.5z" />
<glyph horiz-adv-x="587" d="M31 236q0 141 78.5 227t248.5 86q20 0 47 -3t53.5 -7t48 -9.5t34.5 -9.5v-188h-183l-4 43h-10q-31 0 -53.5 -15.5t-26.5 -50.5h19q61 0 114.5 -8t92 -27.5t61 -54.5t22.5 -88q0 -88 -71.5 -142.5t-192.5 -54.5q-72 0 -125 23t-87 62.5t-50 95t-16 121.5zM252 203 q0 -47 12 -77t49 -30q18 0 31.5 13.5t13.5 33.5q0 35 -28.5 47.5t-63.5 12.5h-14z" />
<glyph horiz-adv-x="516" d="M8 301v238h498v-174q-55 -45 -88 -100.5t-50.5 -111t-23.5 -108.5t-6 -92v-8h-225v8q0 127 36.5 221t114.5 172l37 29l-4 6l-41 -16h-59l-7 -64h-182z" />
<glyph horiz-adv-x="583" d="M14 100q0 43 26 78t66 55v9q-29 16 -52 45.5t-23 72.5q0 51 23.5 87t60.5 58.5t84 33t96 10.5q51 0 99 -9.5t86 -28.5t60.5 -52t22.5 -80t-24.5 -78t-53.5 -47v-8q29 -16 53.5 -47t24.5 -78q0 -49 -23.5 -84t-61.5 -58.5t-88 -34t-105 -10.5q-53 0 -102.5 7.5t-86.5 27 t-59.5 51t-22.5 80.5zM207 135q0 -23 19.5 -33t47.5 -10q25 0 47.5 10.5t22.5 30.5q0 39 -61 51l-21 4q-25 -8 -40 -22t-15 -31zM246 354q0 -37 69 -49l11 -2q20 8 32.5 22.5t12.5 24.5q0 23 -18.5 34t-45.5 11q-23 0 -42 -10t-19 -31z" />
<glyph horiz-adv-x="589" d="M16 354q0 88 72 142.5t195 54.5q145 0 211.5 -85t66.5 -216q0 -141 -77.5 -228.5t-250.5 -87.5q-23 0 -49 3.5t-53 7.5t-48.5 9t-33.5 9v189h182l5 -43h10q35 0 56.5 15t25.5 50h-19q-63 0 -116.5 8t-92.5 27.5t-61.5 54.5t-22.5 90zM231 342q0 -35 30 -47t65 -12h14 q0 47 -12.5 76.5t-46.5 29.5q-23 0 -36.5 -13.5t-13.5 -33.5z" />
<glyph horiz-adv-x="595" d="M20 891q0 141 70 225t213 84t207.5 -79t64.5 -220t-75.5 -227t-218.5 -86t-202 81t-59 222zM244 893q0 -51 7 -91t44 -40q35 0 45 42t10 93q0 53 -7 90t-42 37q-37 0 -47 -39t-10 -92z" />
<glyph horiz-adv-x="522" d="M20 1087q45 6 101.5 34t89.5 69h182l-6 -434h119v-160h-467v160h139l4 176l8 47l-8 2l-20 -31q-16 -10 -47 -19t-54 -13z" />
<glyph horiz-adv-x="555" d="M25 594v164q92 45 145 76.5t81 55t36 41t8 34.5q0 53 -66 59l-12 2l-10 -86h-182v234q23 8 78 17t120 9q55 0 107.5 -12t94.5 -38t67.5 -66t25.5 -95q0 -72 -40 -123t-138 -110l2 -8l45 20h59l99 10v-184h-520z" />
<glyph horiz-adv-x="557" d="M10 788q16 -6 72.5 -22t134.5 -16q37 0 61.5 8t24.5 33t-25.5 31.5t-66.5 6.5h-94v117h94q41 0 65.5 12.5t24.5 36.5q0 23 -26.5 31t-61.5 8l-4 -47h-182v189q35 10 91 17t122 7q55 0 107 -8t92 -28.5t63.5 -53.5t23.5 -84q0 -41 -22.5 -76t-59.5 -53v-8q27 -10 57.5 -40 t30.5 -83t-26.5 -89t-69.5 -57.5t-98 -29.5t-113 -8q-51 0 -99 5t-81 15z" />
<glyph horiz-adv-x="573" d="M12 690v166l201 334h285v-338h61v-162h-61v-94h-217v94h-269zM180 854l4 -6l29 4h74v143l4 35h-8l-7 -33l-69 -123z" />
<glyph horiz-adv-x="528" d="M27 612v193h178l8 -45h10q31 0 49.5 12t18.5 35q0 25 -34 40t-130 15h-68v328h418v-186l-98 12h-111v-35q47 -2 91 -13.5t79 -35t56.5 -58t21.5 -86.5q0 -57 -24.5 -96t-64.5 -63.5t-92 -34.5t-110 -10q-51 0 -104 8t-94 20z" />
<glyph horiz-adv-x="587" d="M31 887q0 141 78.5 227t248.5 86q20 0 47 -3t53.5 -7t48 -9t34.5 -10v-188h-183l-4 43h-8q-31 0 -54.5 -15.5t-27.5 -49.5h19q61 0 114.5 -8.5t92 -28t61 -54t22.5 -88.5q0 -88 -71.5 -142t-192.5 -54q-72 0 -125 22.5t-87 62.5t-50 95t-16 121zM252 854q0 -47 12 -76.5 t49 -29.5q18 0 31.5 13t13.5 34q0 35 -28.5 47t-63.5 12h-14z" />
<glyph horiz-adv-x="516" d="M8 952v238h498v-174q-55 -45 -88 -100.5t-50.5 -110.5t-23.5 -108.5t-6 -92.5v-8h-225v8q0 127 36.5 221.5t114.5 171.5l37 27l-2 8l-43 -16h-59l-7 -64h-182z" />
<glyph horiz-adv-x="583" d="M14 752q0 43 26 77.5t66 55.5v8q-29 16 -52 46t-23 73q0 51 23.5 87t60.5 58.5t84 32.5t96 10q51 0 99 -9t86 -28.5t60.5 -52.5t22.5 -80t-24.5 -77.5t-53.5 -47.5v-8q29 -16 53.5 -47t24.5 -78q0 -49 -23.5 -84t-61.5 -58.5t-88 -33.5t-105 -10q-53 0 -102.5 7 t-86.5 26.5t-59.5 51t-22.5 81.5zM207 786q0 -23 19.5 -33t47.5 -10q25 0 47.5 10.5t22.5 30.5q0 39 -61 52l-21 4q-25 -8 -40 -22.5t-15 -31.5zM246 1006q0 -37 69 -50l11 -2q20 8 32.5 22.5t12.5 24.5q0 23 -18.5 34.5t-45.5 11.5q-23 0 -42 -10.5t-19 -30.5z" />
<glyph horiz-adv-x="589" d="M16 1004q0 88 72 142t195 54q145 0 211.5 -85t66.5 -216q0 -141 -77.5 -228t-250.5 -87q-23 0 -49 3t-53 7t-48.5 9t-33.5 9v189h178l9 -43h10q35 0 56.5 15t25.5 50h-19q-63 0 -116.5 8.5t-92.5 28t-61.5 54t-22.5 90.5zM231 991q0 -35 30 -47t65 -12h14 q0 47 -12.5 76.5t-46.5 29.5q-23 0 -36.5 -13t-13.5 -34z" />
<glyph horiz-adv-x="442" d="M31 1135q0 80 54 130t146 50q86 0 132.5 -46t46.5 -126q0 -78 -52.5 -127t-138.5 -49q-92 0 -140 45t-48 123z" />
<glyph horiz-adv-x="1257" d="M18 338q0 86 38 157.5t104 125.5q-35 37 -52.5 87t-17.5 95q0 68 28.5 123t79 94t120 60.5t153.5 21.5q131 0 225.5 -50.5t108.5 -160.5h313l162 12l-45 -264h-182q-4 -66 -15.5 -141.5t-29.5 -128.5q47 -23 103 -44.5t110 -37.5l-54 -305q-29 6 -70.5 20t-87.5 31.5 t-91.5 36t-79.5 36.5q-68 -57 -161 -90.5t-216 -33.5q-94 0 -175 23.5t-140.5 69.5t-93.5 112.5t-34 150.5zM356 334q0 -39 28 -61.5t67 -22.5q44 -1 75 24q-31 18 -71.5 49t-79.5 68q-18 -18 -19 -57zM446 770q0 -29 20.5 -57.5t51.5 -55.5q12 25 20.5 54.5t8.5 52.5 q0 57 -51 57q-20 0 -35 -14t-15 -37zM539 639q39 -31 82 -58.5t77 -48.5q6 16 11.5 48t5.5 59h-176z" />
</font>
</defs>
</svg>
