<?xml version="1.0" standalone="no"?>
<!DOCTYPE svg PUBLIC "-//W3C//DTD SVG 1.1//EN" "http://www.w3.org/Graphics/SVG/1.1/DTD/svg11.dtd" >
<svg xmlns="http://www.w3.org/2000/svg">
<metadata></metadata>
<defs>
<font id="distefanoslabblack_italic" horiz-adv-x="991" >
<font-face units-per-em="2048" ascent="1536" descent="-512" />
<missing-glyph horiz-adv-x="419" />
<glyph unicode="&#xfb00;" horiz-adv-x="1153" d="M-55 -45q31 -10 49 -10q49 0 67.5 28.5t24.5 83.5l78 633h-94l32 275l105 12l8 74q8 78 32.5 142t69.5 110.5t113 71t164 24.5q31 0 56.5 -2t45.5 -4q23 -4 41 -7v-260q23 125 115 199t256 74q31 0 56.5 -2t45.5 -4q23 -4 41 -7v-290q-10 4 -30.5 6t-26.5 2 q-45 0 -73.5 -20.5t-28.5 -73.5q0 -16 2 -23q0 -6 2 -10h114l-34 -287h-121l-78 -629q-27 -211 -122 -317t-294 -106q-29 0 -60.5 3t-41.5 5v309q31 -10 49 -10q49 0 67.5 28.5t24.5 83.5l78 633h-137l-78 -629q-27 -211 -122 -317t-294 -106q-29 0 -60.5 3t-41.5 5v309z M578 1010q0 -16 2 -23q0 -6 2 -10h139l8 74q2 10 2 22t4 23q-10 4 -29.5 6t-25.5 2q-45 0 -73.5 -20.5t-28.5 -73.5z" />
<glyph unicode="&#xfb01;" horiz-adv-x="1089" d="M-55 -45q31 -10 49 -10q49 0 66.5 28.5t25.5 83.5l78 633h-94l32 275l105 12l8 74q8 78 32.5 142t69.5 110.5t113 71t164 24.5q31 0 56.5 -2t45.5 -4q23 -4 41 -7v-161l189 180l213 -252l-187 -176h121l-84 -692l68 -9l-35 -276q-37 -4 -93.5 -11t-119.5 -7 q-109 0 -158 46t-49 142q0 12 1 26.5t3 30.5l62 463h-127l-78 -629q-12 -106 -42 -185t-81 -132t-128 -79.5t-185 -26.5q-20 0 -44 2t-38 4v311zM578 1010q0 -16 2 -23q0 -6 2 -10h221l-98 123q-4 2 -14.5 3t-14.5 1q-45 0 -71.5 -23.5t-26.5 -70.5z" />
<glyph unicode="&#xfb02;" horiz-adv-x="1095" d="M-55 -45q31 -10 49 -10q49 0 67.5 28.5t24.5 83.5l78 633h-94l34 275l105 12l4 35q14 119 55 194.5t108.5 118.5t161 58.5t212.5 15.5q37 0 91 -3t110.5 -8.5t105.5 -11.5t76 -12l-134 -1079l72 -9l-35 -276q-37 -4 -95 -11t-122 -7q-109 0 -158 46t-49 142q0 12 1 26.5 t3 30.5l117 881q-4 2 -22.5 3t-26.5 1q-43 0 -73.5 -24.5t-30.5 -79.5v-23q0 -6 2 -8h86l-37 -287h-90l-78 -629q-12 -106 -42 -185t-81 -132t-128 -79.5t-185 -26.5q-20 0 -44 2t-38 4v311z" />
<glyph unicode="&#xfb03;" horiz-adv-x="1603" d="M-55 -45q31 -10 49 -10q49 0 67.5 28.5t24.5 83.5l78 633h-94l32 275l105 12l8 74q8 78 32.5 142t69.5 110.5t113 71t164 24.5q31 0 56.5 -2t45.5 -4q23 -4 41 -7v-249q25 129 113 195.5t258 66.5q31 0 56.5 -2t45.5 -4q23 -4 41 -7v-163l189 182l213 -252l-187 -176h123 l-86 -692l68 -9l-35 -276q-37 -4 -84 -11t-111 -7q-109 0 -165 46t-56 142q0 12 1 26.5t3 30.5l62 463h-131l-78 -629q-27 -211 -122 -317t-294 -106q-29 0 -60.5 3t-41.5 5v309q31 -10 49 -10q49 0 67.5 28.5t24.5 83.5l78 633h-137l-78 -629q-27 -211 -122 -317t-294 -106 q-29 0 -60.5 3t-41.5 5v309zM578 1010q0 -16 2 -23q0 -6 2 -10h139l14 119q-10 4 -29.5 6t-25.5 2q-45 0 -73.5 -20.5t-28.5 -73.5zM1092 1010q0 -16 2 -23q0 -6 2 -10h221l-98 123q-12 4 -29 4q-45 0 -71.5 -23.5t-26.5 -70.5z" />
<glyph unicode="&#xfb04;" horiz-adv-x="1609" d="M-55 -45q31 -10 49 -10q49 0 67.5 28.5t24.5 83.5l78 633h-94l32 275l105 12l8 74q8 78 32.5 142t69.5 110.5t113 71t164 24.5q31 0 56.5 -2t45.5 -4q23 -4 41 -7v-290q-10 4 -30.5 6t-26.5 2q-45 0 -73.5 -20.5t-28.5 -73.5q0 -16 2 -23q0 -6 2 -10h141l4 35 q14 119 55 194.5t108.5 118.5t161 58.5t212.5 15.5q37 0 91 -3t110.5 -8.5t105.5 -11.5t76 -12l-134 -1079l72 -9l-35 -276q-37 -4 -95 -11t-122 -7q-109 0 -158 46t-49 142q0 12 1 26.5t3 30.5l117 881q-4 2 -22.5 3t-26.5 1q-43 0 -73.5 -24.5t-30.5 -79.5v-23q0 -6 2 -8 h86l-37 -287h-92l-78 -629q-27 -211 -122 -317t-294 -106q-29 0 -60.5 3t-41.5 5v309q31 -10 49 -10q49 0 66.5 28.5t25.5 83.5l78 633h-135l-78 -629q-27 -211 -122 -317t-294 -106q-29 0 -60.5 3t-41.5 5v309z" />
<glyph horiz-adv-x="0" />
<glyph unicode="&#xd;" horiz-adv-x="419" />
<glyph unicode=" "  horiz-adv-x="419" />
<glyph unicode="&#x09;" horiz-adv-x="419" />
<glyph unicode="&#xa0;" horiz-adv-x="419" />
<glyph unicode="!" horiz-adv-x="497" d="M47 133q0 90 58.5 143.5t148.5 53.5q74 0 117 -42t43 -110q0 -80 -53.5 -138t-145.5 -58q-80 0 -124 40.5t-44 110.5zM104 397l113 899h391l-188 -899h-316z" />
<glyph unicode="&#x22;" horiz-adv-x="602" d="M70 731l55 459h227l-55 -459h-227zM365 731l55 459h229l-55 -459h-229z" />
<glyph unicode="#" d="M0 240l27 225h168l65 215h-172l29 227h213l86 283h233l-86 -283h84l84 283h232l-84 -283h135l-29 -227h-176l-64 -215h173l-27 -225h-213l-74 -240h-233l73 240h-84l-73 -240h-234l74 240h-127zM428 465h84l63 215h-81z" />
<glyph unicode="$" d="M33 25l59 313h252v-70h37q51 0 84 11.5t33 39.5q0 29 -31 44.5t-90 37.5q-47 18 -93 43t-83 60t-59.5 82t-22.5 108q0 86 27.5 152.5t78.5 116t120 81t153 48.5l24 204h193l-23 -194q100 -2 174 -17.5t113 -25.5l-57 -309h-240v69h-27q-45 -2 -78.5 -12t-37.5 -43 q0 -14 6 -23.5t20.5 -18.5t40 -20.5t66.5 -25.5q41 -16 84 -39t78.5 -56.5t58 -80.5t22.5 -111q0 -170 -98 -262t-260 -127l-27 -213h-192l24 195h-30q-84 0 -165 13t-134 30z" />
<glyph unicode="%" horiz-adv-x="1095" d="M68 0l806 1190h181l-807 -1190h-180zM78 836q0 78 18.5 144.5t54 115.5t91 76.5t129.5 27.5q57 0 97 -19.5t66.5 -53t39 -80t12.5 -99.5q0 -78 -19.5 -144.5t-56.5 -114.5t-92.5 -75.5t-128.5 -27.5q-57 0 -97 18.5t-66 52t-37 80t-11 99.5zM279 813q0 -70 38 -70 q35 0 51.5 68t16.5 162q0 70 -39 69q-33 0 -50 -67.5t-17 -161.5zM539 242q0 78 18 144.5t54 115.5t91.5 76.5t128.5 27.5q57 0 97.5 -19.5t67 -53t39 -79.5t12.5 -100q0 -78 -19.5 -144.5t-56.5 -114.5t-92.5 -75.5t-128.5 -27.5q-57 0 -97.5 18.5t-66 52t-36.5 80 t-11 99.5zM739 219q0 -70 39 -69q35 0 51.5 67.5t16.5 161.5q0 70 -39 70q-33 0 -50.5 -68t-17.5 -162z" />
<glyph unicode="&#x26;" horiz-adv-x="1345" d="M2 336q0 117 50 197.5t136 148.5q-25 35 -37 81t-12 91q0 84 33 150.5t90 111.5t135 68.5t168 23.5q63 0 121.5 -13t104 -42t73 -72t31.5 -104h319l172 14l-86 -291h-180q-12 -72 -34.5 -154.5t-49.5 -139.5q45 -23 101.5 -46.5t109.5 -44.5l-94 -333q-37 8 -80 23 t-87 33.5t-86 40t-75 40.5q-78 -63 -175 -100t-222 -37q-94 0 -172 23.5t-134 68.5t-88 111.5t-32 150.5zM352 354q0 -35 27 -57.5t63 -22.5q27 0 45.5 7.5t34.5 21.5q-29 20 -67.5 53t-73.5 74q-10 -10 -19.5 -31.5t-9.5 -44.5zM506 831q0 -29 16.5 -56t42.5 -54 q18 31 31.5 66.5t13.5 60.5q0 53 -49 53q-29 0 -42 -21.5t-13 -48.5zM588 700q35 -33 76 -62.5t73 -51.5q8 18 17.5 52t13.5 62h-180z" />
<glyph unicode="'" horiz-adv-x="311" d="M68 731l57 459h233l-57 -459h-233z" />
<glyph unicode="(" horiz-adv-x="425" d="M27 373q0 221 81.5 429t219.5 394l151 -117q-43 -59 -83 -143t-70.5 -183.5t-50 -210t-19.5 -220.5q0 -129 21.5 -237t54.5 -185l-176 -113q-31 55 -54.5 122.5t-40 144.5t-25.5 158t-9 161z" />
<glyph unicode=")" horiz-adv-x="425" d="M-53 -96q41 57 81 142t71.5 184.5t51 210t19.5 221.5q0 129 -21.5 236.5t-54.5 184.5l176 113q31 -55 54.5 -123.5t40 -145.5t24.5 -158t8 -161q0 -221 -80.5 -428t-218.5 -393z" />
<glyph unicode="*" horiz-adv-x="706" d="M68 860l178 47l-162 56l147 217l109 -119l-25 172h263l-60 -170l133 117l92 -224l-168 -47l156 -49l-147 -221l-105 113l21 -162h-262l65 164l-137 -111z" />
<glyph unicode="+" d="M80 463l29 229h282l37 305h231l-36 -305h282l-28 -229h-283l-37 -299h-231l36 299h-282z" />
<glyph unicode="," horiz-adv-x="419" d="M-10 127q0 39 14 76t40 65.5t63.5 45t85.5 16.5q72 0 117.5 -41t45.5 -117q0 -70 -31.5 -120t-66.5 -91l-98 -125l-133 17l53 149q-31 8 -60.5 39t-29.5 86z" />
<glyph unicode="-" horiz-adv-x="593" d="M39 381l27 231h526l-29 -231h-524z" />
<glyph unicode="." horiz-adv-x="419" d="M-16 133q0 90 58 143.5t148 53.5q74 0 117 -42t43 -110q0 -80 -53 -138t-145 -58q-80 0 -124 40.5t-44 110.5z" />
<glyph unicode="/" horiz-adv-x="630" d="M-55 0l526 1190h248l-526 -1190h-248z" />
<glyph unicode="0" d="M18 463q0 156 34 291t102.5 236.5t175 159.5t252.5 58q113 0 191.5 -35.5t128.5 -100t72.5 -153t22.5 -192.5q0 -160 -33.5 -296t-103 -235.5t-176 -156.5t-252.5 -57q-113 0 -191.5 35.5t-128 99t-72 153t-22.5 193.5zM401 426q0 -59 15.5 -93t54.5 -34q63 0 89 81 t42 216q6 51 10 100t4 72q0 59 -14 91t-55 32q-63 0 -89 -80t-42 -215q-6 -49 -10.5 -97t-4.5 -73z" />
<glyph unicode="1" d="M2 0l39 319h256l65 447l-10 2l-41 -57q-16 -10 -39.5 -20.5t-51 -19.5t-55.5 -16.5t-50 -11.5l-35 340q43 6 95 23.5t104.5 44t100.5 61.5t85 78h346l-119 -871h238l-41 -319h-887z" />
<glyph unicode="2" d="M-18 0l36 297q172 100 277.5 173t164 127t79 96t20.5 83q0 53 -37 78t-96 25h-18l-43 -142h-273v420q14 4 50 13.5t88.5 17.5t116 14t130.5 6q98 0 184.5 -23.5t152 -70.5t103 -118.5t37.5 -166.5q0 -84 -29.5 -154.5t-78.5 -132t-113.5 -113.5t-136.5 -97l2 -15h162 l176 19l-43 -336h-911z" />
<glyph unicode="3" d="M27 20v336q16 -6 53 -15t84 -17.5t98 -14.5t96 -6q68 0 117 16.5t49 61.5q0 41 -45 52t-110 11h-164l35 291h168q70 0 115.5 19.5t45.5 68.5q0 33 -35.5 52.5t-99.5 19.5h-12l-29 -86h-274v352q53 12 114 23q53 10 119 17t137 7q98 0 186.5 -19.5t153 -60.5t102.5 -102 t38 -145q0 -94 -47.5 -166t-126.5 -109l-2 -10q45 -27 85 -80t40 -143q0 -115 -50.5 -191t-130.5 -120t-181 -62t-202 -18q-37 0 -82 3t-90 7t-86 11t-69 17z" />
<glyph unicode="4" d="M-16 170l39 324l446 696h467l-90 -723h106l-34 -297h-109l-23 -170h-370l22 170h-454zM328 467h159l33 262l23 59q-2 0 -5 2.5t-8 2.5l-155 -285l-47 -31v-10z" />
<glyph unicode="5" d="M4 33l62 352h286v-86h33q78 0 118 28.5t40 75.5q0 18 -12.5 36t-41 31t-80 21.5t-126.5 8.5h-156l84 690h764l-41 -342l-170 20h-209l-12 -92q182 -20 288.5 -100t106.5 -242q0 -123 -48 -210t-128 -140t-182.5 -77.5t-208.5 -24.5q-102 0 -201.5 14t-165.5 37z" />
<glyph unicode="6" d="M29 469q0 150 31.5 284t104.5 235.5t190.5 160.5t287.5 59q51 0 107.5 -5t105.5 -13t86 -17.5t53 -15.5l-61 -346h-285v80q-4 2 -19.5 3t-21.5 1q-137 0 -162 -145h48q96 0 181 -18.5t149.5 -59.5t101.5 -105.5t37 -156.5q0 -102 -35 -182.5t-97.5 -134.5t-151.5 -82.5 t-200 -28.5q-119 0 -204 38.5t-140 104t-80.5 155t-25.5 189.5zM403 410q0 -53 21.5 -82t69.5 -29q43 0 67.5 26.5t24.5 67.5t-37 61.5t-94 20.5h-45q-6 -37 -7 -65z" />
<glyph unicode="7" d="M104 756v434h930l-43 -340q-111 -90 -184.5 -204t-119.5 -229.5t-69.5 -222t-31.5 -178.5l-2 -16h-394l3 16q14 121 46.5 237t79 220.5t104.5 195.5t126 165l63 24v12h-213l-37 -114h-258z" />
<glyph unicode="8" d="M-6 285q0 98 51 171.5t141 127.5l2 10q-41 33 -72.5 92t-31.5 131q0 100 45 175t116.5 122t161 70.5t179.5 23.5q80 0 156.5 -17t136 -54t96.5 -93.5t37 -136.5q0 -100 -47 -166.5t-121 -113.5l-2 -11q41 -35 74.5 -96t33.5 -143q0 -102 -46 -177t-119.5 -123t-169 -71.5 t-193.5 -23.5q-82 0 -159 17t-137 54t-96 94.5t-36 137.5zM332 365q0 -39 32.5 -56.5t77.5 -17.5q43 0 84 17.5t41 58.5q0 29 -28.5 55.5t-98.5 42.5q-49 -14 -78.5 -43t-29.5 -57zM457 840q0 -31 33.5 -56.5t93.5 -35.5q39 16 64.5 36.5t25.5 55.5t-29 55t-76 20 q-43 0 -77.5 -17t-34.5 -58z" />
<glyph unicode="9" d="M18 33l62 346h285v-80q4 -2 19 -3t22 -1q137 0 161 145h-47q-96 0 -181 18.5t-149.5 59.5t-101.5 105.5t-37 156.5q0 102 35 182t97.5 134.5t151.5 83t200 28.5q119 0 203.5 -39t140 -104.5t81 -154.5t25.5 -189q0 -150 -31.5 -284t-104.5 -235.5t-190.5 -160.5 t-287.5 -59q-61 0 -117.5 5t-104 13t-81 17.5t-50.5 15.5zM428 797q0 -41 37 -61.5t94 -20.5h45q6 37 6 65q0 53 -21.5 82t-68.5 29q-43 0 -67.5 -26.5t-24.5 -67.5z" />
<glyph unicode=":" horiz-adv-x="419" d="M-16 133q0 90 58 143.5t148 53.5q74 0 117 -42t43 -110q0 -37 -13 -72.5t-39 -63.5t-62.5 -44t-83.5 -16q-80 0 -124 40.5t-44 110.5zM66 799q0 90 58 143t148 53q74 0 117 -42t43 -109q0 -80 -53.5 -138.5t-145.5 -58.5q-80 0 -123.5 41t-43.5 111z" />
<glyph unicode=";" horiz-adv-x="419" d="M-10 127q0 39 14 76t40 65.5t63.5 45t85.5 16.5q72 0 117.5 -41t45.5 -117q0 -70 -31.5 -120t-66.5 -91l-98 -125l-133 17l53 149q-31 8 -60.5 39t-29.5 86zM66 799q0 90 58 143t148 53q74 0 117 -42t43 -109q0 -86 -55.5 -141.5t-143.5 -55.5q-80 0 -123.5 41t-43.5 111 z" />
<glyph unicode="&#x3c;" d="M80 600l735 506l98 -188l-477 -318l402 -330l-142 -166z" />
<glyph unicode="=" d="M74 299l28 231h797l-29 -231h-796zM115 629l28 231h797l-29 -231h-796z" />
<glyph unicode="&#x3e;" d="M100 283l478 317l-402 330l141 166l617 -496l-735 -506z" />
<glyph unicode="?" horiz-adv-x="835" d="M119 133q0 90 58.5 143.5t148.5 53.5q74 0 116.5 -42t42.5 -110q0 -80 -53 -138t-145 -58q-80 0 -124 40.5t-44 110.5zM119 846v428q18 4 57 11t85 13.5t97.5 11.5t94.5 5q94 0 175 -22.5t140 -68.5t93 -115t34 -161q0 -174 -105.5 -281.5t-279.5 -156.5l-23 -111h-309 l35 291q57 6 109.5 20.5t93.5 41t65.5 63.5t24.5 86q0 35 -21.5 57.5t-50.5 26.5l-14 2l-41 -141h-260z" />
<glyph unicode="@" horiz-adv-x="1153" d="M-10 244q0 150 45 287t131 239t211 163.5t285 61.5q115 0 204.5 -36.5t151 -101t93.5 -150.5t32 -185q0 -113 -32 -208t-95.5 -164.5t-156.5 -109.5t-216 -40l-20 82h-9q-16 -29 -61 -55.5t-98 -26.5q-47 0 -81 20.5t-56.5 55.5t-34 79t-11.5 91q0 104 29 187t81 141.5 t125 90t163 31.5q72 0 112.5 -5t67.5 -9l-31 -133l-31 -258l7 -64q31 14 54 44t39.5 70t26 85t9.5 90q0 274 -291 275q-100 0 -179 -41t-132.5 -114t-82 -171t-28.5 -213q0 -166 89 -258t255 -92q125 0 213 34.5t162 73.5l-27 -223q-76 -37 -170 -63.5t-211 -26.5 q-135 0 -235.5 41t-166 113.5t-98 173t-32.5 219.5zM502 276q0 -66 26 -65q29 0 43.5 34t24.5 122l18 143h-8q-27 0 -46 -22.5t-32.5 -57.5t-19.5 -76t-6 -78z" />
<glyph unicode="A" horiz-adv-x="1177" d="M-53 0l336 975l-82 14l37 307h788l53 -977l74 -12l-37 -307h-481l16 176v33h-198l-56 -209h-450zM524 535h138v423l6 84h-11l-16 -84z" />
<glyph unicode="B" horiz-adv-x="1144" d="M27 0l41 201l104 776l-76 12l37 307h641q84 0 155.5 -19.5t123 -57t80 -96t28.5 -138.5q0 -66 -16.5 -118t-43 -90t-61 -62.5t-69.5 -36.5v-10q57 -29 98 -94.5t41 -165.5q0 -195 -121 -301.5t-340 -106.5h-622zM498 330h80q47 0 76.5 27.5t29.5 82.5q0 39 -25.5 62.5 t-62.5 23.5h-74zM553 780h90q45 0 68.5 31t23.5 72q0 39 -22.5 63.5t-59.5 24.5h-80z" />
<glyph unicode="C" horiz-adv-x="1040" d="M27 530q0 174 50 319.5t142 248t221 160t289 57.5q59 0 115.5 -6t105.5 -14.5t88 -17.5t64 -17l-76 -457h-293v143h-20q-55 0 -98.5 -28.5t-73 -76.5t-45 -112.5t-15.5 -138.5q0 -111 54.5 -175.5t166.5 -64.5q72 0 148 29t127 84v-373q-66 -45 -167 -76.5t-243 -31.5 q-123 0 -222 36.5t-170 107.5t-109.5 173t-38.5 231z" />
<glyph unicode="D" horiz-adv-x="1187" d="M27 0l43 201l104 776l-76 12l37 307h481q293 0 439.5 -129t146.5 -401q0 -203 -45 -348.5t-135 -238.5t-223 -136t-307 -43h-465zM516 354h16q59 0 103.5 21.5t73 67.5t43 122t14.5 187q0 98 -36 144t-124 46h-18z" />
<glyph unicode="E" horiz-adv-x="1030" d="M27 0l39 201l106 776l-76 12l37 307h948l-43 -354h-454l-15 -141h424l-39 -314h-422l-20 -151h483l-47 -336h-921z" />
<glyph unicode="F" horiz-adv-x="978" d="M27 0l41 201l104 776l-76 12l37 307h930l-72 -422h-293l-4 68h-110l-21 -168h395l-38 -313h-394l-16 -139l76 -15l-37 -307h-522z" />
<glyph unicode="G" horiz-adv-x="1124" d="M25 506q0 193 50 344t145 253.5t231.5 157t308.5 54.5q106 0 212.5 -16.5t186.5 -38.5l-69 -408h-310v115h-35q-84 0 -139 -39t-89 -103.5t-47 -149.5t-13 -177q0 -80 33.5 -129.5t105.5 -49.5q35 0 52.5 4.5t31.5 8.5l16 149h-129l37 289h504l-86 -704 q-92 -29 -212 -56.5t-259 -27.5q-258 0 -392 136t-134 388z" />
<glyph unicode="H" horiz-adv-x="1200" d="M27 0l41 201l104 776l-76 12l37 307h496l-56 -460h146l55 460h445l-41 -200l-107 -777l76 -12l-37 -307h-494l60 492h-146l-59 -492h-444z" />
<glyph unicode="I" horiz-adv-x="606" d="M27 0l41 201l104 776l-76 12l37 307h496l-158 -1296h-444z" />
<glyph unicode="J" horiz-adv-x="753" d="M-10 -10v360q16 -4 44.5 -5t45.5 -1q74 0 120 33t56 110l59 474l-221 28l39 307h662l-41 -200l-76 -639q-31 -250 -166 -361.5t-410 -111.5q-10 0 -26.5 1t-33.5 2t-31.5 2t-20.5 1z" />
<glyph unicode="K" horiz-adv-x="1148" d="M27 0l43 201l106 776l-76 12l37 307h490l-62 -495h13l16 71l186 424h471l-331 -581l102 -393l90 -15l-39 -307h-434l-82 449h-10l-25 -39l-53 -410h-442z" />
<glyph unicode="L" horiz-adv-x="854" d="M27 0l43 201l104 776l-76 12l37 307h490l-115 -942h315l-43 -354h-755z" />
<glyph unicode="M" horiz-adv-x="1679" d="M4 0l47 201l131 776l-76 12l37 307h717l-18 -788l-6 -72h12l12 72l176 788h654l-39 -200l-115 -1096h-420l127 977h-12l-10 -55l-263 -922h-362v918l4 61h-12l-142 -979h-442z" />
<glyph unicode="N" horiz-adv-x="1222" d="M27 0l43 201l102 776l-76 12l37 307h543l117 -827h8v78l18 749h434l-45 -200l-143 -1096h-463l-104 838h-9v-78l-28 -760h-434z" />
<glyph unicode="O" horiz-adv-x="1191" d="M25 504q0 184 45 333.5t132 255t213 164t287 58.5q258 0 380 -138.5t122 -383.5q0 -393 -172 -602t-506 -209q-260 0 -380.5 136t-120.5 386zM481 483q0 -66 20.5 -107.5t80.5 -41.5q39 0 65.5 24.5t46 66.5t30.5 98.5t19 119.5q4 43 8.5 84t4.5 74q0 66 -21.5 107.5 t-75.5 41.5q-39 0 -66.5 -25.5t-48 -67.5t-32.5 -96.5t-18 -113.5q-6 -47 -9.5 -89t-3.5 -75z" />
<glyph unicode="P" horiz-adv-x="1110" d="M27 0l39 201l104 776l-76 12l37 307h561q217 0 333 -102t116 -301q0 -125 -38 -219t-104.5 -157.5t-158.5 -95.5t-201 -32h-125l-8 -70l76 -12l-37 -307h-518zM541 729h67q55 0 85 36t30 89q0 47 -25.5 72.5t-66.5 25.5h-64z" />
<glyph unicode="Q" horiz-adv-x="1191" d="M25 504q0 188 46 338.5t132 255t211 161t282 56.5q266 0 387 -137.5t121 -382.5q0 -174 -29.5 -303.5t-85 -221.5t-134 -152.5t-175.5 -99.5l-6 -12l98 -239h-430l-55 227q-96 14 -163.5 58t-112.5 110.5t-65.5 152.5t-20.5 189zM481 483q0 -66 20.5 -107.5t80.5 -41.5 q39 0 66.5 24.5t47 67.5t31.5 99.5t18 119.5q4 43 7.5 83t3.5 73q0 70 -21.5 109.5t-75.5 39.5q-39 0 -66.5 -24.5t-48 -66.5t-32.5 -97.5t-18 -116.5q-6 -45 -9.5 -87t-3.5 -75z" />
<glyph unicode="R" horiz-adv-x="1155" d="M27 0l39 201l106 776l-76 12l37 307h639q172 0 278.5 -83t106.5 -250q0 -131 -61.5 -222.5t-169.5 -126.5v-8q55 -18 81.5 -68.5t30.5 -138.5l4 -80l80 -12l-37 -307h-450v358q0 68 -19.5 95.5t-72.5 27.5h-15l-57 -481h-444zM543 752h73q53 0 83 34.5t30 87.5 q0 39 -22.5 63t-63.5 24h-74z" />
<glyph unicode="S" horiz-adv-x="1032" d="M-12 31l67 393h273v-121h49q78 0 121 19.5t43 66.5q0 33 -31 51.5t-100 46.5q-57 23 -114.5 52.5t-104 73.5t-75 104.5t-28.5 144.5q0 6 1 12.5t1 14.5q14 113 63.5 193.5t125 133t174 76t213.5 23.5q109 0 211 -14.5t188 -34.5l-68 -392h-274v123h-39q-66 0 -112 -17 t-46 -67q0 -35 38 -56t108 -50q59 -25 116.5 -54.5t101.5 -71.5t70.5 -98.5t26.5 -131.5q0 -133 -54 -222.5t-141 -144.5t-199 -78.5t-224 -23.5q-94 0 -194.5 12t-186.5 37z" />
<glyph unicode="T" horiz-adv-x="907" d="M70 950l41 346h884l-41 -346h-233l-119 -950h-446l45 201l104 749h-235z" />
<glyph unicode="U" horiz-adv-x="1148" d="M68 352q0 27 2 54.5t6 56.5l78 514l-70 12l39 307h485l-102 -833q-2 -10 -2 -19.5v-17.5q0 -37 13 -56.5t48 -19.5q47 0 63.5 28t24.5 85l84 633v200h443l-103 -829q-31 -250 -164 -367.5t-391 -117.5q-219 0 -336.5 87t-117.5 283z" />
<glyph unicode="V" horiz-adv-x="1144" d="M76 989l37 307h471l-31 -876l-8 -88h12q4 33 7 51t5 27l2 10l166 676l27 200h477l-428 -1296h-610l-53 977z" />
<glyph unicode="W" horiz-adv-x="1738" d="M76 989l37 307h475l-68 -964h15l12 88l155 676l27 200h502l-41 -876l-12 -88h14l154 764l22 200h467l-365 -1296h-557l29 850l6 92h-12l-14 -92l-209 -850h-553l-15 977z" />
<glyph unicode="X" horiz-adv-x="1163" d="M-47 0l291 666l-60 303l-94 20l37 307h465l29 -395l-7 -78h13l14 78l61 195l43 200h500l-284 -630l63 -340l94 -19l-37 -307h-469l-30 424v59h-13l-8 -59l-61 -223l-41 -201h-506z" />
<glyph unicode="Y" horiz-adv-x="1087" d="M76 989l37 307h417l31 -452l-6 -82h10l19 82l82 256l34 196h484l-443 -870l-51 -426h-438l51 426l-133 547z" />
<glyph unicode="Z" horiz-adv-x="1089" d="M-12 0l45 395l563 535l51 20l-2 13h-211l-33 -99h-276v432h1008l-48 -395l-516 -526l-57 -23v-12h203l35 96h270v-436h-1032z" />
<glyph unicode="[" horiz-adv-x="468" d="M-12 -211l170 1401h377l-27 -221h-148l-118 -961h147l-27 -219h-374z" />
<glyph unicode="\" horiz-adv-x="630" d="M88 1190h234l247 -1190h-237z" />
<glyph unicode="]" horiz-adv-x="468" d="M-59 -211l26 219h146l118 961h-147l27 221h372l-172 -1401h-370z" />
<glyph unicode="^" d="M4 369l559 692l398 -688l-179 -131l-256 450l-350 -448z" />
<glyph unicode="_" horiz-adv-x="1064" d="M-102 -358l28 231h1063l-28 -231h-1063z" />
<glyph unicode="`" horiz-adv-x="983" d="M293 1167l113 238l456 -199l-112 -114z" />
<glyph unicode="a" horiz-adv-x="989" d="M4 330q0 147 42 270t122 210t195.5 136t263.5 49q100 0 197.5 -6t174.5 -16l-47 -203l-67 -485l67 -9l-34 -276q-25 -6 -52 -10q-23 -4 -52.5 -6t-57.5 -2q-76 0 -124 34.5t-59 100.5l-6 45h-12q-37 -86 -108.5 -133t-159.5 -47q-76 0 -129.5 25.5t-87 71.5t-50 109.5 t-16.5 141.5zM393 401q0 -47 12.5 -70.5t43.5 -23.5t50 22.5t31.5 58.5t20.5 83t14 96l19 133h-17q-47 0 -79.5 -29.5t-53 -74.5t-31 -97.5t-10.5 -97.5z" />
<glyph unicode="b" horiz-adv-x="1001" d="M0 10l41 187l145 1175l482 21l-33 -256l-100 -17l-25 -215h14q23 29 79 59.5t126 30.5t121 -26.5t84 -72.5t48 -108.5t15 -132.5q0 -133 -36.5 -253.5t-117.5 -215t-208 -149.5t-305 -55q-31 0 -73 2t-86 5t-89 8t-82 13zM416 279h20q47 0 80 31.5t52.5 79.5t28.5 102.5 t9 97.5q0 51 -12 81.5t-41 30.5q-31 0 -52.5 -28.5t-34.5 -72.5t-20.5 -95t-13.5 -94q-2 -12 -4 -34t-6 -44q-4 -25 -6 -55z" />
<glyph unicode="c" horiz-adv-x="827" d="M6 412q0 139 45 247.5t125 183.5t188.5 113.5t235.5 38.5q66 0 134.5 -10t133.5 -24l-71 -373h-250v110q-33 0 -60.5 -22.5t-48 -56t-32 -74.5t-11.5 -78q0 -76 43 -127t123 -51q66 0 119 28.5t88 61.5v-313q-18 -10 -49 -24.5t-74 -28t-96 -22.5t-117 -9 q-102 0 -181 30.5t-133.5 88t-83 136t-28.5 175.5z" />
<glyph unicode="d" horiz-adv-x="987" d="M4 317q0 139 39 262t113.5 215.5t185.5 146.5t256 54h10l15 115l-86 16l30 246l467 21l-39 -205l-110 -903l67 -9l-34 -274q-23 -6 -50 -10q-51 -10 -118 -10q-80 0 -123 36.5t-54 98.5l-8 45h-12q-12 -33 -35.5 -64.5t-57.5 -57.5t-78 -42t-95 -16q-147 0 -215 93 t-68 242zM393 401q0 -47 12.5 -70.5t43.5 -23.5t50 22.5t31.5 58.5t20.5 83t14 96l19 133h-17q-47 0 -79.5 -29.5t-53 -74.5t-31 -97.5t-10.5 -97.5z" />
<glyph unicode="e" horiz-adv-x="948" d="M4 410q0 129 40 237.5t116 185t185.5 119.5t246.5 43q76 0 142.5 -20.5t115.5 -57t76.5 -88t27.5 -112.5q0 -88 -36.5 -148.5t-99 -100.5t-144.5 -62.5t-172 -32.5l-113 -13q4 -57 41 -79.5t111 -22.5h13t13 2q8 0 13 2l28 76h248v-295q-23 -8 -64.5 -18.5t-96 -19.5 t-114 -16t-114.5 -7q-117 0 -203 30.5t-144.5 87t-87 135t-28.5 175.5zM393 537q41 2 79 10t67.5 23.5t47 38t17.5 55.5q0 35 -19.5 51t-52.5 16q-59 0 -94 -55t-45 -127v-12z" />
<glyph unicode="f" horiz-adv-x="638" d="M-55 -45q31 -10 49 -10q49 0 66.5 28.5t25.5 83.5l78 633h-94l32 275l105 12l8 74q8 78 32.5 142t69.5 110.5t113 71t164 24.5q31 0 56.5 -2t45.5 -4q23 -4 41 -7v-290q-10 4 -30.5 6t-26.5 2q-45 0 -73.5 -20.5t-28.5 -73.5q0 -16 2 -23q0 -6 2 -10h110l-35 -287h-116 l-78 -629q-27 -211 -122 -317t-294 -106q-29 0 -60.5 3t-41.5 5v309z" />
<glyph unicode="g" horiz-adv-x="980" d="M-31 -324l51 322h248v-86q63 0 105.5 10t70 31.5t45 57.5t31.5 85l19 66h-13q-35 -59 -96 -86t-137 -27q-70 0 -123 24.5t-90 68.5t-55.5 103.5t-18.5 131.5q0 143 43 258t124 194.5t196.5 122.5t261.5 43q100 0 195.5 -6t172.5 -16l-49 -203l-84 -659 q-16 -129 -67 -219.5t-128 -145.5t-172.5 -79.5t-201.5 -24.5q-115 0 -198 12t-130 22zM393 406q0 -96 56 -97q31 0 50 23.5t32.5 62.5t21.5 86t14 97l17 120h-17q-47 0 -79.5 -27.5t-53 -70.5t-31 -94t-10.5 -100z" />
<glyph unicode="h" horiz-adv-x="1019" d="M16 0l168 1372l473 21l-32 -267l-93 -16l-28 -231h12q35 41 99.5 79.5t142.5 38.5q117 0 169 -63.5t52 -173.5q-2 -18 -2 -38t-4 -40l-58 -397l68 -9l-35 -276q-37 -4 -93 -11t-120 -7q-109 0 -158 46t-49 142q0 12 1 26.5t3 30.5l50 396q2 10 2 17v9q0 16 -8.5 28.5 t-28.5 12.5q-39 0 -55.5 -37t-26.5 -108l-68 -545h-381z" />
<glyph unicode="i" horiz-adv-x="534" d="M47 170q0 12 1 26.5t3 30.5l62 463l-66 10l33 267l170 6l-144 180l265 252l213 -252l-193 -174l129 8l-86 -702l68 -9l-35 -276q-37 -4 -93.5 -11t-119.5 -7q-109 0 -158 46t-49 142z" />
<glyph unicode="j" horiz-adv-x="563" d="M-92 -45q16 -4 27.5 -7t27.5 -3q47 0 67.5 27.5t26.5 80.5l78 633l-94 14l33 265l205 8l-144 180l264 252l213 -252l-194 -176l151 10l-43 -190l-90 -742q-27 -213 -131 -315t-301 -102q-20 0 -52 3t-44 7v307z" />
<glyph unicode="k" horiz-adv-x="970" d="M-4 0l39 178l125 928l-68 10l33 256l438 21l-92 -727l12 -2l21 61l137 252h408l-275 -379l84 -307l82 -15l-35 -276q-20 -6 -45 -10q-23 -4 -52.5 -6t-64.5 -2q-119 0 -173 50t-74 148l-35 172h-10l-17 -26l-43 -326h-395z" />
<glyph unicode="l" horiz-adv-x="536" d="M49 170q0 12 1 26.5t3 30.5l115 879l-68 10l33 256l440 21l-137 -1108l72 -9l-35 -276q-37 -4 -95.5 -11t-121.5 -7q-109 0 -158 46t-49 142z" />
<glyph unicode="m" horiz-adv-x="1509" d="M18 0l97 690l-68 10l35 277q39 8 86 13t82 5q86 0 129 -32.5t59 -88.5h13q41 47 109.5 84t166.5 37q162 0 217 -121h12q41 47 113 84t160 37q123 0 181 -60.5t58 -172.5q0 -37 -6 -80l-57 -397l72 -9l-35 -276q-37 -4 -95.5 -11t-121.5 -7q-109 0 -158 46t-49 142 q0 12 1 26.5t3 30.5l47 394q2 12 2 18v10q0 41 -37 41q-41 0 -55 -41t-23 -108l-67 -541h-381l76 614q2 12 2 19.5v11.5q0 45 -37 45q-41 0 -55.5 -36t-24.5 -113l-68 -541h-383z" />
<glyph unicode="n" horiz-adv-x="1024" d="M18 0l97 690l-68 10l35 277q39 8 86 13t82 5q96 0 136 -41t48 -100h12q41 51 117 96t174 45q123 0 183.5 -66.5t60.5 -172.5v-37t-4 -37l-57 -397l71 -9l-35 -276q-37 -4 -95 -11t-122 -7q-109 0 -158 46t-49 142q0 12 1.5 26.5t3.5 30.5l47 391q2 14 2 19.5v9.5 q0 43 -39 43q-41 0 -54.5 -36t-23.5 -113l-68 -541h-383z" />
<glyph unicode="o" horiz-adv-x="968" d="M6 391q0 133 36 245t104.5 191.5t170 123.5t232.5 44q213 0 313.5 -112.5t100.5 -298.5q0 -139 -36 -251t-106.5 -189.5t-173 -119.5t-237.5 -42q-106 0 -183 29.5t-126.5 82.5t-72 129t-22.5 168zM393 395q0 -53 15.5 -78.5t52.5 -25.5q53 0 76.5 51t33.5 145 q2 20 4.5 42t2.5 44q0 55 -15.5 83t-54.5 28q-53 0 -75 -53t-32 -139q-4 -25 -6 -49.5t-2 -47.5z" />
<glyph unicode="p" horiz-adv-x="1001" d="M-41 -350l39 182l117 858l-70 10l35 277q39 8 86 13t82 5q96 0 136 -42t48 -99h12q45 59 117 100t152 41q74 0 128 -27.5t88 -76.5t50 -114.5t16 -139.5q0 -141 -38.5 -258t-113.5 -201t-185.5 -131t-251.5 -47h-11l-10 -80l84 -12l-31 -238zM418 289h14q49 0 82 29.5 t54.5 73.5t30.5 97.5t9 102.5q0 45 -12 71.5t-43 26.5t-50.5 -22.5t-31.5 -60.5t-20.5 -89t-16.5 -108z" />
<glyph unicode="q" horiz-adv-x="987" d="M4 332q0 141 38 262t117 210t200.5 140t289.5 51q78 0 173.5 -5t174.5 -15l-43 -184l-139 -1123l-473 -20l33 262l98 16l19 148h-13q-23 -35 -81 -63.5t-122 -28.5q-135 0 -203.5 94t-68.5 256zM393 401q0 -47 12.5 -70.5t43.5 -23.5t50 22.5t31.5 58.5t20.5 83t14 96 l19 133h-17q-47 0 -79.5 -29.5t-53 -74.5t-31 -97.5t-10.5 -97.5z" />
<glyph unicode="r" horiz-adv-x="688" d="M18 0l95 690l-66 10l33 277q41 8 82 13t76 5q86 0 130 -38.5t48 -100.5h10q53 66 117.5 102.5t171.5 36.5v-325q-14 4 -30.5 6t-31.5 2q-100 0 -142 -59.5t-54 -163.5l-56 -455h-383z" />
<glyph unicode="s" horiz-adv-x="868" d="M-27 29l56 309h243v-90h54q59 0 84.5 18.5t25.5 46.5q0 14 -13 30.5t-50 31.5q-55 18 -110.5 42.5t-98.5 57.5t-70.5 78t-27.5 106q0 102 47 168t118.5 103t159.5 51t170 14q92 0 178 -13t152 -30l-57 -311h-238v107h-33q-47 0 -77.5 -18.5t-30.5 -53.5q0 -16 14 -32.5 t35 -25.5q55 -20 111.5 -42.5t100.5 -55.5t72.5 -77t28.5 -107q0 -104 -46 -172t-118.5 -109t-164 -57t-179.5 -16q-41 0 -86 4t-90 10t-86 14t-74 19z" />
<glyph unicode="t" horiz-adv-x="608" d="M39 690l33 275l86 12l65 215l334 104l-33 -319h113l-35 -287h-110l-39 -315q-2 -8 -2 -25q0 -67 67 -67h2q27 0 62 12l-84 -295q-25 -6 -52 -10q-23 -4 -50 -6t-50 -2q-158 0 -224.5 69.5t-66.5 196.5q0 57 13 125l51 317h-80z" />
<glyph unicode="u" horiz-adv-x="1024" d="M43 698l35 277q37 4 95 11t122 7q109 0 158 -47t49 -141q0 -12 -1 -26.5t-3 -30.5l-47 -369q-2 -12 -3.5 -29.5t-1.5 -27.5q0 -37 39 -37q41 0 55.5 38.5t24.5 110.5l68 541h383l-96 -690l67 -11l-35 -276q-39 -8 -86 -13t-82 -5q-96 0 -136 40.5t-48 100.5h-12 q-41 -51 -119 -96t-176 -45q-129 0 -185.5 64.5t-56.5 174.5q2 16 2 34.5t4 39.5l58 397z" />
<glyph unicode="v" d="M43 700l33 267l411 20v-620l-8 -68h10q23 51 47.5 126t43.5 142q16 57 26 110.5t17 98.5v197q14 4 37.5 8t48 7t49 5t41.5 2q113 0 164 -40t51 -134q0 -86 -30 -185t-75 -198q-33 -72 -69.5 -138.5t-71.5 -123.5t-66.5 -103t-52.5 -73h-454l-86 688z" />
<glyph unicode="w" horiz-adv-x="1519" d="M43 700l33 267l411 20v-620l-8 -68h10q20 47 42 107.5t40.5 124t32.5 125t21 110.5v207q14 4 37.5 8t48 7t48 5t40.5 2q113 0 164 -40t51 -134q0 -31 -5 -67.5t-16 -71.5l23 -315l-8 -68h10q23 49 46 122t42 138q16 59 28.5 109.5t18.5 97.5v207q14 4 37.5 8t48.5 7 t48.5 5t39.5 2q113 0 164 -40t51 -134t-36 -202.5t-87 -217.5q-31 -66 -65.5 -127t-66.5 -113t-60.5 -93t-48.5 -68h-394l-12 225l21 64l-11 2q-25 -41 -52.5 -85t-55 -84t-50 -73t-36.5 -49h-393l-86 688z" />
<glyph unicode="x" horiz-adv-x="980" d="M-45 0l219 516l-49 166l-78 18l35 277q37 4 86 11t113 7q102 0 149 -42t62 -124l30 -194h10v65l35 93l41 184h422l-229 -463l51 -211l80 -16l-35 -287q-37 -6 -80 -12t-106 -6q-102 0 -152.5 42t-62.5 126l-33 210h-10v-67l-47 -121l-31 -172h-420z" />
<glyph unicode="y" d="M-29 -51q18 -4 42 -6t40 -2q102 0 169 42t108 119h-146l-73 586l-66 12l31 267l420 20l-9 -620l-8 -68h10q23 49 47.5 119.5t41.5 136.5q16 59 27 113.5t18 101.5v203q33 10 88 17t90 7q115 0 165 -41t50 -139q0 -72 -30 -171t-77 -210q-53 -129 -123.5 -253t-136.5 -218 q-68 -94 -132 -155.5t-133 -98.5t-145.5 -52t-166.5 -15q-29 0 -57.5 2t-43.5 4v299z" />
<glyph unicode="z" horiz-adv-x="892" d="M-29 0l37 324l484 374l49 17l-2 10h-201l-37 -92h-223v344h835l-41 -336l-442 -358l-51 -19l2 -10h207l35 94h225q0 -4 1 -20.5t1 -38.5q0 -90 -16.5 -148.5t-51 -94.5t-88 -50t-129.5 -14q-45 0 -97 3t-122 6t-161 6t-214 3z" />
<glyph unicode="{" horiz-adv-x="479" d="M-12 485v9l71 79q14 16 23.5 27.5t13.5 23t6 23.5t4 31l35 274q8 66 25.5 111t48.5 73.5t75 41t107 12.5h150l-27 -221h-104q-27 0 -36 -6.5t-13 -36.5l-37 -301q-4 -35 -13.5 -55.5t-40.5 -55.5l-22 -25l22 -38q10 -18 16.5 -33t6.5 -31v-15.5t-4 -33.5l-33 -268 q-2 -10 -3 -21.5t-1 -15.5q0 -16 9 -20.5t32 -4.5h102l-26 -219h-150q-111 0 -156.5 40t-45.5 136q0 14 1 29.5t3 32.5l34 274q2 12 3.5 21.5t1.5 17.5q0 18 -7.5 32.5t-19.5 33.5z" />
<glyph unicode="|" horiz-adv-x="370" d="M-23 -264l179 1454h231l-180 -1454h-230z" />
<glyph unicode="}" horiz-adv-x="479" d="M-70 -211l27 221h104q27 0 36 6.5t14 36.5l36 301q4 35 13.5 55.5t40.5 55.5l22 24l-22 39q-10 18 -16.5 32.5t-6.5 31.5v15t4 34l33 268q2 10 3 21.5t1 15.5q0 16 -9 20.5t-32 4.5h-102l26 219h150q111 0 157 -40t46 -136q0 -14 -1 -29.5t-3 -32.5l-35 -274 q-2 -12 -3 -21.5t-1 -17.5q0 -18 7 -32.5t19 -33.5l51 -79v-9l-71 -79q-16 -16 -24.5 -27.5t-12.5 -23t-6 -24t-4 -30.5l-35 -274q-16 -131 -73.5 -184.5t-182.5 -53.5h-150z" />
<glyph unicode="~" d="M76 426l28 238q29 23 93.5 46t144.5 23q39 0 82 -12t86 -27.5t85 -28t83 -12.5q39 0 74.5 9.5t66.5 21.5t53.5 26.5t36.5 24.5l-28 -239q-29 -23 -94.5 -46.5t-143.5 -23.5q-39 0 -81 12.5t-85 26.5t-86 26.5t-82 12.5q-78 0 -141.5 -29t-91.5 -49z" />
<glyph unicode="&#xa1;" horiz-adv-x="497" d="M-104 -319l188 899h315l-112 -899h-391zM90 799q0 80 55.5 138t143.5 58q80 0 123 -41t43 -110q0 -92 -57.5 -144.5t-147.5 -52.5q-76 0 -118 41t-42 111z" />
<glyph unicode="&#xa2;" d="M49 457q0 135 37 244.5t103.5 190.5t156.5 132t199 72l24 200h193l-23 -194q78 -4 146.5 -17.5t113.5 -27.5l-53 -387h-268v100h-23q-45 0 -81.5 -19.5t-64.5 -54t-43 -82t-15 -102.5q0 -92 50 -146.5t144 -54.5q78 0 146.5 31t109.5 72v-342q-49 -33 -125 -54.5 t-174 -31.5l-24 -199h-193l29 207q-78 10 -144.5 45t-116 94.5t-77 140t-27.5 183.5z" />
<glyph unicode="&#xa3;" d="M-29 0l52 281l116 28l17 127h-160l45 197h137l8 57q14 119 53.5 198t103 126t153.5 67.5t206 20.5q37 0 83 -5t91.5 -11.5t83 -14.5t54.5 -14l-60 -344h-256v78h-22q-88 0 -103 -123l-4 -35h326l-47 -197h-301l-15 -117h224l170 17l-43 -336h-912z" />
<glyph unicode="&#xa4;" d="M35 276l145 138q-14 31 -24.5 67.5t-10.5 79.5q0 55 12.5 99.5t41.5 93.5l-107 129l187 174l104 -129q43 18 80 26.5t82 8.5q41 0 85 -11.5t81 -31.5l143 135l135 -164l-139 -129q14 -33 24.5 -71t10.5 -79q0 -57 -13.5 -111.5t-40.5 -99.5l101 -118l-187 -172l-102 122 q-41 -18 -84 -25t-86 -7q-37 0 -82 13t-80 34l-145 -133zM369 569q0 -57 41 -98t96 -41q63 0 108 46t45 118q0 57 -40.5 98t-96.5 41q-68 0 -110.5 -49t-42.5 -115z" />
<glyph unicode="&#xa5;" d="M8 307l49 197h185l-23 80h-180l51 196h76l-82 303h401l31 -319v-68h8l15 68l55 154l35 165h424l-158 -303h106l-49 -196h-159l-39 -80h215l-49 -197h-250l-39 -307h-395l38 307h-266z" />
<glyph unicode="&#xa6;" horiz-adv-x="370" d="M-23 -264l74 612h232l-76 -612h-230zM80 580l76 610h231l-76 -610h-231z" />
<glyph unicode="&#xa7;" horiz-adv-x="763" d="M-41 -195l47 299h201v-122h39q53 0 84.5 24.5t31.5 69.5q0 29 -22.5 54.5t-73.5 53.5q-106 63 -171.5 130t-65.5 171q0 78 38.5 146.5t92.5 118.5q-12 25 -20.5 56.5t-8.5 70.5q0 86 35 148t93 103t133 60.5t155 19.5q74 0 134 -9t118 -23l-51 -299h-195v122h-33 q-51 -4 -87 -24.5t-36 -67.5q0 -33 27 -57.5t80 -56.5q53 -33 95 -64t70.5 -64.5t44 -73.5t15.5 -91q0 -82 -38 -150.5t-87 -118.5q12 -27 20.5 -58.5t8.5 -70.5q0 -86 -34 -148.5t-92 -102t-136 -59t-164 -19.5q-76 0 -141.5 10t-106.5 22zM287 528q0 -37 35.5 -67.5 t83.5 -59.5l36 -22q33 33 33 72q0 35 -33.5 65.5t-81.5 58.5l-43 25q-31 -33 -30 -72z" />
<glyph unicode="&#xa8;" horiz-adv-x="983" d="M307 1100l37 286h215l-37 -286h-215zM614 1100l37 286h215l-37 -286h-215z" />
<glyph unicode="&#xa9;" horiz-adv-x="1034" d="M84 901q0 104 38 195.5t103.5 159t153.5 106.5t190 39q100 0 189.5 -39t155 -106.5t104.5 -158.5t39 -196q0 -104 -39 -194.5t-104.5 -158t-154.5 -106.5t-190 -39q-102 0 -190 39t-153.5 106.5t-103.5 158t-38 194.5zM182 901q0 -84 31 -155.5t83 -126t122.5 -85 t150.5 -30.5t151 30.5t124 85t83.5 126t30.5 155.5q0 82 -30.5 154.5t-83.5 126t-124 85t-151 31.5t-150.5 -31.5t-122.5 -85t-83 -126t-31 -154.5zM315 858q0 80 25 139.5t69 99.5t102 60.5t126 20.5q43 0 82 -7.5t61 -11.5l-24 -198h-138v45h-10q-41 -4 -64.5 -39 t-23.5 -84q0 -41 24.5 -71t65.5 -30q37 0 69 12.5t50 34.5v-165q-63 -47 -178 -48q-45 0 -88 16.5t-76 47.5t-52.5 76t-19.5 102z" />
<glyph unicode="&#xaa;" horiz-adv-x="628" d="M55 799q0 90 25.5 164.5t75 128t120 83t160.5 29.5q61 0 121.5 -4t108.5 -10l-29 -125l-41 -293l41 -6l-23 -170q-14 -4 -30 -6q-14 -2 -31.5 -3t-36.5 -1q-47 0 -76.5 20.5t-36.5 61.5l-4 28h-8q-23 -53 -65.5 -81.5t-96.5 -28.5q-92 0 -133 58t-41 155zM293 844 q0 -59 37 -60q35 0 48 49.5t21 108.5l11 82h-11q-27 0 -47 -18.5t-33.5 -46t-19.5 -58.5t-6 -57z" />
<glyph unicode="&#xab;" horiz-adv-x="1034" d="M25 553l485 485l147 -172l-321 -313l248 -315l-197 -170zM424 553l487 485l150 -172l-324 -313l250 -315l-199 -170z" />
<glyph unicode="&#xac;" d="M86 629l29 231h815l-70 -561h-237l41 330h-578z" />
<glyph unicode="&#xad;" horiz-adv-x="593" d="M39 381l27 231h526l-29 -231h-524z" />
<glyph unicode="&#xae;" horiz-adv-x="1034" d="M84 901q0 104 38 195.5t103.5 159t153.5 106.5t190 39q100 0 189.5 -39t155 -106.5t104.5 -158.5t39 -196q0 -104 -39 -194.5t-104.5 -158t-154.5 -106.5t-190 -39q-102 0 -190 39t-153.5 106.5t-103.5 158t-38 194.5zM182 901q0 -84 31 -155.5t83 -126t122.5 -85 t150.5 -30.5t151 30.5t124 85t83.5 126t30.5 155.5q0 82 -30.5 154.5t-83.5 126t-124 85t-151 31.5t-150.5 -31.5t-122.5 -85t-83 -126t-31 -154.5zM311 627l19 92l43 303l-37 4l16 143h297q72 0 124 -34.5t52 -104.5q0 -55 -26.5 -92t-69.5 -51v-8q27 -10 34 -23.5 t11 -52.5l2 -29l33 -4l-18 -143h-203v153q0 47 -33 47h-16l-25 -200h-203zM551 938h24q47 0 48 55q0 35 -37 35h-25z" />
<glyph unicode="&#xaf;" horiz-adv-x="983" d="M260 1126l27 224h622l-26 -224h-623z" />
<glyph unicode="&#xb0;" horiz-adv-x="585" d="M72 895q0 141 82 227t221 86q125 0 184 -64.5t59 -166.5q0 -150 -79.5 -232.5t-227.5 -82.5q-123 0 -181 64.5t-58 168.5zM117 430l188 178l150 -178l-193 -170zM274 903q0 -35 11.5 -59.5t44.5 -24.5q53 0 68.5 46t15.5 106q0 33 -12.5 57.5t-43.5 24.5q-27 0 -43 -14.5 t-25 -36t-12.5 -48t-3.5 -51.5z" />
<glyph unicode="&#xb1;" d="M45 0l29 231h762l-29 -231h-762zM115 567l28 230h265l34 274h234l-35 -274h264l-28 -230h-265l-32 -274h-234l33 274h-264z" />
<glyph unicode="&#xb2;" horiz-adv-x="544" d="M35 594l20 164q98 47 154.5 79.5t85.5 57.5t37 42t8 36q0 25 -16.5 39t-42.5 14h-25l-20 -86h-144v236q8 2 29.5 6t50.5 8t62.5 7t64.5 3q49 0 95 -10t82 -32.5t57.5 -57.5t21.5 -84q0 -47 -15.5 -84t-42 -67.5t-62.5 -57.5t-79 -51l2 -8l43 20h58l94 10l-23 -184h-495z " />
<glyph unicode="&#xb3;" horiz-adv-x="528" d="M49 602v178q14 -6 65.5 -18t125.5 -12q35 0 60.5 8t25.5 37q0 23 -23.5 31t-60.5 8h-90l14 116h90q39 0 65.5 10.5t26.5 38.5q0 20 -21.5 30.5t-56.5 10.5l-10 -53h-164v189q35 10 94.5 17t122.5 7q49 0 95.5 -10t82 -30.5t56 -52.5t20.5 -75q0 -49 -27.5 -79.5 t-68.5 -51.5v-8q23 -10 46.5 -40t23.5 -77q0 -59 -29 -97t-75 -59.5t-101 -29.5t-111 -8q-47 0 -97 6t-79 14z" />
<glyph unicode="&#xb4;" horiz-adv-x="983" d="M301 1206l504 199l53 -238l-473 -75z" />
<glyph unicode="&#xb5;" horiz-adv-x="1017" d="M-39 -342l47 207l107 827l-72 8l35 277q37 4 95 11t122 7q109 0 158 -47t49 -141q0 -12 -1 -26.5t-3 -30.5l-47 -383q-2 -12 -3.5 -23.5t-1.5 -15.5q0 -41 41 -41q39 0 53.5 33.5t24.5 115.5l68 541h383l-96 -690l67 -11l-35 -276q-39 -8 -86 -13t-82 -5q-96 0 -136 40.5 t-48 100.5h-12q-16 -23 -32.5 -44.5t-38 -37.5t-49.5 -27.5t-65 -13.5l-45 -342h-397z" />
<glyph unicode="&#xb6;" horiz-adv-x="974" d="M43 711q0 201 125 318.5t381 117.5h477l-27 -215l-88 -12l-155 -1278h-232l156 1273h-84l-156 -1273h-317l27 215l86 12l67 549q-133 8 -196.5 89t-63.5 204z" />
<glyph unicode="&#xb7;" horiz-adv-x="419" d="M35 557q0 90 55 143.5t146 53.5q74 0 119.5 -42t45.5 -110q0 -80 -53 -138t-141 -58q-80 0 -126 40.5t-46 110.5z" />
<glyph unicode="&#xb8;" horiz-adv-x="983" d="M197 -338l45 135q18 -4 41.5 -6t42.5 -2q29 0 49 6t24 27q0 16 -16 24.5t-41 8.5q-18 0 -38.5 -3.5t-31.5 -5.5l47 154h166l-6 -45q55 -4 90 -40t35 -87q0 -92 -67.5 -139t-171.5 -47q-72 0 -112 8t-56 12z" />
<glyph unicode="&#xb9;" horiz-adv-x="516" d="M51 596l21 160h127l30 223l-6 2l-18 -31q-14 -10 -45 -19t-54 -13l-16 169q41 6 98.5 34t94.5 69h174l-60 -434h119l-20 -160h-445z" />
<glyph unicode="&#xba;" horiz-adv-x="614" d="M61 836q0 80 21.5 146.5t64.5 115.5t104.5 75.5t141.5 26.5q129 0 190.5 -68.5t61.5 -181.5q0 -170 -86 -268t-252 -98q-129 0 -187.5 68.5t-58.5 183.5zM299 836q0 -29 7 -46.5t30 -17.5q41 0 57.5 48t16.5 126q0 29 -9.5 47.5t-31.5 18.5q-23 0 -36.5 -16.5t-20.5 -43 t-10 -57t-3 -59.5z" />
<glyph unicode="&#xbb;" horiz-adv-x="1034" d="M-10 238l323 315l-250 313l195 172l369 -485l-488 -485zM389 238l328 315l-250 313l195 172l368 -485l-489 -485z" />
<glyph unicode="&#xbc;" horiz-adv-x="1216" d="M51 596l21 160h127l30 223l-6 2l-18 -31q-14 -10 -45 -19t-54 -13l-16 169q41 6 98.5 34t94.5 69h174l-60 -434h119l-20 -160h-445zM119 0l809 1190h180l-809 -1190h-180zM621 94l20 176l229 324h269l-41 -338h57l-18 -162h-60l-12 -94h-203l12 94h-253zM799 256h98 l18 143l17 33q-2 0 -3 1t-3 1l-101 -155l-26 -15v-8z" />
<glyph unicode="&#xbd;" horiz-adv-x="1253" d="M51 596l21 160h127l24 176l17 47l-7 2l-28 -31q-14 -10 -45 -19t-54 -13l-16 169q41 6 98.5 34t94.5 69h174l-60 -434h119l-20 -160h-445zM119 0l809 1190h180l-809 -1190h-180zM670 0l20 164q98 47 154.5 79.5t85 57.5t37 42t8.5 36q0 25 -16.5 39t-43.5 14h-24l-21 -86 h-143v240q8 2 29.5 5t50.5 6t62.5 6t64.5 3q49 0 95 -10t82 -32.5t57.5 -57.5t21.5 -84q0 -47 -15.5 -84t-42 -67.5t-62.5 -57.5t-79 -51l2 -8l43 20h58l94 10l-23 -184h-495z" />
<glyph unicode="&#xbe;" horiz-adv-x="1134" d="M49 602v178q14 -6 65.5 -18t125.5 -12q35 0 60.5 8t25.5 37q0 23 -23.5 31t-60.5 8h-90l14 116h90q39 0 65.5 10.5t26.5 38.5q0 20 -21.5 30.5t-56.5 10.5l-10 -53h-164v189q35 10 94.5 17t122.5 7q49 0 95.5 -10t82 -30.5t56 -52.5t20.5 -75q0 -49 -27.5 -79.5 t-68.5 -51.5v-8q23 -10 46.5 -40t23.5 -77q0 -59 -29 -97t-75 -59.5t-101 -29.5t-111 -8q-47 0 -97 6t-79 14zM96 0l809 1190h178l-809 -1190h-178zM543 94l20 176l230 324h268l-41 -338h57l-18 -162h-60l-12 -94h-203l13 94h-254zM721 256h98l19 143l16 33q-2 0 -3 1t-3 1 l-100 -155l-27 -15v-8z" />
<glyph unicode="&#xbf;" horiz-adv-x="835" d="M-59 27q0 174 105.5 281.5t279.5 156.5l22 110h309l-34 -290q-57 -6 -109.5 -20.5t-93.5 -41t-65.5 -63.5t-24.5 -86q0 -35 21.5 -57.5t49.5 -26.5l15 -2l41 141h260v-428q-18 -4 -57 -11t-85.5 -13.5t-97.5 -11.5t-94 -5q-94 0 -175 22.5t-140.5 68.5t-93 114.5 t-33.5 161.5zM350 797q0 80 53.5 138t145.5 58q80 0 124 -41t44 -110q0 -90 -58.5 -143.5t-148.5 -53.5q-74 0 -117 42t-43 110z" />
<glyph unicode="&#xc0;" horiz-adv-x="1177" d="M-53 0l336 975l-82 14l37 307h788l53 -977l74 -12l-37 -307h-481l16 176v33h-198l-56 -209h-450zM414 1448l112 238l457 -199l-113 -115zM524 535h138v423l6 84h-11l-16 -84z" />
<glyph unicode="&#xc1;" horiz-adv-x="1177" d="M-53 0l336 975l-82 14l37 307h788l53 -977l74 -12l-37 -307h-481l16 176v33h-198l-56 -209h-450zM395 1487l504 199l53 -238l-473 -76zM524 535h138v423l6 84h-11l-16 -84z" />
<glyph unicode="&#xc2;" horiz-adv-x="1177" d="M-53 0l336 975l-82 14l37 307h788l53 -977l74 -12l-37 -307h-481l16 176v33h-198l-56 -209h-450zM356 1462l269 183q20 14 41.5 19t38.5 5q18 0 39.5 -5t37.5 -19l224 -183l-111 -112l-221 73l-238 -73zM524 535h138v423l6 84h-11l-16 -84z" />
<glyph unicode="&#xc3;" horiz-adv-x="1177" d="M-53 0l336 975l-82 14l37 307h788l53 -977l74 -12l-37 -307h-481l16 176v33h-198l-56 -209h-450zM338 1393l55 200q23 12 73 32t134 20q25 0 56.5 -5.5t66.5 -11.5t68.5 -11t62.5 -5q80 0 128 12t73 23l-56 -201q-23 -12 -74 -31.5t-130 -19.5q-25 0 -57.5 5t-67.5 11 t-70 11t-61 5q-80 0 -128.5 -13t-72.5 -21zM524 535h138v423l6 84h-11l-16 -84z" />
<glyph unicode="&#xc4;" horiz-adv-x="1177" d="M-53 0l336 975l-82 14l37 307h788l53 -977l74 -12l-37 -307h-481l16 176v33h-198l-56 -209h-450zM424 1380l37 287h215l-37 -287h-215zM524 535h138v423l6 84h-11l-16 -84zM731 1380l37 287h215l-37 -287h-215z" />
<glyph unicode="&#xc5;" horiz-adv-x="1177" d="M-53 0l336 975l-82 14l37 307h788l53 -977l74 -12l-37 -307h-481l16 176v33h-198l-56 -209h-450zM467 1493q0 90 62.5 148.5t189.5 58.5q111 0 167 -48t56 -118q0 -92 -62.5 -145.5t-191.5 -53.5q-111 0 -166 46t-55 112zM524 535h138v423l6 84h-11l-16 -84zM664 1505 q0 -12 6 -22t26 -10q45 0 45 55q0 14 -6 24.5t-28 10.5q-25 0 -34 -19t-9 -39z" />
<glyph unicode="&#xc6;" horiz-adv-x="1583" d="M-59 0l338 977l-82 12l36 307h1330l-17 -354h-436l-6 -141h405l-16 -314h-403l-7 -151h441l-17 -336h-878l37 176l2 33h-217l-62 -209h-448zM549 551h137l33 436h-53l-4 -33z" />
<glyph unicode="&#xc7;" horiz-adv-x="1040" d="M27 530q0 174 50 319.5t142 248t221 160t289 57.5q59 0 115.5 -6t105.5 -14.5t88 -17.5t64 -17l-76 -457h-293v143h-20q-55 0 -98.5 -28.5t-73 -76.5t-45 -112.5t-15.5 -138.5q0 -111 54.5 -175.5t166.5 -64.5q72 0 148 29t127 84v-373q-59 -41 -147.5 -70.5 t-208.5 -35.5l-5 -29q55 -4 90 -40t35 -87q0 -92 -67.5 -139t-171.5 -47q-72 0 -112 8t-56 12l45 135q18 -4 41.5 -6t42.5 -2q29 0 49 6t25 27q0 16 -16.5 24.5t-41.5 8.5q-18 0 -38.5 -3.5t-30.5 -5.5l43 146q-197 31 -311.5 170t-114.5 368z" />
<glyph unicode="&#xc8;" horiz-adv-x="1030" d="M27 0l39 201l106 776l-76 12l37 307h948l-43 -354h-454l-15 -141h424l-39 -314h-422l-20 -151h483l-47 -336h-921zM358 1448l113 238l457 -199l-113 -115z" />
<glyph unicode="&#xc9;" horiz-adv-x="1030" d="M27 0l39 201l106 776l-76 12l37 307h948l-43 -354h-454l-15 -141h424l-39 -314h-422l-20 -151h483l-47 -336h-921zM352 1487l504 199l53 -238l-473 -76z" />
<glyph unicode="&#xca;" horiz-adv-x="1030" d="M27 0l39 201l106 776l-76 12l37 307h948l-43 -354h-454l-15 -141h424l-39 -314h-422l-20 -151h483l-47 -336h-921zM303 1462l268 183q20 14 42 19t38 5q18 0 40 -5t38 -19l223 -183l-110 -112l-221 73l-238 -73z" />
<glyph unicode="&#xcb;" horiz-adv-x="1030" d="M27 0l39 201l106 776l-76 12l37 307h948l-43 -354h-454l-15 -141h424l-39 -314h-422l-20 -151h483l-47 -336h-921zM371 1380l37 287h215l-37 -287h-215zM678 1380l37 287h215l-37 -287h-215z" />
<glyph unicode="&#xcc;" horiz-adv-x="606" d="M27 0l41 201l104 776l-76 12l37 307h496l-158 -1296h-444zM129 1448l113 238l456 -199l-112 -115z" />
<glyph unicode="&#xcd;" horiz-adv-x="606" d="M27 0l41 201l104 776l-76 12l37 307h496l-158 -1296h-444zM92 1487l504 199l53 -238l-473 -76z" />
<glyph unicode="&#xce;" horiz-adv-x="606" d="M27 0l41 201l104 776l-76 12l37 307h496l-158 -1296h-444zM78 1462l268 183q20 14 42 19t38 5q18 0 39.5 -5t38.5 -19l223 -183l-111 -112l-221 73l-237 -73z" />
<glyph unicode="&#xcf;" horiz-adv-x="606" d="M27 0l41 201l104 776l-76 12l37 307h496l-158 -1296h-444zM131 1380l37 287h215l-37 -287h-215zM438 1380l37 287h215l-37 -287h-215z" />
<glyph unicode="&#xd0;" horiz-adv-x="1189" d="M18 674l119 24l39 279l-76 12l37 307h486q580 0 579 -538q0 -199 -45 -342.5t-135 -235.5t-225 -136t-316 -44h-452l41 201l34 260l-69 -15zM516 354h14q59 0 103.5 18.5t74 64.5t45 123t15.5 196q0 98 -37 140t-123 46h-20l-19 -151l93 20l20 -225l-141 -31z" />
<glyph unicode="&#xd1;" horiz-adv-x="1222" d="M27 0l43 201l102 776l-76 12l37 307h543l112 -796h9v78l22 718h434l-45 -200l-143 -1096h-463l-100 799h-8v-78l-33 -721h-434zM379 1393l55 200q23 12 73 32t134 20q25 0 56.5 -5.5t66.5 -11.5t68.5 -11t62.5 -5q80 0 128 12t73 23l-56 -201q-23 -12 -74 -31.5 t-130 -19.5q-25 0 -58 5t-67.5 11t-69.5 11t-61 5q-80 0 -128.5 -13t-72.5 -21z" />
<glyph unicode="&#xd2;" horiz-adv-x="1191" d="M25 504q0 184 45 333.5t132 255t213 164t287 58.5q258 0 380 -138.5t122 -383.5q0 -393 -172 -602t-506 -209q-260 0 -380.5 136t-120.5 386zM426 1448l113 238l456 -199l-112 -115zM481 483q0 -66 20.5 -107.5t80.5 -41.5q39 0 65.5 24.5t46 66.5t30.5 98.5t19 119.5 q4 43 8.5 84t4.5 74q0 66 -21.5 107.5t-75.5 41.5q-39 0 -66.5 -25.5t-48 -67.5t-32.5 -96.5t-18 -113.5q-6 -47 -9.5 -89t-3.5 -75z" />
<glyph unicode="&#xd3;" horiz-adv-x="1191" d="M25 504q0 184 45 333.5t132 255t213 164t287 58.5q258 0 380 -138.5t122 -383.5q0 -393 -172 -602t-506 -209q-260 0 -380.5 136t-120.5 386zM422 1487l504 199l53 -238l-473 -76zM481 483q0 -66 20.5 -107.5t80.5 -41.5q39 0 65.5 24.5t46 66.5t30.5 98.5t19 119.5 q4 43 8.5 84t4.5 74q0 66 -21.5 107.5t-75.5 41.5q-39 0 -66.5 -25.5t-48 -67.5t-32.5 -96.5t-18 -113.5q-6 -47 -9.5 -89t-3.5 -75z" />
<glyph unicode="&#xd4;" horiz-adv-x="1191" d="M25 504q0 184 45 333.5t132 255t213 164t287 58.5q258 0 380 -138.5t122 -383.5q0 -393 -172 -602t-506 -209q-260 0 -380.5 136t-120.5 386zM371 1462l268 183q20 14 41.5 19t38.5 5q18 0 39.5 -5t38.5 -19l223 -183l-111 -112l-221 73l-237 -73zM481 483 q0 -66 20.5 -107.5t80.5 -41.5q39 0 65.5 24.5t46 66.5t30.5 98.5t19 119.5q4 43 8.5 84t4.5 74q0 66 -21.5 107.5t-75.5 41.5q-39 0 -66.5 -25.5t-48 -67.5t-32.5 -96.5t-18 -113.5q-6 -47 -9.5 -89t-3.5 -75z" />
<glyph unicode="&#xd5;" horiz-adv-x="1191" d="M25 504q0 184 45 333.5t132 255t213 164t287 58.5q258 0 380 -138.5t122 -383.5q0 -393 -172 -602t-506 -209q-260 0 -380.5 136t-120.5 386zM352 1393l56 200q23 12 72.5 32t133.5 20q25 0 56.5 -5.5t66.5 -11.5t69 -11t62 -5q80 0 128 12t73 23l-55 -201 q-23 -12 -74 -31.5t-131 -19.5q-25 0 -57.5 5t-67.5 11t-69.5 11t-61.5 5q-80 0 -128 -13t-73 -21zM481 483q0 -66 20.5 -107.5t80.5 -41.5q39 0 65.5 24.5t46 66.5t30.5 98.5t19 119.5q4 43 8.5 84t4.5 74q0 66 -21.5 107.5t-75.5 41.5q-39 0 -66.5 -25.5t-48 -67.5 t-32.5 -96.5t-18 -113.5q-6 -47 -9.5 -89t-3.5 -75z" />
<glyph unicode="&#xd6;" horiz-adv-x="1191" d="M25 504q0 184 45 333.5t132 255t213 164t287 58.5q258 0 380 -138.5t122 -383.5q0 -393 -172 -602t-506 -209q-260 0 -380.5 136t-120.5 386zM428 1380l37 287h215l-37 -287h-215zM481 483q0 -66 20.5 -107.5t80.5 -41.5q39 0 65.5 24.5t46 66.5t30.5 98.5t19 119.5 q4 43 8.5 84t4.5 74q0 66 -21.5 107.5t-75.5 41.5q-39 0 -66.5 -25.5t-48 -67.5t-32.5 -96.5t-18 -113.5q-6 -47 -9.5 -89t-3.5 -75zM735 1380l37 287h215l-37 -287h-215z" />
<glyph unicode="&#xd7;" d="M90 344l256 240l-199 237l181 170l196 -239l254 239l144 -168l-254 -237l196 -240l-176 -168l-201 238l-256 -238z" />
<glyph unicode="&#xd8;" horiz-adv-x="1191" d="M25 504q0 184 45 333.5t132 255t213 164t287 58.5q115 0 205 -31l43 76h140l-74 -127q96 -66 142 -176.5t46 -263.5q0 -393 -172 -602t-506 -209q-59 0 -110 7t-97 19l-51 -90h-139l82 143q-96 63 -141 175t-45 268zM481 539l228 397q-25 14 -50 14q-39 0 -66.5 -25.5 t-48 -67.5t-32.5 -96t-18 -114q-8 -57 -13 -108zM518 356q23 -23 64 -22q39 0 65.5 24.5t46 66.5t30.5 98.5t19 119.5q4 35 7.5 67.5t5.5 61.5z" />
<glyph unicode="&#xd9;" horiz-adv-x="1148" d="M68 352q0 27 2 54.5t6 56.5l78 514l-70 12l39 307h485l-102 -833q-2 -10 -2 -19.5v-17.5q0 -37 13 -56.5t48 -19.5q47 0 63.5 28t24.5 85l84 633v200h443l-103 -829q-31 -250 -164 -367.5t-391 -117.5q-219 0 -336.5 87t-117.5 283zM418 1448l112 238l457 -199l-113 -115 z" />
<glyph unicode="&#xda;" horiz-adv-x="1148" d="M68 352q0 27 2 54.5t6 56.5l78 514l-70 12l39 307h485l-102 -833q-2 -10 -2 -19.5v-17.5q0 -37 13 -56.5t48 -19.5q47 0 63.5 28t24.5 85l84 633v200h443l-103 -829q-31 -250 -164 -367.5t-391 -117.5q-219 0 -336.5 87t-117.5 283zM424 1487l504 199l53 -238l-473 -76z " />
<glyph unicode="&#xdb;" horiz-adv-x="1148" d="M68 352q0 27 2 54.5t6 56.5l78 514l-70 12l39 307h485l-102 -833q-2 -10 -2 -19.5v-17.5q0 -37 13 -56.5t48 -19.5q47 0 63.5 28t24.5 85l84 633v200h443l-103 -829q-31 -250 -164 -367.5t-391 -117.5q-219 0 -336.5 87t-117.5 283zM379 1462l268 183q20 14 42 19t38 5 q18 0 39.5 -5t38.5 -19l223 -183l-110 -112l-222 73l-237 -73z" />
<glyph unicode="&#xdc;" horiz-adv-x="1148" d="M68 352q0 27 2 54.5t6 56.5l78 514l-70 12l39 307h485l-102 -833q-2 -10 -2 -19.5v-17.5q0 -37 13 -56.5t48 -19.5q47 0 63.5 28t24.5 85l84 633v200h443l-103 -829q-31 -250 -164 -367.5t-391 -117.5q-219 0 -336.5 87t-117.5 283zM432 1380l37 287h215l-37 -287h-215z M739 1380l37 287h215l-37 -287h-215z" />
<glyph unicode="&#xdd;" horiz-adv-x="1087" d="M76 989l37 307h417l31 -452l-6 -82h10l19 82l82 256l34 196h484l-443 -870l-51 -426h-438l51 426l-133 547zM381 1487l504 199l53 -238l-473 -76z" />
<glyph unicode="&#xde;" horiz-adv-x="1110" d="M27 0l39 201l104 776l-76 12l37 307h494l-19 -145h119q188 0 292.5 -108.5t104.5 -292.5q0 -123 -37.5 -217.5t-105.5 -159t-160 -97t-198 -32.5h-125l-31 -244h-438zM522 586h68q55 0 85 35.5t30 89.5q0 47 -25 72.5t-66 25.5h-63z" />
<glyph unicode="&#xdf;" horiz-adv-x="1103" d="M2 0l39 178l65 512h-61l37 277l65 10q25 207 150 317.5t342 110.5q82 0 158.5 -21.5t135 -63.5t93.5 -102.5t35 -140.5q0 -92 -33 -153.5t-74 -104.5l-39 -41l-2 -10l31 -37q51 -61 91 -138t40 -175q0 -109 -38 -190t-101.5 -136t-147 -82.5t-176.5 -27.5q-12 0 -34.5 1 t-48 4t-49 6t-40.5 7l86 303q8 -2 16.5 -3t22.5 -1q57 0 88 35t31 82q0 41 -23.5 78.5t-51 76.5t-51 80t-23.5 88q0 45 19 82t62 99q18 29 38 56.5t20 63.5q0 25 -17.5 43.5t-46.5 18.5q-43 0 -65.5 -35t-28.5 -86l-121 -981h-393z" />
<glyph unicode="&#xe0;" horiz-adv-x="989" d="M4 330q0 147 42 270t122 210t195.5 136t263.5 49q100 0 197.5 -6t174.5 -16l-47 -203l-67 -485l67 -9l-34 -276q-25 -6 -52 -10q-23 -4 -52.5 -6t-57.5 -2q-76 0 -124 34.5t-59 100.5l-6 45h-12q-37 -86 -108.5 -133t-159.5 -47q-76 0 -129.5 25.5t-87 71.5t-50 109.5 t-16.5 141.5zM338 1167l113 238l456 -199l-112 -114zM393 401q0 -47 12.5 -70.5t43.5 -23.5t50 22.5t31.5 58.5t20.5 83t14 96l19 133h-17q-47 0 -79.5 -29.5t-53 -74.5t-31 -97.5t-10.5 -97.5z" />
<glyph unicode="&#xe1;" horiz-adv-x="989" d="M4 330q0 147 42 270t122 210t195.5 136t263.5 49q100 0 197.5 -6t174.5 -16l-47 -203l-67 -485l67 -9l-34 -276q-25 -6 -52 -10q-23 -4 -52.5 -6t-57.5 -2q-76 0 -124 34.5t-59 100.5l-6 45h-12q-37 -86 -108.5 -133t-159.5 -47q-76 0 -129.5 25.5t-87 71.5t-50 109.5 t-16.5 141.5zM340 1206l504 199l53 -238l-473 -75zM393 401q0 -47 12.5 -70.5t43.5 -23.5t50 22.5t31.5 58.5t20.5 83t14 96l19 133h-17q-47 0 -79.5 -29.5t-53 -74.5t-31 -97.5t-10.5 -97.5z" />
<glyph unicode="&#xe2;" horiz-adv-x="989" d="M4 330q0 147 42 270t122 210t195.5 136t263.5 49q100 0 197.5 -6t174.5 -16l-47 -203l-67 -485l67 -9l-34 -276q-25 -6 -52 -10q-23 -4 -52.5 -6t-57.5 -2q-76 0 -124 34.5t-59 100.5l-6 45h-12q-37 -86 -108.5 -133t-159.5 -47q-76 0 -129.5 25.5t-87 71.5t-50 109.5 t-16.5 141.5zM287 1196l268 182q20 14 41.5 19.5t38.5 5.5q18 0 39.5 -5t38.5 -20l223 -182l-111 -113l-221 74l-237 -74zM393 401q0 -47 12.5 -70.5t43.5 -23.5t50 22.5t31.5 58.5t20.5 83t14 96l19 133h-17q-47 0 -79.5 -29.5t-53 -74.5t-31 -97.5t-10.5 -97.5z" />
<glyph unicode="&#xe3;" horiz-adv-x="989" d="M4 330q0 147 42 270t122 210t195.5 136t263.5 49q100 0 197.5 -6t174.5 -16l-47 -203l-67 -485l67 -9l-34 -276q-25 -6 -52 -10q-23 -4 -52.5 -6t-57.5 -2q-76 0 -124 34.5t-59 100.5l-6 45h-12q-37 -86 -108.5 -133t-159.5 -47q-76 0 -129.5 25.5t-87 71.5t-50 109.5 t-16.5 141.5zM281 1112l55 201q23 12 73 31.5t134 19.5q25 0 56.5 -5t66 -11.5t68.5 -11.5t63 -5q80 0 128 12.5t72 22.5l-55 -201q-23 -12 -74 -31.5t-131 -19.5q-25 0 -57.5 5t-67 11.5t-69.5 11.5t-62 5q-80 0 -128 -13.5t-72 -21.5zM393 401q0 -47 12.5 -70.5 t43.5 -23.5t50 22.5t31.5 58.5t20.5 83t14 96l19 133h-17q-47 0 -79.5 -29.5t-53 -74.5t-31 -97.5t-10.5 -97.5z" />
<glyph unicode="&#xe4;" horiz-adv-x="989" d="M4 330q0 147 42 270t122 210t195.5 136t263.5 49q100 0 197.5 -6t174.5 -16l-47 -203l-67 -485l67 -9l-34 -276q-25 -6 -52 -10q-23 -4 -52.5 -6t-57.5 -2q-76 0 -124 34.5t-59 100.5l-6 45h-12q-37 -86 -108.5 -133t-159.5 -47q-76 0 -129.5 25.5t-87 71.5t-50 109.5 t-16.5 141.5zM350 1112l37 287h215l-37 -287h-215zM393 401q0 -47 12.5 -70.5t43.5 -23.5t50 22.5t31.5 58.5t20.5 83t14 96l19 133h-17q-47 0 -79.5 -29.5t-53 -74.5t-31 -97.5t-10.5 -97.5zM657 1112l37 287h215l-37 -287h-215z" />
<glyph unicode="&#xe5;" horiz-adv-x="989" d="M4 330q0 147 42 270t122 210t195.5 136t263.5 49q100 0 197.5 -6t174.5 -16l-47 -203l-67 -485l67 -9l-34 -276q-25 -6 -52 -10q-23 -4 -52.5 -6t-57.5 -2q-76 0 -124 34.5t-59 100.5l-6 45h-12q-37 -86 -108.5 -133t-159.5 -47q-76 0 -129.5 25.5t-87 71.5t-50 109.5 t-16.5 141.5zM389 1212q0 90 62.5 148.5t189.5 58.5q111 0 167 -48t56 -118q0 -92 -62.5 -145t-191.5 -53q-111 0 -166 46t-55 111zM393 401q0 -47 12.5 -70.5t43.5 -23.5t50 22.5t31.5 58.5t20.5 83t14 96l19 133h-17q-47 0 -79.5 -29.5t-53 -74.5t-31 -97.5t-10.5 -97.5z M586 1225q0 -12 6 -22.5t26 -10.5q45 0 46 55q0 14 -6.5 24.5t-28.5 10.5q-25 0 -34 -18.5t-9 -38.5z" />
<glyph unicode="&#xe6;" horiz-adv-x="1454" d="M-2 264q0 96 43 169t113.5 124t164 82t195.5 43l78 8q35 61 86 117.5t116.5 97.5t144.5 65.5t169 24.5q68 0 131.5 -18.5t110.5 -54t75.5 -88t28.5 -119.5q0 -82 -31.5 -144.5t-87 -108.5t-129 -76t-157.5 -44l-119 -20q8 -37 36.5 -55.5t73.5 -18.5h29q6 0 10 2l33 82 h248v-289q-51 -18 -149.5 -39.5t-249.5 -21.5q-47 0 -96.5 9t-95.5 24.5t-84 38t-62 48.5h-17q-61 -47 -136 -83.5t-183 -36.5q-141 0 -215 79.5t-74 202.5zM334 309q0 -66 63 -65q43 0 70 22.5t42 56t22.5 72.5t11.5 74q-104 -16 -156.5 -59t-52.5 -101zM915 508 q104 16 156.5 59t52.5 101q0 66 -63 65q-43 0 -69.5 -22.5t-42 -56t-23 -73.5t-11.5 -73z" />
<glyph unicode="&#xe7;" horiz-adv-x="827" d="M6 412q0 139 45 247.5t125 183.5t188.5 113.5t235.5 38.5q66 0 134.5 -10t133.5 -24l-71 -373h-250v110q-33 0 -60.5 -22.5t-48 -56t-32 -74.5t-11.5 -78q0 -76 43 -127t123 -51q66 0 119 28.5t88 61.5v-313q-33 -20 -103.5 -47t-175.5 -35l-4 -29q55 -4 90 -40t35 -87 q0 -92 -67.5 -139t-171.5 -47q-72 0 -112 8t-56 12l45 135q18 -4 41.5 -6t42.5 -2q29 0 49 6t25 27q0 16 -16.5 24.5t-41.5 8.5q-18 0 -38.5 -3.5t-30.5 -5.5l45 146q-154 31 -236 142.5t-82 277.5z" />
<glyph unicode="&#xe8;" horiz-adv-x="948" d="M4 410q0 129 40 237.5t116 185t185.5 119.5t246.5 43q76 0 142.5 -20.5t115.5 -57t76.5 -88t27.5 -112.5q0 -88 -36.5 -148.5t-99 -100.5t-144.5 -62.5t-172 -32.5l-113 -13q4 -57 41 -79.5t111 -22.5h13t13 2q8 0 13 2l28 76h248v-295q-23 -8 -64.5 -18.5t-96 -19.5 t-114 -16t-114.5 -7q-117 0 -203 30.5t-144.5 87t-87 135t-28.5 175.5zM313 1167l113 238l457 -199l-113 -114zM393 537q41 2 79 10t67.5 23.5t47 38t17.5 55.5q0 35 -19.5 51t-52.5 16q-59 0 -94 -55t-45 -127v-12z" />
<glyph unicode="&#xe9;" horiz-adv-x="948" d="M4 410q0 129 40 237.5t116 185t185.5 119.5t246.5 43q76 0 142.5 -20.5t115.5 -57t76.5 -88t27.5 -112.5q0 -88 -36.5 -148.5t-99 -100.5t-144.5 -62.5t-172 -32.5l-113 -13q4 -57 41 -79.5t111 -22.5h13t13 2q8 0 13 2l28 76h248v-295q-23 -8 -64.5 -18.5t-96 -19.5 t-114 -16t-114.5 -7q-117 0 -203 30.5t-144.5 87t-87 135t-28.5 175.5zM315 1206l504 199l53 -238l-473 -75zM393 537q41 2 79 10t67.5 23.5t47 38t17.5 55.5q0 35 -19.5 51t-52.5 16q-59 0 -94 -55t-45 -127v-12z" />
<glyph unicode="&#xea;" horiz-adv-x="948" d="M4 410q0 129 40 237.5t116 185t185.5 119.5t246.5 43q76 0 142.5 -20.5t115.5 -57t76.5 -88t27.5 -112.5q0 -88 -36.5 -148.5t-99 -100.5t-144.5 -62.5t-172 -32.5l-113 -13q4 -57 41 -79.5t111 -22.5h13t13 2q8 0 13 2l28 76h248v-295q-23 -8 -64.5 -18.5t-96 -19.5 t-114 -16t-114.5 -7q-117 0 -203 30.5t-144.5 87t-87 135t-28.5 175.5zM272 1194l269 182q20 14 41.5 19.5t38.5 5.5q18 0 39.5 -5t37.5 -20l224 -182l-111 -113l-221 74l-238 -74zM393 537q41 2 79 10t67.5 23.5t47 38t17.5 55.5q0 35 -19.5 51t-52.5 16q-59 0 -94 -55 t-45 -127v-12z" />
<glyph unicode="&#xeb;" horiz-adv-x="948" d="M4 410q0 129 40 237.5t116 185t185.5 119.5t246.5 43q76 0 142.5 -20.5t115.5 -57t76.5 -88t27.5 -112.5q0 -88 -36.5 -148.5t-99 -100.5t-144.5 -62.5t-172 -32.5l-113 -13q4 -57 41 -79.5t111 -22.5h13t13 2q8 0 13 2l28 76h248v-295q-23 -8 -64.5 -18.5t-96 -19.5 t-114 -16t-114.5 -7q-117 0 -203 30.5t-144.5 87t-87 135t-28.5 175.5zM319 1112l37 287h215l-36 -287h-216zM393 537q41 2 79 10t67.5 23.5t47 38t17.5 55.5q0 35 -19.5 51t-52.5 16q-59 0 -94 -55t-45 -127v-12zM627 1112l37 287h215l-37 -287h-215z" />
<glyph unicode="&#xec;" horiz-adv-x="534" d="M49 170q0 12 1 26.5t3 30.5l62 463l-66 10l33 267l440 20l-86 -702l68 -9l-35 -276q-37 -4 -93.5 -11t-119.5 -7q-109 0 -158 46t-49 142zM55 1167l113 238l457 -199l-113 -114z" />
<glyph unicode="&#xed;" horiz-adv-x="534" d="M31 1206l504 199l53 -238l-473 -75zM49 170q0 12 1 26.5t3 30.5l62 463l-66 10l33 267l440 20l-86 -702l68 -9l-35 -276q-37 -4 -93.5 -11t-119.5 -7q-109 0 -158 46t-49 142z" />
<glyph unicode="&#xee;" horiz-adv-x="534" d="M8 1198l268 182q20 14 42 19.5t38 5.5q18 0 40 -5t38 -20l223 -182l-110 -113l-221 74l-238 -74zM47 170q0 12 1 26.5t3 30.5l62 463l-66 10l33 267l440 20l-86 -702l68 -9l-35 -276q-37 -4 -93.5 -11t-119.5 -7q-109 0 -158 46t-49 142z" />
<glyph unicode="&#xef;" horiz-adv-x="534" d="M49 170q0 12 1 26.5t3 30.5l62 463l-66 10l33 267l440 20l-86 -702l68 -9l-35 -276q-37 -4 -93.5 -11t-119.5 -7q-109 0 -158 46t-49 142zM70 1112l36 287h216l-37 -287h-215zM377 1112l37 287h215l-37 -287h-215z" />
<glyph unicode="&#xf0;" horiz-adv-x="972" d="M8 395q0 115 33 204t87 151.5t124 99.5t141 47l17 2l47 -20l4 10l-43 88l-189 -41l-16 227l102 23l-67 131l414 90l59 -135l174 39l16 -228l-102 -22q33 -84 60.5 -146.5t47 -121t29.5 -122t10 -147.5q0 -268 -143 -405t-391 -137q-102 0 -179 32.5t-129.5 88t-79 131 t-26.5 161.5zM387 412q0 -47 18.5 -82t59.5 -35q35 0 56.5 16.5t32.5 42t15 58t4 65.5q0 41 -15 79t-58 38q-68 0 -90.5 -52t-22.5 -130z" />
<glyph unicode="&#xf1;" horiz-adv-x="1024" d="M18 0l97 690l-68 10l35 277q39 8 86 13t82 5q96 0 136 -41t48 -100h12q41 51 117 96t174 45q123 0 183.5 -66.5t60.5 -172.5v-37t-4 -37l-57 -397l71 -9l-35 -276q-37 -4 -95 -11t-122 -7q-109 0 -158 46t-49 142q0 12 1.5 26.5t3.5 30.5l47 391q2 14 2 19.5v9.5 q0 43 -39 43q-41 0 -54.5 -36t-23.5 -113l-68 -541h-383zM244 1112l55 201q23 12 73 31.5t134 19.5q25 0 56.5 -5t66.5 -11.5t68.5 -11.5t62.5 -5q80 0 128 12.5t73 22.5l-56 -201q-23 -12 -74 -31.5t-131 -19.5q-25 0 -57.5 5t-67 11.5t-69.5 11.5t-62 5q-80 0 -128 -13.5 t-72 -21.5z" />
<glyph unicode="&#xf2;" horiz-adv-x="968" d="M6 391q0 133 36 245t104.5 191.5t170 123.5t232.5 44q213 0 313.5 -112.5t100.5 -298.5q0 -139 -36 -251t-106.5 -189.5t-173 -119.5t-237.5 -42q-106 0 -183 29.5t-126.5 82.5t-72 129t-22.5 168zM297 1167l113 238l456 -199l-112 -114zM393 395q0 -53 15.5 -78.5 t52.5 -25.5q53 0 76.5 51t33.5 145q2 20 4.5 42t2.5 44q0 55 -15.5 83t-54.5 28q-53 0 -75 -53t-32 -139q-4 -25 -6 -49.5t-2 -47.5z" />
<glyph unicode="&#xf3;" horiz-adv-x="968" d="M6 391q0 133 36 245t104.5 191.5t170 123.5t232.5 44q213 0 313.5 -112.5t100.5 -298.5q0 -139 -36 -251t-106.5 -189.5t-173 -119.5t-237.5 -42q-106 0 -183 29.5t-126.5 82.5t-72 129t-22.5 168zM303 1206l504 199l53 -238l-473 -75zM393 395q0 -53 15.5 -78.5 t52.5 -25.5q53 0 76.5 51t33.5 145q2 20 4.5 42t2.5 44q0 55 -15.5 83t-54.5 28q-53 0 -75 -53t-32 -139q-4 -25 -6 -49.5t-2 -47.5z" />
<glyph unicode="&#xf4;" horiz-adv-x="968" d="M6 391q0 133 36 245t104.5 191.5t170 123.5t232.5 44q213 0 313.5 -112.5t100.5 -298.5q0 -139 -36 -251t-106.5 -189.5t-173 -119.5t-237.5 -42q-106 0 -183 29.5t-126.5 82.5t-72 129t-22.5 168zM250 1196l268 182q20 14 42 19.5t38 5.5q18 0 39.5 -5t38.5 -20 l223 -182l-111 -113l-221 74l-237 -74zM393 395q0 -53 15.5 -78.5t52.5 -25.5q53 0 76.5 51t33.5 145q2 20 4.5 42t2.5 44q0 55 -15.5 83t-54.5 28q-53 0 -75 -53t-32 -139q-4 -25 -6 -49.5t-2 -47.5z" />
<glyph unicode="&#xf5;" horiz-adv-x="968" d="M6 391q0 133 36 245t104.5 191.5t170 123.5t232.5 44q213 0 313.5 -112.5t100.5 -298.5q0 -139 -36 -251t-106.5 -189.5t-173 -119.5t-237.5 -42q-106 0 -183 29.5t-126.5 82.5t-72 129t-22.5 168zM221 1112l55 201q23 12 73 31.5t134 19.5q25 0 56.5 -5t66.5 -11.5 t69 -11.5t62 -5q80 0 128 12.5t73 22.5l-55 -201q-23 -12 -74 -31.5t-131 -19.5q-25 0 -57.5 5t-67.5 11.5t-69.5 11.5t-61.5 5q-80 0 -128 -13.5t-73 -21.5zM393 395q0 -53 15.5 -78.5t52.5 -25.5q53 0 76.5 51t33.5 145q2 20 4.5 42t2.5 44q0 55 -15.5 83t-54.5 28 q-53 0 -75 -53t-32 -139q-4 -25 -6 -49.5t-2 -47.5z" />
<glyph unicode="&#xf6;" horiz-adv-x="968" d="M6 391q0 133 36 245t104.5 191.5t170 123.5t232.5 44q213 0 313.5 -112.5t100.5 -298.5q0 -139 -36 -251t-106.5 -189.5t-173 -119.5t-237.5 -42q-106 0 -183 29.5t-126.5 82.5t-72 129t-22.5 168zM303 1112l37 287h215l-37 -287h-215zM393 395q0 -53 15.5 -78.5 t52.5 -25.5q53 0 76.5 51t33.5 145q2 20 4.5 42t2.5 44q0 55 -15.5 83t-54.5 28q-53 0 -75 -53t-32 -139q-4 -25 -6 -49.5t-2 -47.5zM610 1112l37 287h215l-37 -287h-215z" />
<glyph unicode="&#xf7;" d="M94 461l29 231h797l-29 -231h-797zM283 219q0 90 58 143.5t148 53.5q74 0 117 -42t43 -110q0 -37 -13 -72.5t-39 -63.5t-62.5 -44t-83.5 -16q-80 0 -124 41t-44 110zM365 885q0 90 58 143t148 53q74 0 117 -42t43 -109q0 -80 -53.5 -138.5t-145.5 -58.5q-80 0 -123.5 41 t-43.5 111z" />
<glyph unicode="&#xf8;" horiz-adv-x="974" d="M8 391q0 133 36 245t104.5 191.5t170 123.5t232.5 44q86 0 160 -22l51 90h98l-69 -123q90 -51 132 -142t42 -214q0 -139 -36 -251t-106.5 -189.5t-173 -119.5t-237.5 -42q-86 0 -154 18l-47 -82h-98l65 117q-90 51 -130 142t-40 214zM395 418l148 258q-14 8 -33 8 q-53 0 -74.5 -53t-32.5 -139q-4 -18 -6 -38t-2 -36zM426 299q14 -8 37 -8q53 0 76.5 51t33.5 145q2 18 4.5 38t2.5 42z" />
<glyph unicode="&#xf9;" horiz-adv-x="1024" d="M43 698l35 277q37 4 95 11t122 7q109 0 158 -47t49 -141q0 -12 -1 -26.5t-3 -30.5l-47 -369q-2 -12 -3.5 -29.5t-1.5 -27.5q0 -37 39 -37q41 0 55.5 38.5t24.5 110.5l68 541h383l-96 -690l67 -11l-35 -276q-39 -8 -86 -13t-82 -5q-96 0 -136 40.5t-48 100.5h-12 q-41 -51 -119 -96t-176 -45q-129 0 -185.5 64.5t-56.5 174.5q2 16 2 34.5t4 39.5l58 397zM319 1167l113 238l457 -199l-113 -114z" />
<glyph unicode="&#xfa;" horiz-adv-x="1024" d="M43 698l35 277q37 4 95 11t122 7q109 0 158 -47t49 -141q0 -12 -1 -26.5t-3 -30.5l-47 -369q-2 -12 -3.5 -29.5t-1.5 -27.5q0 -37 39 -37q41 0 55.5 38.5t24.5 110.5l68 541h383l-96 -690l67 -11l-35 -276q-39 -8 -86 -13t-82 -5q-96 0 -136 40.5t-48 100.5h-12 q-41 -51 -119 -96t-176 -45q-129 0 -185.5 64.5t-56.5 174.5q2 16 2 34.5t4 39.5l58 397zM326 1206l503 199l54 -238l-473 -75z" />
<glyph unicode="&#xfb;" horiz-adv-x="1024" d="M43 698l35 277q37 4 95 11t122 7q109 0 158 -47t49 -141q0 -12 -1 -26.5t-3 -30.5l-47 -369q-2 -12 -3.5 -29.5t-1.5 -27.5q0 -37 39 -37q41 0 55.5 38.5t24.5 110.5l68 541h383l-96 -690l67 -11l-35 -276q-39 -8 -86 -13t-82 -5q-96 0 -136 40.5t-48 100.5h-12 q-41 -51 -119 -96t-176 -45q-129 0 -185.5 64.5t-56.5 174.5q2 16 2 34.5t4 39.5l58 397zM279 1194l268 182q20 14 41.5 19.5t38.5 5.5q18 0 39.5 -5t38.5 -20l223 -182l-111 -113l-221 74l-238 -74z" />
<glyph unicode="&#xfc;" horiz-adv-x="1024" d="M43 698l35 277q37 4 95 11t122 7q109 0 158 -47t49 -141q0 -12 -1 -26.5t-3 -30.5l-47 -369q-2 -12 -3.5 -29.5t-1.5 -27.5q0 -37 39 -37q41 0 55.5 38.5t24.5 110.5l68 541h383l-96 -690l67 -11l-35 -276q-39 -8 -86 -13t-82 -5q-96 0 -136 40.5t-48 100.5h-12 q-41 -51 -119 -96t-176 -45q-129 0 -185.5 64.5t-56.5 174.5q2 16 2 34.5t4 39.5l58 397zM332 1112l37 287h215l-37 -287h-215zM639 1112l37 287h215l-37 -287h-215z" />
<glyph unicode="&#xfd;" d="M-29 -51q18 -4 42 -6t40 -2q102 0 169 42t108 119h-146l-73 586l-66 12l31 267l420 20l-9 -620l-8 -68h10q23 49 47.5 119.5t41.5 136.5q16 59 27 113.5t18 101.5v203q33 10 88 17t90 7q115 0 165 -41t50 -139q0 -72 -30 -171t-77 -210q-53 -129 -123.5 -253t-136.5 -218 q-68 -94 -132 -155.5t-133 -98.5t-145.5 -52t-166.5 -15q-29 0 -57.5 2t-43.5 4v299zM313 1206l504 199l53 -238l-473 -75z" />
<glyph unicode="&#xfe;" horiz-adv-x="1001" d="M-41 -350l39 182l164 1253l-70 9l35 274q18 4 45 7t56.5 5t60 3t55.5 1q94 0 146.5 -43t52.5 -118l-2 -39l-29 -244l8 -4q39 27 87 44t102 17q74 0 128 -26.5t90 -74.5t52 -113.5t16 -143.5q0 -141 -38.5 -258t-114.5 -202t-185.5 -132t-250.5 -47h-11l-12 -78l84 -14 l-31 -238zM416 289h14q49 0 82 29.5t54.5 73.5t30.5 97.5t9 102.5q0 45 -12 71.5t-43 26.5t-50.5 -22.5t-31.5 -60.5t-20.5 -89t-16.5 -108z" />
<glyph unicode="&#xff;" d="M-29 -51q18 -4 42 -6t40 -2q102 0 169 42t108 119h-146l-73 586l-66 12l31 267l420 20l-9 -620l-8 -68h10q23 49 47.5 119.5t41.5 136.5q16 59 27 113.5t18 101.5v203q33 10 88 17t90 7q115 0 165 -41t50 -139q0 -72 -30 -171t-77 -210q-53 -129 -123.5 -253t-136.5 -218 q-68 -94 -132 -155.5t-133 -98.5t-145.5 -52t-166.5 -15q-29 0 -57.5 2t-43.5 4v299zM322 1112l36 287h215l-36 -287h-215zM629 1112l37 287h215l-37 -287h-215z" />
<glyph unicode="&#x152;" horiz-adv-x="1585" d="M27 514q0 188 47 334.5t137 246t219 150.5t293 51h915l-43 -354h-454l-17 -141h424l-39 -314h-422l-18 -151h481l-43 -336h-985q-256 0 -375.5 136t-119.5 378zM473 526q0 -84 25.5 -131t95.5 -47h47l86 602h-31q-63 0 -106 -35.5t-68.5 -94t-37 -135.5t-11.5 -159z" />
<glyph unicode="&#x153;" horiz-adv-x="1462" d="M4 381q0 135 36 247.5t105.5 194.5t172 127t235.5 45q147 0 256 -80h16q53 31 126 55.5t171 24.5q70 0 132.5 -20.5t108.5 -57t73.5 -88t27.5 -112.5q0 -90 -42 -152.5t-111.5 -103.5t-159.5 -63.5t-186 -30.5l-66 -7q0 -53 36 -79.5t95 -26.5h51l33 84h248v-295 q-27 -10 -68 -20.5t-90 -19.5t-103 -15t-106 -6q-86 0 -168 19t-129 65h-12q-59 -37 -129 -60.5t-151 -23.5q-104 0 -180 28.5t-125.5 80.5t-73 126t-23.5 164zM393 397q0 -47 15.5 -76.5t52.5 -29.5q55 0 78.5 54t33.5 140q4 25 4.5 49.5t0.5 53.5q0 43 -15.5 69.5 t-52.5 26.5q-29 0 -48.5 -17.5t-31.5 -45t-19.5 -63.5t-13.5 -73q-4 -23 -4 -44v-44zM897 537q41 2 79 10t67.5 23.5t47 38t17.5 55.5q0 35 -19.5 51t-52.5 16q-59 0 -94 -55t-45 -127v-12z" />
<glyph unicode="&#x178;" horiz-adv-x="1087" d="M76 989l37 307h417l31 -452l-6 -82h10l19 82l82 256l34 196h484l-443 -870l-51 -426h-438l51 426l-133 547zM387 1380l37 287h215l-37 -287h-215zM694 1380l37 287h215l-37 -287h-215z" />
<glyph unicode="&#x2c6;" horiz-adv-x="983" d="M254 1182l268 182q20 14 42 19.5t38 5.5q18 0 40 -5.5t38 -19.5l223 -182l-110 -113l-222 74l-237 -74z" />
<glyph unicode="&#x2dc;" horiz-adv-x="983" d="M227 1112l56 201q23 12 73 31.5t133 19.5q25 0 57 -5t66.5 -11.5t68.5 -11.5t62 -5q80 0 128.5 12.5t72.5 22.5l-55 -201q-23 -12 -74 -31.5t-131 -19.5q-25 0 -57.5 5t-67.5 11.5t-69.5 11.5t-61.5 5q-80 0 -128 -13.5t-73 -21.5z" />
<glyph unicode="&#x2000;" horiz-adv-x="850" />
<glyph unicode="&#x2001;" horiz-adv-x="1700" />
<glyph unicode="&#x2002;" horiz-adv-x="850" />
<glyph unicode="&#x2003;" horiz-adv-x="1700" />
<glyph unicode="&#x2004;" horiz-adv-x="566" />
<glyph unicode="&#x2005;" horiz-adv-x="425" />
<glyph unicode="&#x2006;" horiz-adv-x="283" />
<glyph unicode="&#x2007;" horiz-adv-x="283" />
<glyph unicode="&#x2008;" horiz-adv-x="212" />
<glyph unicode="&#x2009;" horiz-adv-x="340" />
<glyph unicode="&#x200a;" horiz-adv-x="94" />
<glyph unicode="&#x2010;" horiz-adv-x="593" d="M39 381l27 231h526l-29 -231h-524z" />
<glyph unicode="&#x2011;" horiz-adv-x="593" d="M39 381l27 231h526l-29 -231h-524z" />
<glyph unicode="&#x2012;" horiz-adv-x="593" d="M39 381l27 231h526l-29 -231h-524z" />
<glyph unicode="&#x2013;" horiz-adv-x="1028" d="M-10 381l28 231h1024l-28 -231h-1024z" />
<glyph unicode="&#x2014;" horiz-adv-x="2048" d="M-12 381l28 231h2048l-28 -231h-2048z" />
<glyph unicode="&#x2018;" horiz-adv-x="419" d="M104 1073q0 70 32 120t67 91l98 125l133 -16l-53 -150q31 -8 60.5 -38.5t29.5 -86.5q0 -41 -14.5 -76.5t-40 -64.5t-63.5 -45.5t-85 -16.5q-72 0 -118 41t-46 117z" />
<glyph unicode="&#x2019;" horiz-adv-x="419" d="M104 1108q0 39 14.5 76t40 65.5t63.5 45t85 16.5q72 0 118 -41t46 -117q0 -70 -31.5 -120t-66.5 -91l-99 -125l-133 17l54 149q-31 8 -61 39t-30 86z" />
<glyph unicode="&#x201a;" horiz-adv-x="419" d="M-10 127q0 39 14 76t40 65.5t63.5 45t85.5 16.5q72 0 117.5 -41t45.5 -117q0 -70 -31.5 -120t-66.5 -91l-98 -125l-133 17l53 149q-31 8 -60.5 39t-29.5 86z" />
<glyph unicode="&#x201c;" horiz-adv-x="839" d="M102 1071q0 70 32 120t67 91l98 125l133 -16l-53 -150q31 -8 60.5 -39t29.5 -86q0 -80 -51 -141.5t-146 -61.5q-72 0 -121 41t-49 117zM520 1071q0 70 32 120t66 91l99 125l133 -16l-53 -150q31 -8 60.5 -39t29.5 -86q0 -80 -51.5 -141.5t-145.5 -61.5q-72 0 -121 41 t-49 117z" />
<glyph unicode="&#x201d;" horiz-adv-x="839" d="M104 1108q0 39 14.5 76t40 65.5t63.5 45t85 16.5q72 0 118 -41t46 -117q0 -70 -31.5 -120t-66.5 -91l-99 -125l-133 17l54 149q-31 8 -61 39t-30 86zM524 1108q0 39 14.5 76t40 65.5t63.5 45t85 16.5q72 0 118 -41t46 -117q0 -70 -32 -120t-66 -91l-99 -125l-133 17 l53 149q-31 8 -60.5 39t-29.5 86z" />
<glyph unicode="&#x201e;" horiz-adv-x="839" d="M-10 127q0 39 14 76t40 65.5t63.5 45t85.5 16.5q72 0 117.5 -41t45.5 -117q0 -70 -31.5 -120t-66.5 -91l-98 -125l-133 17l53 149q-31 8 -60.5 39t-29.5 86zM410 127q0 39 14 76t39.5 65.5t63.5 45t85 16.5q72 0 118 -41t46 -117q0 -70 -31.5 -120t-66.5 -91l-98 -125 l-134 17l54 149q-31 8 -60.5 39t-29.5 86z" />
<glyph unicode="&#x2022;" horiz-adv-x="528" d="M35 547q0 115 71.5 182.5t188.5 67.5q96 0 155.5 -57.5t59.5 -149.5q0 -104 -66.5 -176t-183.5 -72q-100 0 -162.5 57.5t-62.5 147.5z" />
<glyph unicode="&#x2026;" horiz-adv-x="1257" d="M-16 137q0 90 53 141.5t143 51.5q74 0 122 -44t48 -112q0 -80 -48 -136t-140 -56q-80 0 -129 43t-49 112zM401 137q0 90 53.5 141.5t143.5 51.5q74 0 122 -44t48 -112q0 -80 -48 -136t-140 -56q-80 0 -129.5 43t-49.5 112zM821 137q0 90 53.5 141.5t143.5 51.5 q74 0 122 -44t48 -112q0 -80 -48.5 -136t-140.5 -56q-80 0 -129 43t-49 112z" />
<glyph unicode="&#x202f;" horiz-adv-x="340" />
<glyph unicode="&#x2039;" horiz-adv-x="632" d="M27 553l485 485l147 -172l-321 -313l248 -315l-197 -170z" />
<glyph unicode="&#x203a;" horiz-adv-x="632" d="M-8 238l323 315l-249 313l194 172l369 -485l-488 -485z" />
<glyph unicode="&#x2044;" horiz-adv-x="264" d="M-262 0l702 1190h176l-702 -1190h-176z" />
<glyph unicode="&#x205f;" horiz-adv-x="425" />
<glyph unicode="&#x2070;" horiz-adv-x="575" d="M68 829q0 174 76.5 272.5t224.5 98.5q121 0 177 -64.5t56 -174.5q0 -174 -79 -273.5t-232 -99.5q-119 0 -171 65t-52 176zM279 836q0 -33 8 -53.5t32 -20.5q20 0 34 18.5t22 47t11 62.5t3 64q0 31 -8 50.5t-33 19.5q-20 0 -33.5 -17.5t-21.5 -45t-11 -60t-3 -65.5z" />
<glyph unicode="&#x2074;" horiz-adv-x="544" d="M39 690l20 176l230 324h268l-41 -338h57l-18 -162h-59l-13 -94h-202l12 94h-254zM217 852h98l19 143l16 33q-2 0 -3 1t-3 1l-100 -156l-27 -14v-8z" />
<glyph unicode="&#x2075;" horiz-adv-x="514" d="M41 610l35 195h157v-47h13q35 0 51 15t16 38t-31.5 37t-115.5 14h-66l41 328h398l-23 -186l-92 10h-105l-6 -33q41 -4 80 -14.5t69 -32t48 -53t18 -74.5q0 -66 -26.5 -108t-69.5 -68.5t-97 -36.5t-110 -10q-49 0 -99 8t-85 18z" />
<glyph unicode="&#x2076;" horiz-adv-x="559" d="M66 838q0 166 87 264t261 98q20 0 46.5 -3t53.5 -7t49.5 -9t32.5 -10l-35 -188h-168v45h-12q-66 0 -80 -65h16q111 0 183.5 -34t72.5 -124q0 -100 -72.5 -159.5t-199.5 -59.5q-121 0 -178 70.5t-57 181.5zM272 817q0 -70 52 -69q23 0 35 15t12 40q0 29 -26 40t-56 11h-13 q-2 -10 -3 -19.5t-1 -17.5z" />
<glyph unicode="&#x2077;" horiz-adv-x="512" d="M80 954v236h493l-20 -172q-57 -45 -95 -100.5t-61.5 -111.5t-35 -109.5t-17.5 -92.5v-8h-217l2 8q6 51 23.5 106.5t42 107.5t57.5 98.5t70 82.5l36 13l-2 6h-108l-21 -64h-147z" />
<glyph unicode="&#x2078;" horiz-adv-x="561" d="M49 737q0 53 28.5 88t76.5 58v8q-23 10 -42.5 41t-19.5 67q0 57 24.5 96.5t64.5 62t88 32.5t96 10q43 0 86 -9t76.5 -27.5t55 -48.5t21.5 -71q0 -55 -27.5 -86.5t-62.5 -48.5v-8q27 -23 44 -49.5t17 -69.5q0 -55 -25.5 -93t-65.5 -61.5t-91 -33.5t-102 -10q-45 0 -89 9 t-78 27.5t-54.5 47t-20.5 69.5zM236 780q0 -20 19 -28.5t44 -8.5q29 0 47.5 11.5t18.5 33.5q0 18 -15.5 27.5t-44.5 18.5l-18 4q-51 -20 -51 -58zM299 1008q0 -33 59 -45l19 -5q16 8 28.5 20.5t14.5 27.5q0 23 -17.5 32t-42.5 9q-23 0 -42 -8.5t-19 -30.5z" />
<glyph unicode="&#x2079;" horiz-adv-x="561" d="M59 612l35 189h168v-45h12q66 0 80 65h-16q-113 0 -184.5 38t-71.5 128q0 100 70.5 156.5t193.5 56.5t183.5 -72.5t60.5 -183.5q0 -166 -87 -263t-261 -97q-20 0 -47 3t-53.5 7t-49 9t-33.5 9zM285 985q0 -29 25.5 -41t56.5 -12h14q2 10 3 18t1 19q0 31 -12.5 50 t-40.5 19q-23 0 -35 -15t-12 -38z" />
<glyph unicode="&#x207d;" horiz-adv-x="278" d="M82 817q0 45 6 88q14 113 63.5 228.5t114.5 199.5l90 -71q-53 -72 -94 -194t-41 -269q0 -78 12.5 -141.5t34.5 -108.5l-110 -70q-35 66 -55.5 156t-20.5 182z" />
<glyph unicode="&#x207e;" horiz-adv-x="278" d="M29 549q49 72 91 193.5t42 265.5q0 80 -13.5 144.5t-33.5 109.5l106 71q37 -68 58.5 -158t21.5 -184v-43t-4 -43q-6 -55 -22.5 -113.5t-40 -113.5t-52 -106.5t-61.5 -92.5z" />
<glyph unicode="&#x207f;" horiz-adv-x="643" d="M66 596l57 422l-41 6l22 168q23 4 51.5 7t49.5 3q59 0 83.5 -24.5t28.5 -61.5h9q25 31 71.5 58.5t102.5 27.5q78 0 114.5 -39t36.5 -108q0 -10 -1 -22.5t-3 -22.5l-33 -244l43 -6l-20 -168q-23 -2 -58.5 -6t-74.5 -4q-125 0 -125 114q0 8 1 22.5t3 24.5l27 224v8q0 4 1 7 t1 7q0 29 -25 29t-34 -22.5t-15 -69.5l-41 -330h-231z" />
<glyph unicode="&#x20ac;" d="M-4 326l63 178h68v8q0 14 1 33.5t5 34.5h-106l63 178h90q66 158 206 251t339 93q100 0 178 -15.5t115 -27.5l-78 -256q-31 10 -70 15t-71 5q-72 0 -120 -17.5t-83 -47.5h266l-63 -178h-287q-2 -6 -4 -15q-4 -16 -4 -28q-2 -8 -2 -23v-10h329l-65 -178h-234 q23 -29 62 -46.5t104 -17.5q47 0 103.5 11.5t97.5 33.5l25 -250q-47 -27 -131 -51t-197 -24q-170 0 -295 87t-164 257h-141z" />
<glyph unicode="&#x2122;" horiz-adv-x="1013" d="M109 1249l18 154h618v-270l-4 -37h9l6 37l71 270h254l-18 -90l-51 -457h-183l64 346l8 27h-8l-115 -373h-129l-6 371h-8v-25l-39 -346h-188l26 92l47 301h-96l-47 -391h-176l16 92l37 299h-106z" />
<glyph unicode="&#x2153;" horiz-adv-x="1226" d="M51 596l21 160h127l30 223l-6 2l-18 -31q-14 -10 -48 -19t-57 -13l-10 169q41 6 98.5 34t94.5 69h174l-60 -434h119l-20 -160h-445zM119 0l807 1190h180l-807 -1190h-180zM666 12v178q14 -6 65 -18t125 -12q35 0 60.5 8t25.5 37q0 23 -23.5 29t-60.5 6h-90l14 116h90 q39 0 66 10.5t27 39.5q0 20 -21.5 30t-56.5 10l-10 -53h-164v189q35 10 94 17t123 7q49 0 95 -10t82 -30.5t56.5 -52.5t20.5 -75q0 -49 -28 -79.5t-69 -51.5v-8q23 -10 46.5 -38t23.5 -75q0 -59 -28.5 -97t-74.5 -59.5t-101.5 -29.5t-110.5 -8q-47 0 -97.5 6t-78.5 14z" />
<glyph unicode="&#x2154;" horiz-adv-x="1273" d="M35 594l20 164q98 47 154.5 79.5t85.5 57.5t37 42t8 36q0 25 -16.5 39t-42.5 14h-25l-20 -86h-144v240q8 2 29.5 5t50.5 6t62.5 6t64.5 3q49 0 95 -10t82 -32.5t57.5 -57.5t21.5 -84q0 -47 -15.5 -84t-42 -67.5t-62.5 -57.5t-79 -51l2 -8l43 20h58l94 10l-23 -184h-495z M168 0l807 1190h180l-807 -1190h-180zM715 12v178q14 -6 65 -18t125 -12q35 0 60.5 8t25.5 37q0 23 -23.5 29t-60.5 6h-90l14 116h91q39 0 65.5 10.5t26.5 39.5q0 20 -21.5 30t-56.5 10l-10 -53h-164v189q35 10 94 17t123 7q49 0 95 -10t82 -30.5t56.5 -52.5t20.5 -75 q0 -49 -27.5 -79.5t-68.5 -51.5v-8q23 -10 46 -38t23 -75q0 -59 -28.5 -97t-74.5 -59.5t-101.5 -29.5t-110.5 -8q-47 0 -97.5 6t-78.5 14z" />
<glyph unicode="&#x215b;" horiz-adv-x="1218" d="M51 596l21 160h127l30 223l-6 2l-18 -31q-14 -10 -45 -19t-54 -13l-16 169q41 6 98.5 34t94.5 69h174l-60 -434h119l-20 -160h-445zM119 0l807 1192h180l-807 -1192h-180zM623 143q0 53 28.5 88t75.5 58v8q-23 10 -42 41t-19 68q0 57 24.5 96t64.5 61.5t88 32.5t95 10 q43 0 86 -9t77 -27.5t55.5 -48t21.5 -70.5q0 -55 -28 -87t-63 -49v-8q27 -23 44.5 -49.5t17.5 -69.5q0 -55 -25.5 -93t-65.5 -61.5t-91.5 -33.5t-102.5 -10q-45 0 -89 9t-77.5 27.5t-54 47t-20.5 69.5zM809 186q0 -20 19.5 -28t43.5 -8q29 0 47.5 11t18.5 34q0 18 -15.5 27 t-43.5 18l-19 4q-51 -20 -51 -58zM872 414q0 -33 60 -45l18 -4q16 8 28.5 20t14.5 27q0 23 -17.5 32t-41.5 9q-23 0 -42.5 -8.5t-19.5 -30.5z" />
<glyph unicode="&#x215c;" horiz-adv-x="1198" d="M49 606v178q14 -6 65.5 -18t125.5 -12q35 0 60.5 8t25.5 37q0 23 -23.5 29t-60.5 6h-90l14 116h90q39 0 65.5 10.5t26.5 38.5q0 20 -21.5 30.5t-56.5 10.5l-10 -53h-164v189q35 10 94.5 17t122.5 7q49 0 95.5 -10t82 -30.5t56 -52.5t20.5 -75q0 -49 -27.5 -79.5 t-68.5 -51.5v-8q23 -10 46.5 -38t23.5 -75q0 -59 -29 -97t-75 -59.5t-101 -29.5t-111 -8q-47 0 -97 6t-79 14zM98 0l807 1190h178l-807 -1190h-178zM602 143q0 53 28.5 88t76.5 58v8q-23 10 -42.5 41t-19.5 68q0 57 24.5 96t64.5 61.5t88 32.5t96 10q43 0 86 -9t76.5 -27.5 t55 -48t21.5 -70.5q0 -55 -27.5 -87t-62.5 -49v-8q27 -23 44 -49.5t17 -69.5q0 -55 -25.5 -93t-65.5 -61.5t-91 -33.5t-102 -10q-45 0 -89 9t-78 27.5t-54.5 47t-20.5 69.5zM788 186q0 -20 19.5 -28t44.5 -8q29 0 47.5 11t18.5 34q0 18 -15.5 27t-44.5 18l-18 4 q-51 -20 -52 -58zM852 414q0 -33 59 -45l19 -4q16 8 28.5 20t14.5 27q0 23 -17.5 32t-42.5 9q-23 0 -42 -8.5t-19 -30.5z" />
<glyph unicode="&#x215d;" horiz-adv-x="1239" d="M41 610l35 195h157v-47h13q35 0 51 15t16 38t-31.5 37t-115.5 14h-66l41 328h398l-23 -186l-92 10h-105l-6 -33q41 -4 80 -14.5t69 -32t48 -53t18 -74.5q0 -66 -26.5 -108t-69.5 -68.5t-97 -36.5t-110 -10q-49 0 -99 8t-85 18zM94 0l807 1190h178l-807 -1190h-178z M623 143q0 53 28.5 88t75.5 58v8q-23 10 -42 41t-19 68q0 57 24.5 96t64.5 61.5t88 32.5t95 10q43 0 86 -9t77 -27.5t55.5 -48t21.5 -70.5q0 -55 -28 -87t-63 -49v-8q27 -23 44.5 -49.5t17.5 -69.5q0 -55 -25.5 -93t-65.5 -61.5t-91.5 -33.5t-102.5 -10q-45 0 -89 9 t-77.5 27.5t-54 47t-20.5 69.5zM809 186q0 -20 19.5 -28t43.5 -8q29 0 47.5 11t18.5 34q0 18 -15.5 27t-43.5 18l-19 4q-51 -20 -51 -58zM872 414q0 -33 60 -45l18 -4q16 8 28.5 20t14.5 27q0 23 -17.5 32t-41.5 9q-23 0 -42.5 -8.5t-19.5 -30.5z" />
<glyph unicode="&#x215e;" horiz-adv-x="1136" d="M10 0l803 1192h180l-807 -1192h-176zM80 954v236h493l-20 -172q-57 -45 -95 -100.5t-61.5 -111.5t-35 -109.5t-17.5 -92.5v-8h-217l2 8q6 51 23.5 106.5t42 107.5t57.5 98.5t70 82.5l36 13l-2 6h-110l-21 -64h-145zM541 143q0 53 28.5 88t75.5 58v8q-23 10 -42 41t-19 68 q0 57 24.5 96t64.5 61.5t88 32.5t95 10q43 0 86 -9t77 -27.5t55.5 -48t21.5 -70.5q0 -55 -28 -87t-62 -49v-8q27 -23 44 -49.5t17 -69.5q0 -55 -25.5 -93t-65.5 -61.5t-91 -33.5t-103 -10q-45 0 -89 9t-77.5 27.5t-54 47t-20.5 69.5zM727 186q0 -20 19.5 -28t44.5 -8 q29 0 47 11t18 34q0 18 -15.5 27t-43.5 18l-19 4q-51 -20 -51 -58zM791 414q0 -33 59 -45l18 -4q16 8 28.5 20t14.5 27q0 23 -17 32t-42 9q-23 0 -42 -8.5t-19 -30.5z" />
<glyph unicode="&#x2160;" horiz-adv-x="589" d="M-59 0l12 88h90l18 98l99 809h-99l11 88h594l-11 -88h-100l-111 -907h101l-13 -88h-591z" />
<glyph unicode="&#x2164;" horiz-adv-x="1095" d="M-59 0l12 88h240l-72 907h-60l11 88h1099l-10 -88h-65l-297 -907h252l-13 -88h-1097zM514 295h12l13 74l127 528l12 98h-160v-626z" />
<glyph unicode="&#x2169;" horiz-adv-x="1067" d="M-59 0l12 88h29l266 467l-137 440h-50l11 88h1071l-10 -88h-56l-241 -440l151 -467h35l-12 -88h-1069zM414 88h145l-39 201v51h-10l-10 -51l-58 -121zM524 995l33 -209v-63h10l17 63l47 125l22 84h-129z" />
<glyph unicode="&#x216c;" horiz-adv-x="800" d="M-61 0l12 88h90l18 98l99 809h-99l11 88h804l-10 -88h-311l-84 -678h260l-27 -229h52l-13 -88h-802z" />
<glyph unicode="&#x216d;" horiz-adv-x="956" d="M-59 0l12 88h231q-61 51 -109 149.5t-48 233.5q0 96 22.5 176t61.5 144.5t90 115.5t106 88h-246l11 88h960l-10 -88h-84l-92 -272q-29 18 -74 33.5t-98 15.5q-49 0 -94 -17.5t-78 -51t-52.5 -84t-19.5 -113.5q0 -86 51 -140.5t142 -54.5q137 0 213 115l32 -338h43 l-12 -88h-958z" />
<glyph unicode="&#x216e;" horiz-adv-x="1148" d="M-59 0l12 88h143l21 98l82 600l-74 17l22 192h-86l11 88h1165l-10 -88h-258q78 -57 119.5 -148t41.5 -218q0 -395 -239 -541h225l-12 -88h-1163zM522 307h10q47 0 84 13.5t63 47t39 94t13 154.5q0 86 -32.5 122t-108.5 36h-10z" />
<glyph unicode="&#x216f;" horiz-adv-x="1476" d="M-61 0l12 88h39l28 98l146 809h-105l11 88h1480l-10 -88h-98l-17 -98l-49 -809h54l-13 -88h-1478zM385 88h147l-36 596v53h-11zM727 449h12l9 59l129 487h-144v-487zM846 88h145l60 647h-11l-10 -47z" />
<glyph unicode="&#x25fc;" horiz-adv-x="993" d="M0 0v993h993v-993h-993z" />
<glyph horiz-adv-x="2148" d="M25 547q0 172 50 313t141 242.5t220 157t287 55.5q55 0 112.5 -6t106.5 -14.5t88 -18.5t60 -16l-74 -457h-301l6 145q-53 0 -98 -25.5t-78 -72.5t-51.5 -112.5t-18.5 -145.5q0 -131 75 -189.5t222 -58.5q72 0 149.5 11.5t131.5 21.5l121 919h407l-57 -460h145l57 460h441 l-43 -200l-109 -777l76 -12l-37 -307h-487l59 492h-145l-51 -416q-166 -35 -367 -64.5t-401 -29.5q-141 0 -259 33.5t-202 103t-130 176t-46 252.5z" />
<glyph horiz-adv-x="2011" d="M25 547q0 172 50 313t141 242.5t220 157t287 55.5q55 0 112.5 -6t106.5 -14.5t88 -18.5t60 -16l-74 -457h-301l6 145q-53 0 -98 -25.5t-78 -72.5t-51.5 -112.5t-18.5 -145.5q0 -131 75 -189.5t222 -58.5q72 0 148.5 9t130.5 20l125 999l473 21l-33 -267l-92 -16l-29 -231 h12q35 41 99.5 79.5t142.5 38.5q117 0 169 -63.5t52 -173.5q-2 -18 -2 -38t-4 -40l-57 -397l67 -9l-35 -276q-37 -4 -93 -11t-120 -7q-109 0 -157.5 46t-48.5 142q0 12 1 26.5t3 30.5l45 357q0 14 2 26q2 10 3 20.5t1 18.5q0 41 -37 41q-39 0 -55.5 -37t-26.5 -108l-59 -479 q-166 -35 -350.5 -59.5t-384.5 -24.5q-141 0 -259 33.5t-202 103t-130 176t-46 252.5z" />
<glyph horiz-adv-x="1800" d="M6 414q0 123 42 229.5t118 185t183.5 122.5t238.5 44q39 0 82 -3t82 -7t66.5 -9t37.5 -7l-74 -381h-245v110q-35 -6 -61.5 -27.5t-44 -52t-27 -67.5t-9.5 -72q0 -88 48.5 -138t156.5 -50q27 0 58.5 2t63.5 7t60.5 10t48.5 12l134 1050l473 21l-33 -267l-92 -16l-29 -231 h12q35 41 99.5 79.5t142.5 38.5q117 0 169 -63.5t52 -173.5q-2 -18 -2 -38t-4 -40l-57 -397l67 -9l-34 -276q-37 -4 -93.5 -11t-119.5 -7q-109 0 -158 46t-49 142q0 12 1 26.5t3 30.5l39 316q2 25 6 45q2 16 4 32.5t2 24.5q0 18 -8 31.5t-29 13.5q-39 0 -55.5 -37 t-26.5 -108l-59 -479q-61 -14 -140 -30t-167 -28t-181.5 -19t-183.5 -7q-115 0 -208 25.5t-159.5 78.5t-103.5 134t-37 194z" />
<glyph horiz-adv-x="2078" d="M25 547q0 172 50 313t141 242.5t220 157t287 55.5q55 0 112.5 -6t106.5 -14.5t88 -18.5t60 -16l-74 -457h-301l6 145q-53 0 -98 -25.5t-78 -72.5t-51.5 -112.5t-18.5 -145.5q0 -131 75 -189.5t222 -58.5q72 0 149.5 11.5t131.5 21.5l92 706h385l-49 -403h129l49 403h409 l-38 -188l-84 -598l71 -10l-35 -287h-456l51 412h-129l-43 -340q-162 -33 -356.5 -61.5t-386.5 -28.5q-141 0 -259 33.5t-202 103t-130 176t-46 252.5z" />
<glyph horiz-adv-x="1957" d="M27 467q0 145 46 263t128 201t195.5 127t248.5 44q104 0 188.5 -16.5t116.5 -26.5l-71 -389h-250v92l-19 -2q-82 -10 -130 -80t-48 -174q0 -98 65.5 -150.5t170.5 -52.5q84 0 150.5 12.5t107.5 24.5l100 743h383l-49 -403h129l49 403h410l-37 -188l-84 -598l71 -10 l-34 -287h-459l51 412h-129l-43 -336q-61 -12 -142 -28.5t-174.5 -31t-194.5 -23.5t-204 -9q-125 0 -225 30.5t-171 92t-108.5 151.5t-37.5 209z" />
<glyph horiz-adv-x="1067" d="M-53 0l289 786l-66 11l35 286h725l43 -784l69 -12l-36 -287h-435l23 150v26h-188l-52 -176h-407zM469 442h135v432h-10l-14 -69z" />
<glyph horiz-adv-x="1067" d="M-53 0l289 786l-66 11l35 286h725l43 -784l69 -12l-36 -287h-435l23 150v26h-188l-52 -176h-407zM319 1290l504 199l54 -238l-474 -75zM469 442h135v432h-10l-14 -69z" />
<glyph horiz-adv-x="1067" d="M-53 0l289 786l-66 11l35 286h725l43 -784l69 -12l-36 -287h-435l23 150v26h-188l-52 -176h-407zM295 1284l268 182q20 14 42 19.5t38 5.5q18 0 40 -5t38 -20l223 -182l-110 -113l-222 74l-237 -74zM469 442h135v432h-10l-14 -69z" />
<glyph horiz-adv-x="1067" d="M-53 0l289 786l-66 11l35 286h725l43 -784l69 -12l-36 -287h-435l23 150v26h-188l-52 -176h-407zM354 1202l37 287h215l-37 -287h-215zM469 442h135v432h-10l-14 -69zM662 1202l36 287h215l-36 -287h-215z" />
<glyph horiz-adv-x="1355" d="M-59 0l288 786l-63 17l33 280h1151l-15 -297h-372l-7 -112h349l-15 -217h-342l-6 -158h371l-15 -299h-749l31 147l2 29h-195l-51 -176h-395zM467 451h129l27 395h-50l-10 -70z" />
<glyph horiz-adv-x="1067" d="M-53 0l289 786l-66 11l35 286h725l43 -784l69 -12l-36 -287h-435l23 150v26h-188l-52 -176h-407zM334 1251l112 238l457 -199l-112 -114zM469 442h135v432h-10l-14 -69z" />
<glyph horiz-adv-x="1067" d="M-53 0l289 786l-66 11l35 286h725l43 -784l69 -12l-36 -287h-435l23 150v26h-188l-52 -176h-407zM406 1300q0 90 62 148.5t189 58.5q111 0 167.5 -48t56.5 -118q0 -92 -62.5 -145t-191.5 -53q-111 0 -166 46t-55 111zM469 442h135v432h-10l-14 -69zM602 1313 q0 -12 6 -22.5t27 -10.5q45 0 45 55q0 14 -6 24.5t-29 10.5q-25 0 -34 -18.5t-9 -38.5z" />
<glyph horiz-adv-x="1067" d="M-53 0l289 786l-66 11l35 286h725l43 -784l69 -12l-36 -287h-435l23 150v26h-188l-52 -176h-407zM260 1214l55 201q23 12 73 31.5t134 19.5q25 0 56.5 -5t66.5 -11t69 -11t62 -5q80 0 128 12t73 22l-55 -200q-23 -12 -74 -31.5t-131 -19.5q-25 0 -57.5 5t-67.5 11t-70 11 t-61 5q-80 0 -128 -13t-73 -22zM469 442h135v432h-10l-14 -69z" />
<glyph horiz-adv-x="1040" d="M27 0l39 186l81 600l-75 15l34 282h619q143 0 236.5 -63.5t93.5 -196.5q0 -55 -14.5 -98t-37 -75t-51 -52t-59.5 -31v-8q49 -29 85 -83t36 -140q0 -160 -103.5 -248t-285.5 -88h-598zM459 289h76q39 0 64.5 23.5t25.5 68.5q0 33 -21.5 53.5t-56.5 20.5h-66zM504 653h86 q29 0 49 24.5t20 55.5q0 29 -17 49.5t-50 20.5h-68z" />
<glyph horiz-adv-x="886" d="M27 449q0 158 46 279.5t129 204.5t198.5 126t254.5 43q109 0 180.5 -15.5t112.5 -27.5l-69 -389h-254v90h-19q-80 -10 -127 -81t-47 -171q0 -86 46 -141.5t134 -55.5q72 0 133.5 27t100.5 68v-343q-59 -35 -152.5 -58t-212.5 -23q-96 0 -179 28.5t-144.5 87t-96 145.5 t-34.5 206z" />
<glyph horiz-adv-x="890" d="M27 432q0 166 46 291t129 210t199.5 127t255.5 42q94 0 172 -16.5t119 -26.5l-67 -389h-254v90l-23 -2q-41 -6 -72.5 -27.5t-53 -56.5t-34 -80t-12.5 -94q0 -86 46 -137.5t134 -51.5q72 0 131.5 35t98.5 82v-342q-51 -37 -128 -64.5t-175 -37.5l-4 -31q57 0 90.5 -32 t33.5 -81q0 -92 -66.5 -142t-172.5 -50q-72 0 -112 8t-56 12l45 135q18 -4 41.5 -6t42.5 -2q27 0 48.5 6t25.5 27q0 16 -17.5 21.5t-40.5 5.5q-18 0 -38.5 -3.5t-30.5 -5.5l43 142q-74 14 -137.5 48t-109.5 89t-71.5 132t-25.5 175z" />
<glyph horiz-adv-x="1067" d="M27 0l39 186l81 600l-73 17l32 280h480q238 0 365.5 -113.5t127.5 -340.5q0 -317 -152.5 -473t-447.5 -156h-452zM471 307h10q47 0 84 13.5t62.5 47t39 94t13.5 154.5q0 86 -33 122t-108 36h-11z" />
<glyph horiz-adv-x="927" d="M27 0l36 184l84 602l-73 17l32 280h873l-35 -297h-414l-14 -112h387l-26 -217h-388l-20 -158h430l-41 -299h-831z" />
<glyph horiz-adv-x="927" d="M27 0l36 184l84 602l-73 17l32 280h873l-35 -297h-414l-14 -112h387l-26 -217h-388l-20 -158h430l-41 -299h-831zM281 1294l479 199l84 -238l-465 -75z" />
<glyph horiz-adv-x="927" d="M27 0l36 184l84 602l-73 17l32 280h873l-35 -297h-414l-14 -112h387l-26 -217h-388l-20 -158h430l-41 -299h-831zM254 1272l268 182q20 14 42 19.5t38 5.5q18 0 40 -5.5t38 -19.5l223 -182l-110 -113l-222 74l-237 -74z" />
<glyph horiz-adv-x="927" d="M27 0l36 184l84 602l-73 17l32 280h873l-35 -297h-414l-14 -112h387l-26 -217h-388l-20 -158h430l-41 -299h-831zM313 1202l37 287h215l-37 -287h-215zM621 1202l36 287h215l-36 -287h-215z" />
<glyph horiz-adv-x="927" d="M27 0l36 184l84 602l-73 17l32 280h873l-35 -297h-414l-14 -112h387l-26 -217h-388l-20 -158h430l-41 -299h-831zM305 1251l113 238l456 -199l-112 -114z" />
<glyph horiz-adv-x="1081" d="M-2 563l123 27l26 196l-73 17l32 280h484q236 0 362.5 -113.5t126.5 -338.5q0 -319 -153.5 -475t-446.5 -156h-452l39 186l22 164l-72 -14zM471 307h8q49 0 86 13.5t62.5 48t39 95t13.5 157.5q0 84 -33 118.5t-104 34.5h-15l-12 -100l62 12l18 -225l-109 -23z" />
<glyph horiz-adv-x="890" d="M27 0l36 184l84 602l-73 17l32 280h844l-63 -354h-244v70h-113l-16 -140h356l-34 -276h-357l-10 -96l61 -11l-34 -276h-469z" />
<glyph horiz-adv-x="1019" d="M27 428q0 330 173 503t496 173q98 0 190.5 -14.5t164.5 -32.5l-62 -342h-282v96h-15q-150 0 -211 -95t-61 -259q0 -86 31.5 -138.5t103.5 -52.5q29 0 42 3t28 7l14 125h-121l31 244h459l-74 -592q-80 -25 -194.5 -48t-241.5 -23q-236 0 -353.5 117.5t-117.5 328.5z" />
<glyph horiz-adv-x="1116" d="M27 0l39 186l81 600l-71 17l33 280h456l-49 -403h131l49 403h410l-39 -188l-84 -598l72 -16l-35 -281h-457l51 412h-131l-51 -412h-405z" />
<glyph horiz-adv-x="567" d="M27 0l39 186l81 600l-73 15l35 282h456l-133 -1083h-405z" />
<glyph horiz-adv-x="567" d="M23 0l36 186l84 600l-73 15l34 282h457l-133 -1083h-405zM66 1294l479 199l84 -238l-465 -75z" />
<glyph horiz-adv-x="567" d="M23 0l36 186l84 600l-73 15l34 282h457l-133 -1083h-405zM45 1272l268 182q20 14 42 19.5t38 5.5q18 0 40 -5.5t38 -19.5l223 -182l-110 -113l-222 74l-237 -74z" />
<glyph horiz-adv-x="567" d="M23 0l36 186l84 600l-73 15l34 282h457l-133 -1083h-405zM88 1202l37 287h215l-37 -287h-215zM395 1202l37 287h215l-37 -287h-215z" />
<glyph horiz-adv-x="567" d="M23 0l36 186l84 600l-73 15l34 282h457l-133 -1083h-405zM82 1255l82 238l481 -199l-98 -114z" />
<glyph horiz-adv-x="684" d="M-23 -8v303q10 -4 40 -6t42 -2q59 0 101.5 27.5t52.5 93.5l47 370l-197 21l35 284h604l-36 -186l-64 -514q-12 -109 -53 -184.5t-106.5 -123.5t-153.5 -69.5t-195 -21.5q-20 0 -60 2t-57 6z" />
<glyph horiz-adv-x="1042" d="M27 0l41 186l82 600l-72 17l33 280h456l-53 -393h10l23 70l145 323h422l-274 -475l84 -311l86 -16l-35 -281h-406l-63 373h-8l-21 -39l-43 -334h-407z" />
<glyph horiz-adv-x="798" d="M27 0l39 186l81 600l-73 17l32 280h459l-94 -766h299l-39 -317h-704z" />
<glyph horiz-adv-x="1462" d="M4 0l45 186l90 598l-71 19l32 280h631l-14 -669l-4 -60h10l10 60l148 669h561l-37 -186l-78 -897h-387l111 776h-11l-8 -47l-211 -729h-297l-20 725v53h-10l-88 -778h-402z" />
<glyph horiz-adv-x="1120" d="M27 0l41 186l79 598l-71 19l33 280h491l100 -682h11l-4 68l10 614h401l-41 -184l-108 -899h-424l-92 686h-9v-72l-18 -614h-399z" />
<glyph horiz-adv-x="1120" d="M27 0l41 186l79 598l-71 19l33 280h491l100 -661h11l-4 67l10 594h401l-41 -184l-108 -899h-424l-92 666h-9v-72l-18 -594h-399zM317 1223l56 200q23 12 73 32t134 20q25 0 56.5 -5.5t66 -11.5t68.5 -11t63 -5q80 0 128 12t72 23l-55 -201q-23 -12 -74 -31.5t-131 -19.5 q-25 0 -57.5 5t-67.5 11t-69.5 11t-61.5 5q-80 0 -128 -13t-73 -21z" />
<glyph horiz-adv-x="1069" d="M14 440q0 317 149.5 489.5t440.5 172.5q219 0 341 -122t122 -337q0 -317 -145.5 -489t-438.5 -172q-225 0 -347 122.5t-122 335.5zM418 446q0 -63 18.5 -105t71.5 -42q37 0 62.5 17.5t42 48t25.5 72.5t15 91q4 27 6.5 54.5t2.5 56.5q0 72 -22 109.5t-75 37.5 q-37 0 -62.5 -18t-41 -51t-23.5 -75t-14 -87q-4 -23 -5 -57t-1 -52z" />
<glyph horiz-adv-x="1069" d="M14 434q0 317 156 492.5t446 175.5q219 0 335 -119t116 -334q0 -317 -151.5 -492t-444.5 -175q-225 0 -341 119.5t-116 332.5zM328 1294l479 199l84 -238l-465 -75zM418 446q0 -63 18.5 -105t71.5 -42q37 0 62.5 17.5t42 48t25.5 72.5t15 91q4 27 6.5 54.5t2.5 56.5 q0 72 -22 109.5t-75 37.5q-37 0 -62.5 -18t-41 -51t-23.5 -75t-14 -87q-4 -23 -5 -57t-1 -52z" />
<glyph horiz-adv-x="1069" d="M14 434q0 317 156 492.5t446 175.5q219 0 335 -119t116 -334q0 -317 -151.5 -492t-444.5 -175q-225 0 -341 119.5t-116 332.5zM307 1272l268 182q20 14 42 19.5t38 5.5q18 0 40 -5.5t38 -19.5l223 -182l-110 -113l-221 74l-238 -74zM418 446q0 -63 18.5 -105t71.5 -42 q37 0 62.5 17.5t42 48t25.5 72.5t15 91q4 27 6.5 54.5t2.5 56.5q0 72 -22 109.5t-75 37.5q-37 0 -62.5 -18t-41 -51t-23.5 -75t-14 -87q-4 -23 -5 -57t-1 -52z" />
<glyph horiz-adv-x="1069" d="M14 434q0 317 156 492.5t446 175.5q219 0 335 -119t116 -334q0 -317 -151.5 -492t-444.5 -175q-225 0 -341 119.5t-116 332.5zM365 1202l36 287h215l-36 -287h-215zM418 446q0 -63 18.5 -105t71.5 -42q37 0 62.5 17.5t42 48t25.5 72.5t15 91q4 27 6.5 58.5t2.5 52.5 q0 72 -22 109.5t-75 37.5q-37 0 -62.5 -18t-41 -51t-23.5 -75t-14 -87q-4 -23 -5 -57t-1 -52zM672 1202l37 287h215l-37 -287h-215z" />
<glyph horiz-adv-x="1402" d="M27 438q0 29 2 58.5t6 60.5q31 260 182.5 393t405.5 133h811l-35 -297h-381l-12 -127h352l-27 -217h-352l-21 -143h394l-37 -299h-881q-209 0 -308 119t-99 319zM426 449q0 -66 21.5 -108t80.5 -42h39l62 487h-27q-45 0 -74.5 -18t-48 -51t-29 -75t-16.5 -89 q-4 -29 -6 -55.5t-2 -48.5z" />
<glyph horiz-adv-x="1069" d="M14 434q0 317 156 492.5t446 175.5q219 0 335 -119t116 -334q0 -317 -151.5 -492t-444.5 -175q-225 0 -341 119.5t-116 332.5zM371 1255l84 238l481 -199l-100 -114zM418 446q0 -63 18.5 -105t71.5 -42q37 0 62.5 17.5t42 48t25.5 72.5t15 91q4 27 6.5 54.5t2.5 56.5 q0 72 -22 109.5t-75 37.5q-37 0 -62.5 -18t-41 -51t-23.5 -75t-14 -87q-4 -23 -5 -57t-1 -52z" />
<glyph horiz-adv-x="1069" d="M16 446q0 317 160 486.5t447 169.5q59 0 112 -11.5t94 -27.5l78 108h137l-114 -167q66 -57 102.5 -148.5t36.5 -214.5q0 -156 -42 -278.5t-120 -206.5t-189.5 -129t-250.5 -45q-63 0 -119.5 12t-101.5 29l-70 -105h-139l115 164q-68 55 -102 148.5t-34 215.5zM420 469 l209 301q-20 16 -56 16q-47 0 -76.5 -30.5t-46 -78.5t-23.5 -103.5t-7 -104.5zM451 315q20 -16 59 -16q41 0 66.5 22.5t42 59.5t24.5 82t14 90q2 18 4.5 35.5t2.5 36.5z" />
<glyph horiz-adv-x="1069" d="M14 434q0 317 156 492.5t446 175.5q219 0 335 -119t116 -334q0 -317 -151.5 -492t-444.5 -175q-225 0 -341 119.5t-116 332.5zM268 1214l56 201q23 12 72.5 31.5t133.5 19.5q25 0 56.5 -5t66.5 -11t69 -11t62 -5q80 0 128.5 12t72.5 22l-55 -200q-23 -12 -74 -31.5 t-131 -19.5q-25 0 -57.5 5t-67.5 11t-69.5 11t-61.5 5q-80 0 -128 -13t-73 -22zM418 446q0 -63 18.5 -105t71.5 -42q37 0 62.5 17.5t42 48t25.5 72.5t15 91q4 27 6.5 57.5t2.5 53.5q0 72 -22 109.5t-75 37.5q-37 0 -62.5 -18t-41 -51t-23.5 -75t-14 -87q-4 -23 -5 -57 t-1 -52z" />
<glyph horiz-adv-x="1019" d="M23 0l38 186l82 600l-73 17l32 280h592q166 0 254 -87t88 -232q0 -104 -30.5 -181t-85 -128.5t-130 -76t-163.5 -24.5h-156l-8 -57l76 -16l-35 -281h-481zM489 612h50q41 0 72.5 28t31.5 81q0 39 -25.5 59.5t-60.5 20.5h-43z" />
<glyph horiz-adv-x="1069" d="M14 440q0 319 154 490.5t434 171.5q225 0 346 -125t121 -334q0 -270 -102.5 -422.5t-282.5 -208.5l-6 -12l82 -199h-326l-51 185q-96 12 -164.5 50t-115 97.5t-68 137t-21.5 169.5zM418 446q0 -63 18.5 -105t71.5 -42q37 0 62.5 17.5t42 48t25.5 72.5t15 91 q4 27 6.5 54.5t2.5 56.5q0 72 -22 109.5t-75 37.5q-37 0 -62.5 -18t-41 -51t-23.5 -75t-14 -87q-4 -23 -5 -57t-1 -52z" />
<glyph horiz-adv-x="1058" d="M23 0l38 186l82 600l-73 17l32 280h625q145 0 234.5 -64.5t89.5 -205.5q0 -117 -52.5 -193.5t-144.5 -103.5v-10q51 -16 69.5 -53t24.5 -107l4 -49l66 -16l-35 -281h-408v301q0 53 -13 73.5t-54 20.5h-33l-49 -395h-403zM492 614h55q43 0 73.5 30t30.5 81 q0 35 -23.5 56.5t-58.5 21.5h-55z" />
<glyph horiz-adv-x="894" d="M-27 27l60 329h250v-96q2 0 12 -1t24 -1q117 0 117 59q0 23 -29.5 42.5t-89.5 41.5q-47 18 -93 45t-83 64t-59.5 85t-22.5 114q0 102 42 177t116 123t172 70.5t211 22.5q45 0 93 -5t91 -12.5t78 -14.5t58 -13l-64 -328h-242v98q-2 0 -11 1t-25 1q-43 -2 -71 -17t-28 -46 q0 -29 39 -49.5t92 -44.5q47 -20 92.5 -45t79 -60t54 -82t20.5 -110q0 -115 -44 -189.5t-121 -121t-181 -64.5t-225 -18q-37 0 -81 4t-87 10t-81 14t-63 17z" />
<glyph horiz-adv-x="862" d="M49 786l35 297h842l-35 -297h-223l-99 -786h-405l37 186l71 600h-223z" />
<glyph horiz-adv-x="1019" d="M23 0l36 186l84 600l-73 17l32 280h457l-14 -122h135q160 0 249 -86.5t89 -239.5q0 -109 -31 -184.5t-86 -125t-132 -72t-167 -22.5h-149l-29 -231h-401zM471 489h49q41 0 73 28t32 81q0 39 -26 59.5t-60 20.5h-43z" />
<glyph horiz-adv-x="1073" d="M59 803l35 280h463l-84 -665q-2 -12 -3 -29.5t-1 -28.5q0 -35 12.5 -52t42.5 -17q39 0 54.5 27.5t23.5 82.5l64 494l6 188h403l-86 -694q-29 -219 -159 -313t-343 -94q-92 0 -168.5 19t-132 61t-85 105.5t-29.5 151.5q0 16 1 37t5 39l55 391z" />
<glyph horiz-adv-x="1073" d="M59 803l35 280h463l-84 -682q-2 -12 -2 -21v-20q0 -35 11.5 -52t41.5 -17q39 0 54.5 27.5t23.5 82.5l64 494l6 188h403l-86 -694q-29 -219 -159 -313t-343 -94q-92 0 -168.5 19t-132 61t-85 105.5t-29.5 151.5v33t4 35l57 399zM328 1294l479 199l84 -238l-465 -75z" />
<glyph horiz-adv-x="1073" d="M59 803l35 280h463l-84 -682q-2 -12 -2 -21v-20q0 -35 11.5 -52t41.5 -17q39 0 54.5 27.5t23.5 82.5l64 494l6 188h403l-86 -694q-29 -219 -159 -313t-343 -94q-92 0 -168.5 19t-132 61t-85 105.5t-29.5 151.5v33t4 35l57 399zM317 1272l248 182q18 14 39 19.5t37 5.5 q18 0 41 -5.5t41 -19.5l246 -182l-99 -113l-229 74l-229 -74z" />
<glyph horiz-adv-x="1073" d="M59 803l35 280h463l-84 -682q-2 -12 -2 -21v-20q0 -35 11.5 -52t41.5 -17q39 0 54.5 27.5t23.5 82.5l64 494l6 188h403l-86 -694q-29 -219 -159 -313t-343 -94q-92 0 -168.5 19t-132 61t-85 105.5t-29.5 151.5v33t4 35l57 399zM367 1202l36 287h215l-36 -287h-215z M674 1202l37 287h215l-37 -287h-215z" />
<glyph horiz-adv-x="1073" d="M59 803l35 280h463l-84 -682q-2 -12 -2 -21v-20q0 -35 11.5 -52t41.5 -17q39 0 54.5 27.5t23.5 82.5l64 494l6 188h403l-86 -694q-29 -219 -159 -313t-343 -94q-92 0 -168.5 19t-132 61t-85 105.5t-29.5 151.5v33t4 35l57 399zM365 1251l112 238l457 -199l-113 -114z" />
<glyph horiz-adv-x="1024" d="M43 803l33 280h422l-31 -735l-10 -74h14l12 74l152 549l22 186h437l-379 -1083h-572l-39 788z" />
<glyph horiz-adv-x="1536" d="M45 803l33 280h428l-53 -804h10l14 73l129 545l25 186h409v-731l-6 -73h10l123 618l19 186h422l-301 -1083h-494l10 713l4 75h-10l-14 -75l-178 -713h-490l-26 788z" />
<glyph horiz-adv-x="1030" d="M-57 0l276 555l-74 223l-90 19l35 286h406l39 -331v-64h8l12 64l49 161l33 170h450l-262 -528l72 -252l92 -16l-37 -287h-413l-35 352v51h-8l-11 -51l-51 -164l-41 -188h-450z" />
<glyph horiz-adv-x="970" d="M47 799l35 284h371l30 -376v-68h9l14 68l74 211l30 165h428l-387 -729l-45 -354h-395l45 354l-123 424z" />
<glyph horiz-adv-x="970" d="M47 799l35 284h371l30 -376v-68h9l14 68l74 211l30 165h428l-387 -729l-45 -354h-395l45 354l-123 424zM246 1294l479 199l84 -238l-465 -75z" />
<glyph horiz-adv-x="970" d="M47 799l35 284h371l30 -376v-68h9l14 68l74 211l30 165h428l-387 -729l-45 -354h-395l45 354l-123 424zM289 1202l37 287h215l-37 -287h-215zM596 1202l37 287h215l-37 -287h-215z" />
<glyph horiz-adv-x="931" d="M-18 0l38 307l457 461l53 29v10h-165l-27 -84h-242v360h858l-36 -311l-426 -444l-58 -31l4 -10h156l33 78h231v-365h-876z" />
<glyph horiz-adv-x="628" d="M55 799q0 90 25.5 164.5t75 128t120 83t160.5 29.5q61 0 121.5 -4t108.5 -10l-29 -125l-41 -293l41 -6l-23 -170q-14 -4 -30 -6q-14 -2 -31.5 -3t-36.5 -1q-47 0 -76.5 20.5t-36.5 61.5l-4 28h-8q-23 -53 -65.5 -81.5t-96.5 -28.5q-92 0 -133 58t-41 155zM293 844 q0 -59 37 -60q35 0 48 49.5t21 108.5l11 82h-11q-27 0 -47 -18.5t-33.5 -46t-19.5 -58.5t-6 -57z" />
<glyph horiz-adv-x="628" d="M61 602l25 113l88 710l291 13l-21 -156l-59 -10l-16 -129h10q12 16 47 35.5t76 19.5q86 0 125 -59.5t39 -145.5q0 -80 -22.5 -153.5t-71 -131t-125 -91t-185.5 -33.5q-37 0 -95 4t-106 14zM311 766h13q29 0 48 17.5t31.5 45t18.5 60.5t6 61q0 31 -7 50.5t-28 19.5 q-18 0 -31.5 -17.5t-20.5 -44t-12 -57.5t-7 -57z" />
<glyph horiz-adv-x="524" d="M63 846q0 88 30 154.5t80 111.5t118.5 66.5t148.5 21.5q37 0 75 -5t73 -11l-43 -232h-152v68q-23 0 -40 -12.5t-29.5 -33t-18.5 -44t-6 -47.5q0 -51 26.5 -81t75.5 -30q35 0 69 12.5t56 34.5v-190q-23 -12 -74 -27.5t-128 -15.5q-125 0 -193 71.5t-68 188.5z" />
<glyph horiz-adv-x="632" d="M47 809q0 86 23.5 158.5t70.5 127t116 85t161 30.5l8 58l-53 12l20 152l287 12l-25 -125l-67 -551h41l-23 -170q-12 -4 -28 -6q-29 -6 -74 -6q-47 0 -75 22.5t-34 61.5l-4 26h-8q-16 -41 -58 -75.5t-108 -34.5q-90 0 -130 65.5t-40 157.5zM285 842q0 -55 34 -56 q20 0 34 19.5t22 46.5t11 53.5t5 40.5l12 80h-10q-29 0 -49 -18.5t-33.5 -46t-19.5 -59.5t-6 -60z" />
<glyph horiz-adv-x="587" d="M61 838q0 164 94.5 263t260.5 99q94 0 157.5 -46t63.5 -122q0 -53 -22.5 -90t-59.5 -61.5t-87 -39t-106 -18.5l-67 -6q4 -35 25.5 -49t64.5 -14h25l16 49h156l-9 -178q-14 -4 -38.5 -11.5t-57.5 -13.5t-68.5 -10t-72.5 -4q-141 0 -208 67.5t-67 184.5zM305 924 q43 2 77 18t34 53q0 16 -11.5 24.5t-27.5 8.5q-29 0 -50.5 -30.5t-21.5 -65.5v-8z" />
<glyph horiz-adv-x="356" d="M86 698v18.5t2 20.5l39 285l-41 6l20 164l117 6l-92 117l154 147l125 -147l-127 -115l96 6l-53 -434l41 -6l-21 -170q-23 -4 -57.5 -7t-75.5 -3q-127 0 -127 112z" />
<glyph horiz-adv-x="358" d="M82 705v16t2 18l72 529l-43 6l20 158l270 12l-84 -670l43 -4l-20 -172q-23 -4 -57.5 -7t-75.5 -3q-127 0 -127 117z" />
<glyph horiz-adv-x="944" d="M72 596l59 420l-41 6l21 170q23 4 51 7t51 3q53 0 78.5 -19.5t36.5 -54.5h8q27 29 66.5 51.5t99.5 22.5q98 0 133 -74h8q25 29 68 51.5t96 22.5q147 0 147 -143q0 -10 -1 -22.5t-3 -24.5l-35 -242l43 -4l-20 -170q-51 -10 -133 -10q-125 0 -125 110v18.5t2 20.5l27 213 q4 20 4 41q0 27 -23 27q-27 0 -35 -24.5t-12 -65.5l-43 -330h-231l45 365v10q0 4 1 10t1 10q0 25 -25 25q-35 0 -43 -72l-43 -348h-233z" />
<glyph horiz-adv-x="618" d="M61 836q0 80 21.5 146.5t64.5 115.5t104.5 75.5t141.5 26.5q129 0 190.5 -68.5t61.5 -181.5q0 -170 -86 -268t-252 -98q-129 0 -187.5 68.5t-58.5 183.5zM299 836q0 -29 7 -46.5t30 -17.5q41 0 57.5 48t16.5 126q0 29 -9.5 47.5t-31.5 18.5q-23 0 -36.5 -16.5t-20.5 -43 t-10 -57t-3 -59.5z" />
<glyph horiz-adv-x="446" d="M72 596l57 420l-39 6l19 168l50 8t48 4q51 0 77.5 -23.5t30.5 -60.5h9q27 41 66.5 62.5t105.5 21.5v-196q-20 4 -37 4q-61 0 -87 -37t-34 -101l-33 -276h-233z" />
<glyph horiz-adv-x="538" d="M37 614l31 189h155v-53h27q37 0 52 11t15 30q0 18 -38 32q-29 10 -62 24.5t-60.5 34t-46 47t-18.5 66.5q0 61 29 101.5t73 64t97 31.5t102 8q55 0 107.5 -8t93.5 -18l-39 -189h-145v62h-15q-29 0 -48 -9.5t-19 -31.5q0 -23 34 -37q35 -12 69 -25.5t59.5 -32t42 -46 t16.5 -66.5q0 -61 -28.5 -102.5t-73 -66t-99.5 -34.5t-108 -10q-49 0 -105.5 8t-97.5 20z" />
<glyph horiz-adv-x="380" d="M86 1016l18 166l54 8l39 131l204 63l-20 -194h68l-21 -174h-68l-20 -174q-2 -10 -3 -20.5t-1 -14.5q0 -39 43 -39q14 0 37 6l-51 -180q-14 -4 -31 -6q-14 -2 -30.5 -3t-31.5 -1q-96 0 -136 42t-40 119q0 35 6 76l31 195h-47z" />
<glyph horiz-adv-x="573" d="M-35 -6q0 174 77 272.5t224 98.5q121 0 177.5 -64.5t56.5 -175.5q0 -174 -79 -273.5t-233 -99.5q-119 0 -171 65.5t-52 176.5zM176 0q0 -33 8.5 -53.5t32.5 -20.5q20 0 33.5 18.5t22 47t11.5 62.5t3 65t-8.5 50t-32.5 19q-20 0 -33.5 -17t-22 -45t-11.5 -60.5t-3 -65.5z " />
<glyph horiz-adv-x="516" d="M-51 -240l20 160h127l31 223l-6 2l-19 -30q-14 -10 -44.5 -19.5t-53.5 -13.5l-16 170q41 6 98 33.5t94 68.5h174l-59 -434h119l-21 -160h-444z" />
<glyph horiz-adv-x="546" d="M-66 -240l21 164q98 47 154.5 80t85 57.5t37 42t8.5 35.5q0 25 -16.5 39.5t-43.5 14.5h-24l-21 -87h-143v240q8 2 29.5 5t50 6t62.5 6.5t65 3.5q49 0 95 -10.5t82 -33t57.5 -57.5t21.5 -84q0 -47 -15.5 -84t-42 -67.5t-62.5 -57t-79 -51.5l2 -8l43 20h57l95 11l-23 -185 h-496z" />
<glyph horiz-adv-x="528" d="M-51 -49q14 -6 65.5 -18.5t124.5 -12.5q35 0 60.5 8.5t25.5 36.5q0 23 -23.5 29t-60.5 6h-90l15 117h90q39 0 65.5 10t26.5 39q0 20 -21.5 30.5t-56.5 10.5l-10 -53h-164v188q35 10 94.5 17.5t122.5 7.5q49 0 95 -10.5t82 -31t56.5 -52t20.5 -74.5q0 -49 -27.5 -80 t-68.5 -51v-9q23 -10 46 -37.5t23 -74.5q0 -59 -28.5 -97t-74.5 -59.5t-101.5 -30t-110.5 -8.5q-47 0 -97.5 6t-78.5 15v178z" />
<glyph horiz-adv-x="544" d="M-66 -147l21 176l229 323h269l-41 -338h57l-18 -161h-60l-12 -95h-203l12 95h-254zM113 14h98l18 144l17 32q-2 0 -3 1.5t-3 1.5l-101 -156l-26 -14v-9z" />
<glyph horiz-adv-x="501" d="M-63 -225l26 194h158v-47h20q35 0 51.5 15.5t16.5 37.5q0 23 -32 37.5t-116 14.5h-65l41 327h397l-22 -186l-93 10h-104l-6 -33q41 -4 80 -14t68.5 -31.5t48 -53.5t18.5 -75q0 -66 -26.5 -107.5t-69.5 -68t-97.5 -37t-109.5 -10.5q-49 0 -99.5 8t-84.5 19z" />
<glyph horiz-adv-x="575" d="M-27 2q0 166 87 264.5t262 98.5q20 0 46.5 -3.5t53.5 -7.5t49.5 -9t32.5 -9l-35 -189h-168v46h-12q-66 0 -80 -66h16q111 0 183.5 -34t72.5 -124q0 -100 -72.5 -159.5t-199.5 -59.5q-121 0 -178.5 70.5t-57.5 181.5zM180 -18q0 -70 51 -70q23 0 35.5 15.5t12.5 39.5 q0 29 -26 40t-56 11h-13q-2 -10 -3 -19t-1 -17z" />
<glyph horiz-adv-x="505" d="M-25 119v235h494l-20 -172q-57 -45 -95.5 -100t-62 -111.5t-34.5 -110t-17 -91.5v-9h-217l2 9q6 51 23.5 106t42 107.5t57 98.5t69.5 83l37 12l-2 6h-113l-20 -63h-144z" />
<glyph horiz-adv-x="555" d="M-57 -98q0 53 28.5 88t75.5 57v8q-23 10 -42 41t-19 68q0 57 24.5 96t64.5 61.5t88 33t95 10.5q43 0 86 -9.5t77 -28t55.5 -48t21.5 -70.5q0 -55 -28 -87t-62 -48v-8q27 -23 44 -49.5t17 -69.5q0 -55 -25.5 -93t-65.5 -61.5t-91 -34t-103 -10.5q-45 0 -89 9.5t-77.5 27.5 t-54 47t-20.5 70zM129 -55q0 -20 19.5 -28.5t44.5 -8.5q29 0 47 11t18 34q0 18 -15.5 27.5t-43.5 17.5l-19 4q-51 -20 -51 -57zM193 172q0 -33 59 -45l18 -4q16 8 28.5 20.5t14.5 26.5q0 23 -17 32t-42 9q-23 0 -42 -8t-19 -31z" />
<glyph horiz-adv-x="561" d="M-47 -221l35 188h168v-45h12q66 0 80 66h-17q-113 0 -184.5 34.5t-71.5 124.5q0 100 73 160t196 60t181 -73t58 -183q0 -166 -87 -263.5t-261 -97.5q-20 0 -47 3t-53.5 7t-49 9.5t-32.5 9.5zM178 152q0 -29 25.5 -41.5t56.5 -12.5h14q2 10 3.5 18.5t1.5 18.5 q0 31 -12.5 50.5t-41.5 19.5q-23 0 -35 -15.5t-12 -37.5z" />
<glyph horiz-adv-x="278" d="M-8 82q0 45 6 88q12 113 62.5 228.5t115.5 199.5l90 -72q-53 -72 -95 -191.5t-42 -264.5q0 -80 13.5 -145.5t35.5 -110.5l-110 -70q-35 66 -55.5 156t-20.5 182z" />
<glyph horiz-adv-x="278" d="M-61 -186q25 35 48 85t41.5 110.5t30 128t11.5 138.5q0 78 -12.5 141.5t-32.5 108.5l106 72q35 -68 56.5 -158t21.5 -184v-43t-4 -43q-6 -55 -22.5 -113.5t-40 -114t-52.5 -106.5t-59 -92z" />
<glyph horiz-adv-x="1003" d="M16 424q0 156 35 281.5t104.5 214t174 135.5t241.5 47q217 0 322.5 -120t105.5 -325q0 -158 -37.5 -282.5t-110.5 -211.5t-179.5 -134t-243.5 -47q-217 0 -314.5 119.5t-97.5 322.5zM403 432q0 -57 15.5 -95t58.5 -38q53 0 81 62.5t42 166.5q4 33 6 65t2 62 q0 53 -16.5 89t-59.5 36q-29 0 -50 -19.5t-34.5 -51t-22.5 -74.5t-13 -90q-4 -27 -6.5 -56.5t-2.5 -56.5z" />
<glyph horiz-adv-x="884" d="M0 0l39 319h233l56 340l-11 5l-43 -60q-31 -20 -87 -38.5t-99 -28.5l-16 342q88 12 186 65t170 139h346l-106 -764h182l-41 -319h-809z" />
<glyph horiz-adv-x="942" d="M-31 0l37 297q170 86 271.5 146.5t154.5 104.5t69.5 76.5t16.5 65.5q0 41 -27.5 64.5t-72.5 27.5l-23 2l-51 -153h-274v424q16 6 53 13t86 15.5t106.5 13.5t118.5 5q94 0 180 -20.5t151.5 -62.5t104.5 -107.5t39 -153.5q0 -78 -22.5 -139.5t-64.5 -112.5t-103.5 -93 t-136.5 -81l2 -15h151l174 19l-43 -336h-897z" />
<glyph horiz-adv-x="923" d="M10 20v322q31 -10 118 -30.5t206 -20.5q66 0 113 13t47 63q0 41 -41 53t-113 12h-164l25 211h166q70 0 119 19.5t49 70.5q0 37 -39 51.5t-99 14.5h-8l-27 -86h-276v342q63 16 162.5 31.5t214.5 15.5q88 0 173 -18.5t149.5 -56.5t104.5 -94t40 -132q0 -78 -47 -141.5 t-125 -100.5v-14q20 -12 42.5 -31.5t41 -47.5t31 -61.5t12.5 -72.5q0 -102 -50.5 -170t-130 -108t-180 -56t-200.5 -16q-39 0 -83 3t-86 7t-80 11t-65 17z" />
<glyph horiz-adv-x="972" d="M-25 170l39 324l416 589h492l-76 -616h106l-34 -297h-109l-23 -170h-370l22 170h-463zM301 467h180l33 260l31 61q-4 0 -7 1.5t-8 1.5l-182 -283l-47 -29v-12z" />
<glyph horiz-adv-x="878" d="M-41 33l64 352h288v-86h21q66 0 95.5 25.5t29.5 66.5q0 43 -58.5 69.5t-214.5 26.5h-116l73 596h725l-41 -338l-170 21h-190l-8 -61q74 -4 143.5 -23.5t123.5 -57.5t87 -95.5t33 -137.5q0 -119 -48 -197.5t-126 -126t-176.5 -66.5t-198.5 -19q-90 0 -181 14t-155 37z" />
<glyph horiz-adv-x="980" d="M18 436q0 156 35 280t109 210t190.5 131t280.5 45q43 0 95 -5t102.5 -13.5t91.5 -17.5t61 -15l-55 -344h-305v81q-4 2 -18.5 3.5t-24.5 1.5q-117 0 -144 -127h43q100 0 186.5 -14.5t147.5 -49.5t96 -91t35 -138q0 -186 -124 -288.5t-357 -102.5q-111 0 -194 33.5t-139 95 t-84 144.5t-28 181zM393 399q0 -57 21.5 -90t70.5 -33q43 0 65.5 27t22.5 68q0 55 -43 76.5t-108 21.5h-23q-6 -35 -6 -70z" />
<glyph horiz-adv-x="888" d="M55 653v430h891l-39 -315q-104 -82 -172.5 -182.5t-111.5 -203.5t-64.5 -198.5t-30.5 -169.5l-2 -14h-395l2 14q12 96 43 195.5t77 195t105.5 180.5t126.5 150l68 23l-2 10h-199l-37 -115h-260z" />
<glyph horiz-adv-x="987" d="M-6 262q0 98 52 162.5t136 105.5v9q-43 25 -75.5 77t-32.5 123q0 100 44 170t114.5 113t158.5 61.5t174 18.5q78 0 156 -16.5t140.5 -51.5t101 -88t38.5 -129q0 -51 -15 -90t-38.5 -69.5t-53.5 -53t-60 -39.5v-8q51 -35 83.5 -88t32.5 -129q0 -96 -45 -163.5 t-117.5 -110.5t-166 -63.5t-187.5 -20.5q-84 0 -162.5 16t-140 50t-99.5 87t-38 127zM332 342q0 -37 33.5 -53.5t80.5 -16.5q51 0 86 20.5t35 61.5q0 29 -31.5 49.5t-82.5 32.5l-27 6q-47 -16 -70.5 -43.5t-23.5 -56.5zM446 752q0 -31 33 -50.5t84 -31.5l25 -6 q29 14 53.5 37.5t24.5 56.5q0 35 -33 50t-74 15q-39 0 -76 -17.5t-37 -53.5z" />
<glyph horiz-adv-x="980" d="M10 33l56 344h305v-82q4 -2 18 -3t25 -1q117 0 143 127h-43q-102 0 -187 14t-146.5 49t-96.5 90.5t-35 139.5q0 186 124 288.5t357 102.5q111 0 194 -34t139.5 -95.5t84 -144.5t27.5 -181q0 -156 -35 -279.5t-108.5 -209.5t-190.5 -131t-281 -45q-43 0 -95 5t-102 13 t-91 17.5t-62 15.5zM420 713q0 -55 43 -77t108 -22h23q4 16 5 35t1 35q0 57 -21.5 90t-70.5 33q-43 0 -65.5 -26.5t-22.5 -67.5z" />
<glyph horiz-adv-x="573" d="M-35 178q0 174 77 272.5t224 98.5q121 0 177.5 -64.5t56.5 -175.5q0 -174 -79 -273t-233 -99q-119 0 -171 65t-52 176zM176 184q0 -33 8.5 -53t32.5 -20q20 0 33.5 18t22 47t11.5 62.5t3 64.5t-8.5 50.5t-32.5 19.5q-20 0 -33.5 -17.5t-22 -45t-11.5 -60.5t-3 -66z" />
<glyph horiz-adv-x="516" d="M-51 -55l20 159h127l31 224l-6 2l-19 -31q-14 -10 -44.5 -19.5t-53.5 -13.5l-16 170q41 6 98 34t94 69h174l-59 -435h119l-21 -159h-444z" />
<glyph horiz-adv-x="546" d="M-66 -55l21 164q98 47 154.5 79.5t85 57t37 42t8.5 36.5q0 25 -16.5 39t-43.5 14h-24l-21 -86h-143v239q8 2 29.5 5.5t50 6.5t62.5 6t65 3q49 0 95 -10.5t82 -33t57.5 -57t21.5 -83.5q0 -47 -15.5 -84t-42 -68t-62.5 -57.5t-79 -51.5l2 -8l43 21h57l95 10l-23 -184h-496z " />
<glyph horiz-adv-x="528" d="M-51 -43v178q14 -6 65.5 -18.5t124.5 -12.5q35 0 60.5 8.5t25.5 37.5q0 23 -23.5 28.5t-60.5 5.5h-90l15 117h90q39 0 65.5 10.5t26.5 38.5q0 20 -21.5 30.5t-56.5 10.5l-10 -53h-164v188q35 10 94.5 17.5t122.5 7.5q49 0 95 -10.5t82 -31t56.5 -52t20.5 -74.5 q0 -49 -27.5 -80t-68.5 -51v-8q23 -10 46 -38t23 -75q0 -59 -28.5 -97t-74.5 -59.5t-101.5 -29.5t-110.5 -8q-47 0 -97.5 6t-78.5 14z" />
<glyph horiz-adv-x="544" d="M-66 37l21 176l229 324h269l-41 -338h57l-18 -162h-60l-12 -94h-203l12 94h-254zM113 199h98l18 143l17 33q-2 0 -3 1t-3 1l-101 -156l-26 -14v-8z" />
<glyph horiz-adv-x="501" d="M-63 -41l26 195h158v-48h20q35 0 51.5 15.5t16.5 38.5t-32 37t-116 14h-65l41 328h397l-22 -187l-93 10h-104l-6 -32q41 -4 80 -14.5t68.5 -32t48 -53t18.5 -74.5q0 -66 -26.5 -108t-69.5 -68.5t-97.5 -37t-109.5 -10.5q-49 0 -99.5 8.5t-84.5 18.5z" />
<glyph horiz-adv-x="575" d="M-27 186q0 166 87 264.5t262 98.5q20 0 46.5 -3t53.5 -7t49.5 -9.5t32.5 -9.5l-35 -188h-168v45h-12q-66 0 -80 -66h16q111 0 183.5 -33.5t72.5 -123.5q0 -100 -72.5 -160t-199.5 -60q-121 0 -178.5 71t-57.5 181zM180 166q0 -70 51 -70q23 0 35.5 15.5t12.5 40.5 q0 29 -26 40t-56 11h-13q-2 -10 -3 -19.5t-1 -17.5z" />
<glyph horiz-adv-x="505" d="M-25 303v236h494l-20 -172q-57 -45 -95.5 -100.5t-62 -112t-34.5 -109.5t-17 -92v-8h-217l2 8q6 51 23.5 106.5t42 107.5t57 98t69.5 83l37 12l-2 7h-113l-20 -64h-144z" />
<glyph horiz-adv-x="555" d="M-57 86q0 53 28.5 88t75.5 57v9q-23 10 -42 40.5t-19 67.5q0 57 24.5 96t64.5 61.5t88 33t95 10.5q43 0 86 -9.5t77 -27.5t55.5 -48t21.5 -71q0 -55 -28 -87t-62 -48v-8q27 -23 44 -49.5t17 -69.5q0 -55 -25.5 -93t-65.5 -61.5t-91 -34t-103 -10.5q-45 0 -89 9.5 t-77.5 28t-54 47t-20.5 69.5zM129 129q0 -20 19.5 -28.5t44.5 -8.5q29 0 47 11.5t18 33.5q0 18 -15.5 27.5t-43.5 17.5l-19 4q-51 -20 -51 -57zM193 356q0 -33 59 -45l18 -4q16 8 28.5 20.5t14.5 26.5q0 23 -17 32t-42 9q-23 0 -42 -8t-19 -31z" />
<glyph horiz-adv-x="561" d="M-47 -37l35 189h168v-46h12q66 0 80 66h-17q-113 0 -184.5 35t-71.5 125q0 100 73 159.5t196 59.5t181 -72.5t58 -183.5q0 -166 -87 -263.5t-261 -97.5q-20 0 -47 3.5t-53.5 7.5t-49 9t-32.5 9zM178 336q0 -29 25.5 -41t56.5 -12h14q2 10 3.5 18t1.5 18q0 31 -12.5 50.5 t-41.5 19.5q-23 0 -35 -15.5t-12 -37.5z" />
<glyph horiz-adv-x="575" d="M68 829q0 174 76.5 272.5t224.5 98.5q121 0 177 -64.5t56 -174.5q0 -174 -79 -273.5t-232 -99.5q-119 0 -171 65t-52 176zM279 836q0 -33 8 -53.5t32 -20.5q20 0 34 18.5t22 47t11 62.5t3 64q0 31 -8 50.5t-33 19.5q-20 0 -33.5 -17.5t-21.5 -45t-11 -60t-3 -65.5z" />
<glyph horiz-adv-x="516" d="M51 596l21 160h127l30 223l-6 2l-18 -31q-14 -10 -45 -19t-54 -13l-16 169q41 6 98.5 34t94.5 69h174l-60 -434h119l-20 -160h-445z" />
<glyph horiz-adv-x="544" d="M35 594l20 164q98 47 154.5 79.5t85.5 57.5t37 42t8 36q0 25 -16.5 39t-42.5 14h-25l-20 -86h-144v236q8 2 29.5 6t50.5 8t62.5 7t64.5 3q49 0 95 -10t82 -32.5t57.5 -57.5t21.5 -84q0 -47 -15.5 -84t-42 -67.5t-62.5 -57.5t-79 -51l2 -8l43 20h58l94 10l-23 -184h-495z " />
<glyph horiz-adv-x="528" d="M49 602v178q14 -6 65.5 -18t125.5 -12q35 0 60.5 8t25.5 37q0 23 -23.5 31t-60.5 8h-90l14 116h90q39 0 65.5 10.5t26.5 38.5q0 20 -21.5 30.5t-56.5 10.5l-10 -53h-164v189q35 10 94.5 17t122.5 7q49 0 95.5 -10t82 -30.5t56 -52.5t20.5 -75q0 -49 -27.5 -79.5 t-68.5 -51.5v-8q23 -10 46.5 -40t23.5 -77q0 -59 -29 -97t-75 -59.5t-101 -29.5t-111 -8q-47 0 -97 6t-79 14z" />
<glyph horiz-adv-x="544" d="M39 690l20 176l230 324h268l-41 -338h57l-18 -162h-59l-13 -94h-202l12 94h-254zM217 852h98l19 143l16 33q-2 0 -3 1t-3 1l-100 -156l-27 -14v-8z" />
<glyph horiz-adv-x="514" d="M41 610l35 195h157v-47h13q35 0 51 15t16 38t-31.5 37t-115.5 14h-66l41 328h398l-23 -186l-92 10h-105l-6 -33q41 -4 80 -14.5t69 -32t48 -53t18 -74.5q0 -66 -26.5 -108t-69.5 -68.5t-97 -36.5t-110 -10q-49 0 -99 8t-85 18z" />
<glyph horiz-adv-x="559" d="M66 838q0 166 87 264t261 98q20 0 46.5 -3t53.5 -7t49.5 -9t32.5 -10l-35 -188h-168v45h-12q-66 0 -80 -65h16q111 0 183.5 -34t72.5 -124q0 -100 -72.5 -159.5t-199.5 -59.5q-121 0 -178 70.5t-57 181.5zM272 817q0 -70 52 -69q23 0 35 15t12 40q0 29 -26 40t-56 11h-13 q-2 -10 -3 -19.5t-1 -17.5z" />
<glyph horiz-adv-x="512" d="M80 954v236h493l-20 -172q-57 -45 -95 -100.5t-61.5 -111.5t-35 -109.5t-17.5 -92.5v-8h-217l2 8q6 51 23.5 106.5t42 107.5t57.5 98.5t70 82.5l36 13l-2 6h-108l-21 -64h-147z" />
<glyph horiz-adv-x="561" d="M49 737q0 53 28.5 88t76.5 58v8q-23 10 -42.5 41t-19.5 67q0 57 24.5 96.5t64.5 62t88 32.5t96 10q43 0 86 -9t76.5 -27.5t55 -48.5t21.5 -71q0 -55 -27.5 -86.5t-62.5 -48.5v-8q27 -23 44 -49.5t17 -69.5q0 -55 -25.5 -93t-65.5 -61.5t-91 -33.5t-102 -10q-45 0 -89 9 t-78 27.5t-54.5 47t-20.5 69.5zM236 780q0 -20 19 -28.5t44 -8.5q29 0 47.5 11.5t18.5 33.5q0 18 -15.5 27.5t-44.5 18.5l-18 4q-51 -20 -51 -58zM299 1008q0 -33 59 -45l19 -5q16 8 28.5 20.5t14.5 27.5q0 23 -17.5 32t-42.5 9q-23 0 -42 -8.5t-19 -30.5z" />
<glyph horiz-adv-x="561" d="M59 612l35 189h168v-45h12q66 0 80 65h-16q-113 0 -184.5 38t-71.5 128q0 100 70.5 156.5t193.5 56.5t183.5 -72.5t60.5 -183.5q0 -166 -87 -263t-261 -97q-20 0 -47 3t-53.5 7t-49 9t-33.5 9zM285 985q0 -29 25.5 -41t56.5 -12h14q2 10 3 18t1 19q0 31 -12.5 50 t-40.5 19q-23 0 -35 -15t-12 -38z" />
<glyph horiz-adv-x="419" d="M104 1124q0 90 56.5 141.5t146.5 51.5q74 0 119 -44t45 -112q0 -80 -51.5 -136t-143.5 -56q-80 0 -126 43t-46 112z" />
<glyph horiz-adv-x="1226" d="M0 305q0 98 46 178t122 138q-23 31 -34 73.5t-11 83.5q0 74 29.5 134.5t82 102.5t123 64.5t150.5 22.5q57 0 110.5 -12.5t95.5 -38t68.5 -65.5t30.5 -95h299l156 12l-76 -264h-174q-10 -66 -30.5 -141.5t-45.5 -128.5q41 -23 93 -43.5t100 -38.5l-88 -305q-27 6 -65 20 t-80 31.5t-82 36t-70 36.5q-72 -57 -161 -90.5t-206 -33.5q-82 0 -151.5 22.5t-121 65.5t-81 102t-29.5 133zM319 326q0 -35 24 -55.5t58 -20.5q41 -1 72 24q-27 18 -61.5 49t-67.5 68q-10 -10 -17.5 -27.5t-7.5 -37.5zM459 760q0 -50 53 -103q16 29 29.5 62t13.5 55 q0 47 -43 47q-18 0 -35.5 -15t-17.5 -46zM530 639q33 -29 68 -55.5t72 -51.5q8 16 16 48t12 59h-168z" />
</font>
</defs>
</svg>
