<?xml version="1.0" standalone="no"?>
<!DOCTYPE svg PUBLIC "-//W3C//DTD SVG 1.1//EN" "http://www.w3.org/Graphics/SVG/1.1/DTD/svg11.dtd" >
<svg xmlns="http://www.w3.org/2000/svg">
<metadata></metadata>
<defs>
<font id="distefanoslabbold" horiz-adv-x="1011" >
<font-face units-per-em="2048" ascent="1536" descent="-512" />
<missing-glyph horiz-adv-x="360" />
<glyph unicode="&#xfb00;" horiz-adv-x="1169" d="M16 748v215l111 16v63q0 178 104.5 268.5t296.5 90.5q8 0 16.5 -1t16.5 -1h19l36 -236q-8 2 -25.5 4t-33.5 2q-63 0 -99 -29.5t-36 -95.5q0 -16 6 -37.5t10 -29.5h238v65q0 178 104.5 268.5t296.5 90.5q8 0 16.5 -1t16.5 -1h18l37 -236q-8 2 -25.5 4t-33.5 2 q-63 0 -99 -29.5t-36 -95.5q0 -16 6 -37.5t10 -29.5h160v-229h-174v-529l96 -14v-205h-412l19 176v572h-252v-529l96 -14v-205h-411l18 176v572h-111z" />
<glyph unicode="&#xfb01;" horiz-adv-x="1089" d="M16 748v215l111 16v63q0 178 104.5 268.5t296.5 90.5q8 0 16.5 -1t16.5 -1h19l36 -236q-8 2 -25.5 4t-33.5 2q-63 0 -99 -29.5t-36 -95.5q0 -16 6 -37.5t10 -29.5h531v-977h-310l15 176v572h-250v-529l96 -14v-205h-411l18 176v572h-111zM629 1202l196 199l199 -199 l-199 -196z" />
<glyph unicode="&#xfb02;" horiz-adv-x="1075" d="M16 748v215l111 16v72q0 100 34 167.5t95 107.5t145 57.5t185 17.5q49 0 106.5 -5t111.5 -11.5t98 -13.5t67 -11v-1360h-310l17 176v989q-14 4 -46 7.5t-61 3.5q-66 0 -107.5 -31t-41.5 -96q0 -33 6 -52l8 -20h119v-229h-129v-529l96 -14v-205h-411l18 176v572h-111z" />
<glyph unicode="&#xfb03;" horiz-adv-x="1632" d="M16 748v215l111 16v63q0 178 104.5 268.5t296.5 90.5q8 0 16.5 -1t16.5 -1h19l36 -236q-8 2 -25.5 4t-33.5 2q-63 0 -99 -29.5t-36 -95.5q0 -16 6 -37.5t10 -29.5h238v65q0 178 104.5 268.5t296.5 90.5q8 0 16.5 -1t16.5 -1h18l37 -236q-8 2 -25.5 4t-33.5 2 q-63 0 -99 -29.5t-36 -95.5q0 -16 6 -37.5t10 -29.5h526v-977h-313l17 176l8 572h-252v-529l96 -14v-205h-412l19 176v572h-252v-529l96 -14v-205h-411l18 176v572h-111zM1171 1202l197 199l199 -199l-199 -196z" />
<glyph unicode="&#xfb04;" horiz-adv-x="1619" d="M16 748v215l111 16v63q0 178 104.5 268.5t296.5 90.5q8 0 16.5 -1t16.5 -1h19l36 -236q-8 2 -25.5 4t-33.5 2q-63 0 -99 -29.5t-36 -95.5q0 -16 6 -37.5t10 -29.5h238v65q0 193 116.5 276t333.5 83q43 0 101.5 -5t114 -11.5t102.5 -13.5t69 -11v-1360h-309l17 156v1007 q-25 6 -54.5 8.5t-58.5 2.5q-63 0 -100 -31t-37 -94q0 -16 2 -28.5t6 -23.5l8 -20h160v-229h-174v-529l96 -14v-205h-412l19 176v572h-252v-529l96 -14v-205h-411l18 176v572h-111z" />
<glyph horiz-adv-x="0" />
<glyph unicode="&#xd;" horiz-adv-x="360" />
<glyph unicode=" "  horiz-adv-x="360" />
<glyph unicode="&#x09;" horiz-adv-x="360" />
<glyph unicode="&#xa0;" horiz-adv-x="360" />
<glyph unicode="!" horiz-adv-x="507" d="M100 117q0 66 41 104.5t111 38.5q66 0 101.5 -36t35.5 -101q0 -63 -39.5 -102t-105.5 -39q-68 0 -106 35.5t-38 99.5zM125 360l14 936h303l-69 -936h-248z" />
<glyph unicode="&#x22;" horiz-adv-x="602" d="M74 731v459h168v-459h-168zM360 731v459h170v-459h-170z" />
<glyph unicode="#" d="M43 266v160h174l57 293h-192v162h223l60 309h176l-60 -309h158l59 309h176l-61 -309h156v-162h-187l-55 -293h201v-160h-230l-51 -266h-176l49 266h-155l-52 -266h-176l51 266h-145zM395 426h156l55 293h-155z" />
<glyph unicode="$" d="M104 18v330h226l32 -147h46q76 0 129 23.5t53 76.5q0 51 -49 79t-123 56q-55 23 -110.5 48.5t-98.5 62.5t-69.5 88t-26.5 123q0 70 25.5 126t69.5 97t105.5 67.5t132.5 38.5v209h150v-194q74 0 158 -11.5t145 -25.5v-330h-225l-35 150h-27q-70 0 -126 -23.5t-56 -77.5 q0 -49 48 -76.5t120 -56.5q55 -23 110.5 -48t99.5 -62t71.5 -87.5t27.5 -123.5q0 -139 -88 -219t-223 -111v-213h-150v195h-45q-72 0 -145.5 10t-151.5 26z" />
<glyph unicode="%" horiz-adv-x="1146" d="M20 893q0 141 70 224t205 83t196.5 -80t61.5 -221q0 -143 -72.5 -228t-208.5 -85q-135 0 -193.5 82t-58.5 225zM152 0l700 1190h141l-698 -1190h-143zM197 893q0 -33 3 -63.5t12 -55t26.5 -39t44.5 -14.5q51 0 71.5 54t20.5 122q0 66 -16.5 116t-67.5 50q-55 0 -74.5 -51 t-19.5 -119zM594 299q0 141 69.5 224t204.5 83t196.5 -80t61.5 -221q0 -143 -72.5 -228t-207.5 -85t-193.5 82t-58.5 225zM770 299q0 -33 3 -63.5t12.5 -55t26.5 -39t44 -14.5q51 0 71.5 54.5t20.5 121.5q0 66 -16.5 116t-67.5 50q-55 0 -74.5 -51t-19.5 -119z" />
<glyph unicode="&#x26;" horiz-adv-x="1333" d="M51 358q0 100 42 178t116 140q-41 53 -61.5 107.5t-20.5 107.5q0 72 27.5 130t78 100t121 64.5t156.5 22.5q68 0 127 -13t104 -42t73 -72t32 -104h348l158 12l-39 -223h-207q-2 -117 -17.5 -228.5t-54.5 -197.5q59 -33 121 -57.5t115 -44.5l-51 -256q-29 8 -69 22 t-84 33.5t-89 41t-84 44.5q-68 -66 -166 -103.5t-225 -37.5q-96 0 -178 25.5t-142.5 73.5t-95.5 117.5t-35 159.5zM328 360q0 -68 49 -111.5t117 -43.5q90 0 147 57q-61 41 -135 103.5t-125 119.5q-53 -49 -53 -125zM418 868q0 -45 33.5 -95t87 -102.5t119 -101.5t126.5 -92 q25 53 34 132t9 157h-229q12 23 20.5 54.5t8.5 56.5q0 100 -101 100q-45 0 -76.5 -28.5t-31.5 -80.5z" />
<glyph unicode="'" horiz-adv-x="319" d="M74 731v459h172v-459h-172z" />
<glyph unicode="(" horiz-adv-x="458" d="M61 492q0 199 63.5 382t154.5 320l127 -84q-68 -113 -120.5 -268.5t-52.5 -349.5q0 -199 52.5 -354.5t120.5 -266.5l-130 -82q-92 137 -153.5 320.5t-61.5 382.5z" />
<glyph unicode=")" horiz-adv-x="458" d="M53 -129q68 111 120 266.5t52 354.5q0 195 -52 350t-120 268l127 84q90 -137 153.5 -320.5t63.5 -381.5q0 -199 -61.5 -382.5t-153.5 -320.5z" />
<glyph unicode="*" horiz-adv-x="751" d="M47 825l205 84l-203 88l88 150l172 -129l-28 215h188l-27 -213l172 127l86 -154l-200 -84l200 -84l-88 -151l-170 123l27 -207h-188l28 209l-172 -123z" />
<glyph unicode="+" d="M96 508v164h324v325h174v-325h324v-164h-324v-336h-174v336h-324z" />
<glyph unicode="," horiz-adv-x="415" d="M66 119q0 66 42 106.5t107 40.5q63 0 101 -38t38 -101q0 -41 -11 -68.5t-34 -64.5l-98 -152l-105 13l50 145q-35 10 -62.5 36.5t-27.5 82.5z" />
<glyph unicode="-" horiz-adv-x="653" d="M74 412v163h508v-163h-508z" />
<glyph unicode="." horiz-adv-x="415" d="M66 117q0 66 42 104.5t111 38.5q66 0 101.5 -36t35.5 -101q0 -63 -39.5 -102t-105.5 -39q-70 0 -107.5 35.5t-37.5 99.5z" />
<glyph unicode="/" horiz-adv-x="663" d="M-2 0l481 1190h189l-480 -1190h-190z" />
<glyph unicode="0" d="M31 586q0 133 30.5 247.5t92 197.5t154.5 130t218 47t211 -44t140.5 -123.5t79 -190.5t24.5 -244q0 -135 -30.5 -249.5t-92 -197.5t-155 -130t-218.5 -47q-123 0 -210 44t-141 122.5t-78.5 190.5t-24.5 247zM332 586q0 -80 7 -146.5t25.5 -116t50 -77t83.5 -27.5 q49 0 83.5 31t57.5 84t33 122.5t10 149.5t-7 146.5t-25.5 116t-51.5 77t-84 27.5t-86 -31t-56.5 -84t-30.5 -122.5t-9 -149.5z" />
<glyph unicode="1" d="M80 975q45 8 95 26.5t99.5 46t93.5 63.5t76 79h283l-27 -952h250v-238h-850v238h295l21 639l-8 2l-39 -64q-43 -35 -113 -58.5t-129 -37.5z" />
<glyph unicode="2" d="M53 0v244q154 98 257.5 176t166 142.5t89 118.5t26.5 107q0 96 -65.5 139.5t-182.5 43.5h-22l-43 -197h-226v387q78 23 167 35t175 12q102 0 192.5 -24.5t158 -74.5t106.5 -126t39 -178q0 -78 -23.5 -147.5t-74 -136t-126 -134.5t-180.5 -139q4 -8 5 -12h309l157 16v-252 h-905z" />
<glyph unicode="3" d="M68 279q10 -4 38.5 -14.5t71.5 -19.5t98.5 -16.5t118.5 -7.5q45 0 88 7.5t75 23.5t51.5 43t19.5 65q0 39 -18.5 65t-50.5 40t-75 20.5t-90 6.5h-162v219h152q45 0 86 6t72.5 21.5t50 42t18.5 67.5q0 68 -57 96.5t-147 28.5q-20 0 -38 -1t-38 -3l-29 -133h-225v329 q70 16 164 29.5t192 13.5t185.5 -18.5t154 -59t104 -105t37.5 -155.5q0 -88 -45 -155.5t-120 -102.5v-8q37 -16 69.5 -38.5t58 -54.5t41 -76t15.5 -99q0 -98 -45 -166t-119 -110t-168 -60t-190 -18q-92 0 -181.5 8t-138.5 22z" />
<glyph unicode="4" d="M45 201v270l430 719h371v-766h119v-223h-121v-201h-287v201h-512zM281 434l4 -10h280v401l23 82q-2 0 -5 1t-5 1l-250 -440z" />
<glyph unicode="5" d="M92 20v332h225l29 -133h70q104 0 168.5 36t64.5 116q0 92 -94 125.5t-254 33.5h-151v660h718v-254l-157 16h-265v-202q92 -2 182.5 -25t162 -68t116.5 -114.5t45 -167.5q0 -102 -43 -176t-113.5 -122t-164.5 -71.5t-195 -23.5q-86 0 -172 8t-172 30z" />
<glyph unicode="6" d="M47 567q0 135 32 252t99.5 203t174 136t257.5 50q43 0 88 -4t85 -10t73 -13t51 -12v-327h-225l-27 127h-20q-131 0 -196.5 -57.5t-78.5 -172.5q55 6 101 6q104 0 196.5 -19t161 -64.5t109.5 -116t41 -174.5q0 -88 -32 -160t-90.5 -123t-140 -78.5t-182.5 -27.5 q-133 0 -223 45t-147.5 123.5t-82 185t-24.5 231.5zM344 528q0 -61 8 -117.5t28.5 -99.5t57.5 -68.5t94 -25.5q63 0 104.5 39.5t41.5 105.5q0 47 -18.5 80t-50 53.5t-73.5 30t-87 9.5q-29 0 -59 -2.5t-46 -4.5z" />
<glyph unicode="7" d="M68 801v389h864v-256q-115 -109 -180.5 -231.5t-100.5 -244.5t-44 -233.5t-9 -197.5v-27h-303v29q0 115 13.5 230.5t45 227t83.5 219t130 205.5l58 31l-2 10h-295l-35 -151h-225z" />
<glyph unicode="8" d="M45 309q0 90 52.5 163t131.5 120v10q-63 37 -109 101.5t-46 156.5q0 86 35.5 151.5t97 109.5t142.5 65.5t171 21.5q86 0 166 -17t141.5 -56t98.5 -100.5t37 -149.5q0 -92 -50.5 -157.5t-113.5 -106.5v-9q74 -45 122 -111.5t48 -164.5q0 -88 -39 -154.5t-103.5 -110.5 t-150.5 -66.5t-178 -22.5t-174 17t-144.5 56t-98.5 101.5t-36 152.5zM309 336q0 -66 52.5 -94.5t121.5 -28.5q74 0 131.5 30.5t57.5 96.5q0 55 -52.5 90t-125.5 55l-39 11q-57 -23 -101.5 -64t-44.5 -96zM367 868q0 -57 48 -91t115 -50l33 -8q23 6 46.5 19.5t44 30.5 t32.5 39.5t12 49.5q0 59 -47 93t-119 34q-66 0 -115.5 -28.5t-49.5 -88.5z" />
<glyph unicode="9" d="M47 819q0 88 32 160t90 123t140 78.5t183 27.5q131 0 222 -45t148.5 -123.5t82 -185t24.5 -231.5q0 -135 -32 -252t-99.5 -203t-174 -136t-257.5 -50q-35 0 -75 2t-79 7t-76 11t-67 14v332h225l24 -127h15q258 0 282 230q-55 -6 -100 -7q-104 0 -196.5 19.5t-161 64.5 t-109.5 116t-41 175zM338 827q0 -47 18.5 -79.5t50 -53t72.5 -30t88 -9.5q29 0 58.5 2t46.5 5q0 61 -8.5 117.5t-29 99.5t-57 68.5t-94.5 25.5q-63 0 -104 -40t-41 -106z" />
<glyph unicode=":" horiz-adv-x="415" d="M66 117q0 66 42 104.5t111 38.5q66 0 101.5 -36t35.5 -101q0 -63 -39.5 -102t-105.5 -39q-70 0 -107.5 35.5t-37.5 99.5zM66 782q0 66 42 105t111 39q66 0 101.5 -36t35.5 -102q0 -63 -39.5 -102t-105.5 -39q-70 0 -107.5 36t-37.5 99z" />
<glyph unicode=";" horiz-adv-x="415" d="M66 119q0 66 42 106.5t107 40.5q63 0 101 -38t38 -101q0 -41 -11 -68.5t-34 -64.5l-98 -152l-105 13l50 145q-35 10 -62.5 36.5t-27.5 82.5zM66 784q0 63 42 103.5t109 40.5q66 0 102.5 -37t36.5 -103q0 -63 -39.5 -102t-105.5 -39q-70 0 -107.5 36t-37.5 101z" />
<glyph unicode="&#x3c;" d="M123 600l635 479l98 -145l-446 -334l450 -334l-104 -145z" />
<glyph unicode="=" d="M96 330v164h822v-164h-822zM96 664v163h822v-163h-822z" />
<glyph unicode="&#x3e;" d="M152 266l450 334l-446 334l98 145l635 -479l-633 -479z" />
<glyph unicode="?" horiz-adv-x="858" d="M41 897v379q68 18 144.5 28.5t154.5 10.5q100 0 186 -24.5t149.5 -75t98.5 -126t35 -176.5q0 -74 -27.5 -139t-77 -117.5t-115 -90.5t-140.5 -56l-19 -150h-237v299q57 8 113 27t100.5 48.5t72 70.5t27.5 96q0 84 -52.5 129t-129.5 45h-19l-39 -178h-225zM166 117 q0 66 42 104.5t109 38.5q66 0 103 -36t37 -101q0 -63 -40 -102t-106 -39q-70 0 -107.5 35.5t-37.5 99.5z" />
<glyph unicode="@" horiz-adv-x="1200" d="M41 340q0 135 41 254t119 208t190.5 141t255.5 52q123 0 220.5 -40t165 -110.5t102 -164.5t34.5 -205q0 -92 -26.5 -177t-80.5 -149.5t-134 -104.5t-185 -42l-28 102h-8q-14 -37 -53.5 -70.5t-112.5 -33.5q-53 0 -93 25.5t-67 67.5t-40 96.5t-13 111.5q0 86 22.5 158.5 t67.5 125t109.5 81t150.5 28.5q59 0 103 -4t67 -8l-10 -135v-291l16 -80q76 29 111.5 107.5t35.5 185.5q0 371 -358 371q-106 0 -187 -39t-134.5 -106.5t-81 -160t-27.5 -198.5q0 -104 25.5 -193.5t76 -154t126 -101.5t177.5 -37q123 0 222.5 32t167.5 69v-168 q-72 -35 -176.5 -60.5t-221.5 -25.5q-143 0 -250.5 49t-178 135t-105.5 204t-35 255zM502 313q0 -72 20.5 -115.5t61.5 -43.5q57 0 74.5 62.5t17.5 186.5v140h-10q-4 0 -9.5 1t-11.5 1q-78 0 -110.5 -67.5t-32.5 -164.5z" />
<glyph unicode="A" horiz-adv-x="1202" d="M16 0l308 1057l-93 16v223h646l243 -1060l82 -13v-223h-411v172l-23 145h-324l-22 -81l82 -13v-223h-488zM506 569h217l-82 441l-6 82h-8l-11 -82z" />
<glyph unicode="B" horiz-adv-x="1153" d="M33 1073v223h639q90 0 165.5 -20.5t131 -62.5t87 -107.5t31.5 -155.5q0 -102 -46 -172.5t-115 -99.5v-8q82 -37 134 -111t52 -197q0 -172 -106.5 -267t-307.5 -95h-592l23 170v887zM451 760h165q72 0 109 40t37 101q0 66 -39 104.5t-115 38.5h-157v-284zM453 250h155 q86 0 130 36t44 113q0 74 -46 114t-128 40h-155v-303z" />
<glyph unicode="C" horiz-adv-x="1040" d="M31 604q0 160 41 291t120.5 224t196.5 144.5t270 51.5q94 0 191.5 -15.5t161.5 -33.5v-422h-234l-55 205h-23q-164 0 -245.5 -117t-81.5 -307q0 -78 19.5 -145.5t57 -119t93 -80t129.5 -28.5q53 0 99 15.5t84 38t66.5 51t47.5 55.5l63 -306q-25 -20 -64.5 -41.5t-92 -40 t-116 -30.5t-136.5 -12q-129 0 -239 42t-187.5 121.5t-121.5 195.5t-44 263z" />
<glyph unicode="D" horiz-adv-x="1208" d="M33 1073v223h512q315 0 474 -164.5t159 -498.5q0 -305 -153 -469t-454 -164h-465l25 170v887zM453 260h112q152 2 213.5 97.5t61.5 279.5q0 205 -61.5 302t-215.5 97h-110v-776z" />
<glyph unicode="E" horiz-adv-x="1064" d="M33 1073v223h968v-407h-233l-33 147h-282v-258h475v-241h-475v-277h301l32 148h234v-408h-914l23 170v887z" />
<glyph unicode="F" horiz-adv-x="993" d="M33 1073v223h930v-407h-234l-29 147h-247v-284h438v-242h-438v-268l114 -19v-223h-461l23 170v887z" />
<glyph unicode="G" horiz-adv-x="1140" d="M31 616q0 156 42 285t124 221t204.5 142.5t286.5 50.5q78 0 169 -16.5t192 -45.5v-379h-232l-35 162q-23 6 -46 10.5t-56 4.5q-141 0 -227 -105.5t-86 -322.5q0 -84 15 -154t46 -120t79 -77.5t114 -27.5q74 0 129 30v213h-164v236h469v-625q-88 -47 -203 -82.5 t-254 -35.5q-121 0 -224.5 35.5t-180 112.5t-119.5 197.5t-43 290.5z" />
<glyph unicode="H" horiz-adv-x="1230" d="M33 1073v223h420v-499h327v499h344l-22 -170v-888l96 -15v-223h-418v543h-327v-305l96 -15v-223h-443l23 170v887z" />
<glyph unicode="I" horiz-adv-x="581" d="M33 1073v223h420v-1058l94 -15v-223h-441l23 170v887z" />
<glyph unicode="J" horiz-adv-x="704" d="M-23 258q16 -4 49 -7t48 -3q98 0 150 48t52 148v592l-262 25v235h602l-16 -170v-688q0 -121 -36 -207t-100.5 -141t-154.5 -80.5t-196 -25.5q-20 0 -55 2t-44 4z" />
<glyph unicode="K" horiz-adv-x="1116" d="M33 1073v223h422v-483h12l20 82l234 401h379l-340 -485l252 -571l104 -17v-223h-360l-217 553h-9l-75 -102v-213l94 -15v-223h-440l22 170v887z" />
<glyph unicode="L" horiz-adv-x="929" d="M33 1073v223h424v-1036h186l33 156h233v-416h-798l24 170v885z" />
<glyph unicode="M" horiz-adv-x="1658" d="M63 1073v223h609l166 -802l8 -70h10l8 70l176 802h514l-12 -170l10 -888l95 -15v-223h-408v1028h-10l-8 -65l-238 -963h-276l-218 961l-8 69h-10l-33 -792l88 -15v-223h-436l23 170l51 887z" />
<glyph unicode="N" horiz-adv-x="1245" d="M33 1073v223h499l316 -890h12l-12 79l-29 574l-88 14v223h422l-27 -170v-1126h-393l-315 911h-12l12 -86l28 -587l86 -15v-223h-421l24 168v887z" />
<glyph unicode="O" horiz-adv-x="1200" d="M31 637q0 154 39 278.5t114.5 214t187 137.5t257.5 48q141 0 243.5 -46t168 -131t97 -207t31.5 -274q0 -154 -38.5 -278.5t-113.5 -212.5t-186.5 -136t-257.5 -48q-139 0 -241.5 45t-169 129t-99 205.5t-32.5 275.5zM377 639q0 -74 8 -144.5t31.5 -127t63.5 -90 t106 -33.5q68 0 112.5 35.5t72.5 95t40 133.5t12 151q0 74 -9 144.5t-32.5 126t-64.5 89.5t-105 34q-68 0 -113.5 -36t-72.5 -94.5t-38 -133t-11 -150.5z" />
<glyph unicode="P" horiz-adv-x="1120" d="M33 1073v223h602q209 0 333 -110.5t124 -319.5q0 -102 -33 -180t-93.5 -130t-144.5 -78.5t-186 -26.5h-180v-207l120 -21v-223h-469l25 170v887zM455 709h123q90 0 137 38.5t47 124.5q0 88 -50 127t-139 39h-118v-329z" />
<glyph unicode="Q" horiz-adv-x="1200" d="M31 635q0 156 39 281.5t114.5 214t186 136.5t254.5 48q143 0 246.5 -46t169 -131t97 -207t31.5 -274q0 -254 -94 -413.5t-268 -225.5l-4 -12l127 -239h-305l-97 217q-133 8 -227 57t-154.5 133t-88 201t-27.5 260zM375 639q0 -74 8 -144.5t31.5 -126t64.5 -89t107 -33.5 q70 0 116 35.5t73.5 94t38.5 132.5t11 151q0 74 -9 144.5t-33.5 126t-65.5 89.5t-105 34q-70 0 -115.5 -36t-72.5 -94.5t-38 -133t-11 -150.5z" />
<glyph unicode="R" horiz-adv-x="1181" d="M33 1073v223h620q96 0 177 -21.5t139.5 -66.5t91.5 -114.5t33 -165.5q0 -119 -55.5 -200t-151.5 -110v-8q68 -25 99.5 -77t55.5 -160l29 -133l105 -17v-223h-381l-70 348q-10 49 -23.5 80t-35 49.5t-52 25.5t-73.5 7h-82v-272l96 -15v-223h-442l22 170v885zM459 727h141 q86 0 128 42t42 118q0 155 -164 155h-2h-145v-315z" />
<glyph unicode="S" horiz-adv-x="1030" d="M61 27v397h234l41 -180q20 -2 43.5 -3t46.5 -1q41 0 79 7t66.5 22.5t46 38t17.5 52.5q0 31 -15.5 54.5t-41 42t-61.5 35t-77 34.5q-57 25 -122.5 56.5t-122 75.5t-94.5 104.5t-38 144.5q0 104 40 181t114 127.5t176.5 75t227.5 24.5q49 0 99 -5t95 -11.5t81 -14.5t58 -14 v-396h-233l-39 181q-20 2 -44 3t-42 1q-39 0 -76 -6t-64.5 -20.5t-44 -36t-16.5 -54.5q0 -29 18.5 -51.5t47 -43t66.5 -37.5t77 -34q59 -25 124 -56.5t118 -75.5t88 -105.5t35 -147.5q0 -111 -44 -188.5t-120 -126.5t-177.5 -71.5t-215.5 -22.5q-33 0 -81 3t-98.5 9 t-96.5 14t-75 19z" />
<glyph unicode="T" horiz-adv-x="888" d="M12 1036v260h865v-260h-269v-1036h-342l17 170v866h-271z" />
<glyph unicode="U" horiz-adv-x="1185" d="M20 1073v223h418v-831q0 -106 31 -159.5t127 -53.5t136 53t40 160v594l-96 14v223h422v-841q0 -242 -131 -357.5t-379 -115.5t-362 114q-110 111 -109 341v16v604z" />
<glyph unicode="V" horiz-adv-x="1132" d="M0 1073v223h371l170 -942l6 -90h12l8 90l154 705l-94 14v223h489l-336 -1296h-454l-248 1059z" />
<glyph unicode="W" horiz-adv-x="1794" d="M4 1073v223h399l142 -1028h12v90l121 764v174h436l123 -938v-90h12l127 791l-92 14v223h485l-276 -1296h-449l-126 926l-7 92h-12l-8 -92l-154 -926h-446l-201 1059z" />
<glyph unicode="X" horiz-adv-x="1148" d="M0 0l330 688l-185 363l-114 22v223h372l148 -364l14 -78h13l14 76l86 194l51 172h393l-309 -608l207 -448l117 -17v-223h-381l-164 449l-14 69h-11l-14 -69l-74 -213l80 -13v-223h-559z" />
<glyph unicode="Y" horiz-adv-x="1085" d="M6 1073v223h348l162 -497l8 -82h11l12 84l117 325l36 170h369l-373 -843v-453h-430v223l96 15v215l-258 602z" />
<glyph unicode="Z" horiz-adv-x="1042" d="M41 0v256l526 737l54 31l-5 12h-286l-37 -141h-234v401h924v-252l-526 -739l-66 -33l4 -12h336l37 141h233v-401h-960z" />
<glyph unicode="[" horiz-adv-x="487" d="M111 -211v1401h342v-164h-168v-1075h168v-162h-342z" />
<glyph unicode="\" horiz-adv-x="649" d="M-4 1190h180l477 -1190h-184z" />
<glyph unicode="]" horiz-adv-x="487" d="M35 -49h168v1075h-168v164h342v-1401h-342v162z" />
<glyph unicode="^" d="M27 377l479 633l479 -633l-145 -105l-334 451l-334 -447z" />
<glyph unicode="_" horiz-adv-x="1128" d="M0 -195h1128v-163h-1128v163z" />
<glyph unicode="`" horiz-adv-x="1054" d="M268 1219l86 190l432 -217l-73 -82z" />
<glyph unicode="a" horiz-adv-x="995" d="M39 270q0 102 44 169t121 107t179 55t217 15q-2 96 -52 130t-147 34h-24.5t-26.5 -2l-26 -119h-224v291q55 16 143.5 30.5t184.5 14.5q115 0 202 -19.5t145.5 -66.5t88 -124.5t29.5 -194.5v-373l80 -12v-205h-285l-45 125h-10q-47 -61 -117 -102t-172 -41 q-133 0 -219 74.5t-86 213.5zM328 309q0 -49 29.5 -76.5t76.5 -27.5q92 0 130 66.5t38 181.5q-51 0 -100 -4.5t-88 -19.5t-62.5 -43t-23.5 -77z" />
<glyph unicode="b" horiz-adv-x="1030" d="M96 10l19 178v1194h405v-204l-110 -19v-256h12q4 6 21.5 21.5t47 31t69.5 27.5t91 12q84 0 148.5 -30.5t109.5 -87t67.5 -134t22.5 -172.5q0 -127 -31.5 -234.5t-102 -186t-184.5 -123.5t-275 -45q-39 0 -81 2t-83 6t-78 9t-68 11zM397 375q0 -25 1 -71t3 -83 q10 -2 19 -2q8 -2 17 -2h20q68 0 113.5 25.5t74.5 68.5t42 101.5t13 124.5q0 100 -30.5 162.5t-104.5 62.5q-51 0 -83.5 -32t-51 -86t-26 -123.5t-7.5 -145.5z" />
<glyph unicode="c" horiz-adv-x="829" d="M31 463q0 121 34.5 219t100 168t163 107.5t220.5 37.5q53 0 100 -6t82 -12q39 -8 72 -19v-319h-223l-23 125h-18q-57 -4 -97.5 -27.5t-65 -62.5t-35.5 -90.5t-11 -110.5q0 -111 59.5 -184.5t163.5 -73.5q72 0 127 28.5t90 75.5l47 -241q-12 -12 -39.5 -28.5t-67.5 -32 t-92.5 -25.5t-113.5 -10q-225 0 -349 125.5t-124 355.5z" />
<glyph unicode="d" horiz-adv-x="1017" d="M31 414q0 127 33.5 234.5t103.5 184t172 119.5t242 43h43v166l-101 17v204h408l-14 -178v-987l77 -12v-205h-266l-37 119h-10q-35 -49 -103.5 -93t-177.5 -44q-86 0 -155.5 31.5t-116.5 89t-72.5 137t-25.5 174.5zM328 444q0 -96 29.5 -162.5t103.5 -66.5q53 0 87 32 t52 85t25.5 123.5t7.5 148.5q0 45 -2 83t-4 69q-8 0 -17 2q-8 0 -16 1t-16 1q-68 0 -115 -24.5t-77 -67.5t-44 -100.5t-14 -123.5z" />
<glyph unicode="e" horiz-adv-x="964" d="M31 473q0 111 31.5 206t92 165.5t150.5 110.5t207 40q115 0 194.5 -37.5t129 -103.5t71 -156t21.5 -194v-80h-588q4 -119 71.5 -165t190.5 -46h45l25 101h223v-277q-20 -8 -56 -18.5t-82 -18.5t-99.5 -13t-106.5 -5q-256 0 -388 127t-132 364zM342 590h301l8 10 q0 76 -31.5 125t-105.5 49t-118 -51t-54 -133z" />
<glyph unicode="f" horiz-adv-x="620" d="M16 748v215l111 16v63q0 178 104.5 268.5t296.5 90.5q8 0 16.5 -1t16.5 -1h19l36 -236q-8 2 -25.5 4t-33.5 2q-63 0 -99 -29.5t-36 -95.5q0 -16 6 -37.5t10 -29.5h160v-229h-174v-529l96 -14v-205h-411l18 176v572h-111z" />
<glyph unicode="g" horiz-adv-x="1030" d="M33 -80q0 104 81 167t218 101v93q-123 29 -198 103.5t-75 217.5q0 193 126 293t368 100q39 0 94 -2t118.5 -6t128 -8t122.5 -10v-195l-119 -14v-12q18 -23 34.5 -62t16.5 -96q0 -137 -84 -210t-219 -97v-62l111 -37q102 -35 163.5 -92t61.5 -155q0 -78 -40 -134.5 t-107.5 -92.5t-155.5 -52t-182 -16q-90 0 -174 15t-148.5 48t-102.5 86t-38 129zM322 -45q0 -51 50 -70.5t124 -19.5q37 0 70.5 5t61 15.5t44 25.5t16.5 38q0 35 -33.5 55.5t-85.5 32.5l-159 41q-37 -23 -62.5 -55.5t-25.5 -67.5zM344 604q0 -61 37 -104t121 -43 q72 0 118 37.5t46 109.5q0 166 -152 166q-92 0 -131 -42t-39 -124z" />
<glyph unicode="h" horiz-adv-x="1060" d="M111 0v1382h430v-204l-135 -25v-276h10q35 47 101.5 83.5t152.5 36.5q147 0 216.5 -87t69.5 -236l-8 -457l90 -12v-205h-381v627q0 59 -21.5 97t-80.5 38q-47 0 -75.5 -20.5t-45 -56.5t-22.5 -82t-6 -95v-508h-295z" />
<glyph unicode="i" horiz-adv-x="522" d="M23 772v205h393v-977h-318l21 176l8 580zM61 1202l197 199l199 -199l-199 -196z" />
<glyph unicode="j" horiz-adv-x="579" d="M-20 -125q33 -6 59 -6q72 0 102.5 39t30.5 110v730l-152 24v205h472l-25 -178v-783q0 -199 -95.5 -288.5t-293.5 -89.5q-8 0 -27.5 1t-30.5 3zM123 1202l196 199l199 -199l-199 -196z" />
<glyph unicode="k" horiz-adv-x="1019" d="M23 1178v204h389v-718l12 -2l16 59l189 256h375l-295 -340l209 -416l102 -16v-205h-326l-205 457h-10l-67 -78v-160l88 -14v-205h-400l19 176l10 985z" />
<glyph unicode="l" horiz-adv-x="522" d="M23 1178v204h393v-1382h-316l31 176v985z" />
<glyph unicode="m" horiz-adv-x="1589" d="M23 772v205h299l36 -121h11q37 55 107.5 97t174.5 42q92 0 160 -36.5t100 -102.5h11q41 55 109.5 97t166.5 42q145 -1 218 -79q69 -74 69 -213v-15l-8 -479l94 -14v-195h-383v643q0 53 -24.5 86t-76.5 33q-43 0 -69.5 -16.5t-41.5 -46t-21.5 -70.5t-6.5 -92v-537h-295 v643q0 53 -23.5 86t-76.5 33q-84 0 -112.5 -61.5t-28.5 -163.5v-537h-295l8 758z" />
<glyph unicode="n" horiz-adv-x="1075" d="M23 774v203h296l37 -123h11q43 57 116.5 99t182.5 42q150 0 223.5 -84t73.5 -237l-9 -457l103 -14v-203h-393v647q0 53 -25 84t-78 31q-41 0 -69.5 -18.5t-46 -50t-25.5 -73.5t-8 -92v-528h-295l8 758z" />
<glyph unicode="o" horiz-adv-x="993" d="M31 479q0 113 31.5 208t93 164t151.5 106.5t207 37.5t202 -34.5t140 -99t81 -157t26 -204.5q0 -113 -33 -208t-95.5 -164t-153.5 -107.5t-208 -38.5q-119 0 -203 35.5t-137 100t-77.5 156.5t-24.5 205zM330 485q0 -55 6 -105t23.5 -88t48 -59.5t77.5 -21.5 q100 0 140.5 80t40.5 201q0 55 -7.5 105t-26 87t-49 58.5t-79.5 21.5q-51 0 -85 -22.5t-53.5 -61.5t-27.5 -89.5t-8 -105.5z" />
<glyph unicode="p" horiz-adv-x="1017" d="M23 772v205h264l43 -119h10q18 23 47 47.5t64.5 44t79.5 32.5t98 13q88 0 154.5 -32.5t111.5 -90t68.5 -136.5t23.5 -173q0 -129 -33.5 -232.5t-102.5 -177t-172.5 -113.5t-242.5 -40h-43v-121l101 -16v-203h-408l25 178v920zM385 373q0 -45 2 -89.5t4 -62.5q8 -2 17 -2 q10 -2 32 -2q68 0 115 24.5t77 67.5t44 100.5t14 122.5q0 96 -31.5 163t-103.5 67q-55 0 -88 -33t-51.5 -87t-24.5 -123.5t-6 -145.5z" />
<glyph unicode="q" horiz-adv-x="1030" d="M31 406q0 125 31.5 233.5t102.5 187t183.5 123.5t276.5 45q94 0 177 -8t132 -16l-21 -176v-1137h-395v203l100 16v197h-12q-4 -6 -21.5 -21.5t-46 -31t-67.5 -27.5t-88 -12q-84 0 -149.5 30.5t-110.5 87t-68.5 134t-23.5 172.5zM328 440q0 -100 30.5 -162.5t104.5 -62.5 q51 0 84 32t51 86t25.5 123.5t7.5 145.5v33.5t-1 44t-2 43.5t-1 33q-10 0 -19 2q-8 0 -17 1t-20 1q-68 0 -113.5 -25.5t-74.5 -68.5t-42 -101.5t-13 -124.5z" />
<glyph unicode="r" horiz-adv-x="696" d="M23 774v203h296l33 -123h10q37 61 111 101t191 40l32 -266q-8 2 -28.5 4t-36.5 2q-133 0 -182.5 -68.5t-49.5 -195.5v-254l90 -12v-205h-378v760z" />
<glyph unicode="s" horiz-adv-x="872" d="M53 692q0 82 38 139.5t100.5 94.5t144.5 53t170 16q104 0 174 -11t119 -23v-320h-224l-34 133q-10 2 -20.5 2h-20.5q-55 0 -99.5 -14t-44.5 -57q0 -18 13.5 -32t34 -25t46 -21.5t48.5 -20.5q57 -23 115.5 -47t105.5 -59t75.5 -84t28.5 -117q0 -88 -39 -148.5 t-103.5 -98.5t-148 -54t-172.5 -16q-45 0 -92 5t-88 12t-74.5 15.5t-50.5 14.5v309h224l32 -137h27q33 0 64.5 3t57 12t42 25.5t16.5 41.5q0 37 -43 59.5t-106 46.5q-57 23 -113.5 48.5t-101.5 59t-73 81t-28 114.5z" />
<glyph unicode="t" horiz-adv-x="612" d="M12 748v215l107 14l39 213l260 106v-319h164v-229h-160v-408q0 -133 135 -133q14 0 30.5 2t28.5 6l-41 -229q-10 -2 -30.5 -3t-36.5 -1q-88 0 -160 16t-122 56t-77.5 108.5t-27.5 175.5v410h-109z" />
<glyph unicode="u" horiz-adv-x="1046" d="M18 770v207h379v-643q0 -53 24.5 -86t78.5 -33q82 0 115.5 66.5t33.5 169.5v299l-88 14v213h383l-8 -760l88 -12v-205h-285l-34 123h-9q-43 -57 -118.5 -99t-184.5 -42q-150 0 -222.5 84t-72.5 237l8 453z" />
<glyph unicode="v" horiz-adv-x="966" d="M0 772v205h326l135 -655l8 -72h10l10 72l99 440l-74 10v205h440l-290 -977h-381l-209 760z" />
<glyph unicode="w" horiz-adv-x="1546" d="M0 772v205h332l125 -721h10l6 76l98 469v176h375l121 -645l4 -76h10l101 504l-76 12v205h428l-240 -977h-381l-122 670l-7 71h-10l-6 -71l-141 -670h-381l-166 758z" />
<glyph unicode="x" horiz-adv-x="976" d="M0 0l258 524l-125 228l-110 20v205h319l113 -264l16 -64h10l17 64l61 112l49 152h348l-256 -453l160 -303l105 -16v-205h-320l-151 319l-15 66h-10l-12 -66l-70 -169l-35 -150h-352z" />
<glyph unicode="y" horiz-adv-x="960" d="M0 772v205h319l170 -655h11v67l84 412l10 176h354l-319 -993q-31 -96 -76 -162t-106.5 -106t-141.5 -56t-182 -16q-10 0 -27.5 1t-25.5 3l-37 229q39 -8 86 -8q86 0 133 35t70 112l8 33l-246 709z" />
<glyph unicode="z" horiz-adv-x="884" d="M35 0v236l436 473l45 24v12h-215l-27 -112h-223v344h795v-244l-426 -469l-43 -18v-10h223q4 23 9 39t9 30t9 29h223v-334h-815z" />
<glyph unicode="{" horiz-adv-x="485" d="M10 485v9l70 77q29 33 33 50.5t4 52.5v321q0 104 47 149.5t151 45.5h136v-164h-99q-37 0 -49 -12.5t-12 -48.5v-324q0 -37 -6 -57.5t-35 -55.5l-35 -39l35 -40q27 -35 34 -54.5t7 -56.5v-324q0 -37 12 -50t49 -13h99v-162h-136q-104 0 -151 45t-47 150v321q0 35 -4 52.5 t-33 50.5z" />
<glyph unicode="|" horiz-adv-x="389" d="M106 -264v1454h175v-1454h-175z" />
<glyph unicode="}" horiz-adv-x="485" d="M35 -49h98q37 0 49.5 13t12.5 50v324q0 18 1 31.5t5 26t12 24.5t23 29l34 40l-34 39q-29 35 -35 55.5t-6 57.5v324q0 37 -12.5 49t-49.5 12h-98v164h135q104 0 151.5 -45t47.5 -150v-321q0 -35 4 -52.5t33 -50.5l69 -77v-9l-69 -77q-29 -33 -33 -50.5t-4 -52.5v-321 q0 -104 -47.5 -149.5t-151.5 -45.5h-135v162z" />
<glyph unicode="~" d="M102 479v170q18 12 79 38t143 26q45 0 92 -13.5t95 -30t95 -29.5t90 -13q68 0 125.5 24.5t87.5 44.5v-170q-16 -14 -76.5 -38.5t-142.5 -24.5q-43 0 -91 13t-96 29.5t-95.5 30t-92.5 13.5q-66 0 -124 -23.5t-89 -46.5z" />
<glyph unicode="&#xa1;" horiz-adv-x="507" d="M66 -319l69 935h248l-14 -935h-303zM119 854q0 63 39.5 102t105.5 39q70 0 108 -35.5t38 -99.5q0 -66 -42 -104.5t-112 -38.5q-66 0 -101.5 35.5t-35.5 101.5z" />
<glyph unicode="&#xa2;" d="M90 522q0 233 114.5 381t315.5 184v209h150v-194q68 -2 141.5 -16.5t126.5 -30.5v-322h-225l-27 125q-8 0 -20.5 1t-20.5 1q-61 0 -107 -24.5t-77 -68.5t-46.5 -105.5t-15.5 -133.5q0 -135 62.5 -220t195.5 -85q86 0 155 39t99 84l54 -260q-43 -33 -113 -64.5t-182 -37.5 v-197h-150v199q-92 14 -170 54t-136 107.5t-91 160.5t-33 214z" />
<glyph unicode="&#xa3;" d="M35 475l20 143h146v93q0 205 118.5 298t327.5 93q76 0 160 -11.5t143 -27.5v-328h-225l-25 127h-24q-100 0 -136 -41t-36 -112v-91h383l-21 -143h-362v-235h280l174 14v-254h-895l17 203l121 30v242h-166z" />
<glyph unicode="&#xa4;" d="M82 889l123 123l125 -127q82 51 180 51q94 0 178 -51l127 127l117 -117l-127 -125q57 -86 57 -184q0 -96 -53 -178l123 -123l-123 -121l-123 121q-76 -49 -176 -49t-184 53l-125 -123l-117 117l127 125q-51 84 -51 178q0 96 49 176zM326 586q0 -78 53 -131.5t131 -53.5 t132 53.5t54 131.5t-54 131t-132 53t-131 -53t-53 -131z" />
<glyph unicode="&#xa5;" d="M37 1083h313l142 -376l10 -64h8l12 64l78 202l41 174h336l-152 -329h140l-19 -142h-182l-66 -137h267l-19 -143h-287v-332h-305v332h-305l19 143h245l-65 137h-199l19 142h118z" />
<glyph unicode="&#xa6;" horiz-adv-x="389" d="M106 -264v612h175v-612h-175zM106 580v610h175v-610h-175z" />
<glyph unicode="&#xa7;" horiz-adv-x="788" d="M55 526q0 72 37 136.5t84 107.5q-29 35 -46 75t-17 91q0 68 30.5 119t80.5 85t116 51t137 17q123 0 238 -28v-273h-154l-29 142q-8 2 -24 2h-25q-70 0 -123 -26t-53 -87q0 -51 36 -83t118 -77q61 -35 110.5 -66.5t84 -68.5t53 -81t18.5 -105q0 -72 -36 -138.5t-83 -107.5 q29 -35 45.5 -74t16.5 -90q0 -68 -29 -119t-77 -86t-111.5 -52t-133.5 -17q-86 0 -141 6t-94 16v277h154l24 -142h37q72 0 125 26t53 89q0 49 -35.5 80t-113.5 76q-61 33 -111.5 65.5t-86.5 70.5t-55.5 83t-19.5 106zM240 532q0 -55 45 -94t131 -90l61 -37q31 31 49.5 64 t18.5 74q0 55 -42 94t-128 86l-70 39q-33 -31 -49 -63t-16 -73z" />
<glyph unicode="&#xa8;" horiz-adv-x="1054" d="M299 1120v266h176v-266h-176zM580 1120v266h176v-266h-176z" />
<glyph unicode="&#xa9;" horiz-adv-x="1091" d="M55 899q0 104 38 195.5t104.5 159t156 106.5t191.5 39q100 0 190 -39t156.5 -106.5t105.5 -158.5t39 -196q0 -104 -39 -194.5t-105.5 -158t-156.5 -106.5t-190 -39q-102 0 -191.5 39t-156 106.5t-104.5 158t-38 194.5zM160 899q0 -84 29.5 -155.5t82 -124t123 -83 t150.5 -30.5t150.5 30.5t122.5 83t83 124t31 155.5q0 82 -31 153.5t-83 125t-122.5 84t-150.5 30.5t-150.5 -30.5t-123 -84t-82 -125t-29.5 -153.5zM307 877q0 135 73 217t202 82q37 0 76.5 -5.5t72.5 -11.5v-184h-104l-19 88h-10q-70 0 -107.5 -48t-37.5 -130 q0 -66 35.5 -111t101.5 -45q41 0 75.5 17.5t51.5 37.5l22 -118q-20 -16 -65 -35t-109 -19q-111 0 -184.5 70t-73.5 195z" />
<glyph unicode="&#xaa;" horiz-adv-x="618" d="M31 762q0 61 27.5 102t73.5 65.5t108.5 34t132.5 9.5q0 59 -31 77.5t-90 18.5h-13.5t-13.5 -2l-20 -80h-137v191q41 10 91 18t109 8q141 0 212 -53t71 -195v-227l45 -6v-127h-170l-18 78h-11q-29 -39 -73.5 -63.5t-106.5 -24.5q-82 0 -134 45t-52 131zM207 786 q0 -31 18.5 -47t46.5 -16q55 0 79 39.5t24 109.5q-31 0 -61.5 -2t-54 -11t-38 -26.5t-14.5 -46.5z" />
<glyph unicode="&#xab;" horiz-adv-x="1069" d="M53 553l430 465l123 -121l-321 -344l323 -348l-127 -119zM459 553l428 465l125 -121l-324 -344l326 -348l-127 -119z" />
<glyph unicode="&#xac;" horiz-adv-x="1024" d="M90 653v164h803v-465h-172v301h-631z" />
<glyph unicode="&#xad;" horiz-adv-x="653" d="M74 412v163h508v-163h-508z" />
<glyph unicode="&#xae;" horiz-adv-x="1091" d="M55 899q0 104 38 195.5t104.5 159t156 106.5t191.5 39q100 0 190 -39t156.5 -106.5t105.5 -158.5t39 -196q0 -104 -39 -194.5t-105.5 -158t-156.5 -106.5t-190 -39q-102 0 -191.5 39t-156 106.5t-104.5 158t-38 194.5zM160 899q0 -84 29.5 -155.5t82 -124t123 -83 t150.5 -30.5t150.5 30.5t122.5 83t83 124t31 155.5q0 82 -31 153.5t-83 125t-122.5 84t-150.5 30.5t-150.5 -30.5t-123 -84t-82 -125t-29.5 -153.5zM319 1073v94h261q82 0 133 -35.5t51 -117.5q0 -51 -24.5 -84t-65.5 -45v-8q29 -10 42 -30t23 -67l13 -55l39 -6v-92h-156 l-27 145q-8 39 -24.5 52.5t-53.5 13.5h-36v-211h-144l8 69v369zM494 930h61q72 0 72 67q0 63 -70 64h-63v-131z" />
<glyph unicode="&#xaf;" horiz-adv-x="1054" d="M236 1180v170h583v-170h-583z" />
<glyph unicode="&#xb0;" horiz-adv-x="581" d="M29 930q0 123 69.5 198.5t196.5 75.5q133 0 195.5 -75.5t62.5 -198.5q0 -125 -69.5 -198t-202.5 -73q-129 0 -190.5 74t-61.5 197zM152 465l135 141l137 -139l-137 -137zM190 930q0 -59 19.5 -104.5t73.5 -45.5q59 0 81.5 43t22.5 107q0 59 -17.5 105t-74.5 46 q-59 0 -82 -45t-23 -106z" />
<glyph unicode="&#xb1;" d="M106 0v164h799v-164h-799zM106 604v164h312v307h174v-307h311v-164h-311v-323h-174v323h-312z" />
<glyph unicode="&#xb2;" horiz-adv-x="540" d="M33 594v139q88 49 143 84t88 62.5t45.5 51t12.5 52.5q0 43 -35 65.5t-88 22.5h-21l-24 -108h-121v215q41 10 87 17t93 7q53 0 102.5 -12t88 -39t61 -65.5t22.5 -90.5q0 -80 -47 -140t-164 -124l3 -8h141l98 8v-137h-485z" />
<glyph unicode="&#xb3;" horiz-adv-x="544" d="M31 737q41 -12 86 -19t100 -7q14 0 35.5 2t41 8t33 19.5t13.5 35.5q0 41 -37 53.5t-90 12.5h-90v102h90q49 0 84 13.5t35 54.5q0 20 -11.5 32.5t-30 19.5t-39 9t-38.5 2h-14.5t-20.5 -2l-16 -74h-125v177q47 12 94 18t102 6q51 0 99.5 -9t85.5 -28.5t58.5 -52.5t21.5 -82 q0 -88 -86 -127v-8q37 -14 66.5 -45t29.5 -88q0 -51 -24.5 -86t-64.5 -55.5t-92.5 -28.5t-105.5 -8q-47 0 -93 5t-73 13z" />
<glyph unicode="&#xb4;" horiz-adv-x="1054" d="M268 1192l432 217l86 -190l-444 -109z" />
<glyph unicode="&#xb5;" horiz-adv-x="1040" d="M23 772v205h378v-647q0 -55 29 -85t78 -30q45 0 73.5 18.5t45 52t21.5 81t5 104.5v279l-80 14v213h375l-8 -760l88 -12v-205h-285l-34 123h-11q-12 -20 -34.5 -42t-51 -40t-63.5 -29.5t-74 -11.5q-29 0 -45 3t-33 7v-352h-315l18 174l11 926z" />
<glyph unicode="&#xb6;" horiz-adv-x="989" d="M45 782q0 80 27.5 146.5t79 115t125 76t167.5 27.5h510v-148l-102 -14v-1343h-164v1343h-147v-1343h-267v143l101 18v643q-166 0 -248 91.5t-82 244.5z" />
<glyph unicode="&#xb7;" horiz-adv-x="423" d="M66 573q0 66 42 105t111 39q66 0 101.5 -36t35.5 -101q0 -63 -39.5 -102.5t-105.5 -39.5q-70 0 -107.5 36t-37.5 99z" />
<glyph unicode="&#xb8;" horiz-adv-x="1054" d="M336 -340l22 107q16 -4 43 -7.5t54 -3.5q35 0 59.5 10.5t24.5 38.5q0 23 -20.5 33t-51.5 10q-18 0 -37.5 -2t-30.5 -4l27 158h137v-66q63 0 106.5 -37.5t43.5 -99.5q0 -76 -63.5 -115.5t-155.5 -39.5q-63 0 -102.5 7t-55.5 11z" />
<glyph unicode="&#xb9;" horiz-adv-x="516" d="M31 1071q49 10 104 41t92 78h154l-12 -465h125v-129h-443v129h152l8 293l-8 2l-15 -37q-25 -18 -63.5 -30.5t-69.5 -20.5z" />
<glyph unicode="&#xba;" horiz-adv-x="614" d="M25 887q0 137 75.5 225t216.5 88q145 0 209 -82t64 -219q0 -145 -73 -229t-224 -84q-143 0 -205.5 82t-62.5 219zM203 891q0 -68 19.5 -117t78.5 -49q61 0 85 49t24 121q0 68 -19.5 117t-79.5 49q-61 0 -84.5 -51t-23.5 -119z" />
<glyph unicode="&#xbb;" horiz-adv-x="1069" d="M53 205l326 348l-324 344l125 121l428 -465l-428 -467zM459 205l323 348l-321 344l123 121l430 -465l-428 -467z" />
<glyph unicode="&#xbc;" horiz-adv-x="1216" d="M31 1071q49 10 104 41t92 78h154l-12 -465h125v-129h-443v129h152l8 293l-8 2l-15 -37q-25 -18 -63.5 -30.5t-69.5 -20.5zM188 0l699 1190h143l-700 -1190h-142zM659 106v148l224 340h219v-367h65v-121h-65v-106h-158v106h-285zM782 231l2 -4h162v213l12 37h-8l-139 -231 z" />
<glyph unicode="&#xbd;" horiz-adv-x="1251" d="M31 1071q49 10 104 41t92 78h154l-12 -465h125v-129h-443v129h152l8 293l-8 2l-15 -37q-25 -18 -63.5 -30.5t-69.5 -20.5zM188 0l699 1190h143l-700 -1190h-142zM729 0v139q88 49 143.5 84t88 62.5t45 51t12.5 52.5q0 43 -35 65.5t-88 22.5h-21l-24 -108h-121v215 q41 10 87 17t93 7q53 0 102.5 -12t88.5 -39t61.5 -65.5t22.5 -90.5q0 -80 -47 -140t-164 -124l2 -8h141l98 8v-137h-485z" />
<glyph unicode="&#xbe;" horiz-adv-x="1144" d="M31 737q41 -12 86 -19t100 -7q14 0 35.5 2t41 8t33 19.5t13.5 35.5q0 41 -37 53.5t-90 12.5h-90v102h90q49 0 84 13.5t35 54.5q0 20 -11.5 32.5t-30 19.5t-39 9t-38.5 2h-14.5t-20.5 -2l-16 -74h-125v177q47 12 94 18t102 6q51 0 99.5 -9t85.5 -28.5t58.5 -52.5t21.5 -82 q0 -88 -86 -127v-8q37 -14 66.5 -45t29.5 -88q0 -51 -24.5 -86t-64.5 -55.5t-92.5 -28.5t-105.5 -8q-47 0 -93 5t-73 13zM172 0l700 1190h142l-701 -1190h-141zM608 106v148l223 340h220v-367h65v-121h-65v-106h-158v106h-285zM731 231l2 -4h162v213l12 37h-8l-139 -231z " />
<glyph unicode="&#xbf;" horiz-adv-x="858" d="M47 61q0 74 27.5 139.5t77 118t115 90t141.5 56.5l18 149h238v-299q-59 -10 -114.5 -27.5t-99.5 -47t-72 -70.5t-28 -96q0 -84 52.5 -129t129.5 -45h19l39 178h225v-379q-68 -18 -144.5 -28.5t-154.5 -10.5q-102 0 -187 24.5t-148.5 75t-98.5 126t-35 175.5zM399 852 q0 63 40 102t106 39q70 0 107.5 -35.5t37.5 -99.5q0 -66 -42 -104.5t-109 -38.5q-66 0 -103 35.5t-37 101.5z" />
<glyph unicode="&#xc0;" horiz-adv-x="1204" d="M16 0l308 1057l-95 16v223h648l243 -1060l84 -13v-223h-413v172l-23 145h-324l-22 -81l84 -13v-223h-490zM354 1485l86 190l432 -217l-73 -82zM506 569h217l-82 441l-6 82h-8l-11 -82z" />
<glyph unicode="&#xc1;" horiz-adv-x="1204" d="M16 0l308 1057l-103 16v223h656l243 -1060l84 -13v-223h-413v172l-23 145h-324l-22 -81l92 -13v-223h-498zM342 1458l432 217l86 -190l-444 -109zM506 569h217l-82 441l-6 82h-8l-11 -82z" />
<glyph unicode="&#xc2;" horiz-adv-x="1204" d="M16 0l308 1057l-95 16v223h648l243 -1060l84 -13v-223h-413v172l-23 145h-324l-22 -81l84 -13v-223h-490zM272 1479l258 170q33 20 62 20q31 0 65 -20l256 -170l-77 -86l-244 90l-244 -90zM506 569h217l-82 441l-6 82h-8l-11 -82z" />
<glyph unicode="&#xc3;" horiz-adv-x="1204" d="M16 0l308 1057l-93 16v223h646l243 -1060l84 -13v-223h-413v172l-23 145h-324l-22 -81l84 -13v-223h-490zM281 1448l24 154q14 8 61.5 26.5t122.5 18.5q27 0 60 -5.5t68.5 -11.5t71.5 -11t67 -5q61 0 101 9t67 19l-23 -153q-14 -8 -62 -26.5t-120 -18.5q-29 0 -62.5 5 t-68.5 11t-71 11.5t-66 5.5q-63 0 -102.5 -10.5t-67.5 -18.5zM506 569h217l-82 441l-6 82h-8l-11 -82z" />
<glyph unicode="&#xc4;" horiz-adv-x="1204" d="M16 0l308 1057l-93 16v223h646l243 -1060l84 -13v-223h-413v172l-23 145h-324l-22 -81l84 -13v-223h-490zM383 1399v266h176v-266h-176zM506 569h217l-82 441l-6 82h-8l-11 -82zM664 1399v266h176v-266h-176z" />
<glyph unicode="&#xc5;" horiz-adv-x="1204" d="M16 0l308 1057l-95 16v223h648l243 -1060l84 -13v-223h-413v172l-23 145h-324l-22 -81l84 -13v-223h-490zM399 1516q0 78 59.5 128t164.5 50q106 0 163.5 -47t57.5 -125t-60.5 -125t-167.5 -47q-104 0 -160.5 46t-56.5 120zM506 569h217l-82 441l-6 82h-8l-11 -82z M561 1520q0 -23 14.5 -40.5t42.5 -17.5q33 0 48.5 17.5t15.5 40.5q0 27 -14.5 44t-46.5 17q-29 0 -44.5 -17t-15.5 -44z" />
<glyph unicode="&#xc6;" horiz-adv-x="1665" d="M16 0l285 1059l-92 14v223h1315l32 -407h-233l-45 147h-244l21 -258h436l18 -241h-434l25 -277h262l18 148h234l35 -408h-861v168l-12 170h-352l-27 -102l86 -13v-223h-467zM494 590h264l-31 405v39h-121l-4 -39z" />
<glyph unicode="&#xc7;" horiz-adv-x="1040" d="M31 604q0 160 41 291t120.5 224t196.5 144.5t270 51.5q94 0 191.5 -15.5t161.5 -33.5v-422h-234l-55 205h-23q-164 0 -245.5 -117t-81.5 -307q0 -78 19.5 -145.5t57 -119t93 -80t129.5 -28.5q53 0 99 15.5t84 38t66.5 51t47.5 55.5l63 -306q-47 -39 -142 -77.5 t-231 -44.5v-50q63 0 106.5 -37.5t43.5 -99.5q0 -76 -63.5 -115.5t-155.5 -39.5q-63 0 -102 7t-56 11l23 107q16 -4 42.5 -7.5t53.5 -3.5q35 0 59.5 10.5t24.5 38.5q0 23 -20.5 33t-51.5 10q-18 0 -37.5 -2t-29.5 -4l24 148q-109 14 -199 62t-154.5 126t-100 185.5 t-35.5 240.5z" />
<glyph unicode="&#xc8;" horiz-adv-x="1064" d="M33 1073v223h968v-407h-233l-33 147h-282v-258h475v-241h-475v-277h301l32 148h234v-408h-914l23 170v887zM319 1485l87 190l432 -217l-74 -82z" />
<glyph unicode="&#xc9;" horiz-adv-x="1064" d="M33 1073v223h968v-407h-233l-33 147h-282v-258h475v-241h-475v-277h301l32 148h234v-408h-914l23 170v887zM317 1458l433 217l86 -190l-445 -109z" />
<glyph unicode="&#xca;" horiz-adv-x="1064" d="M33 1073v223h968v-407h-233l-33 147h-282v-258h475v-241h-475v-277h301l32 148h234v-408h-914l23 170v887zM242 1479l258 170q33 20 61 20q31 0 66 -20l256 -170l-78 -86l-244 90l-244 -90z" />
<glyph unicode="&#xcb;" horiz-adv-x="1064" d="M33 1073v223h968v-407h-233l-33 147h-282v-258h475v-241h-475v-277h301l32 148h234v-408h-914l23 170v887zM340 1399v266h176v-266h-176zM621 1399v266h176v-266h-176z" />
<glyph unicode="&#xcc;" horiz-adv-x="581" d="M27 1485l86 190l432 -217l-74 -82zM33 1073v223h420v-1058l96 -15v-223h-443l23 170v887z" />
<glyph unicode="&#xcd;" horiz-adv-x="581" d="M18 1458l433 217l86 -190l-445 -109zM33 1073v223h420v-1058l96 -15v-223h-443l23 170v887z" />
<glyph unicode="&#xce;" horiz-adv-x="581" d="M-39 1479l258 170q33 20 62 20q31 0 65 -20l256 -170l-78 -86l-243 90l-244 -90zM33 1073v223h420v-1058l96 -15v-223h-443l17 170v887z" />
<glyph unicode="&#xcf;" horiz-adv-x="581" d="M33 1073v223h420v-1058l96 -15v-223h-443l17 170v887zM49 1399v266h176v-266h-176zM330 1399v266h176v-266h-176z" />
<glyph unicode="&#xd0;" horiz-adv-x="1208" d="M-6 657l133 27v373l-96 16v223h510q313 0 475 -164.5t162 -498.5q0 -305 -156 -469t-457 -164h-461l19 176l4 328l-96 -21zM449 260h112q152 0 214.5 96.5t62.5 284.5q0 205 -62.5 300t-216.5 95h-110v-286l159 34l37 -170l-196 -41v-313z" />
<glyph unicode="&#xd1;" horiz-adv-x="1245" d="M33 1073v223h499l316 -890h12l-12 79l-29 574l-88 14v223h422l-27 -170v-1126h-393l-315 911h-12l12 -86l28 -587l86 -15v-223h-421l24 168v887zM283 1448l24 154q14 8 61.5 26.5t123.5 18.5q27 0 59.5 -5.5t68 -11.5t71.5 -11t67 -5q61 0 102 9t66 19l-23 -153 q-14 -8 -62 -26.5t-120 -18.5q-29 0 -62.5 5t-68.5 11t-71 11.5t-66 5.5q-63 0 -102.5 -10.5t-67.5 -18.5z" />
<glyph unicode="&#xd2;" horiz-adv-x="1200" d="M31 637q0 154 39 278.5t114.5 214t187 137.5t257.5 48q141 0 243.5 -46t168 -131t97 -207t31.5 -274q0 -154 -38.5 -278.5t-113.5 -212.5t-186.5 -136t-257.5 -48q-139 0 -241.5 45t-169 129t-99 205.5t-32.5 275.5zM354 1485l86 190l432 -217l-73 -82zM377 639 q0 -74 8 -144.5t31.5 -127t63.5 -90t106 -33.5q68 0 112.5 35.5t72.5 95t40 133.5t12 151q0 74 -9 144.5t-32.5 126t-64.5 89.5t-105 34q-68 0 -113.5 -36t-72.5 -94.5t-38 -133t-11 -150.5z" />
<glyph unicode="&#xd3;" horiz-adv-x="1200" d="M31 637q0 154 39 278.5t114.5 214t187 137.5t257.5 48q141 0 243.5 -46t168 -131t97 -207t31.5 -274q0 -154 -38.5 -278.5t-113.5 -212.5t-186.5 -136t-257.5 -48q-139 0 -241.5 45t-169 129t-99 205.5t-32.5 275.5zM354 1458l432 217l86 -190l-444 -109zM377 639 q0 -74 8 -144.5t31.5 -127t63.5 -90t106 -33.5q68 0 112.5 35.5t72.5 95t40 133.5t12 151q0 74 -9 144.5t-32.5 126t-64.5 89.5t-105 34q-68 0 -113.5 -36t-72.5 -94.5t-38 -133t-11 -150.5z" />
<glyph unicode="&#xd4;" horiz-adv-x="1200" d="M31 637q0 154 39 278.5t114.5 214t187 137.5t257.5 48q141 0 243.5 -46t168 -131t97 -207t31.5 -274q0 -154 -38.5 -278.5t-113.5 -212.5t-186.5 -136t-257.5 -48q-139 0 -241.5 45t-169 129t-99 205.5t-32.5 275.5zM281 1479l258 170q33 20 61 20q31 0 66 -20l256 -170 l-78 -86l-244 90l-244 -90zM377 639q0 -74 8 -144.5t31.5 -127t63.5 -90t106 -33.5q68 0 112.5 35.5t72.5 95t40 133.5t12 151q0 74 -9 144.5t-32.5 126t-64.5 89.5t-105 34q-68 0 -113.5 -36t-72.5 -94.5t-38 -133t-11 -150.5z" />
<glyph unicode="&#xd5;" horiz-adv-x="1200" d="M31 637q0 154 39 278.5t114.5 214t187 137.5t257.5 48q141 0 243.5 -46t168 -131t97 -207t31.5 -274q0 -154 -38.5 -278.5t-113.5 -212.5t-186.5 -136t-257.5 -48q-139 0 -241.5 45t-169 129t-99 205.5t-32.5 275.5zM276 1448l25 154q14 8 61.5 26.5t122.5 18.5 q27 0 60 -5.5t68.5 -11.5t71.5 -11t67 -5q61 0 102 9t66 19l-23 -153q-14 -8 -62.5 -26.5t-119.5 -18.5q-29 0 -63 5t-68.5 11t-70.5 11.5t-67 5.5q-63 0 -102 -10.5t-68 -18.5zM377 639q0 -74 8 -144.5t31.5 -127t63.5 -90t106 -33.5q68 0 112.5 35.5t72.5 95t40 133.5 t12 151q0 74 -9 144.5t-32.5 126t-64.5 89.5t-105 34q-68 0 -113.5 -36t-72.5 -94.5t-38 -133t-11 -150.5z" />
<glyph unicode="&#xd6;" horiz-adv-x="1200" d="M31 637q0 154 39 278.5t114.5 214t187 137.5t257.5 48q141 0 243.5 -46t168 -131t97 -207t31.5 -274q0 -154 -38.5 -278.5t-113.5 -212.5t-186.5 -136t-257.5 -48q-139 0 -241.5 45t-169 129t-99 205.5t-32.5 275.5zM377 639q0 -74 8 -144.5t31.5 -127t63.5 -90 t106 -33.5q68 0 112.5 35.5t72.5 95t40 133.5t12 151q0 74 -9 144.5t-32.5 126t-64.5 89.5t-105 34q-68 0 -113.5 -36t-72.5 -94.5t-38 -133t-11 -150.5zM381 1399v266h176v-266h-176zM662 1399v266h176v-266h-176z" />
<glyph unicode="&#xd7;" d="M121 319l264 265l-262 262l125 123l262 -262l260 264l117 -119l-262 -260l266 -266l-123 -125l-266 266l-264 -262z" />
<glyph unicode="&#xd8;" horiz-adv-x="1200" d="M31 637q0 154 39 278.5t114.5 214t187 137.5t257.5 48q63 0 135 -16.5t115 -34.5l57 96h141l-96 -160q98 -86 143 -222t45 -321q0 -154 -38.5 -278.5t-113.5 -212.5t-186.5 -136t-257.5 -48q-166 0 -280 65l-76 -129h-143l121 201q-84 86 -124 215t-40 303zM377 639 q0 -49 3 -97t11 -91l334 559q-39 43 -113 43q-68 0 -113.5 -36t-72.5 -94.5t-38 -133t-11 -150.5zM451 309q41 -66 135 -65q68 0 112.5 35.5t72.5 95t40 133.5t12 151q0 59 -6 118t-22 110z" />
<glyph unicode="&#xd9;" horiz-adv-x="1185" d="M20 1073v223h418v-831q0 -106 31 -159.5t127 -53.5t136 53t40 160v594l-96 14v223h422v-841q0 -242 -131 -357.5t-379 -115.5t-361.5 114.5t-109.5 356.5v604zM350 1485l86 190l432 -217l-73 -82z" />
<glyph unicode="&#xda;" horiz-adv-x="1185" d="M20 1073v223h418v-831q0 -106 31 -159.5t127 -53.5t136 53t40 160v594l-96 14v223h422v-841q0 -242 -131 -357.5t-379 -115.5t-361.5 114.5t-109.5 356.5v604zM350 1458l432 217l86 -190l-444 -109z" />
<glyph unicode="&#xdb;" horiz-adv-x="1185" d="M20 1073v223h418v-831q0 -106 31 -159.5t127 -53.5t136 53t40 160v594l-96 14v223h422v-841q0 -242 -131 -357.5t-379 -115.5t-361.5 114.5t-109.5 356.5v604zM279 1479l258 170q33 20 61 20q31 0 66 -20l256 -170l-78 -86l-244 90l-244 -90z" />
<glyph unicode="&#xdc;" horiz-adv-x="1185" d="M20 1073v223h418v-831q0 -106 31 -159.5t127 -53.5t136 53t40 160v594l-96 14v223h422v-841q0 -242 -131 -357.5t-379 -115.5t-361.5 114.5t-109.5 356.5v604zM369 1399v266h176v-266h-176zM649 1399v266h176v-266h-176z" />
<glyph unicode="&#xdd;" horiz-adv-x="1085" d="M6 1073v223h348l162 -471l8 -82h11l12 84l117 299l36 170h369l-373 -843v-453h-430v223l96 15v215l-258 602zM291 1458l432 217l86 -190l-444 -109z" />
<glyph unicode="&#xde;" horiz-adv-x="1120" d="M33 1073v223h422v-170h176q209 0 335 -109.5t126 -318.5q0 -102 -33 -179t-93.5 -128t-144.5 -76.5t-186 -25.5h-180v-289h-349l25 174v883zM455 547h123q90 0 137 37t47 123q0 90 -51.5 125.5t-139.5 35.5h-116v-321z" />
<glyph unicode="&#xdf;" horiz-adv-x="1107" d="M8 748v215l111 16v35q0 96 31.5 168.5t90 121t138.5 73t178 24.5q84 0 159 -21.5t132 -64.5t90 -106.5t33 -147.5q0 -78 -26.5 -135.5t-70.5 -104.5l-45 -49v-10l60 -64q33 -35 65.5 -71.5t59 -78.5t42 -91t15.5 -109q0 -90 -29.5 -157.5t-84 -114.5t-128 -70.5 t-161.5 -23.5q-35 0 -90.5 5t-88.5 13l39 229q10 -4 40 -8t50 -4q66 0 108 37t42 108q0 35 -14.5 67t-39 64.5t-56 67.5t-64.5 74q-29 33 -51.5 60.5t-22.5 62.5q0 37 17.5 64.5t56.5 74.5t59.5 80t20.5 78q0 51 -33 86t-88 35q-72 0 -104.5 -49.5t-32.5 -129.5v-997h-314 l17 176v572h-111z" />
<glyph unicode="&#xe0;" horiz-adv-x="995" d="M39 270q0 102 44 169t121 107t179 55t217 15q-2 96 -52 130t-147 34h-24.5t-26.5 -2l-26 -119h-224v291q55 16 143.5 30.5t184.5 14.5q115 0 202 -19.5t145.5 -66.5t88 -124.5t29.5 -194.5v-373l80 -12v-205h-285l-45 125h-10q-47 -61 -117 -102t-172 -41 q-133 0 -219 74.5t-86 213.5zM248 1219l86 190l432 -217l-74 -82zM328 309q0 -49 29.5 -76.5t76.5 -27.5q92 0 130 66.5t38 181.5q-51 0 -100 -4.5t-88 -19.5t-62.5 -43t-23.5 -77z" />
<glyph unicode="&#xe1;" horiz-adv-x="995" d="M39 270q0 102 44 169t121 107t179 55t217 15q-2 96 -52 130t-147 34h-24.5t-26.5 -2l-26 -119h-224v291q55 16 143.5 30.5t184.5 14.5q115 0 202 -19.5t145.5 -66.5t88 -124.5t29.5 -194.5v-373l80 -12v-205h-285l-45 125h-10q-47 -61 -117 -102t-172 -41 q-133 0 -219 74.5t-86 213.5zM248 1192l432 217l86 -190l-444 -109zM328 309q0 -49 29.5 -76.5t76.5 -27.5q92 0 130 66.5t38 181.5q-51 0 -100 -4.5t-88 -19.5t-62.5 -43t-23.5 -77z" />
<glyph unicode="&#xe2;" horiz-adv-x="995" d="M39 270q0 102 44 169t121 107t179 55t217 15q-2 96 -52 130t-147 34h-24.5t-26.5 -2l-26 -119h-224v291q55 16 143.5 30.5t184.5 14.5q115 0 202 -19.5t145.5 -66.5t88 -124.5t29.5 -194.5v-373l80 -12v-205h-285l-45 125h-10q-47 -61 -117 -102t-172 -41 q-133 0 -219 74.5t-86 213.5zM166 1190l264 178q33 20 62 21q31 0 65 -21l262 -178l-78 -86l-249 90l-250 -90zM328 309q0 -49 29.5 -76.5t76.5 -27.5q92 0 130 66.5t38 181.5q-51 0 -100 -4.5t-88 -19.5t-62.5 -43t-23.5 -77z" />
<glyph unicode="&#xe3;" horiz-adv-x="995" d="M39 270q0 102 44 169t121 107t179 55t217 15q-2 96 -52 130t-147 34h-24.5t-26.5 -2l-26 -119h-224v291q55 16 143.5 30.5t184.5 14.5q115 0 202 -19.5t145.5 -66.5t88 -124.5t29.5 -194.5v-373l80 -12v-205h-285l-45 125h-10q-47 -61 -117 -102t-172 -41 q-133 0 -219 74.5t-86 213.5zM166 1167l24 154q14 8 61.5 26.5t123.5 18.5q27 0 59.5 -5t68.5 -11.5t71.5 -11.5t66.5 -5q61 0 100 9.5t68 19.5l-23 -154q-14 -8 -62 -26.5t-120 -18.5q-29 0 -62.5 5.5t-68.5 11.5t-70.5 11t-66.5 5q-63 0 -102 -10t-68 -19zM328 309 q0 -49 29.5 -76.5t76.5 -27.5q92 0 130 66.5t38 181.5q-51 0 -100 -4.5t-88 -19.5t-62.5 -43t-23.5 -77z" />
<glyph unicode="&#xe4;" horiz-adv-x="995" d="M39 270q0 102 44 169t121 107t179 55t217 15q-2 96 -52 130t-147 34h-24.5t-26.5 -2l-26 -119h-224v291q55 16 143.5 30.5t184.5 14.5q115 0 202 -19.5t145.5 -66.5t88 -124.5t29.5 -194.5v-373l80 -12v-205h-285l-45 125h-10q-47 -61 -117 -102t-172 -41 q-133 0 -219 74.5t-86 213.5zM260 1120v266h176v-266h-176zM328 309q0 -49 29.5 -76.5t76.5 -27.5q92 0 130 66.5t38 181.5q-51 0 -100 -4.5t-88 -19.5t-62.5 -43t-23.5 -77zM541 1120v266h176v-266h-176z" />
<glyph unicode="&#xe5;" horiz-adv-x="995" d="M39 270q0 102 44 169t121 107t179 55t217 15q-2 96 -52 130t-147 34h-24.5t-26.5 -2l-26 -119h-224v291q55 16 143.5 30.5t184.5 14.5q115 0 202 -19.5t145.5 -66.5t88 -124.5t29.5 -194.5v-373l80 -12v-205h-285l-45 125h-10q-47 -61 -117 -102t-172 -41 q-133 0 -219 74.5t-86 213.5zM270 1231q0 78 59.5 128t164.5 50q106 0 163.5 -47t57.5 -125t-60.5 -125t-167.5 -47q-104 0 -160.5 46t-56.5 120zM328 309q0 -49 29.5 -76.5t76.5 -27.5q92 0 130 66.5t38 181.5q-51 0 -100 -4.5t-88 -19.5t-62.5 -43t-23.5 -77zM432 1235 q0 -23 14.5 -40t42.5 -17q33 0 48.5 17t15.5 40q0 27 -14.5 44t-46.5 17q-29 0 -44.5 -17t-15.5 -44z" />
<glyph unicode="&#xe6;" horiz-adv-x="1503" d="M37 279q0 100 45 164.5t123 101.5t179 51t216 14q-4 51 -17.5 84t-38 51.5t-61.5 26.5t-86 8q-6 0 -14 -1t-16 -1h-19l-26 -119h-224v293q59 12 145.5 27.5t176.5 15.5q135 0 226 -37.5t138 -109.5h15q51 66 131 106.5t196 40.5q76 0 138.5 -21.5t107.5 -59t69.5 -93 t24.5 -123.5q0 -100 -45 -164.5t-122.5 -101.5t-180 -51t-215.5 -14q6 -98 57.5 -133t149.5 -37h29q8 0 16 2l29 118h221v-292q-51 -12 -141 -27.5t-181 -15.5q-135 0 -226 37.5t-138 109.5h-14q-51 -66 -131 -106.5t-197 -40.5q-76 0 -138.5 21.5t-107.5 59t-69.5 93 t-24.5 123.5zM326 309q0 -45 28.5 -74.5t79.5 -29.5q49 0 81 20.5t50.5 54t26.5 79t8 94.5q-51 0 -100 -4.5t-88 -19.5t-62.5 -43t-23.5 -77zM903 524q51 0 100.5 4t88 19.5t62.5 43t24 77.5q0 45 -29 74.5t-80 29.5q-49 0 -81 -20.5t-50 -54t-26.5 -79t-8.5 -94.5z" />
<glyph unicode="&#xe7;" horiz-adv-x="837" d="M31 463q0 121 34.5 219t100 168t163 107.5t220.5 37.5q53 0 100 -6t82 -12q39 -8 72 -19v-319h-223l-23 125h-18q-57 -4 -97.5 -27.5t-65 -62.5t-35.5 -90.5t-11 -110.5q0 -111 59.5 -184.5t163.5 -73.5q72 0 134.5 33t96.5 80l41 -242q-12 -10 -35.5 -27.5t-58.5 -34 t-84 -28.5t-110 -14v-48q63 0 106 -37.5t43 -99.5q0 -76 -63.5 -115.5t-155.5 -39.5q-63 0 -102 7t-56 11l23 107q16 -4 42.5 -7.5t53.5 -3.5q35 0 59.5 10.5t24.5 38.5q0 23 -20.5 33t-51.5 10q-18 0 -37.5 -2t-29.5 -4l24 150q-174 29 -270 148.5t-96 322.5z" />
<glyph unicode="&#xe8;" horiz-adv-x="964" d="M31 473q0 111 31.5 206t92 165.5t150.5 110.5t207 40q115 0 194.5 -37.5t129 -103.5t71 -156t21.5 -194v-80h-588q4 -119 71.5 -165t190.5 -46h45l25 102h223v-278q-20 -8 -56 -18.5t-82 -18.5t-99.5 -13t-106.5 -5q-256 0 -388 127t-132 364zM248 1219l86 190l432 -217 l-74 -82zM342 590h301l8 10q0 76 -31.5 125t-105.5 49t-118 -51t-54 -133z" />
<glyph unicode="&#xe9;" horiz-adv-x="964" d="M31 473q0 111 31.5 206t92 165.5t150.5 110.5t207 40q115 0 194.5 -37.5t129 -103.5t71 -156t21.5 -194v-80h-588q4 -119 71.5 -165t190.5 -46h45l25 102h223v-278q-20 -8 -56 -18.5t-82 -18.5t-99.5 -13t-106.5 -5q-256 0 -388 127t-132 364zM268 1192l432 217l86 -190 l-444 -109zM342 590h301l8 10q0 76 -31.5 125t-105.5 49t-118 -51t-54 -133z" />
<glyph unicode="&#xea;" horiz-adv-x="964" d="M31 473q0 111 31.5 206t92 165.5t150.5 110.5t207 40q115 0 194.5 -37.5t129 -103.5t71 -156t21.5 -194v-80h-588q4 -119 71.5 -165t190.5 -46h45l25 102h223v-278q-20 -8 -56 -18.5t-82 -18.5t-99.5 -13t-106.5 -5q-256 0 -388 127t-132 364zM178 1190l264 178 q33 20 62 21q14 0 31.5 -4.5t33.5 -16.5l262 -178l-77 -86l-250 90l-250 -90zM342 590h301l8 10q0 76 -31.5 125t-105.5 49t-118 -51t-54 -133z" />
<glyph unicode="&#xeb;" horiz-adv-x="964" d="M31 473q0 111 31.5 206t92 165.5t150.5 110.5t207 40q115 0 194.5 -37.5t129 -103.5t71 -156t21.5 -194v-80h-588q4 -119 71.5 -165t190.5 -46h45l25 102h223v-278q-20 -8 -56 -18.5t-82 -18.5t-99.5 -13t-106.5 -5q-256 0 -388 127t-132 364zM281 1120v266h176v-266 h-176zM342 590h301l8 10q0 76 -31.5 125t-105.5 49t-118 -51t-54 -133zM561 1120v266h176v-266h-176z" />
<glyph unicode="&#xec;" horiz-adv-x="522" d="M0 1219l86 190l432 -217l-74 -82zM23 772v205h391v-977h-316l21 176l8 580z" />
<glyph unicode="&#xed;" horiz-adv-x="522" d="M-29 1192l432 217l86 -190l-444 -109zM23 772v205h393v-977h-318l21 176l8 580z" />
<glyph unicode="&#xee;" horiz-adv-x="522" d="M-49 1198l237 170q33 20 62 21q14 0 31.5 -4.5t33.5 -16.5l236 -170l-78 -86l-223 98l-223 -98zM23 772v205h393v-977h-318l21 176l8 580z" />
<glyph unicode="&#xef;" horiz-adv-x="522" d="M20 1120v266h177v-266h-177zM23 772v205h393v-977h-318l21 176l8 580zM301 1120v266h176v-266h-176z" />
<glyph unicode="&#xf0;" horiz-adv-x="1001" d="M35 440q0 96 28.5 177t79 140.5t121 95.5t156.5 42l35 2l37 -14l6 6l-105 155l-176 -38l-39 170l115 24l-92 135l307 68l94 -137l178 39l35 -170l-121 -27q16 -27 47 -76t63 -104.5t60.5 -108.5t42.5 -88q23 -55 41.5 -123.5t18.5 -158.5q0 -221 -127 -344t-363 -123 q-113 0 -195.5 34.5t-138 96t-82 145.5t-26.5 182zM330 440q0 -45 9 -86t29.5 -72.5t52.5 -50t79 -18.5q49 0 82.5 18.5t53 50t28 72.5t8.5 86q0 43 -7.5 84t-25.5 74t-50 52.5t-81 19.5q-51 0 -85 -18.5t-54.5 -49.5t-29.5 -73t-9 -89z" />
<glyph unicode="&#xf1;" horiz-adv-x="1075" d="M23 774v203h296l37 -123h11q43 57 116.5 99t182.5 42q154 0 227.5 -84t69.5 -237l-9 -457l103 -14v-203h-393v647q0 53 -25 84t-78 31q-45 0 -73.5 -20.5t-46 -54.5t-23.5 -81t-6 -98v-508h-287v758zM205 1167l24 154q14 8 61.5 26.5t123.5 18.5q27 0 59.5 -5t68.5 -11.5 t71.5 -11.5t66.5 -5q61 0 102 9.5t66 19.5l-23 -154q-14 -8 -62 -26.5t-120 -18.5q-29 0 -62.5 5.5t-68.5 11.5t-70.5 11t-66.5 5q-63 0 -102.5 -10t-67.5 -19z" />
<glyph unicode="&#xf2;" horiz-adv-x="993" d="M31 479q0 113 31.5 208t93 164t151.5 106.5t207 37.5t202 -34.5t140 -99t81 -157t26 -204.5q0 -113 -33 -208t-95.5 -164t-153.5 -107.5t-208 -38.5q-119 0 -203 35.5t-137 100t-77.5 156.5t-24.5 205zM248 1219l86 190l432 -217l-74 -82zM330 485q0 -55 6 -105t23.5 -88 t48 -59.5t77.5 -21.5q100 0 140.5 80t40.5 201q0 55 -7.5 105t-26 87t-49 58.5t-79.5 21.5q-51 0 -85 -22.5t-53.5 -61.5t-27.5 -89.5t-8 -105.5z" />
<glyph unicode="&#xf3;" horiz-adv-x="993" d="M31 479q0 113 31.5 208t93 164t151.5 106.5t207 37.5t202 -34.5t140 -99t81 -157t26 -204.5q0 -113 -33 -208t-95.5 -164t-153.5 -107.5t-208 -38.5q-119 0 -203 35.5t-137 100t-77.5 156.5t-24.5 205zM248 1192l432 217l86 -190l-444 -109zM330 485q0 -55 6 -105 t23.5 -88t48 -59.5t77.5 -21.5q100 0 140.5 80t40.5 201q0 55 -7.5 105t-26 87t-49 58.5t-79.5 21.5q-51 0 -85 -22.5t-53.5 -61.5t-27.5 -89.5t-8 -105.5z" />
<glyph unicode="&#xf4;" horiz-adv-x="993" d="M31 479q0 113 31.5 208t93 164t151.5 106.5t207 37.5t202 -34.5t140 -99t81 -157t26 -204.5q0 -113 -33 -208t-95.5 -164t-153.5 -107.5t-208 -38.5q-119 0 -203 35.5t-137 100t-77.5 156.5t-24.5 205zM207 1196l237 170q33 20 62 20q14 0 31.5 -4t33.5 -16l236 -170 l-78 -86l-223 98l-223 -98zM330 485q0 -55 6 -105t23.5 -88t48 -59.5t77.5 -21.5q100 0 140.5 80t40.5 201q0 55 -7.5 105t-26 87t-49 58.5t-79.5 21.5q-51 0 -85 -22.5t-53.5 -61.5t-27.5 -89.5t-8 -105.5z" />
<glyph unicode="&#xf5;" horiz-adv-x="993" d="M31 479q0 113 31.5 208t93 164t151.5 106.5t207 37.5t202 -34.5t140 -99t81 -157t26 -204.5q0 -113 -33 -208t-95.5 -164t-153.5 -107.5t-208 -38.5q-119 0 -203 35.5t-137 100t-77.5 156.5t-24.5 205zM186 1167l25 154q14 8 61 26.5t123 18.5q27 0 59.5 -5t68.5 -11.5 t72 -11.5t67 -5q61 0 102 9.5t65 19.5l-22 -154q-14 -8 -62.5 -26.5t-119.5 -18.5q-29 0 -63 5.5t-68.5 11.5t-70.5 11t-67 5q-63 0 -102 -10t-68 -19zM330 485q0 -55 6 -105t23.5 -88t48 -59.5t77.5 -21.5q100 0 140.5 80t40.5 201q0 55 -7.5 105t-26 87t-49 58.5 t-79.5 21.5q-51 0 -85 -22.5t-53.5 -61.5t-27.5 -89.5t-8 -105.5z" />
<glyph unicode="&#xf6;" horiz-adv-x="993" d="M31 479q0 113 31.5 208t93 164t151.5 106.5t207 37.5t202 -34.5t140 -99t81 -157t26 -204.5q0 -113 -33 -208t-95.5 -164t-153.5 -107.5t-208 -38.5q-119 0 -203 35.5t-137 100t-77.5 156.5t-24.5 205zM279 1120v266h176v-266h-176zM330 485q0 -55 6 -105t23.5 -88 t48 -59.5t77.5 -21.5q100 0 140.5 80t40.5 201q0 55 -7.5 105t-26 87t-49 58.5t-79.5 21.5q-51 0 -85 -22.5t-53.5 -61.5t-27.5 -89.5t-8 -105.5zM559 1120v266h176v-266h-176z" />
<glyph unicode="&#xf7;" d="M96 496v163h822v-163h-822zM360 238q0 66 42 104.5t112 38.5q66 0 101.5 -36t35.5 -101q0 -63 -39.5 -102.5t-105.5 -39.5q-70 0 -108 36t-38 100zM360 903q0 66 42 105t112 39q66 0 101.5 -36t35.5 -102q0 -63 -39.5 -102t-105.5 -39q-70 0 -108 36t-38 99z" />
<glyph unicode="&#xf8;" horiz-adv-x="993" d="M31 479q0 113 31.5 208t93 164t151.5 106.5t207 37.5q100 0 180 -28l58 96h141l-90 -154q82 -63 121 -167.5t39 -241.5q0 -113 -33 -208t-95.5 -164t-153.5 -107.5t-208 -38.5q-59 0 -109.5 9t-93.5 25l-59 -98h-143l98 164q-72 66 -103.5 167t-31.5 230zM330 485 q0 -70 8 -116l227 383q-25 12 -61 12q-51 0 -85 -22.5t-53.5 -61.5t-27.5 -89t-8 -106zM401 236q31 -25 84 -25q100 0 140.5 80t40.5 201q0 90 -19 157z" />
<glyph unicode="&#xf9;" horiz-adv-x="1046" d="M18 770v207h379v-643q0 -53 24.5 -86t78.5 -33q45 0 73.5 19.5t46 54.5t23.5 81t6 101v279l-80 14v213h375l-8 -760l88 -12v-205h-285l-34 123h-9q-43 -57 -118.5 -99t-184.5 -42q-150 0 -222.5 84t-72.5 237l8 453zM256 1219l86 190l432 -217l-74 -82z" />
<glyph unicode="&#xfa;" horiz-adv-x="1046" d="M18 770v207h379v-643q0 -53 24.5 -86t78.5 -33q45 0 73.5 19.5t46 54.5t23.5 81t6 101v279l-80 14v213h375l-8 -760l88 -12v-205h-285l-34 123h-9q-43 -57 -118.5 -99t-184.5 -42q-150 0 -224.5 84t-70.5 237l8 453zM258 1192l432 217l86 -190l-444 -109z" />
<glyph unicode="&#xfb;" horiz-adv-x="1046" d="M18 770v207h379v-643q0 -53 24.5 -86t78.5 -33q45 0 73.5 19.5t46 54.5t23.5 81t6 101v279l-80 14v213h375l-8 -760l88 -12v-205h-285l-34 123h-9q-43 -57 -118.5 -99t-184.5 -42q-150 0 -222.5 84t-72.5 237l8 453zM207 1196l237 170q33 20 62 20q14 0 31.5 -4t33.5 -16 l236 -170l-78 -86l-223 98l-223 -98z" />
<glyph unicode="&#xfc;" horiz-adv-x="1046" d="M18 770v207h379v-643q0 -53 24.5 -86t78.5 -33q45 0 73.5 19.5t46 54.5t23.5 81t6 101v279l-80 14v213h375l-8 -760l88 -12v-205h-285l-34 123h-9q-43 -57 -118.5 -99t-184.5 -42q-150 0 -222.5 84t-72.5 237l8 453zM281 1120v266h176v-266h-176zM561 1120v266h176v-266 h-176z" />
<glyph unicode="&#xfd;" horiz-adv-x="960" d="M0 772v205h319l170 -655h11v67l84 412l10 176h354l-319 -993q-31 -96 -76 -162t-106.5 -106t-141.5 -56t-182 -16q-10 0 -27.5 1t-25.5 3l-37 229q39 -8 86 -8q86 0 133 35t70 112l8 33l-246 709zM227 1192l432 217l86 -190l-444 -109z" />
<glyph unicode="&#xfe;" horiz-adv-x="1019" d="M12 1180v202h383v-479l8 -4q29 35 86.5 66.5t143.5 31.5t152.5 -32.5t111.5 -91t67.5 -137.5t22.5 -173q0 -127 -33.5 -230.5t-102.5 -177t-172.5 -114.5t-242.5 -41h-43v-121l99 -16v-203h-406l27 178v1327zM385 373q0 -45 3 -90.5t3 -61.5q8 -2 17 -2q10 -2 32 -2 q68 0 115 24.5t77 67.5t44 100.5t14 122.5q0 96 -30.5 163t-102.5 67q-55 0 -89 -33t-52.5 -87t-24.5 -123.5t-6 -145.5z" />
<glyph unicode="&#xff;" horiz-adv-x="960" d="M0 772v205h319l170 -655h11v67l84 412l10 176h354l-319 -993q-31 -96 -76 -162t-106.5 -106t-141.5 -56t-182 -16q-10 0 -27.5 1t-25.5 3l-37 229q39 -8 86 -8q86 0 133 35t70 112l8 33l-246 709zM236 1120v266h176v-266h-176zM516 1120v266h176v-266h-176z" />
<glyph unicode="&#x152;" horiz-adv-x="1658" d="M31 631q0 317 156.5 491t457.5 174h959v-407h-234l-33 147h-270v-262h475v-242h-475v-272h285l28 148h234v-408h-1030q-289 0 -421 163t-132 468zM371 635q0 -84 10 -153.5t37.5 -120t75 -78t118.5 -27.5h129v784h-90q-84 0 -137 -30.5t-86 -86t-45 -129t-12 -159.5z" />
<glyph unicode="&#x153;" horiz-adv-x="1554" d="M31 477q0 113 31.5 208t93 164t151.5 107.5t207 38.5q211 0 317 -147h15q53 66 132 106.5t196 40.5q76 0 139 -21.5t108 -59t71 -93t26 -123.5q0 -100 -45.5 -164.5t-123 -101.5t-180 -51t-215.5 -14q6 -102 60.5 -136t152.5 -36h25q8 0 14 2l27 120h223v-290 q-59 -16 -141 -30.5t-180 -14.5q-238 0 -342 116h-13q-55 -53 -128.5 -84.5t-178.5 -31.5q-119 0 -203 34.5t-137 99t-77.5 157t-24.5 204.5zM330 485q0 -55 6 -105t23.5 -87t48 -59.5t77.5 -22.5q51 0 85 21.5t55.5 58.5t31 88t9.5 113q0 55 -7.5 104t-26 87t-49 59.5 t-79.5 21.5q-51 0 -85 -22.5t-53.5 -60.5t-27.5 -89.5t-8 -106.5zM954 524q51 0 100.5 4t88.5 19.5t62.5 43t23.5 77.5q0 45 -29 74.5t-80 29.5q-49 0 -80.5 -20.5t-50 -54t-27 -79t-8.5 -94.5z" />
<glyph unicode="&#x178;" horiz-adv-x="1085" d="M6 1073v223h348l162 -471l8 -82h11l12 84l117 299l36 170h369l-373 -843v-453h-430v223l96 15v215l-258 602zM299 1403v266h176v-266h-176zM580 1403v266h176v-266h-176z" />
<glyph unicode="&#x2c6;" horiz-adv-x="1054" d="M207 1198l258 170q33 20 61 21q31 0 66 -21l256 -170l-78 -86l-244 90l-243 -90z" />
<glyph unicode="&#x2dc;" horiz-adv-x="1054" d="M207 1165l24 154q14 8 61.5 26.5t123.5 18.5q27 0 59.5 -5t68.5 -11.5t71.5 -11.5t66.5 -5q61 0 101 9.5t67 19.5l-23 -154q-14 -8 -62 -26.5t-120 -18.5q-29 0 -62.5 5t-68.5 11.5t-70.5 11.5t-66.5 5q-63 0 -102 -10t-68 -19z" />
<glyph unicode="&#x2000;" horiz-adv-x="847" />
<glyph unicode="&#x2001;" horiz-adv-x="1694" />
<glyph unicode="&#x2002;" horiz-adv-x="847" />
<glyph unicode="&#x2003;" horiz-adv-x="1694" />
<glyph unicode="&#x2004;" horiz-adv-x="564" />
<glyph unicode="&#x2005;" horiz-adv-x="423" />
<glyph unicode="&#x2006;" horiz-adv-x="282" />
<glyph unicode="&#x2007;" horiz-adv-x="282" />
<glyph unicode="&#x2008;" horiz-adv-x="211" />
<glyph unicode="&#x2009;" horiz-adv-x="338" />
<glyph unicode="&#x200a;" horiz-adv-x="94" />
<glyph unicode="&#x2010;" horiz-adv-x="653" d="M74 412v163h508v-163h-508z" />
<glyph unicode="&#x2011;" horiz-adv-x="653" d="M74 412v163h508v-163h-508z" />
<glyph unicode="&#x2012;" horiz-adv-x="653" d="M74 412v163h508v-163h-508z" />
<glyph unicode="&#x2013;" horiz-adv-x="1024" d="M0 412v163h1024v-163h-1024z" />
<glyph unicode="&#x2014;" horiz-adv-x="2048" d="M0 412v163h2048v-163h-2048z" />
<glyph unicode="&#x2018;" horiz-adv-x="415" d="M61 1096q0 41 11.5 68.5t33.5 64.5l99 151l104 -12l-49 -145q35 -10 62.5 -37t27.5 -82q0 -66 -42 -107t-107 -41q-63 0 -101.5 38t-38.5 102z" />
<glyph unicode="&#x2019;" horiz-adv-x="415" d="M66 1102q0 66 42 106.5t107 40.5q63 0 101 -37.5t38 -101.5q0 -41 -11 -68.5t-34 -64.5l-98 -152l-105 13l50 145q-35 10 -62.5 37t-27.5 82z" />
<glyph unicode="&#x201a;" horiz-adv-x="415" d="M66 119q0 66 42 106.5t107 40.5q63 0 101 -38t38 -101q0 -41 -11 -68.5t-34 -64.5l-98 -152l-105 13l50 145q-35 10 -62.5 36.5t-27.5 82.5z" />
<glyph unicode="&#x201c;" horiz-adv-x="800" d="M66 1096q0 41 11 68.5t34 64.5l98 151l104 -12l-49 -145q35 -10 62.5 -37t27.5 -82q0 -66 -42 -107t-107 -41q-63 0 -101 38t-38 102zM444 1096q0 41 11.5 68.5t33.5 64.5l99 151l104 -12l-49 -145q35 -10 62.5 -37t27.5 -82q0 -66 -42 -107t-107 -41q-63 0 -101.5 38 t-38.5 102z" />
<glyph unicode="&#x201d;" horiz-adv-x="800" d="M66 1102q0 66 42 106.5t107 40.5q63 0 101 -37.5t38 -101.5q0 -41 -11 -68.5t-34 -64.5l-98 -152l-105 13l50 145q-35 10 -62.5 37t-27.5 82zM451 1102q0 66 42 106.5t107 40.5q63 0 101 -37.5t38 -101.5q0 -41 -11 -68.5t-34 -64.5l-98 -152l-104 13l49 145 q-35 10 -62.5 37t-27.5 82z" />
<glyph unicode="&#x201e;" horiz-adv-x="800" d="M66 119q0 66 42 106.5t107 40.5q63 0 101 -38t38 -101q0 -41 -11 -68.5t-34 -64.5l-98 -152l-105 13l50 145q-35 10 -62.5 36.5t-27.5 82.5zM451 119q0 66 42 106.5t107 40.5q63 0 101 -38t38 -101q0 -41 -11 -68.5t-34 -64.5l-98 -152l-104 13l49 145q-35 10 -62.5 36.5 t-27.5 82.5z" />
<glyph unicode="&#x2022;" horiz-adv-x="581" d="M76 565q0 94 60.5 151.5t160.5 57.5q98 0 153.5 -53t55.5 -152q0 -94 -59.5 -150.5t-157.5 -56.5q-100 0 -156.5 53.5t-56.5 149.5z" />
<glyph unicode="&#x2026;" horiz-adv-x="1183" d="M66 117q0 66 42 104.5t111 38.5q66 0 101.5 -36t35.5 -101q0 -63 -39.5 -102t-105.5 -39q-70 0 -107.5 35.5t-37.5 99.5zM451 117q0 66 40.5 104.5t110.5 38.5q66 0 101.5 -36t35.5 -101q0 -63 -39.5 -102t-105.5 -39q-68 0 -105.5 35.5t-37.5 99.5zM836 117 q0 66 41 104.5t110 38.5q66 0 101.5 -36t35.5 -101q0 -63 -39.5 -102t-105.5 -39q-70 0 -106.5 35.5t-36.5 99.5z" />
<glyph unicode="&#x202f;" horiz-adv-x="338" />
<glyph unicode="&#x2039;" horiz-adv-x="665" d="M53 553l430 465l123 -121l-321 -344l323 -348l-127 -119z" />
<glyph unicode="&#x203a;" horiz-adv-x="665" d="M53 205l326 348l-324 344l125 121l428 -465l-428 -467z" />
<glyph unicode="&#x2044;" horiz-adv-x="354" d="M-201 0l678 1190h141l-675 -1190h-144z" />
<glyph unicode="&#x205f;" horiz-adv-x="423" />
<glyph unicode="&#x2070;" horiz-adv-x="585" d="M27 893q0 141 69.5 224t204.5 83t196.5 -80t61.5 -221q0 -143 -72.5 -228t-207.5 -85t-193.5 82t-58.5 225zM203 893q0 -33 3 -63.5t12 -55t26.5 -39t44.5 -14.5q51 0 71.5 54t20.5 122q0 66 -16.5 116t-67.5 50q-55 0 -74.5 -51t-19.5 -119z" />
<glyph unicode="&#x2074;" horiz-adv-x="565" d="M31 702v140l223 348h219v-367h66v-121h-66v-106h-158v106h-284zM154 827l2 -4h161v213l13 37h-8l-140 -231z" />
<glyph unicode="&#x2075;" horiz-adv-x="520" d="M39 612v176h123l14 -71h21q59 0 95 17.5t36 58.5q0 47 -51.5 64t-139.5 17h-65v316h387v-137l-97 8h-135v-84q49 0 97.5 -11.5t86.5 -36t61.5 -61.5t23.5 -88q0 -53 -22.5 -91t-60.5 -60.5t-88.5 -32.5t-103.5 -10q-51 0 -100 8t-82 18z" />
<glyph unicode="&#x2076;" horiz-adv-x="567" d="M35 887q0 68 18.5 126t56 99t97 64.5t141.5 23.5q41 0 82 -5t82 -13v-183h-123l-14 72l-19 2q-135 0 -149 -112q18 2 31.5 3t25.5 1q119 0 198 -44t79 -145q0 -86 -67.5 -138t-178.5 -52q-68 0 -117 22.5t-80.5 63.5t-47 95t-15.5 120zM199 862q0 -66 20.5 -110.5 t79.5 -44.5q37 0 59.5 20t22.5 55q0 47 -39 65.5t-92 18.5q-16 0 -28.5 -1t-22.5 -3z" />
<glyph unicode="&#x2077;" horiz-adv-x="489" d="M23 975v215h444v-137q-55 -51 -88 -111.5t-50.5 -120t-23.5 -115t-6 -96.5v-14h-168v14q0 111 31 223.5t108 208.5l35 13l-2 8h-139l-17 -88h-124z" />
<glyph unicode="&#x2078;" horiz-adv-x="575" d="M33 754q0 47 26.5 80.5t71.5 54.5v8q-35 16 -59.5 49t-24.5 80q0 45 21.5 79t55.5 55.5t78 31.5t91 10t91 -9t78 -29.5t53.5 -52.5t19.5 -75q0 -47 -25 -77.5t-61 -47.5v-8q39 -18 64.5 -53t25.5 -82q0 -45 -21.5 -79t-57.5 -56.5t-83 -33.5t-96 -11t-94.5 9t-79 28.5 t-54 51.5t-20.5 77zM176 774q0 -35 28.5 -50t69.5 -15q37 0 67 15t30 46q0 29 -31 46.5t-72 27.5l-22 6q-29 -12 -49.5 -30.5t-20.5 -45.5zM211 1028q0 -31 27.5 -46t68.5 -26l17 -4q29 8 48 28.5t19 45.5q0 33 -26.5 47t-65.5 14q-35 0 -61.5 -14t-26.5 -45z" />
<glyph unicode="&#x2079;" horiz-adv-x="567" d="M27 1010q0 86 67.5 138t177.5 52q70 0 119 -22.5t81 -63.5t47.5 -96t15.5 -119q0 -139 -77 -227t-239 -88q-45 0 -90 8t-74 16v176h123l15 -71l18 -2q135 0 149 112q-18 -2 -30.5 -2h-26.5q-119 0 -197.5 43t-78.5 146zM186 1004q0 -49 39 -67.5t92 -18.5q16 0 28.5 1 t25.5 3q-2 66 -22.5 111.5t-80.5 45.5q-37 0 -59.5 -20t-22.5 -55z" />
<glyph unicode="&#x207d;" horiz-adv-x="317" d="M49 897q0 117 38 229.5t93 198.5l84 -55q-39 -68 -68.5 -162t-29.5 -211t29.5 -210t68.5 -161l-86 -55q-55 86 -92 197.5t-37 228.5z" />
<glyph unicode="&#x207e;" horiz-adv-x="317" d="M49 526q39 68 68.5 161t29.5 210t-29.5 211t-68.5 162l84 55q55 -86 93 -198.5t38 -229.5t-37 -228.5t-92 -197.5z" />
<glyph unicode="&#x207f;" horiz-adv-x="653" d="M16 1067v123h177l24 -76h10q27 35 69 61.5t107 26.5q92 0 137.5 -52t45.5 -144l-6 -279l59 -8v-123h-236v393q0 33 -16 52.5t-49 19.5q-53 0 -70.5 -41t-17.5 -107v-317h-176v461z" />
<glyph unicode="&#x20ac;" d="M33 344l30 131h82q-2 8 -2 19v38q0 31 7 78h-117l30 129h113q53 172 185.5 267.5t343.5 95.5q94 0 158.5 -14.5t99.5 -24.5l-50 -203q-29 10 -69.5 19.5t-87.5 9.5q-203 0 -271 -150h353l-31 -129h-361q-2 -8 -4 -27.5t-2 -41.5q0 -20 1 -37t3 -29h394l-29 -131h-332 q25 -68 81 -107.5t151 -39.5q74 0 133 25.5t98 56.5l53 -207q-43 -27 -125 -58.5t-219 -31.5q-176 0 -307 94t-176 268h-133z" />
<glyph unicode="&#x2122;" horiz-adv-x="1069" d="M16 1288v115h607l71 -334l2 -35h9l2 35l71 334h215l-6 -76l14 -471h-143v422h-8v-29l-94 -393h-111l-92 393l-2 29h-4v-422h-156l8 76l11 356h-131v-430h-154l6 76v354h-115z" />
<glyph unicode="&#x2153;" horiz-adv-x="1218" d="M31 1071q49 10 104 41t92 78h154l-12 -465h125v-129h-443v129h152l8 293l-8 2l-15 -37q-25 -18 -63.5 -30.5t-69.5 -20.5zM188 0l699 1190h143l-700 -1190h-142zM705 147q41 -12 86 -19t100 -7q14 0 35.5 2t41 8t33 19.5t13.5 35.5q0 41 -37 53.5t-90 12.5h-90v102h90 q49 0 84 13.5t35 54.5q0 20 -11.5 32.5t-30 19.5t-39 9t-38.5 2h-14.5t-20.5 -2l-16 -73h-125v176q47 12 94 18t102 6q51 0 99.5 -9t85 -28.5t58 -52.5t21.5 -82q0 -88 -86 -127v-8q37 -14 67 -45t30 -88q0 -51 -24.5 -86t-64.5 -55.5t-92.5 -28.5t-105.5 -8q-47 0 -93 5 t-73 13z" />
<glyph unicode="&#x2154;" horiz-adv-x="1247" d="M33 594v139q88 49 143 84t88 62.5t45.5 51t12.5 52.5q0 43 -35 65.5t-88 22.5h-21l-24 -108h-121v215q41 10 87 17t93 7q53 0 102.5 -12t88 -39t61 -65.5t22.5 -90.5q0 -80 -47 -140t-164 -124l3 -8h141l98 8v-137h-485zM219 0l699 1190h143l-701 -1190h-141zM735 147 q41 -12 86 -19t101 -7q14 0 35.5 2t41 8t32.5 19.5t13 35.5q0 41 -36.5 53.5t-89.5 12.5h-91v102h91q49 0 83.5 13.5t34.5 54.5q0 20 -11 32.5t-29.5 19.5t-39 9t-38.5 2h-14.5t-20.5 -2l-17 -73h-125v176q47 12 94.5 18t102.5 6q51 0 99 -9t85 -28.5t58.5 -52.5t21.5 -82 q0 -88 -86 -127v-8q37 -14 66.5 -45t29.5 -88q0 -51 -24.5 -86t-64.5 -55.5t-92 -28.5t-105 -8q-47 0 -93.5 5t-72.5 13z" />
<glyph unicode="&#x215b;" horiz-adv-x="1220" d="M31 1071q49 10 104 41t92 78h154l-12 -465h125v-129h-443v129h152l8 293l-8 2l-15 -37q-25 -18 -63.5 -30.5t-69.5 -20.5zM188 0l699 1192h143l-700 -1192h-142zM672 158q0 47 26.5 80.5t71.5 54.5v8q-35 16 -59.5 49t-24.5 80q0 45 21.5 79t55.5 55.5t78 31.5t91 10 t91 -9t78 -29.5t53.5 -52.5t19.5 -75q0 -47 -25 -77.5t-62 -47.5v-8q39 -18 65 -53t26 -82q0 -45 -21.5 -79t-57.5 -56.5t-83 -33.5t-96 -11t-94.5 9t-79 28.5t-54 51.5t-20.5 77zM815 178q0 -35 28.5 -50t69.5 -15q37 0 67 15t30 46q0 29 -31 46.5t-72 27.5l-22 6 q-29 -12 -49.5 -30.5t-20.5 -45.5zM850 432q0 -31 27.5 -46t68.5 -26l17 -4q29 8 48 29t19 45q0 33 -26.5 47.5t-65.5 14.5q-35 0 -61.5 -14.5t-26.5 -45.5z" />
<glyph unicode="&#x215c;" horiz-adv-x="1206" d="M31 737q41 -12 86 -19t100 -7q14 0 35.5 2t41 8t33 19.5t13.5 35.5q0 41 -37 53.5t-90 12.5h-90v102h90q49 0 84 13.5t35 54.5q0 20 -11.5 32.5t-30 19.5t-39 9t-38.5 2h-14.5t-20.5 -2l-16 -74h-125v177q47 12 94 18t102 6q51 0 99.5 -9t85.5 -28.5t58.5 -52.5t21.5 -82 q0 -88 -86 -127v-8q37 -14 66.5 -45t29.5 -88q0 -51 -24.5 -86t-64.5 -55.5t-92.5 -28.5t-105.5 -8q-47 0 -93 5t-73 13zM172 0l700 1190h142l-701 -1190h-141zM653 158q0 47 27 80.5t72 54.5v8q-35 16 -59.5 49t-24.5 80q0 45 21.5 79t55 55.5t77.5 31.5t91 10t91.5 -9 t78 -29.5t53 -52.5t19.5 -75q0 -47 -24.5 -77.5t-61.5 -47.5v-8q39 -18 64.5 -53t25.5 -82q0 -45 -21.5 -79t-57.5 -56.5t-83 -33.5t-96 -11t-94 9t-79 28.5t-54.5 51.5t-20.5 77zM797 178q0 -35 28.5 -50t69.5 -15q37 0 66.5 15t29.5 46q0 29 -30.5 46.5t-71.5 27.5l-23 6 q-29 -12 -49 -30.5t-20 -45.5zM831 432q0 -31 28 -46t69 -26l16 -4q29 8 48.5 29t19.5 45q0 33 -27 47.5t-65 14.5q-35 0 -62 -14.5t-27 -45.5z" />
<glyph unicode="&#x215d;" horiz-adv-x="1196" d="M39 612v176h123l14 -71h21q59 0 95 17.5t36 58.5q0 47 -51.5 64t-139.5 17h-65v316h387v-137l-97 8h-135v-84q49 0 97.5 -11.5t86.5 -36t61.5 -61.5t23.5 -88q0 -53 -22.5 -91t-60.5 -60.5t-88.5 -32.5t-103.5 -10q-51 0 -100 8t-82 18zM162 0l700 1190h142l-701 -1190 h-141zM653 158q0 47 27 80.5t72 54.5v8q-35 16 -59.5 49t-24.5 80q0 45 21.5 79t55 55.5t77.5 31.5t91 10t91.5 -9t78 -29.5t53 -52.5t19.5 -75q0 -47 -24.5 -77.5t-61.5 -47.5v-8q39 -18 64.5 -53t25.5 -82q0 -45 -21.5 -79t-57.5 -56.5t-83 -33.5t-96 -11t-94 9t-79 28.5 t-54.5 51.5t-20.5 77zM797 178q0 -35 28.5 -50t69.5 -15q37 0 66.5 15t29.5 46q0 29 -30.5 46.5t-71.5 27.5l-23 6q-29 -12 -49 -30.5t-20 -45.5zM831 432q0 -31 28 -46t69 -26l16 -4q29 8 48.5 29t19.5 45q0 33 -27 47.5t-65 14.5q-35 0 -62 -14.5t-27 -45.5z" />
<glyph unicode="&#x215e;" horiz-adv-x="1097" d="M23 975v215h444v-137q-55 -51 -88 -111.5t-50.5 -120t-23.5 -115t-6 -96.5v-14h-168v14q0 111 31 223.5t108 208.5l35 13l-2 8h-139l-17 -88h-124zM53 0l699 1192h141l-700 -1192h-140zM549 158q0 47 26.5 80.5t71.5 54.5v8q-35 16 -59.5 49t-24.5 80q0 45 21.5 79 t55.5 55.5t78 31.5t91 10t91 -9t78 -29.5t53.5 -52.5t19.5 -75q0 -47 -25 -77.5t-61 -47.5v-8q39 -18 64.5 -53t25.5 -82q0 -45 -21.5 -79t-57.5 -56.5t-83 -33.5t-96 -11t-94.5 9t-79 28.5t-54 51.5t-20.5 77zM692 178q0 -35 29 -50t70 -15q37 0 66.5 15t29.5 46 q0 29 -31 46.5t-72 27.5l-22 6q-29 -12 -49.5 -30.5t-20.5 -45.5zM727 432q0 -31 27.5 -46t68.5 -26l17 -4q29 8 48 29t19 45q0 33 -26.5 47.5t-65.5 14.5q-35 0 -61.5 -14.5t-26.5 -45.5z" />
<glyph unicode="&#x2160;" horiz-adv-x="538" d="M-4 0v74h113l8 86v850h-121v73h547v-73h-121v-936h121v-74h-547z" />
<glyph unicode="&#x2164;" horiz-adv-x="1050" d="M-4 0v74h291l-236 936h-55v73h1059v-73h-60l-239 -936h299v-74h-1059zM369 1010l143 -713l6 -72h10l7 72l131 631l4 82h-301z" />
<glyph unicode="&#x2169;" horiz-adv-x="1056" d="M-4 0v74h47l256 483l-231 453h-72v73h1065v-73h-76l-231 -453l258 -483h49v-74h-1065zM383 74h295l-131 270l-15 59h-10l-12 -59l-107 -205zM391 1010l115 -262l16 -64h10l15 64l92 196l12 66h-260z" />
<glyph unicode="&#x216c;" horiz-adv-x="802" d="M-4 0v74h119l8 80v856h-127v73h811v-73h-381v-774h322v-162h59v-74h-811z" />
<glyph unicode="&#x216d;" horiz-adv-x="948" d="M-4 0v74h266q-94 59 -156.5 169.5t-62.5 264.5q0 178 69.5 305t188.5 197h-305v73h956v-73h-84l-47 -203q-33 16 -80 28.5t-108 12.5q-70 0 -122 -25.5t-88 -69.5t-53.5 -102.5t-17.5 -124.5q0 -55 15.5 -108t47 -93t78 -64.5t107.5 -24.5q96 0 155.5 38.5t94.5 83.5 l63 -237q-10 -10 -35.5 -25.5t-41.5 -21.5h116v-74h-956z" />
<glyph unicode="&#x216e;" horiz-adv-x="1171" d="M-4 0v74h164l14 100v684l-90 21v131h-88v73h1175v-73h-282q221 -131 221 -478q0 -330 -207 -458h268v-74h-1175zM475 229h100q123 0 174.5 75t51.5 228q0 172 -52.5 247t-185.5 75h-88v-625z" />
<glyph unicode="&#x216f;" horiz-adv-x="1505" d="M-4 0v74h80l14 80l53 856h-147v73h1513v-73h-141l-4 -80l55 -856h90v-74h-1513zM385 74h233l-192 706l-4 58h-10zM588 1010l153 -631l7 -57h10l4 57l156 631h-330zM887 74h235l-26 762h-11l-4 -56z" />
<glyph unicode="&#x25fc;" horiz-adv-x="972" d="M0 0v973h973v-973h-973z" />
<glyph horiz-adv-x="2099" d="M31 639q0 154 40 278.5t118.5 213t194.5 136.5t269 48q86 0 155 -13.5t103 -23.5v-434h-233l-47 198h-21q-61 0 -106 -31.5t-75 -82.5t-45 -118t-15 -134q0 -92 22.5 -171t68.5 -136.5t115.5 -89t165.5 -31.5q158 0 260 39v1009h330v-499h328v499h342l-23 -170v-897 l95 -16v-213h-414v543h-328v-461q-141 -37 -296.5 -68.5t-358.5 -31.5q-147 0 -266 44t-203 128t-130 205.5t-46 279.5z" />
<glyph horiz-adv-x="1955" d="M31 639q0 152 40 276.5t117.5 214t193.5 137.5t267 48q86 0 154.5 -12.5t107.5 -24.5v-434h-233l-45 198h-19q-63 0 -109 -28.5t-77 -78.5t-45 -116.5t-14 -140.5q0 -96 22.5 -175t68.5 -136.5t116.5 -88t166.5 -30.5q86 0 143.5 13t119.5 38v1083h430v-204l-136 -25 v-276h11q37 45 102.5 81.5t151.5 36.5q150 0 218 -86t68 -235l-8 -457l90 -12v-205h-379v647q0 51 -24.5 83t-75.5 32q-43 0 -71.5 -19.5t-47 -53.5t-25.5 -80t-7 -101v-432q-72 -18 -141.5 -35.5t-144.5 -30t-158 -20.5t-181 -8q-147 0 -266 43t-204 127t-131 206.5 t-46 280.5z" />
<glyph horiz-adv-x="1794" d="M31 492q0 236 130 369.5t378 133.5q72 0 132 -12t87 -20v-324h-226l-20 119h-18q-43 0 -74 -19.5t-51.5 -53.5t-29.5 -78t-9 -95q0 -63 16 -118.5t51 -95.5t88.5 -62.5t126.5 -22.5q72 0 129.5 12.5t104.5 28.5v1128h428v-204l-135 -23v-278h12q31 45 97.5 82.5 t154.5 37.5q147 0 217 -87t70 -236l-9 -457l91 -12v-205h-379v647q0 51 -23.5 83t-75.5 32q-43 0 -72.5 -19.5t-48 -54.5t-25.5 -81t-7 -101v-443q-43 -10 -102.5 -24t-131 -26.5t-154.5 -21.5t-171 -9q-256 0 -403.5 127t-147.5 383z" />
<glyph horiz-adv-x="1986" d="M31 639q0 152 40 276.5t117.5 214t193.5 137.5t267 48q86 0 154.5 -14.5t107.5 -26.5v-430h-233l-43 196h-12q-66 0 -114 -30.5t-79 -81.5t-46 -119t-15 -143q0 -92 24.5 -169t71.5 -132.5t116.5 -86t161.5 -30.5q82 0 136.5 12t111.5 35v788h305v-415h279v415h319 l-20 -170v-700l86 -20v-193h-385v451h-279v-377q-72 -18 -140.5 -34.5t-142 -30t-155.5 -20.5t-180 -7q-147 0 -266 43t-204 127t-131 206.5t-46 280.5z" />
<glyph horiz-adv-x="1880" d="M31 539q0 272 140 417.5t402 145.5q70 0 133.5 -11.5t96.5 -23.5v-334h-219l-25 123h-22q-51 0 -88 -23.5t-62 -64.5t-36 -95.5t-11 -115.5q0 -154 73.5 -246t227.5 -92q68 0 130.5 13.5t113.5 33.5v817h303v-415h280v415h320l-21 -149v-721l86 -23v-190h-385v451h-280 v-381q-113 -31 -259.5 -58.5t-332.5 -27.5q-266 0 -415.5 146t-149.5 409z" />
<glyph horiz-adv-x="1083" d="M16 0l260 858l-90 21v204h615l200 -862l82 -16v-205h-383v174l-22 119h-268l-19 -72l82 -16v-205h-457zM463 500h176l-66 338l-8 69h-10l-8 -69z" />
<glyph horiz-adv-x="1083" d="M16 0l260 858l-90 21v204h615l200 -862l82 -16v-205h-383v174l-22 119h-268l-19 -72l82 -16v-205h-457zM258 1262l432 217l86 -191l-444 -108zM463 500h176l-66 338l-8 69h-10l-8 -69z" />
<glyph horiz-adv-x="1083" d="M16 0l260 858l-90 21v204h615l200 -862l82 -16v-205h-383v174l-22 119h-268l-19 -72l82 -16v-205h-457zM223 1274l236 170q16 12 33.5 16t31.5 4q29 0 62 -20l237 -170l-75 -86l-224 98l-223 -98zM463 500h176l-66 338l-8 69h-10l-8 -69z" />
<glyph horiz-adv-x="1083" d="M16 0l260 858l-90 21v204h615l200 -862l82 -16v-205h-383v174l-22 119h-268l-19 -72l82 -16v-205h-457zM305 1184v266h176v-266h-176zM463 500h176l-66 338l-8 69h-10l-8 -69zM586 1184v266h176v-266h-176z" />
<glyph horiz-adv-x="1435" d="M16 0l250 848l-94 20v215h1137l28 -321h-219l-26 100h-174l18 -209h362l19 -207h-365l21 -225h178l16 101h226l26 -322h-753l10 147l-10 146h-256l-19 -72l82 -16v-205h-457zM463 500h184l-26 344v55h-68l-4 -55z" />
<glyph horiz-adv-x="1083" d="M16 0l260 858l-90 21v204h615l200 -862l82 -16v-205h-383v174l-22 119h-268l-19 -72l82 -16v-205h-457zM289 1288l86 191l432 -217l-74 -82zM463 500h176l-66 338l-8 69h-10l-8 -69z" />
<glyph horiz-adv-x="1083" d="M16 0l260 858l-90 21v204h615l200 -862l82 -16v-205h-383v174l-22 119h-268l-19 -72l82 -16v-205h-457zM315 1313q0 78 59.5 128t164.5 50q106 0 163.5 -47t57.5 -125t-60.5 -125t-167.5 -47q-104 0 -160.5 46t-56.5 120zM463 500h176l-66 338l-8 69h-10l-8 -69z M477 1317q0 -23 14.5 -40t43.5 -17q33 0 48 17t15 40q0 27 -14.5 44t-46.5 17q-29 0 -44.5 -17t-15.5 -44z" />
<glyph horiz-adv-x="1083" d="M16 0l260 858l-90 21v204h615l200 -862l82 -16v-205h-383v174l-22 119h-268l-19 -72l82 -16v-205h-457zM209 1233l24 153q14 8 61.5 27t123.5 19q27 0 59.5 -5.5t68.5 -11.5t71.5 -11t66.5 -5q61 0 102 9t66 19l-23 -153q-14 -8 -62 -26.5t-120 -18.5q-29 0 -62.5 5 t-68.5 11t-70.5 11.5t-66.5 5.5q-63 0 -102 -10.5t-68 -18.5zM463 500h176l-66 338l-8 69h-10l-8 -69z" />
<glyph horiz-adv-x="1052" d="M33 879v204h602q74 0 139.5 -16t113.5 -52t75.5 -90.5t27.5 -129.5q0 -86 -39 -144.5t-98 -83.5v-8q68 -29 113 -95.5t45 -164.5q0 -143 -93.5 -221t-259.5 -78h-557l21 174v684zM422 637h143q57 0 89 31.5t32 85.5q0 53 -31.5 83.5t-97.5 30.5h-135v-231zM424 221h133 q72 0 108.5 29t36.5 94q0 59 -37.5 92t-105.5 33h-135v-248z" />
<glyph horiz-adv-x="892" d="M31 528q0 272 143 423t406 151q70 0 146.5 -12.5t131.5 -28.5v-328h-217l-29 127h-30q-61 0 -106.5 -26.5t-76 -72.5t-45 -107.5t-14.5 -131.5q0 -131 63.5 -215t192.5 -84q80 0 140.5 40t90.5 87l58 -264q-47 -35 -128 -69.5t-218 -34.5q-109 0 -202 34.5t-160.5 103 t-106.5 171t-39 237.5z" />
<glyph horiz-adv-x="892" d="M31 528q0 272 143 423t406 151q70 0 144.5 -11.5t133.5 -27.5v-330h-217l-29 127h-26q-63 0 -109.5 -27.5t-77 -73.5t-45 -107.5t-14.5 -129.5q0 -131 63.5 -215t192.5 -84q86 0 143.5 41t87.5 86l58 -264q-45 -33 -116 -64.5t-187 -37.5v-47q63 0 107 -36t44 -98 q0 -76 -64.5 -115.5t-156.5 -39.5q-61 0 -101 7t-57 11l23 107q18 -4 45 -7.5t51 -3.5q35 0 60.5 10.5t25.5 39.5q0 23 -21.5 30.5t-52.5 7.5q-16 0 -35.5 -2t-31.5 -4l26 144q-90 12 -165.5 54t-131 109.5t-86 162t-30.5 214.5z" />
<glyph horiz-adv-x="1089" d="M33 879v204h489q262 0 399.5 -136t137.5 -415q0 -258 -128 -395t-372 -137h-457l21 174v684zM424 229h100q123 0 174.5 75t51.5 228q0 172 -52.5 247t-185.5 75h-88v-625z" />
<glyph horiz-adv-x="937" d="M33 879v204h846v-321h-220l-18 100h-219v-203h428v-217h-428v-219h242l14 99h215v-322h-791l21 176v682z" />
<glyph horiz-adv-x="937" d="M33 879v204h846v-321h-220l-18 100h-219v-203h428v-217h-428v-219h242l14 99h215v-322h-791l21 176v682zM248 1262l432 217l86 -191l-444 -108z" />
<glyph horiz-adv-x="937" d="M33 879v204h846v-321h-220l-18 100h-219v-203h428v-217h-428v-219h242l14 99h215v-322h-791l21 176v682zM203 1274l235 170q16 12 33.5 16t32.5 4q29 0 61 -20l238 -170l-76 -86l-223 98l-223 -98z" />
<glyph horiz-adv-x="937" d="M33 879v204h846v-321h-220l-18 100h-219v-203h428v-217h-428v-219h242l14 99h215v-322h-791l21 176v682zM279 1184v266h176v-266h-176zM559 1184v266h176v-266h-176z" />
<glyph horiz-adv-x="937" d="M33 879v204h846v-321h-220l-18 100h-219v-203h428v-217h-428v-219h242l14 99h215v-322h-791l21 176v682zM248 1288l86 191l432 -217l-74 -82z" />
<glyph horiz-adv-x="1091" d="M-6 575l127 25v260l-88 21v202h493q262 0 398.5 -136t136.5 -417q0 -256 -128 -393t-372 -137h-459l17 154v270l-90 -18zM424 229h104q125 0 173.5 81t48.5 227q0 156 -50.5 235.5t-181.5 81.5h-94v-190l127 26l37 -168l-164 -35v-258z" />
<glyph horiz-adv-x="884" d="M33 879v204h821v-321h-219l-19 100h-196v-237h387v-217h-387v-185l90 -18v-205h-410l15 172v686z" />
<glyph horiz-adv-x="1046" d="M31 514q0 131 37.5 239.5t112.5 186.5t187.5 120t262.5 42q72 0 152.5 -13.5t168.5 -37.5v-320h-213l-30 125q-16 4 -39 8t-52 4q-74 0 -127 -26.5t-87.5 -73.5t-51 -110.5t-16.5 -137.5q0 -61 11 -118.5t38 -101.5t72 -69.5t112 -25.5q72 0 115 14v201h-137v196h414 v-557q-78 -35 -182.5 -56t-229.5 -21q-109 0 -204 29.5t-164.5 94t-109.5 165t-40 243.5z" />
<glyph horiz-adv-x="1116" d="M33 879v204h387v-419h278v419h320l-14 -176l-9 -684l88 -18v-205h-385v446h-278v-225l82 -16v-205h-402l21 174v684z" />
<glyph horiz-adv-x="534" d="M33 877v206h387v-862l82 -16v-205h-402l21 174v684z" />
<glyph horiz-adv-x="534" d="M-2 1262l432 217l86 -191l-444 -108zM33 877v206h387v-862l82 -16v-205h-402l21 174v684z" />
<glyph horiz-adv-x="534" d="M-51 1274l235 170q16 12 34 16t32 4q29 0 61 -20l238 -170l-76 -86l-223 98l-223 -98zM33 877v206h387v-862l82 -16v-205h-402l21 174v684z" />
<glyph horiz-adv-x="534" d="M25 1184v266h176v-266h-176zM33 877v206h387v-862l82 -16v-205h-402l15 174v684zM305 1184v266h176v-266h-176z" />
<glyph horiz-adv-x="534" d="M10 1288l86 191l432 -217l-73 -82zM33 877v206h387v-862l82 -16v-205h-402l21 174v684z" />
<glyph horiz-adv-x="630" d="M-23 215q10 -2 35 -4t35 -2q86 0 133 36t47 130v483l-217 19v206h533l-13 -153v-574q0 -100 -30.5 -170.5t-86 -115.5t-133 -66.5t-174.5 -21.5q-16 0 -44.5 1t-45.5 5z" />
<glyph horiz-adv-x="1013" d="M33 879v204h387v-409h10l14 59l218 350h344l-304 -417l220 -441l92 -20v-205h-309l-211 463h-9l-65 -96v-146l74 -16v-205h-394l23 174v684z" />
<glyph horiz-adv-x="823" d="M27 879v204h387v-847h153l21 114h215v-350h-709l21 174v684z" />
<glyph horiz-adv-x="1468" d="M53 879v204h522l170 -669l7 -58h10l6 58l158 669h446l-14 -174l14 -688l84 -16v-205h-377v860h-12l-4 -55l-195 -805h-223l-217 805l-6 57h-10l-11 -641l76 -16v-205h-393l18 174l35 686z" />
<glyph horiz-adv-x="1122" d="M33 889v194h434l283 -745h8l-8 70l-27 454l-74 17v204h381l-16 -172v-911h-348l-283 762h-10l10 -72l25 -469l73 -16v-205h-381l23 172v696z" />
<glyph horiz-adv-x="1122" d="M33 889v194h434l283 -745h8l-8 70l-27 454l-74 17v204h381l-16 -172v-911h-348l-283 762h-10l10 -72l25 -469l73 -16v-205h-381l23 172v696zM248 1233l24 153q14 8 61.5 27t123.5 19q27 0 59.5 -5.5t68.5 -11.5t71.5 -11t66.5 -5q61 0 102 9t66 19l-23 -153 q-14 -8 -62 -26.5t-120 -18.5q-29 0 -62.5 5t-68.5 11t-70.5 11.5t-66.5 5.5q-63 0 -102.5 -10.5t-67.5 -18.5z" />
<glyph horiz-adv-x="1075" d="M31 532q0 131 34.5 236.5t101 179.5t165 114t225.5 40q242 0 364.5 -143.5t122.5 -405.5q0 -131 -34.5 -236.5t-102 -180.5t-166 -114.5t-223.5 -39.5q-244 0 -365.5 143t-121.5 407zM342 537q0 -61 8 -120t28.5 -103t55.5 -70.5t90 -26.5q57 0 97.5 28.5t65 75 t34.5 106.5t10 126q0 61 -8 118.5t-29.5 100.5t-57.5 69.5t-91 26.5q-59 0 -98 -28.5t-62 -74.5t-33 -106.5t-10 -121.5z" />
<glyph horiz-adv-x="1075" d="M31 539q0 131 34.5 235.5t101 177t165 111.5t225.5 39q242 0 364.5 -147.5t122.5 -409.5q0 -129 -34.5 -233.5t-102 -178.5t-166 -112.5t-223.5 -38.5q-244 0 -365.5 146.5t-121.5 410.5zM268 1262l432 217l86 -191l-444 -108zM340 541q0 -61 8 -120t28.5 -104 t56.5 -72.5t91 -27.5q59 0 99.5 27.5t65 74t34.5 105.5t10 125q0 61 -8 119.5t-29.5 102.5t-58.5 71.5t-92 27.5q-61 0 -100 -28.5t-63 -74.5t-33 -105.5t-9 -120.5z" />
<glyph horiz-adv-x="1075" d="M31 539q0 131 34.5 235.5t101 177t165 111.5t225.5 39q242 0 364.5 -147.5t122.5 -409.5q0 -129 -34.5 -233.5t-102 -178.5t-166 -112.5t-223.5 -38.5q-244 0 -365.5 146.5t-121.5 410.5zM240 1274l235 170q16 12 33.5 16t32.5 4q29 0 61 -20l238 -170l-76 -86l-223 98 l-224 -98zM340 541q0 -61 8 -120t28.5 -104t56.5 -72.5t91 -27.5q59 0 99.5 27.5t65 74t34.5 105.5t10 125q0 61 -8 119.5t-29.5 102.5t-58.5 71.5t-92 27.5q-61 0 -100 -28.5t-63 -74.5t-33 -105.5t-9 -120.5z" />
<glyph horiz-adv-x="1075" d="M31 539q0 131 34.5 235.5t101 177t165 111.5t225.5 39q242 0 364.5 -147.5t122.5 -409.5q0 -129 -34.5 -233.5t-102 -178.5t-166 -112.5t-223.5 -38.5q-244 0 -365.5 146.5t-121.5 410.5zM311 1184v266h176v-266h-176zM340 541q0 -61 8 -120t28.5 -104t56.5 -72.5 t91 -27.5q59 0 99.5 27.5t65 74t34.5 105.5t10 125q0 61 -8 119.5t-29.5 102.5t-58.5 71.5t-92 27.5q-61 0 -100 -28.5t-63 -74.5t-33 -105.5t-9 -120.5zM592 1184v266h176v-266h-176z" />
<glyph horiz-adv-x="1456" d="M31 530q0 264 136 408.5t390 144.5h840v-321h-219l-19 100h-211v-225h418v-195h-418v-219h223l15 99h225v-322h-909q-240 0 -355.5 137t-115.5 393zM338 537q0 -68 9 -125.5t32.5 -99.5t64.5 -65.5t103 -23.5h100v639h-76q-68 0 -112.5 -25.5t-71.5 -69.5t-38 -103.5 t-11 -126.5z" />
<glyph horiz-adv-x="1075" d="M31 539q0 131 34.5 235.5t101 177t165 111.5t225.5 39q242 0 364.5 -147.5t122.5 -409.5q0 -129 -34.5 -233.5t-102 -178.5t-166 -112.5t-223.5 -38.5q-244 0 -365.5 146.5t-121.5 410.5zM289 1288l86 191l432 -217l-74 -82zM340 541q0 -61 8 -120t28.5 -104t56.5 -72.5 t91 -27.5q59 0 99.5 27.5t65 74t34.5 105.5t10 125q0 61 -8 119.5t-29.5 102.5t-58.5 71.5t-92 27.5q-61 0 -100 -28.5t-63 -74.5t-33 -105.5t-9 -120.5z" />
<glyph horiz-adv-x="1075" d="M31 532q0 131 34.5 236.5t101 179.5t165 114t225.5 40q109 0 195 -31l59 100h141l-94 -157q186 -137 186 -461q0 -131 -34.5 -236.5t-102 -180.5t-166 -114.5t-223.5 -39.5q-141 0 -248 51l-67 -115h-144l113 186q-141 141 -141 428zM342 537q0 -35 2 -68t8 -63l266 444 q-31 18 -73 18q-59 0 -98 -28.5t-62 -74.5t-33 -106.5t-10 -121.5zM410 264q43 -47 114 -47q57 0 97.5 28.5t65 75t34.5 106.5t10 126q0 53 -7 105.5t-24 93.5z" />
<glyph horiz-adv-x="1075" d="M31 539q0 131 34.5 235.5t101 177t165 111.5t225.5 39q242 0 364.5 -147.5t122.5 -409.5q0 -129 -34.5 -233.5t-102 -178.5t-166 -112.5t-223.5 -38.5q-244 0 -365.5 146.5t-121.5 410.5zM217 1233l25 153q14 8 61 27t123 19q27 0 59.5 -5.5t68.5 -11.5t72 -11t66 -5 q61 0 102.5 9t65.5 19l-22 -153q-14 -8 -62.5 -26.5t-120.5 -18.5q-29 0 -62.5 5t-68.5 11t-70.5 11.5t-66.5 5.5q-63 0 -102 -10.5t-68 -18.5zM340 541q0 -61 8 -120t28.5 -104t56.5 -72.5t91 -27.5q59 0 99.5 27.5t65 74t34.5 105.5t10 125q0 61 -8 119.5t-29.5 102.5 t-58.5 71.5t-92 27.5q-61 0 -100 -28.5t-63 -74.5t-33 -105.5t-9 -120.5z" />
<glyph horiz-adv-x="1013" d="M33 879v204h557q186 0 290.5 -92t104.5 -272q0 -86 -28.5 -151.5t-79 -108.5t-121 -65.5t-154.5 -22.5h-184v-144l102 -24v-203h-418l13 174v684zM418 590h102q156 0 156 139q0 74 -42 106.5t-116 32.5h-100v-278z" />
<glyph horiz-adv-x="1075" d="M31 535q0 131 35.5 236.5t103.5 179t165 112.5t220 39q244 0 366.5 -148.5t122.5 -404.5q0 -203 -80.5 -345.5t-252.5 -199.5v-8l98 -195h-260l-80 183q-223 12 -330.5 158.5t-107.5 392.5zM342 543q0 -63 8 -122t27.5 -104t55.5 -72.5t91 -27.5q57 0 97.5 27.5t65 72.5 t34.5 104.5t10 125.5q0 61 -8 119.5t-29.5 102.5t-57.5 71.5t-91 27.5q-59 0 -98 -27.5t-63 -72.5t-33 -104.5t-9 -120.5z" />
<glyph horiz-adv-x="1050" d="M33 879v204h592q80 0 147.5 -17t116.5 -55t76.5 -96.5t27.5 -138.5q0 -104 -48 -169.5t-128 -90.5v-10q29 -10 49.5 -24.5t36 -36t26.5 -52.5t19 -76l17 -96l79 -16v-205h-339l-54 281q-16 78 -47 102.5t-100 24.5h-86v-187l82 -16v-205h-400l21 174v684zM416 612h123 q72 0 109.5 32t37.5 95q0 129 -143 129h-127v-256z" />
<glyph horiz-adv-x="925" d="M61 18v330h226l26 -149h43q84 0 137.5 24.5t53.5 77.5q0 51 -49 79t-123 56q-55 23 -110.5 48.5t-98.5 62.5t-69.5 88t-26.5 123q0 88 38.5 152.5t105.5 107.5t154 63.5t183 20.5q37 0 80 -3t84 -8.5t77.5 -11.5t63.5 -14v-332h-225l-31 152l-31 2q-70 0 -126 -22.5 t-56 -80.5q0 -49 48 -76.5t120 -56.5q55 -23 110.5 -48t99.5 -62t71.5 -87.5t27.5 -123.5q0 -92 -39 -158t-106.5 -107.5t-156.5 -62t-189 -20.5q-84 0 -168 11t-144 25z" />
<glyph horiz-adv-x="813" d="M12 862v221h789v-221h-242v-862h-315l10 174v688h-242z" />
<glyph horiz-adv-x="1013" d="M33 879v204h385v-143h172q180 0 287.5 -90t107.5 -272q0 -86 -27.5 -152t-79 -110t-121 -66.5t-155.5 -22.5h-184v-227h-318l21 174v684zM418 446h104q154 0 154 140q0 76 -43 107.5t-115 31.5h-100v-279z" />
<glyph horiz-adv-x="1071" d="M20 879v204h379v-690q0 -90 28 -136t105 -46q82 0 116 47t34 137v467l-82 17v204h383v-702q0 -100 -32.5 -175t-92 -125t-143.5 -74.5t-189 -24.5q-209 0 -320.5 96t-111.5 301l6 481z" />
<glyph horiz-adv-x="1071" d="M20 879v204h379v-690q0 -90 28 -136t105 -46q82 0 116 47t34 137v467l-82 17v204h383v-702q0 -100 -32.5 -175t-92 -125t-143.5 -74.5t-189 -24.5q-209 0 -320.5 96t-111.5 301l6 481zM281 1262l432 217l86 -191l-445 -108z" />
<glyph horiz-adv-x="1071" d="M20 879v204h379v-690q0 -90 28 -136t105 -46q82 0 116 47t34 137v467l-82 17v204h383v-702q0 -100 -32.5 -175t-92 -125t-143.5 -74.5t-189 -24.5q-209 0 -320.5 96t-111.5 301l6 481zM240 1274l235 170q16 12 33.5 16t32.5 4q29 0 61 -20l238 -170l-76 -86l-223 98 l-224 -98z" />
<glyph horiz-adv-x="1071" d="M20 879v204h379v-690q0 -90 28 -136t105 -46q82 0 116 47t34 137v467l-82 17v204h383v-702q0 -100 -32.5 -175t-92 -125t-143.5 -74.5t-189 -24.5q-209 0 -320.5 96t-111.5 301l6 481zM309 1184v266h176v-266h-176zM590 1184v266h176v-266h-176z" />
<glyph horiz-adv-x="1071" d="M20 879v204h379v-690q0 -90 28 -136t105 -46q82 0 116 47t34 137v467l-82 17v204h383v-702q0 -100 -32.5 -175t-92 -125t-143.5 -74.5t-189 -24.5q-209 0 -320.5 96t-111.5 301l6 481zM285 1288l86 191l432 -217l-74 -82z" />
<glyph horiz-adv-x="995" d="M0 879v204h330l129 -790l6 -72h12l6 72l138 571l-70 15v204h428l-289 -1083h-436l-188 864z" />
<glyph horiz-adv-x="1570" d="M4 879v204h348l111 -852h10v74l121 602v176h338l139 -778v-74h10l111 631l-76 17v204h430l-231 -1083h-395l-132 772l-8 76h-10l-6 -76l-143 -772h-394l-159 864z" />
<glyph horiz-adv-x="997" d="M0 0l264 569l-137 285l-109 25v204h332l131 -297l15 -65h8l14 65l53 123l54 174h352l-246 -514l160 -346l92 -20v-203h-319l-150 375l-10 57h-8l-11 -57l-71 -199l-54 -176h-360z" />
<glyph horiz-adv-x="956" d="M6 881v202h313l136 -417l10 -68h8l10 68l84 241l39 176h334l-330 -706v-377h-381v205l76 14v158l-201 479z" />
<glyph horiz-adv-x="956" d="M0 881v202h319l136 -417l10 -68h8l10 68l84 241l39 176h334l-330 -706v-377h-385v205l80 14v158l-201 479zM193 1262l432 217l86 -191l-445 -108z" />
<glyph horiz-adv-x="956" d="M0 881v202h319l136 -417l10 -68h8l10 68l84 241l39 176h334l-330 -706v-377h-383v205l78 14v158l-201 479zM244 1184v266h176v-266h-176zM524 1184v266h176v-266h-176z" />
<glyph horiz-adv-x="911" d="M41 0v244l446 581l43 27l-2 10h-233l-23 -100h-215v321h801v-241l-444 -584l-56 -25l2 -10h273l24 99h213v-322h-829z" />
<glyph horiz-adv-x="602" d="M29 762q0 61 27.5 102t73.5 65.5t108.5 34t132.5 9.5q0 59 -31 77.5t-90 18.5h-14.5t-16.5 -2l-16 -80h-137v191q41 10 91 18t109 8q141 0 212 -53t71 -195v-227l45 -6v-127h-170l-23 78h-10q-29 -39 -72 -63.5t-104 -24.5q-82 0 -134 45t-52 131zM205 786 q0 -31 18.5 -47t46.5 -16q55 0 79 39.5t24 109.5q-31 0 -61.5 -2t-54.5 -11t-38 -26.5t-14 -46.5z" />
<glyph horiz-adv-x="614" d="M49 596l10 109v731h242v-125l-61 -11v-155h10q6 8 37.5 31.5t91.5 23.5q104 0 161.5 -70.5t57.5 -185.5q0 -78 -19.5 -143.5t-62.5 -112.5t-111.5 -74.5t-166.5 -27.5q-39 0 -90.5 3t-98.5 7zM231 823q0 -14 1 -41.5t1 -50.5q6 -2 13 -2h22q41 0 69 15.5t45 42t25.5 61.5 t8.5 74q0 61 -18.5 99t-63.5 38q-31 0 -51.5 -19.5t-31.5 -51.5t-15.5 -75t-4.5 -90z" />
<glyph horiz-adv-x="505" d="M16 879q0 147 82 235t234 88q33 0 61.5 -2t48.5 -6q23 -4 43 -6v-203h-135l-14 76h-10q-70 -4 -98.5 -54.5t-28.5 -121.5q0 -68 35.5 -113t99.5 -45q47 0 83 20.5t58 49.5l25 -148q-16 -14 -67.5 -38.5t-135.5 -24.5q-131 0 -206 78.5t-75 214.5z" />
<glyph horiz-adv-x="616" d="M18 848q0 154 83 253t251 99h27v105l-55 10v123h231v-709l43 -8v-125h-152l-32 74h-8q-23 -29 -66 -56.5t-109 -27.5q-106 0 -159.5 72.5t-53.5 189.5zM199 868q0 -59 17 -100t63 -41q33 0 53 18.5t31.5 51t15.5 75.5t4 91q0 29 -1 51.5t-1 40.5q-4 0 -10 2q-4 0 -10.5 1 t-10.5 1q-82 0 -116.5 -56.5t-34.5 -134.5z" />
<glyph horiz-adv-x="581" d="M16 883q0 68 19.5 126t56.5 101t91.5 67.5t125.5 24.5q70 0 119 -22.5t79 -62.5t43 -95t13 -119v-49h-358q2 -72 43 -100.5t117 -28.5h28l15 61h135v-174q-23 -8 -83.5 -18t-125.5 -10q-156 0 -237 76.5t-81 222.5zM207 954h182l6 7q0 47 -19.5 76.5t-64.5 29.5 t-72.5 -30.5t-31.5 -82.5z" />
<glyph horiz-adv-x="307" d="M16 1065v127h236v-596h-195l13 109l6 352zM43 1352l113 112l112 -112l-112 -115z" />
<glyph horiz-adv-x="303" d="M16 1313v125h234v-840h-191l13 107l6 598z" />
<glyph horiz-adv-x="966" d="M16 1067v123h179l22 -74h10q23 35 67 60.5t105 25.5q55 0 94 -22.5t60 -63.5h8q25 35 67 60.5t101 25.5q90 0 134 -48t42 -140l-4 -291l51 -8v-119h-227v395q0 70 -61 70q-49 0 -67.5 -38t-18.5 -110v-317h-181v395q0 70 -61 70q-47 0 -66.5 -38t-19.5 -110v-317h-176 v461z" />
<glyph horiz-adv-x="608" d="M20 891q0 139 75 225t218 86q145 0 210 -84t65 -223q0 -145 -72 -227t-225 -82q-143 0 -207 84t-64 221zM201 891q0 -68 19.5 -117t78.5 -49t83 49t24 121q0 68 -19.5 117t-79.5 49q-31 0 -51 -14.5t-32.5 -38t-17.5 -54t-5 -63.5z" />
<glyph horiz-adv-x="425" d="M16 1065v125h170l19 -76h8q23 39 67 63.5t115 24.5l29 -155l-37 2q-82 0 -113.5 -45.5t-31.5 -122.5v-152l51 -6v-127h-227v461z" />
<glyph horiz-adv-x="507" d="M27 1016q0 49 22.5 84t61.5 57.5t88 32.5t102 10q63 0 105.5 -8t70.5 -14v-193h-135l-18 80q-10 2 -25 2q-35 0 -61.5 -8t-26.5 -35q0 -23 28.5 -36t57.5 -25q35 -12 69.5 -27.5t63.5 -36t46.5 -50.5t17.5 -71q0 -53 -25 -90t-64.5 -59.5t-92 -32.5t-105.5 -10t-106.5 10 t-71.5 16v191h135l20 -84h17q39 0 73.5 9t34.5 38q0 23 -25.5 37t-64.5 31q-37 12 -70.5 27.5t-61.5 36t-44 49t-16 69.5z" />
<glyph horiz-adv-x="374" d="M8 1051v133l66 6l24 129l156 65v-194h102v-139h-98v-248q0 -82 82 -82q23 0 35 6l-23 -139q-4 -2 -18.5 -3t-24.5 -1q-117 0 -176 48t-59 169v250h-66z" />
<glyph horiz-adv-x="573" d="M20 57q0 141 70 224.5t205 83.5t196.5 -80t61.5 -222q0 -143 -72.5 -228t-208.5 -85q-135 0 -193.5 82t-58.5 225zM197 57q0 -33 3 -63.5t12 -55t26.5 -39t44.5 -14.5q51 0 71.5 54.5t20.5 121.5q0 66 -16.5 116t-67.5 50q-55 0 -74.5 -51t-19.5 -119z" />
<glyph horiz-adv-x="516" d="M31 236q49 10 104 40.5t92 77.5h154l-12 -465h125v-129h-443v129h152l8 293l-8 2l-15 -37q-25 -18 -63.5 -30.5t-69.5 -20.5z" />
<glyph horiz-adv-x="540" d="M33 -100q88 49 143 83.5t88 62.5t45.5 51.5t12.5 52.5q0 43 -35 65.5t-88 22.5h-21l-24 -109h-121v215q41 10 87 17.5t93 7.5q53 0 102.5 -12.5t88 -39t61 -65.5t22.5 -90q0 -80 -47 -140.5t-164 -123.5l3 -9h141l98 9v-138h-485v140z" />
<glyph horiz-adv-x="544" d="M31 -96q41 -12 86 -19.5t100 -7.5q14 0 35.5 2t41 8.5t33 19.5t13.5 36q0 41 -37 53t-90 12h-90v103h90q49 0 84 13t35 54q0 20 -11.5 32.5t-30 20t-39 9.5t-38.5 2h-14.5t-20.5 -2l-16 -74h-125v176q47 12 94 18.5t102 6.5q51 0 99.5 -9.5t85.5 -29t58.5 -52t21.5 -81.5 q0 -88 -86 -127v-9q37 -14 66.5 -44.5t29.5 -88.5q0 -51 -24.5 -86t-64.5 -55.5t-92.5 -28.5t-105.5 -8q-47 0 -93 5t-73 14z" />
<glyph horiz-adv-x="565" d="M31 4l223 348h219v-366h66v-121h-66v-107h-158v107h-284v139zM154 -10l2 -4h161v213l13 37h-8l-140 -232z" />
<glyph horiz-adv-x="520" d="M39 -47h123l14 -72h21q59 0 95 17.5t36 58.5q0 47 -51.5 64.5t-139.5 17.5h-65v315h387v-137l-97 8h-135v-84q49 0 97.5 -11t86.5 -35.5t61.5 -61.5t23.5 -88q0 -53 -22.5 -91t-60.5 -60.5t-88.5 -33t-103.5 -10.5q-51 0 -100 8.5t-82 18.5v176z" />
<glyph horiz-adv-x="567" d="M35 51q0 68 18.5 126.5t56 99t97 64.5t141.5 24q41 0 82 -5.5t82 -13.5v-182h-123l-14 72l-19 2q-135 0 -149 -113q18 2 31.5 3t25.5 1q119 0 198 -44t79 -144q0 -86 -67.5 -138.5t-178.5 -52.5q-68 0 -117 22.5t-80.5 63.5t-47 95.5t-15.5 119.5zM199 27 q0 -66 20.5 -111t79.5 -45q37 0 59.5 20.5t22.5 55.5q0 47 -39 65.5t-92 18.5q-16 0 -28.5 -1t-22.5 -3z" />
<glyph horiz-adv-x="489" d="M23 139v215h444v-137q-55 -51 -88 -111.5t-50.5 -120t-23.5 -114.5t-6 -96v-15h-168v15q0 111 31 223.5t108 208.5l35 12l-2 8h-139l-17 -88h-124z" />
<glyph horiz-adv-x="575" d="M33 -84q0 47 26.5 81t71.5 54v8q-35 16 -59.5 49t-24.5 80q0 45 21.5 79t55.5 55.5t78 32t91 10.5t91 -9.5t78 -30t53.5 -52t19.5 -74.5q0 -47 -25 -78t-61 -47v-8q39 -18 64.5 -53.5t25.5 -82.5q0 -45 -21.5 -78.5t-57.5 -56t-83 -34t-96 -11.5t-94.5 9.5t-79 28.5 t-54 51t-20.5 77zM176 -63q0 -35 28.5 -50.5t69.5 -15.5q37 0 67 15.5t30 45.5q0 29 -31 46.5t-72 27.5l-22 6q-29 -12 -49.5 -30.5t-20.5 -44.5zM211 190q0 -31 27.5 -46t68.5 -25l17 -4q29 8 48 28.5t19 44.5q0 33 -26.5 47.5t-65.5 14.5q-35 0 -61.5 -14.5t-26.5 -45.5z " />
<glyph horiz-adv-x="567" d="M27 176q0 86 67.5 138.5t177.5 52.5q70 0 119 -22.5t81 -63.5t47.5 -96.5t15.5 -118.5q0 -139 -77 -227.5t-239 -88.5q-45 0 -90 8.5t-74 16.5v176h123l15 -72l18 -2q135 0 149 113q-18 -2 -30.5 -2h-26.5q-119 0 -197.5 43t-78.5 145zM186 170q0 -49 39 -67.5t92 -18.5 q16 0 28.5 1t25.5 3q-2 66 -22.5 112t-80.5 46q-37 0 -59.5 -20.5t-22.5 -55.5z" />
<glyph horiz-adv-x="317" d="M51 174q0 117 38 229.5t93 198.5l84 -55q-39 -68 -68.5 -162t-29.5 -211t29.5 -210t68.5 -161l-86 -55q-55 86 -92 197.5t-37 228.5z" />
<glyph horiz-adv-x="317" d="M49 -197q39 68 68.5 161t29.5 210t-29.5 211t-68.5 162l84 55q55 -86 93 -198.5t38 -229.5t-37 -228.5t-92 -197.5z" />
<glyph horiz-adv-x="1060" d="M55 535q0 129 31 233t92.5 178t152.5 115t212 41q240 0 351.5 -146.5t111.5 -402.5q0 -129 -34 -233.5t-97.5 -180.5t-157.5 -116.5t-213 -40.5q-121 0 -206 37.5t-138.5 109.5t-79 174.5t-25.5 231.5zM354 539q0 -63 7.5 -122t26 -103t51 -70.5t83.5 -26.5q49 0 84 28.5 t56.5 76t32 106.5t10.5 123q0 61 -7.5 118.5t-27 100.5t-52 68.5t-83.5 25.5t-86 -27.5t-55.5 -72.5t-30 -104.5t-9.5 -120.5z" />
<glyph horiz-adv-x="907" d="M35 868q45 8 94 26.5t96 46.5t90 63.5t78 78.5h281l-23 -847h228v-236h-805v236h274l17 532l-11 4l-32 -67q-43 -33 -114 -55.5t-128 -37.5z" />
<glyph horiz-adv-x="970" d="M59 0v252q158 88 260.5 150.5t161 113.5t81 95t22.5 96q0 78 -63.5 117.5t-162.5 39.5h-36l-46 -196h-217v389q74 18 158 31.5t170 13.5q94 0 184.5 -22.5t159 -69.5t110.5 -118t42 -165q0 -72 -19.5 -134.5t-64.5 -119.5t-118 -112.5t-179 -112.5l4 -12h256l176 14v-250 h-879z" />
<glyph horiz-adv-x="974" d="M51 264q74 -25 156 -37t182 -12q27 0 65 3t72.5 15.5t59 36t24.5 64.5q0 37 -18.5 59.5t-49 35.5t-72.5 18.5t-89 5.5h-162v186h162q90 0 152.5 24.5t62.5 96.5q0 39 -21.5 61.5t-53.5 34.5t-68.5 15t-69.5 3h-32.5t-33.5 -2l-28 -133h-226v318q86 23 171 34t184 11 q94 0 181 -15.5t152.5 -52.5t105.5 -96t40 -147q0 -78 -41 -137.5t-115 -94.5v-10q33 -12 65 -33.5t56.5 -51.5t38.5 -70t14 -91q0 -92 -45 -153.5t-117.5 -99.5t-165.5 -53t-192 -15q-86 0 -169 10t-130 22z" />
<glyph horiz-adv-x="1013" d="M49 193v266l408 624h399v-669h119v-221h-121v-193h-287v193h-518zM274 422l5 -8h292v389l21 65l-12 2l-254 -421z" />
<glyph horiz-adv-x="929" d="M59 20v332h226l24 -133h39q104 0 172 32t68 109q0 84 -94.5 116t-253.5 32h-119v575h704v-249l-176 16h-246v-154q92 0 179.5 -21.5t156 -65.5t110.5 -111.5t42 -161.5q0 -98 -41 -166t-110.5 -110t-160 -60t-188.5 -18q-80 0 -170 11t-162 27z" />
<glyph horiz-adv-x="1009" d="M55 530q0 125 34 230.5t103.5 181.5t178 118t256.5 42q76 0 157.5 -14.5t141.5 -30.5v-320h-226l-26 131l-33 2q-123 0 -190.5 -49t-81.5 -155q35 4 58.5 5t45.5 1q106 0 198.5 -18.5t160 -60.5t106.5 -107.5t39 -157.5q0 -78 -33 -142.5t-91 -109.5t-140 -69.5 t-183 -24.5q-125 0 -215 40.5t-147 114.5t-85 174.5t-28 218.5zM352 487q0 -59 9.5 -111t30 -91t56 -60.5t91.5 -21.5q66 0 106.5 38t40.5 99q0 43 -19.5 72.5t-52 48t-75.5 26t-90 7.5q-51 0 -97 -7z" />
<glyph horiz-adv-x="860" d="M23 694v389h808v-247q-98 -92 -158.5 -203t-93 -221.5t-43 -212t-10.5 -174.5v-25h-305v25q0 100 13.5 203.5t43 205t77.5 198.5t118 183l49 27l-2 12h-239l-33 -160h-225z" />
<glyph horiz-adv-x="1024" d="M49 281q0 86 48 151.5t128 104.5v10q-63 31 -107 91t-44 140q0 84 39 144.5t101 100.5t143 59.5t167 19.5t166 -17.5t140.5 -54.5t97.5 -93t37 -136q0 -86 -45.5 -144.5t-112.5 -89.5v-10q72 -37 118 -99.5t46 -148.5q0 -84 -39 -145.5t-104.5 -102.5t-150.5 -60 t-175 -19q-92 0 -174 16t-144.5 52t-98.5 93.5t-36 137.5zM311 319q0 -59 52.5 -88.5t125.5 -29.5q70 0 123.5 28.5t53.5 83.5q0 27 -15.5 47.5t-42 37t-59.5 27.5t-70 21l-39 11q-55 -23 -92 -56.5t-37 -81.5zM375 784q0 -55 52 -79.5t124 -47.5l33 -10q49 16 83.5 52 t34.5 79q0 59 -49 86t-116 27q-61 0 -111.5 -26.5t-50.5 -80.5z" />
<glyph horiz-adv-x="1009" d="M33 756q0 78 32.5 142.5t91 109.5t140.5 69.5t182 24.5q125 0 215 -41t147.5 -115t85 -174t27.5 -219q0 -125 -33.5 -230.5t-103 -181t-178.5 -117.5t-256 -42q-76 0 -158 14t-141 31v319h225l27 -131l33 -2q125 0 191.5 49t80.5 156q-35 -4 -58.5 -5t-45.5 -1 q-109 0 -201 18.5t-159.5 60t-105.5 107.5t-38 158zM324 743q0 -43 19 -72.5t52 -48t76 -25.5t90 -7q29 0 51.5 1t44.5 5q0 59 -9 111.5t-29.5 90.5t-56.5 60.5t-91 22.5q-66 0 -106.5 -38.5t-40.5 -99.5z" />
<glyph horiz-adv-x="573" d="M20 242q0 141 70 224t205 83t196.5 -80t61.5 -221q0 -143 -72.5 -228.5t-208.5 -85.5q-135 0 -193.5 82.5t-58.5 225.5zM197 242q0 -33 3 -64t12 -55.5t26.5 -38.5t44.5 -14q51 0 71.5 54t20.5 122q0 66 -16.5 116t-67.5 50q-55 0 -74.5 -51t-19.5 -119z" />
<glyph horiz-adv-x="516" d="M31 420q49 10 104 41t92 78h154l-12 -465h125v-129h-443v129h152l8 293l-8 2l-15 -37q-25 -18 -63.5 -30.5t-69.5 -20.5z" />
<glyph horiz-adv-x="540" d="M33 -55v139q88 49 143 84t88 62.5t45.5 51t12.5 52.5q0 43 -35 65.5t-88 22.5h-21l-24 -109h-121v215q41 10 87 17.5t93 7.5q53 0 102.5 -12.5t88 -39t61 -65.5t22.5 -90q0 -80 -47 -140.5t-164 -123.5l3 -8h141l98 8v-137h-485z" />
<glyph horiz-adv-x="544" d="M31 88q41 -12 86 -19.5t100 -7.5q14 0 35.5 2.5t41 8.5t33 19t13.5 36q0 41 -37 53.5t-90 12.5h-90v102h90q49 0 84 13.5t35 53.5q0 20 -11.5 33t-30 20t-39 9t-38.5 2h-14.5t-20.5 -2l-16 -74h-125v176q47 12 94 18.5t102 6.5q51 0 99.5 -9.5t85.5 -28.5t58.5 -52 t21.5 -82q0 -88 -86 -127v-8q37 -14 66.5 -45t29.5 -88q0 -51 -24.5 -86t-64.5 -55.5t-92.5 -29t-105.5 -8.5q-47 0 -93 5.5t-73 13.5z" />
<glyph horiz-adv-x="565" d="M31 49v139l223 349h219v-367h66v-121h-66v-106h-158v106h-284zM154 174l2 -4h161v213l13 37h-8l-140 -232z" />
<glyph horiz-adv-x="520" d="M39 -39v176h123l14 -71h21q59 0 95 17t36 58q0 47 -51.5 64.5t-139.5 17.5h-65v316h387v-138l-97 9h-135v-84q49 0 97.5 -11.5t86.5 -36t61.5 -61.5t23.5 -88q0 -53 -22.5 -91t-60.5 -60.5t-88.5 -33t-103.5 -10.5q-51 0 -100 8.5t-82 18.5z" />
<glyph horiz-adv-x="567" d="M35 236q0 68 18.5 126t56 99t97 64.5t141.5 23.5q41 0 82 -5t82 -14v-182h-123l-14 72l-19 2q-135 0 -149 -113q18 2 31.5 3t25.5 1q119 0 198 -44t79 -144q0 -86 -67.5 -138.5t-178.5 -52.5q-68 0 -117 23t-80.5 63.5t-47 95t-15.5 120.5zM199 211q0 -66 20.5 -111 t79.5 -45q37 0 59.5 20.5t22.5 55.5q0 47 -39 65.5t-92 18.5q-16 0 -28.5 -1t-22.5 -3z" />
<glyph horiz-adv-x="489" d="M23 324v215h444v-138q-55 -51 -88 -111.5t-50.5 -119.5t-23.5 -114.5t-6 -96.5v-14h-168v14q0 111 31 223.5t108 208.5l35 12l-2 9h-139l-17 -88h-124z" />
<glyph horiz-adv-x="575" d="M33 100q0 47 26.5 81t71.5 55v8q-35 16 -59.5 49t-24.5 80q0 45 21.5 78.5t55.5 55t78 32t91 10.5t91 -9.5t78 -30t53.5 -52t19.5 -74.5q0 -47 -25 -78t-61 -47v-8q39 -18 64.5 -53t25.5 -82q0 -45 -21.5 -79t-57.5 -56.5t-83 -34t-96 -11.5t-94.5 9.5t-79 29t-54 51 t-20.5 76.5zM176 121q0 -35 28.5 -50.5t69.5 -15.5q37 0 67 15.5t30 46.5q0 29 -31 46t-72 27l-22 7q-29 -12 -49.5 -31t-20.5 -45zM211 375q0 -31 27.5 -46.5t68.5 -25.5l17 -4q29 8 48 28.5t19 45.5q0 33 -26.5 47t-65.5 14q-35 0 -61.5 -14t-26.5 -45z" />
<glyph horiz-adv-x="567" d="M27 360q0 86 67.5 138.5t177.5 52.5q70 0 119 -22.5t81 -63.5t47.5 -96.5t15.5 -118.5q0 -139 -77 -227.5t-239 -88.5q-45 0 -90 8.5t-74 16.5v176h123l15 -72l18 -2q135 0 149 113q-18 -2 -30.5 -2h-26.5q-119 0 -197.5 43t-78.5 145zM186 354q0 -49 39 -67.5t92 -18.5 q16 0 28.5 1t25.5 3q-2 66 -22.5 112t-80.5 46q-37 0 -59.5 -20.5t-22.5 -55.5z" />
<glyph horiz-adv-x="585" d="M27 893q0 141 69.5 224t204.5 83t196.5 -80t61.5 -221q0 -143 -72.5 -228t-207.5 -85t-193.5 82t-58.5 225zM203 893q0 -33 3 -63.5t12 -55t26.5 -39t44.5 -14.5q51 0 71.5 54t20.5 122q0 66 -16.5 116t-67.5 50q-55 0 -74.5 -51t-19.5 -119z" />
<glyph horiz-adv-x="516" d="M31 1071q49 10 104 41t92 78h154l-12 -465h125v-129h-443v129h152l8 293l-8 2l-15 -37q-25 -18 -63.5 -30.5t-69.5 -20.5z" />
<glyph horiz-adv-x="540" d="M33 594v139q88 49 143 84t88 62.5t45.5 51t12.5 52.5q0 43 -35 65.5t-88 22.5h-21l-24 -108h-121v215q41 10 87 17t93 7q53 0 102.5 -12t88 -39t61 -65.5t22.5 -90.5q0 -80 -47 -140t-164 -124l3 -8h141l98 8v-137h-485z" />
<glyph horiz-adv-x="544" d="M31 737q41 -12 86 -19t100 -7q14 0 35.5 2t41 8t33 19.5t13.5 35.5q0 41 -37 53.5t-90 12.5h-90v102h90q49 0 84 13.5t35 54.5q0 20 -11.5 32.5t-30 19.5t-39 9t-38.5 2h-14.5t-20.5 -2l-16 -74h-125v177q47 12 94 18t102 6q51 0 99.5 -9t85.5 -28.5t58.5 -52.5t21.5 -82 q0 -88 -86 -127v-8q37 -14 66.5 -45t29.5 -88q0 -51 -24.5 -86t-64.5 -55.5t-92.5 -28.5t-105.5 -8q-47 0 -93 5t-73 13z" />
<glyph horiz-adv-x="565" d="M31 702v140l223 348h219v-367h66v-121h-66v-106h-158v106h-284zM154 827l2 -4h161v213l13 37h-8l-140 -231z" />
<glyph horiz-adv-x="520" d="M39 612v176h123l14 -71h21q59 0 95 17.5t36 58.5q0 47 -51.5 64t-139.5 17h-65v316h387v-137l-97 8h-135v-84q49 0 97.5 -11.5t86.5 -36t61.5 -61.5t23.5 -88q0 -53 -22.5 -91t-60.5 -60.5t-88.5 -32.5t-103.5 -10q-51 0 -100 8t-82 18z" />
<glyph horiz-adv-x="567" d="M35 887q0 68 18.5 126t56 99t97 64.5t141.5 23.5q41 0 82 -5t82 -13v-183h-123l-14 72l-19 2q-135 0 -149 -112q18 2 31.5 3t25.5 1q119 0 198 -44t79 -145q0 -86 -67.5 -138t-178.5 -52q-68 0 -117 22.5t-80.5 63.5t-47 95t-15.5 120zM199 862q0 -66 20.5 -110.5 t79.5 -44.5q37 0 59.5 20t22.5 55q0 47 -39 65.5t-92 18.5q-16 0 -28.5 -1t-22.5 -3z" />
<glyph horiz-adv-x="489" d="M23 975v215h444v-137q-55 -51 -88 -111.5t-50.5 -120t-23.5 -115t-6 -96.5v-14h-168v14q0 111 31 223.5t108 208.5l35 13l-2 8h-139l-17 -88h-124z" />
<glyph horiz-adv-x="575" d="M33 754q0 47 26.5 80.5t71.5 54.5v8q-35 16 -59.5 49t-24.5 80q0 45 21.5 79t55.5 55.5t78 31.5t91 10t91 -9t78 -29.5t53.5 -52.5t19.5 -75q0 -47 -25 -77.5t-61 -47.5v-8q39 -18 64.5 -53t25.5 -82q0 -45 -21.5 -79t-57.5 -56.5t-83 -33.5t-96 -11t-94.5 9t-79 28.5 t-54 51.5t-20.5 77zM176 774q0 -35 28.5 -50t69.5 -15q37 0 67 15t30 46q0 29 -31 46.5t-72 27.5l-22 6q-29 -12 -49.5 -30.5t-20.5 -45.5zM211 1028q0 -31 27.5 -46t68.5 -26l17 -4q29 8 48 28.5t19 45.5q0 33 -26.5 47t-65.5 14q-35 0 -61.5 -14t-26.5 -45z" />
<glyph horiz-adv-x="567" d="M27 1010q0 86 67.5 138t177.5 52q70 0 119 -22.5t81 -63.5t47.5 -96t15.5 -119q0 -139 -77 -227t-239 -88q-45 0 -90 8t-74 16v176h123l15 -71l18 -2q135 0 149 112q-18 -2 -30.5 -2h-26.5q-119 0 -197.5 43t-78.5 146zM186 1004q0 -49 39 -67.5t92 -18.5q16 0 28.5 1 t25.5 3q-2 66 -22.5 111.5t-80.5 45.5q-37 0 -59.5 -20t-22.5 -55z" />
<glyph horiz-adv-x="415" d="M66 1171q0 66 42 105t111 39q66 0 101.5 -37t35.5 -100q0 -66 -39.5 -104t-105.5 -38q-70 0 -107.5 36t-37.5 99z" />
<glyph horiz-adv-x="1202" d="M51 326q0 92 38 162.5t106 127.5q-39 47 -56.5 97.5t-17.5 99.5q0 63 25.5 116.5t71.5 92.5t110.5 59.5t142.5 20.5q61 0 115.5 -12.5t95.5 -38t66.5 -65.5t29.5 -95h281l176 10l-35 -203h-184q-2 -104 -16.5 -207.5t-49.5 -181.5q47 -27 105.5 -51.5t107.5 -44.5 l-45 -231q-25 8 -61.5 21t-77.5 30.5t-82 37t-78 40.5q-61 -59 -150 -94t-206 -35q-88 0 -163 23.5t-130 67.5t-87 107.5t-32 145.5zM303 328q0 -61 45 -101.5t109 -40.5q80 1 133 52q-57 37 -124 94t-114 108q-49 -39 -49 -112zM387 793q0 -41 31 -87.5t79 -93.5t107.5 -93 t116.5 -85q23 47 32 120t9 144h-211q10 23 17 50.5t7 50.5q0 43 -22.5 67.5t-67.5 24.5q-41 0 -69.5 -25.5t-28.5 -72.5z" />
</font>
</defs>
</svg>
