<?xml version="1.0" standalone="no"?>
<!DOCTYPE svg PUBLIC "-//W3C//DTD SVG 1.1//EN" "http://www.w3.org/Graphics/SVG/1.1/DTD/svg11.dtd" >
<svg xmlns="http://www.w3.org/2000/svg">
<metadata></metadata>
<defs>
<font id="distefanoslabbold_italic" horiz-adv-x="970" >
<font-face units-per-em="2048" ascent="1536" descent="-512" />
<missing-glyph horiz-adv-x="346" />
<glyph unicode="&#xfb00;" horiz-adv-x="1112" d="M-141 -125q20 -8 55 -8q125 0 143 133l93 748h-99l27 215l100 14l10 86q18 160 114.5 248t254.5 88q41 0 68.5 -2t50.5 -6v-230q-12 4 -27.5 6t-30.5 2q-61 0 -103 -35.5t-42 -107.5q0 -23 2 -33q0 -8 2 -16h225l11 86q18 160 114.5 248t253.5 88q41 0 69 -2t50 -6v-230 q-12 4 -27.5 6t-29.5 2q-61 0 -103.5 -35.5t-42.5 -107.5q0 -23 2 -33q0 -8 2 -16h152l-29 -229h-161l-99 -795q-18 -147 -107 -231t-245 -84q-47 0 -76.5 3t-52.5 7v227q20 -8 55 -8q125 0 144 133l92 748h-236l-98 -795q-18 -147 -107.5 -231t-244.5 -84q-47 0 -77 3 t-52 7v227z" />
<glyph unicode="&#xfb01;" horiz-adv-x="1042" d="M-141 -125q20 -8 55 -8q125 0 143 133l93 748h-99l27 210l100 19l10 86q18 160 114.5 248t248.5 88q41 0 66.5 -2t48.5 -6v-230q-12 4 -27.5 6t-30.5 2q-61 0 -98 -35.5t-37 -107.5q0 -23 2 -33q0 -8 2 -16h508l-94 -760l70 -12l-25 -205q-16 -4 -40 -8t-47.5 -7t-44 -4 t-30.5 -1q-86 0 -131 37.5t-45 113.5q0 10 1 20.5t3 20.5l76 576h-240l-98 -795q-18 -147 -113.5 -231t-251.5 -84q-47 0 -70.5 3t-45.5 7v227zM674 1204l211 199l168 -199l-213 -196z" />
<glyph unicode="&#xfb02;" horiz-adv-x="1048" d="M-141 -125q20 -8 55 -8q125 0 143 133l93 748h-99l27 210l100 19l8 74q10 98 50 164.5t101.5 108.5t141.5 59.5t172 17.5q45 0 102.5 -5t112 -11.5t99.5 -13.5t65 -11l-141 -1143l69 -12l-24 -205q-16 -4 -40 -8t-47.5 -7t-45 -4t-31.5 -1q-174 0 -174 149q0 10 1 21.5 t3 21.5l127 995q-14 4 -45 6.5t-57 2.5q-70 0 -114 -36t-44 -122v-18.5t2 -12.5q0 -8 2 -10h158l-29 -229h-162l-98 -795q-18 -147 -113.5 -231t-251.5 -84q-47 0 -70.5 3t-45.5 7v227z" />
<glyph unicode="&#xfb03;" horiz-adv-x="1564" d="M-141 -125q20 -8 55 -8q125 0 143 133l93 748h-99l27 219l100 10l10 86q18 160 114.5 248t254.5 88q41 0 68.5 -2t50.5 -6v-230q-12 4 -27.5 6t-30.5 2q-61 0 -103 -35.5t-42 -107.5q0 -23 2 -33q0 -8 2 -16h225l11 86q18 160 109 248t249 88q41 0 68.5 -2t50.5 -6v-230 q-12 4 -27.5 6t-29.5 2q-61 0 -98.5 -35.5t-37.5 -107.5q0 -23 2 -33q0 -8 2 -16h506l-94 -760l70 -12l-25 -205q-16 -4 -39.5 -8t-47 -7t-44 -4t-31.5 -1q-86 0 -131 37.5t-45 113.5q0 10 1 28.5t3 28.5l78 560h-239l-99 -795q-18 -147 -107 -231t-245 -84q-47 0 -76.5 3 t-52.5 7v227q20 -8 55 -8q125 0 144 133l92 748h-236l-98 -795q-18 -147 -107.5 -231t-244.5 -84q-47 0 -77 3t-52 7v227zM1196 1204l211 199l168 -199l-213 -196z" />
<glyph unicode="&#xfb04;" horiz-adv-x="1576" d="M-141 -125q20 -8 55 -8q125 0 143 133l93 748h-99l27 215l100 14l10 86q18 160 114.5 248t254.5 88q41 0 68.5 -2t50.5 -6v-230q-12 4 -27.5 6t-30.5 2q-61 0 -103 -35.5t-42 -107.5q0 -23 2 -33q0 -8 2 -16h230l8 74q10 98 50 164.5t101.5 108.5t141 59.5t172.5 17.5 q45 0 102 -5t111.5 -11.5t99.5 -13.5t66 -11l-142 -1143l70 -12l-25 -205q-16 -4 -39.5 -8t-47 -7t-45 -4t-32.5 -1q-174 0 -174 149q0 10 1 21.5t3 21.5l127 995q-14 4 -44.5 6.5t-57.5 2.5q-70 0 -114 -36t-44 -122v-18.5t2 -12.5q0 -8 2 -10h158l-29 -229h-161l-99 -795 q-18 -147 -113.5 -231t-250.5 -84q-47 0 -70.5 3t-46.5 7v227q20 -8 55 -8q125 0 144 133l92 748h-240l-98 -795q-18 -147 -107.5 -231t-244.5 -84q-47 0 -77 3t-52 7v227z" />
<glyph horiz-adv-x="0" />
<glyph unicode="&#xd;" horiz-adv-x="346" />
<glyph unicode=" "  horiz-adv-x="346" />
<glyph unicode="&#x09;" horiz-adv-x="346" />
<glyph unicode="&#xa0;" horiz-adv-x="346" />
<glyph unicode="!" horiz-adv-x="505" d="M61 106q0 74 44.5 114t113.5 40q55 0 90 -35t35 -92q0 -68 -40 -109.5t-114 -41.5q-59 0 -94 34.5t-35 89.5zM119 360l127 936h291l-181 -936h-237z" />
<glyph unicode="&#x22;" horiz-adv-x="595" d="M100 731l58 459h159l-57 -459h-160zM375 731l57 459h164l-57 -459h-164z" />
<glyph unicode="#" d="M12 266l21 160h168l90 293h-187l21 162h215l96 309h168l-94 -309h152l94 309h170l-99 -309h150l-21 -162h-178l-88 -293h193l-21 -160h-221l-82 -266h-168l80 266h-149l-82 -266h-170l82 266h-140zM371 426h149l88 293h-149z" />
<glyph unicode="$" d="M45 16l57 332h213v-147h62q76 0 126 23.5t50 82.5q0 33 -29.5 58.5t-75 49t-96.5 50.5t-96 62.5t-74.5 86t-29.5 121.5q0 80 28.5 140.5t77.5 104.5t114.5 71.5t141.5 42.5l25 202h143l-25 -194q72 0 155 -11.5t140 -25.5l-57 -330h-213v150h-45q-68 0 -122 -23.5 t-54 -83.5q0 -33 29.5 -58.5t74.5 -49t97.5 -50t97.5 -62.5t74.5 -86t29.5 -122q0 -80 -26.5 -139t-72.5 -102t-108.5 -71t-134.5 -44l-24 -207h-144l23 195h-27q-76 0 -149.5 8t-155.5 26z" />
<glyph unicode="%" horiz-adv-x="1142" d="M90 834q0 180 75 273t220 93q111 0 167 -65.5t56 -180.5q0 -180 -79.5 -274t-221.5 -94q-111 0 -164 66.5t-53 181.5zM109 0l819 1190h137l-819 -1190h-137zM258 844q0 -51 15.5 -87t56.5 -36q29 0 49 19.5t32.5 50t18.5 70.5t6 81q0 51 -15 86t-54 35q-31 0 -51.5 -18.5 t-33 -49t-18.5 -69.5t-6 -82zM571 240q0 180 75 273t220 93q111 0 167.5 -65.5t56.5 -180.5q0 -180 -80 -274t-222 -94q-111 0 -164 66.5t-53 181.5zM739 250q0 -51 15.5 -87t56.5 -36q29 0 49.5 19.5t32.5 50t18.5 70.5t6.5 81q0 51 -15.5 86t-54.5 35q-31 0 -51.5 -18.5 t-32.5 -49t-18.5 -69.5t-6.5 -82z" />
<glyph unicode="&#x26;" horiz-adv-x="1312" d="M29 326q0 119 50 201.5t142 148.5q-29 43 -41 91t-12 93q0 82 29.5 147.5t83 109.5t126 67.5t158.5 23.5q125 0 212 -57t91 -174h336l154 16l-68 -227h-198q-16 -117 -44 -228.5t-75 -197.5q53 -33 108.5 -57.5t104.5 -44.5l-82 -256q-25 8 -61.5 22t-76.5 33.5t-81 41 t-74 44.5q-74 -66 -166 -103.5t-219 -37.5q-86 0 -158.5 24.5t-126 68.5t-83 107.5t-29.5 143.5zM295 346q0 -61 43 -101t102 -40q85 0 144 57q-53 41 -117 103.5t-105 119.5q-29 -23 -48 -60.5t-19 -78.5zM442 860q0 -43 29 -93t73 -101.5t98 -99.5t108 -89q29 53 48 132 t27 157h-221q12 20 27.5 54t15.5 71q0 41 -25.5 63.5t-64.5 22.5q-45 0 -80 -29.5t-35 -87.5z" />
<glyph unicode="'" horiz-adv-x="307" d="M104 731l56 459h164l-56 -459h-164z" />
<glyph unicode="(" horiz-adv-x="440" d="M53 350q0 35 2 71t6 71q25 219 107 392t184 310l115 -84q-47 -68 -93 -152t-81 -182t-56.5 -209.5t-21.5 -236.5q0 -141 27.5 -257t66.5 -202l-127 -82q-59 113 -94 257t-35 304z" />
<glyph unicode=")" horiz-adv-x="440" d="M-27 -127q47 68 92.5 152t81 182t57 209.5t21.5 236.5q0 141 -27.5 256t-66.5 203l127 82q59 -113 94 -258t35 -305q0 -35 -2 -70t-6 -69q-25 -219 -107 -392.5t-184 -310.5z" />
<glyph unicode="*" horiz-adv-x="733" d="M86 825l207 84l-184 88l102 150l149 -129v215h181l-54 -213l183 127l63 -154l-203 -84l183 -84l-103 -151l-147 123v-207h-180l51 209l-180 -123z" />
<glyph unicode="+" d="M90 508l21 164h311l39 325h166l-39 -325h311l-20 -164h-312l-41 -330h-166l41 330h-311z" />
<glyph unicode="," horiz-adv-x="399" d="M16 111q0 4 1 10t1 10q10 57 49 96t103 39q55 0 91 -35.5t36 -91.5q0 -41 -12.5 -72.5t-46.5 -76.5l-113 -148l-98 13l63 145q-29 6 -51.5 34.5t-22.5 76.5z" />
<glyph unicode="-" horiz-adv-x="626" d="M61 412l21 163h487l-20 -163h-488z" />
<glyph unicode="." horiz-adv-x="399" d="M16 106q0 74 44 114t114 40q55 0 90 -35t35 -92q0 -68 -42 -109.5t-112 -41.5q-59 0 -94 34.5t-35 89.5z" />
<glyph unicode="/" horiz-adv-x="636" d="M-45 0l565 1190h180l-565 -1190h-180z" />
<glyph unicode="0" d="M29 473q0 162 33.5 298t101 232.5t168 150.5t233.5 54q100 0 175 -36.5t124 -101t73 -154t24 -193.5q0 -166 -34 -302t-101.5 -234.5t-168 -151.5t-231.5 -53q-102 0 -177 36.5t-124 101t-72.5 154.5t-23.5 199zM317 457q0 -111 29 -174.5t109 -63.5q47 0 82.5 30 t61.5 82t42 121.5t25 149.5q4 33 6 64.5t2 66.5q0 111 -30 175.5t-109 64.5q-45 0 -79 -25.5t-58.5 -72t-41 -108.5t-24.5 -134q-4 -41 -9.5 -85t-5.5 -91z" />
<glyph unicode="1" d="M39 0l29 238h270l92 639l-8 2l-43 -64q-47 -35 -108.5 -58.5t-118.5 -37.5l-31 256q92 16 196.5 71.5t180.5 143.5h270l-137 -952h252l-29 -238h-815z" />
<glyph unicode="2" d="M-6 0l26 244q174 111 287 192.5t179.5 147t93 119t26.5 106.5q0 80 -57 121t-160 41h-20l-66 -197h-197v387q78 23 169.5 35t173.5 12q92 0 174 -23.5t143 -70.5t97 -115.5t36 -158.5t-26.5 -165t-84 -143.5t-144.5 -136t-206 -147.5q0 -4 1 -6t1 -6h297l154 16l-31 -252 h-866z" />
<glyph unicode="3" d="M35 16v263q12 -4 40.5 -14.5t68.5 -19.5t89.5 -16.5t102.5 -7.5q45 0 89 6t78 22.5t54.5 44.5t20.5 71q0 72 -60.5 99.5t-148.5 27.5h-156l27 219h145q49 0 92 8t75 25.5t51.5 44t19.5 63.5q0 68 -49.5 94.5t-133.5 26.5q-18 0 -35.5 -2t-35.5 -4l-45 -131h-197v329 q70 16 162 29.5t186 13.5q88 0 168 -18.5t141.5 -56t97.5 -96t36 -138.5q0 -106 -53.5 -181t-139.5 -114l-2 -8q57 -33 102 -91.5t45 -148.5q0 -109 -48 -180.5t-122.5 -114.5t-169 -61t-186.5 -18q-43 0 -88 3t-86 8t-76 11t-59 12z" />
<glyph unicode="4" d="M8 201l33 270l502 719h354l-94 -766h115l-27 -223h-115l-24 -201h-277l25 201h-492zM264 424h271l49 401l32 82q-2 0 -5 1t-5 1l-293 -440l-49 -35v-10z" />
<glyph unicode="5" d="M25 20l57 332h211v-133h76q51 0 95 8.5t76.5 27.5t51 50t18.5 76q0 82 -84 115.5t-229 33.5h-145l79 660h691l-31 -254l-150 16h-254l-24 -202q82 -2 160.5 -23.5t141 -63.5t100.5 -106.5t38 -153.5q0 -115 -46 -195.5t-120.5 -130.5t-171 -72.5t-196.5 -22.5 q-80 0 -173.5 8t-170.5 30z" />
<glyph unicode="6" d="M59 461q0 158 33 294t103.5 237.5t181 158.5t268.5 57q53 0 105.5 -5t96.5 -12t76.5 -15.5t51.5 -12.5l-57 -321h-209v123l-58 4q-123 0 -185.5 -57.5t-84.5 -172.5q27 4 60.5 5t56.5 1q94 0 174 -20t137 -62t90 -108t33 -156q0 -102 -33 -180t-92 -130t-142 -79.5 t-186 -27.5q-111 0 -190.5 36.5t-129.5 101t-75 151.5t-25 190zM342 436q0 -47 8 -87t26.5 -68.5t48.5 -46t75 -17.5q63 0 107 43t44 119q0 80 -57 118t-145 38q-27 0 -55.5 -3.5t-45.5 -5.5q-6 -49 -6 -90z" />
<glyph unicode="7" d="M125 801v389h854l-31 -256q-123 -109 -201.5 -230.5t-127 -242.5t-72 -231.5t-33.5 -196.5l-2 -33h-291l4 29q29 231 113 457.5t258 424.5l57 31v10h-282l-54 -151h-192z" />
<glyph unicode="8" d="M20 283q0 115 62.5 188.5t157.5 124.5l2 12q-53 35 -89 94.5t-36 139.5q0 94 38 163.5t100 114.5t144 66.5t170 21.5q76 0 150 -17t131 -54t92 -93.5t35 -132.5q0 -111 -57.5 -181.5t-139.5 -113.5v-10q59 -41 97 -101.5t38 -146.5q0 -96 -39.5 -166.5t-106.5 -117.5 t-153 -69.5t-178 -22.5q-84 0 -158.5 17t-133 54t-92.5 93.5t-34 136.5zM279 328q0 -57 49 -86t114 -29q37 0 70 7t59.5 23.5t42 42t15.5 62.5q0 49 -45 84t-109 53l-35 11q-66 -23 -113.5 -65t-47.5 -103zM399 858q0 -49 41 -82t101 -49l30 -8q23 6 48.5 18.5t47 30.5 t36 43t14.5 57q0 55 -42 86t-108 31t-117 -31.5t-51 -95.5z" />
<glyph unicode="9" d="M37 27l57 321h209v-123l57 -4q123 0 185.5 57.5t85.5 172.5q-27 -4 -60.5 -5.5t-56.5 -1.5q-94 0 -174 20.5t-137.5 62.5t-90 107.5t-32.5 156.5q0 100 32.5 179t93 131t143.5 79.5t183 27.5q111 0 191 -36.5t130 -101t74.5 -152t24.5 -189.5q0 -158 -32.5 -294 t-103.5 -237.5t-181.5 -158.5t-267.5 -57q-53 0 -105.5 5t-96.5 12t-77 15.5t-51 12.5zM360 811q0 -80 57.5 -118t145.5 -38q27 0 55.5 3.5t45.5 5.5q6 49 6 90q0 92 -35 155.5t-123 63.5q-63 0 -107.5 -43t-44.5 -119z" />
<glyph unicode=":" horiz-adv-x="399" d="M18 106q0 74 44 114t114 40q55 0 90 -35t35 -92q0 -68 -40 -109.5t-114 -41.5q-59 0 -94 34.5t-35 89.5zM98 772q0 74 44 114t114 40q55 0 90 -35t35 -92q0 -68 -40 -110t-114 -42q-59 0 -94 35t-35 90z" />
<glyph unicode=";" horiz-adv-x="399" d="M16 111q0 4 1 10t1 10q10 57 49 96t103 39q55 0 91 -35.5t36 -91.5q0 -41 -12.5 -72.5t-46.5 -76.5l-113 -148l-98 13l63 145q-29 6 -51.5 34.5t-22.5 76.5zM98 772q0 74 44 114t114 40q55 0 90 -35t35 -92q0 -68 -40 -110t-114 -42q-59 0 -94 35t-35 90z" />
<glyph unicode="&#x3c;" d="M135 600l668 479l76 -153l-469 -326l391 -342l-119 -137z" />
<glyph unicode="=" d="M74 330l20 164h789l-21 -164h-788zM115 664l20 163h789l-21 -163h-788z" />
<glyph unicode="&#x3e;" d="M111 274l473 326l-387 342l112 137l551 -479l-667 -479z" />
<glyph unicode="?" horiz-adv-x="823" d="M131 109q0 74 44 113.5t114 39.5q55 0 90 -34.5t35 -92.5q0 -68 -40 -109.5t-114 -41.5q-59 0 -94 34.5t-35 90.5zM137 899v379q68 18 140.5 28.5t148.5 10.5q90 0 168 -24.5t135 -70.5t90 -114t33 -156q0 -82 -32 -153.5t-86 -128t-128 -97.5t-155 -61l-35 -150h-230 l41 300q59 8 119 28.5t107 53t75.5 78.5t28.5 110q0 70 -44 107.5t-112 37.5h-18l-57 -178h-189z" />
<glyph unicode="@" horiz-adv-x="1153" d="M12 248q0 150 46 285t130 238t205 163.5t269 60.5q106 0 191 -35.5t145.5 -98t92 -146.5t31.5 -180q0 -104 -30.5 -199.5t-90 -168.5t-145.5 -117t-197 -48l-22 102h-8q-18 -35 -56 -69.5t-110 -34.5q-45 0 -79 20.5t-55.5 56.5t-31.5 81t-10 94q0 98 26.5 180 t75.5 140.5t119 90t156 31.5q59 0 103 -4t73 -8l-29 -135l-37 -291l4 -80q88 33 135.5 129t47.5 227q0 150 -84 232t-238 82q-111 0 -196 -46t-144 -127t-90 -189.5t-31 -231.5q0 -88 22.5 -163t66.5 -129t109.5 -85t151.5 -31q119 0 210 35t161 72l-20 -168 q-74 -35 -162 -60.5t-199 -25.5q-123 0 -218 42t-158.5 115.5t-96.5 175t-33 218.5zM455 274q0 -53 16 -86.5t49 -33.5q53 0 74.5 62.5t38.5 186.5l16 140h-8q-4 0 -9 1t-11 1q-41 0 -72 -20.5t-51.5 -57.5t-31.5 -86t-11 -107z" />
<glyph unicode="A" horiz-adv-x="1155" d="M-51 0l401 1057l-78 16l29 223h610l123 -1060l72 -13l-27 -223h-381l13 172l-9 145h-311l-26 -81l69 -13l-26 -223h-459zM477 569h209l-33 441v82h-10l-18 -82z" />
<glyph unicode="B" horiz-adv-x="1120" d="M29 0l37 170l112 887l-82 16l29 223h557q205 0 306.5 -80.5t101.5 -234.5q0 -121 -57.5 -201t-133.5 -110l-2 -8q59 -35 101 -97.5t42 -167.5q0 -193 -120.5 -295t-323.5 -102h-567zM391 250h150q88 0 138 39t50 127q0 63 -40 100t-111 37h-150zM451 760h159q72 0 116 43 t44 115q0 55 -34 90.5t-99 35.5h-152z" />
<glyph unicode="C" horiz-adv-x="1034" d="M41 535q0 180 52 325.5t144.5 245.5t220.5 154.5t281 54.5q92 0 186.5 -16.5t153.5 -32.5l-69 -422h-226v205h-39q-82 0 -149.5 -32t-116.5 -92.5t-76.5 -147.5t-27.5 -199q0 -68 14 -127.5t45 -103.5t81 -69.5t122 -25.5q100 0 180 46t123 99v-305q-53 -41 -145.5 -75.5 t-233.5 -34.5q-121 0 -217 37.5t-163.5 109.5t-103.5 174.5t-36 231.5z" />
<glyph unicode="D" horiz-adv-x="1163" d="M29 0l39 170l112 887l-84 16l29 223h473q268 0 406.5 -138t138.5 -406q0 -375 -168 -563.5t-479 -188.5h-467zM391 260h109q162 0 240.5 119t78.5 366q0 145 -56 218t-179 73h-97z" />
<glyph unicode="E" horiz-adv-x="1040" d="M29 0l37 170l112 887l-82 16l29 223h940l-68 -407h-219v147h-291l-30 -258h467l-31 -241h-467l-35 -277h299l51 148h195v-408h-907z" />
<glyph unicode="F" horiz-adv-x="991" d="M29 0l37 170l112 887l-82 16l29 223h907l-67 -407h-215v147h-263l-34 -284h436l-31 -242h-436l-33 -268l100 -19l-26 -223h-434z" />
<glyph unicode="G" horiz-adv-x="1138" d="M41 522q0 180 49 326.5t141.5 250t225.5 160t301 56.5q37 0 84 -3t97 -10.5t100.5 -16.5t93.5 -21l-64 -390h-233v164q-23 4 -44.5 7.5t-52.5 3.5q-86 0 -153.5 -39t-114.5 -105.5t-71.5 -153.5t-24.5 -184q0 -68 13 -125t42 -100t74 -67.5t108 -24.5q29 0 51.5 4t41.5 8 l26 225h-164l29 236h475l-84 -653q-90 -37 -197.5 -62.5t-242.5 -25.5q-106 0 -198.5 34.5t-161 102t-107.5 169t-39 234.5z" />
<glyph unicode="H" horiz-adv-x="1181" d="M29 0l37 170l112 887l-82 16l29 223h395l-61 -499h315l62 499h329l-39 -170l-114 -888l84 -15l-27 -223h-393l65 543h-315l-37 -305l82 -15l-27 -223h-415z" />
<glyph unicode="I" horiz-adv-x="557" d="M29 0l37 170l112 887l-82 16l29 223h395l-131 -1058l82 -15l-27 -223h-415z" />
<glyph unicode="J" horiz-adv-x="698" d="M-25 -10v268q16 -4 50 -7t49 -3q94 0 140 48t58 148l72 592l-250 25l31 235h580l-39 -170l-84 -688q-14 -119 -47 -205t-92.5 -142t-147.5 -82.5t-213 -26.5q-6 0 -21.5 1t-34 2t-34 3t-17.5 2z" />
<glyph unicode="K" horiz-adv-x="1081" d="M31 0l37 170l112 887l-84 16l29 223h397l-65 -503h12l29 81l280 422h377l-399 -510l182 -546l90 -17l-27 -223h-331l-162 514h-8l-86 -111l-23 -165l80 -15l-27 -223h-413z" />
<glyph unicode="L" horiz-adv-x="880" d="M29 0l37 170l114 885l-88 18l29 223h399l-129 -1036h184l46 148h202v-408h-794z" />
<glyph unicode="M" horiz-adv-x="1675" d="M4 0l43 170l158 887l-86 16l28 223h576l92 -802v-70h10l15 70l278 802h494l-35 -170l-57 -888l79 -15l-26 -223h-389l92 1022h-10l-15 -66l-352 -956h-266l-125 954v70h-10l-131 -786l84 -15l-27 -223h-420z" />
<glyph unicode="N" horiz-adv-x="1216" d="M29 0l37 168l114 887l-88 18l29 223h473l211 -890h12v79l41 574l-82 14l29 223h403l-39 -170l-145 -1126h-377l-213 911h-10v-86l-45 -587l82 -15l-27 -223h-405z" />
<glyph unicode="O" horiz-adv-x="1181" d="M41 518q0 184 45 331.5t128 251t203 159t267 55.5q119 0 207 -38t146.5 -107.5t88 -168t29.5 -219.5q0 -186 -44 -334.5t-127 -252t-200.5 -158.5t-267.5 -55q-238 0 -356.5 144t-118.5 392zM375 520q0 -55 8 -105t28.5 -88t52.5 -60.5t81 -22.5q74 0 126 44t86 116.5 t49 168t15 197.5q0 57 -9 108.5t-28.5 90.5t-52.5 61.5t-82 22.5q-74 0 -126 -45t-84.5 -119t-48 -170.5t-15.5 -198.5z" />
<glyph unicode="P" horiz-adv-x="1075" d="M29 0l39 170l112 887l-84 16l29 223h571q186 0 286.5 -102t100.5 -285q0 -121 -37.5 -207t-103 -142t-156 -82.5t-194.5 -26.5h-174l-27 -207l107 -21l-27 -223h-442zM449 709h118q86 0 141.5 42t55.5 140q0 147 -160 147h-115z" />
<glyph unicode="Q" horiz-adv-x="1181" d="M41 518q0 186 44 333.5t127 251t201.5 158t266.5 54.5q119 0 209 -38t148.5 -106.5t88 -167t29.5 -219.5q0 -324 -120 -513t-316 -261l-6 -12l94 -231h-293l-65 217q-102 10 -179 53t-128.5 112.5t-76 164t-24.5 204.5zM375 520q0 -55 8 -105t28.5 -88t52.5 -60.5 t81 -22.5q74 0 126 44t86 116.5t49 168t15 197.5q0 57 -9 108.5t-28.5 90.5t-52.5 61.5t-82 22.5q-74 0 -126 -45t-84.5 -119t-48 -170.5t-15.5 -198.5z" />
<glyph unicode="R" horiz-adv-x="1116" d="M29 0l34 170l115 885l-88 18l29 223h581q174 0 279.5 -84t105.5 -251q0 -141 -66.5 -225.5t-170.5 -117.5l-2 -8q59 -25 83.5 -81t35.5 -156l12 -133l90 -17l-27 -223h-358l-23 348q-6 96 -41.5 129t-117.5 33h-78l-33 -272l82 -15l-27 -223h-415zM449 727h131 q35 0 67.5 10.5t59 32t42 54t15.5 79.5q0 139 -148 139h-129z" />
<glyph unicode="S" horiz-adv-x="989" d="M-10 23l63 401h223v-178q12 -2 43 -4t54 -2q92 0 153.5 29.5t61.5 101.5q0 43 -36 73.5t-89 60.5t-116.5 61.5t-117 74.5t-89.5 103.5t-36 148.5q0 113 44.5 192.5t121 131t180 75t222.5 23.5q47 0 99 -5t99.5 -12.5t86 -15.5t59.5 -12l-66 -396h-227v179q-20 2 -45 4 t-41 2q-88 0 -148.5 -27.5t-60.5 -99.5q0 -43 36 -73t90 -57.5t116.5 -59t117 -74.5t90 -105.5t35.5 -150.5q0 -121 -47 -203t-125.5 -133t-180 -72.5t-212.5 -21.5q-31 0 -81 4t-103 10t-100.5 13t-73.5 14z" />
<glyph unicode="T" horiz-adv-x="882" d="M72 1036l32 260h830l-33 -260h-258l-127 -1036h-332l39 170l107 866h-258z" />
<glyph unicode="U" horiz-adv-x="1153" d="M84 356q0 47 6 97l78 604l-84 16l29 223h393l-103 -831q-4 -27 -4 -45.5v-28.5q0 -139 140 -139q92 0 133 53t53 160l72 594l-82 14l28 223h398l-105 -841q-29 -242 -155.5 -357.5t-364.5 -115.5q-215 0 -323.5 91t-108.5 283z" />
<glyph unicode="V" horiz-adv-x="1087" d="M63 1073l29 223h352l54 -942l-4 -90h12l18 90l224 705l-80 14l28 223h461l-471 -1296h-438l-119 1059z" />
<glyph unicode="W" horiz-adv-x="1736" d="M63 1073l29 223h375l22 -1032h13l12 90l188 768l29 174h412l12 -942l-12 -90h12l236 795l-76 14l28 223h455l-430 -1296h-432l-27 932l4 92h-12l-16 -92l-244 -932h-428l-78 1059z" />
<glyph unicode="X" horiz-adv-x="1112" d="M-51 0l393 698l-127 353l-100 22l28 223h351l96 -385l4 -77h12l19 75l110 215l72 172h377l-359 -598l129 -458l103 -17l-27 -223h-358l-101 469l-4 70h-12l-16 -70l-103 -233l74 -13l-27 -223h-534z" />
<glyph unicode="Y" horiz-adv-x="1042" d="M63 1073l29 223h328l94 -497v-82h10l21 84l149 325l54 170h364l-463 -843l-55 -453h-404l27 223l86 15l27 215l-174 602z" />
<glyph unicode="Z" horiz-adv-x="1001" d="M-29 0l29 256l596 737l55 31l-2 12h-282l-54 -141h-198v401h919l-33 -252l-595 -739l-68 -33l2 -12h324l53 141h194v-401h-940z" />
<glyph unicode="[" horiz-adv-x="466" d="M6 -211l172 1401h328l-21 -164h-161l-131 -1075h161l-20 -162h-328z" />
<glyph unicode="\" horiz-adv-x="622" d="M68 1190h174l311 -1190h-176z" />
<glyph unicode="]" horiz-adv-x="466" d="M-66 -211l21 162h160l131 1075h-162l20 164h330l-172 -1401h-328z" />
<glyph unicode="^" d="M-4 377l539 633l383 -633l-152 -105l-266 451l-375 -447z" />
<glyph unicode="_" horiz-adv-x="1083" d="M-117 -358l21 163h1081l-20 -163h-1082z" />
<glyph unicode="`" horiz-adv-x="1011" d="M358 1208l105 191l389 -217l-82 -82z" />
<glyph unicode="a" horiz-adv-x="1003" d="M29 350q0 145 41 264t119.5 204t193.5 131t262 46q86 0 178 -6t146 -10l-37 -168l-72 -594l66 -12l-25 -205q-16 -4 -51 -12t-70 -8q-80 0 -117.5 35.5t-50.5 101.5l-8 43h-10q-14 -33 -39 -65t-59.5 -57.5t-79.5 -40.5t-101 -15q-139 0 -212.5 101t-73.5 267zM317 385 q0 -70 24 -114t81 -44q51 0 87 30t60.5 81t39 119.5t24.5 146.5l18 152q-10 0 -18 2q-8 0 -16.5 1t-16.5 1q-72 0 -125 -29t-88 -79t-52.5 -118.5t-17.5 -148.5z" />
<glyph unicode="b" horiz-adv-x="983" d="M27 10l41 178l145 1184l383 21l-27 -215l-100 -19l-31 -256h13q6 6 23.5 21.5t47 31t68.5 27.5t88 12q70 0 124 -26.5t91 -74.5t56.5 -113.5t19.5 -143.5q0 -143 -38 -263t-117 -207t-198.5 -136t-283.5 -49q-74 0 -160 9t-145 19zM346 221q10 -2 19 -2q8 -2 17 -2h17 q70 0 122 29.5t86 81t51.5 119t17.5 143.5q0 78 -27.5 125t-87.5 47q-49 0 -84 -31t-58.5 -83t-36.5 -122.5t-22 -150.5z" />
<glyph unicode="c" horiz-adv-x="821" d="M23 408q0 135 40.5 243.5t115.5 185t179.5 117.5t231.5 41q53 0 96 -6t78 -12q37 -8 72 -19l-60 -319h-207v125h-18q-121 -10 -179.5 -100.5t-58.5 -227.5q0 -100 43 -160.5t142 -60.5q70 0 131 28.5t102 73.5v-241q-12 -12 -40.5 -27.5t-68.5 -31t-91.5 -25.5 t-108.5 -10q-193 0 -296 116.5t-103 309.5z" />
<glyph unicode="d" horiz-adv-x="1003" d="M29 352q0 147 41 266t120.5 203t195.5 129t265 45h25l20 176l-86 17l23 184l385 21l-35 -179l-123 -997l66 -12l-25 -205q-20 -10 -61 -15t-64 -5q-66 0 -108.5 31.5t-53.5 90.5l-10 58h-10q-14 -33 -38 -65t-57.5 -57.5t-78.5 -40.5t-101 -15q-139 0 -214.5 102 t-75.5 268zM322 391q0 -78 25.5 -121t84.5 -43q49 0 83 30t57.5 81t38 119.5t22.5 146.5l16 152q-8 0 -16 2q-8 0 -16.5 1t-16.5 1q-72 0 -124 -29t-86 -79t-51 -117.5t-17 -143.5z" />
<glyph unicode="e" horiz-adv-x="931" d="M29 412q0 125 38.5 231.5t111.5 185t175.5 122.5t231.5 44q156 0 248 -75.5t92 -204.5q0 -90 -47.5 -150.5t-118 -99.5t-153.5 -59.5t-156 -26.5l-125 -12q2 -45 19 -75t48 -47.5t74 -24.5t92 -7h37l37 101h196v-277q-20 -8 -56 -18.5t-80 -18.5t-95 -13t-102 -5 q-223 0 -345 114.5t-122 315.5zM338 539q164 16 238.5 54t74.5 103q0 35 -24.5 56.5t-69.5 21.5q-82 0 -138.5 -58.5t-74.5 -148.5z" />
<glyph unicode="f" horiz-adv-x="587" d="M-141 -125q20 -8 55 -8q125 0 143 133l93 748h-99l27 210l100 19l10 86q18 160 114.5 248t254.5 88q41 0 68.5 -2t50.5 -6v-230q-12 4 -27.5 6t-30.5 2q-61 0 -103 -35.5t-42 -107.5q0 -23 2 -33q0 -8 2 -16h152l-29 -229h-162l-98 -795q-18 -147 -107.5 -231t-244.5 -84 q-47 0 -77 3t-52 7v227z" />
<glyph unicode="g" horiz-adv-x="1003" d="M-14 -332l53 330h205v-119h61q111 0 182.5 56.5t100.5 179.5l10 45h-10q-35 -45 -99.5 -78t-160.5 -33q-137 0 -217 91t-80 257q0 285 163.5 441.5t464.5 156.5q86 0 170 -6t138 -10l-37 -168l-84 -717q-16 -129 -67.5 -216t-128.5 -139t-174 -74.5t-202 -22.5 q-37 0 -77.5 2t-79.5 6t-73 8t-58 10zM319 428q0 -68 29 -114t90 -46q49 0 82 24.5t54.5 70t34 106.5t22.5 135l18 154h-12q-6 0 -12.5 1t-14.5 1q-135 0 -213 -92.5t-78 -239.5z" />
<glyph unicode="h" horiz-adv-x="1017" d="M41 0l168 1372l414 21l-27 -215l-131 -25l-35 -276h10q37 47 101.5 83.5t148.5 36.5q123 0 186.5 -70.5t63.5 -191.5q0 -35 -6 -71l-64 -445l76 -14l-24 -205q-16 -4 -39 -8t-46.5 -7t-44 -4t-30.5 -1q-176 0 -176 151v20.5t2 20.5l53 455q2 10 2 30q0 47 -21.5 76 t-70.5 29q-43 0 -71.5 -19.5t-47 -53.5t-30 -80t-17.5 -101l-61 -508h-283z" />
<glyph unicode="i" horiz-adv-x="501" d="M47 772l25 195l372 20l-94 -770l70 -12l-25 -205q-16 -4 -39.5 -8t-47 -7t-44 -4t-31.5 -1q-86 0 -131 37.5t-45 113.5q0 10 1 20.5t3 20.5l78 584zM133 1204l211 199l168 -199l-213 -196z" />
<glyph unicode="j" horiz-adv-x="563" d="M-94 -115q12 -4 31.5 -6t33.5 -2q63 0 93 33t40 100l93 738l-144 24l25 195l459 20l-45 -188l-103 -826q-20 -168 -103 -251.5t-243 -83.5q-35 0 -77 6t-60 12v229zM207 1204l211 199l168 -199l-213 -196z" />
<glyph unicode="k" d="M27 0l39 176l129 991l-93 17l25 188l369 21l-88 -719l12 -2l22 59l211 246h359l-342 -346l164 -410l75 -16l-24 -205q-20 -10 -63.5 -15t-65.5 -5q-76 0 -115 29.5t-66 99.5l-120 327h-9l-75 -78l-19 -139l82 -14l-24 -205h-383z" />
<glyph unicode="l" horiz-adv-x="501" d="M47 129q0 10 1 21.5t3 21.5l129 995l-94 17l25 184l372 21l-143 -1172l70 -12l-25 -205q-16 -4 -39.5 -8t-47.5 -7t-45.5 -4t-31.5 -1q-174 0 -174 149z" />
<glyph unicode="m" horiz-adv-x="1521" d="M41 0l100 758l-90 14l25 205q10 2 28.5 6t40 7t41 5t29.5 2q135 0 158 -120l4 -21h10q43 55 112.5 97t166.5 42q88 0 152.5 -37.5t88.5 -101.5h11q47 55 112.5 97t161.5 42q123 0 185.5 -64.5t62.5 -185.5q0 -16 -1 -31.5t-3 -31.5l-64 -463l78 -14l-25 -205 q-16 -4 -39.5 -8t-47 -7t-45 -4t-31.5 -1q-172 0 -172 151v19.5t2 19.5l55 473q0 6 1 12.5t1 12.5q0 43 -22.5 68.5t-63.5 25.5q-84 0 -114.5 -64.5t-47.5 -181.5l-63 -516h-283l78 643q2 6 2 13.5v13.5q0 41 -21.5 66.5t-64.5 25.5q-82 0 -114 -61.5t-48 -184.5l-63 -516 h-283z" />
<glyph unicode="n" horiz-adv-x="1017" d="M41 0l100 758l-90 14l25 205q23 4 66.5 12t78.5 8q66 0 108 -29.5t46 -88.5l2 -25h8q49 57 119.5 99t175.5 42q129 0 192.5 -71.5t63.5 -194.5q0 -16 -1 -32.5t-3 -32.5l-64 -445l78 -14l-24 -205q-16 -4 -40 -8t-47.5 -7t-45 -4t-31.5 -1q-172 0 -172 153v18.5t2 18.5 l55 463q2 10 2 20.5v14.5q0 43 -22.5 68.5t-69.5 25.5q-43 0 -72.5 -19.5t-48 -53.5t-30 -80t-17.5 -101l-61 -508h-283z" />
<glyph unicode="o" horiz-adv-x="952" d="M29 393q0 135 34.5 246t102 189.5t165 122.5t220.5 44q195 0 291 -112.5t96 -296.5q0 -139 -36 -252t-103.5 -190.5t-165.5 -119.5t-223 -42q-197 0 -289 113.5t-92 297.5zM317 406q0 -84 29 -139.5t103 -55.5q55 0 94 30.5t62.5 80t34.5 114t11 131.5q0 86 -29.5 141.5 t-105.5 55.5q-55 0 -93 -31t-61.5 -81t-34 -114t-10.5 -132z" />
<glyph unicode="p" horiz-adv-x="987" d="M-12 -350l37 188l114 920l-65 14l24 205q23 4 52.5 12t64.5 8q127 0 145 -116l2 -25h9q20 23 50 47.5t65.5 45t78.5 33.5t94 13q76 0 135.5 -28.5t98.5 -78.5t59.5 -118t20.5 -147q0 -156 -44 -273t-125 -194.5t-193.5 -116.5t-250.5 -39h-43l-14 -121l88 -16l-24 -193z M348 221q10 -2 19 -2q8 -2 16 -2h16q68 0 120 29.5t89 80t55.5 118t18.5 143.5t-26.5 125t-86.5 49q-53 0 -88 -33t-57.5 -87t-36.5 -123.5t-22 -145.5q-4 -45 -9.5 -86t-7.5 -66z" />
<glyph unicode="q" horiz-adv-x="989" d="M29 344q0 141 38.5 261t117.5 207t200 135t285 48q90 0 172 -8t129 -16l-41 -176l-139 -1127l-373 -20l26 213l88 16l25 197h-12q-6 -6 -24.5 -21.5t-47.5 -31t-66.5 -27.5t-84.5 -12q-72 0 -127.5 26.5t-92 74.5t-55 114.5t-18.5 146.5zM319 377q0 -72 25 -117t82 -45 q49 0 85 32t60.5 86t39 123.5t24.5 145.5q2 12 4 33.5t4 44t4 43.5t2 33q-10 0 -18 2q-8 0 -17.5 1t-17.5 1q-72 0 -124 -31t-86 -83t-50.5 -121.5t-16.5 -147.5z" />
<glyph unicode="r" horiz-adv-x="679" d="M41 0l100 760l-88 12l25 205l60 12t75 8q66 0 110 -29.5t52 -88.5l4 -25h10q41 61 115 101t196 40v-266q-6 2 -27.5 4t-35.5 2q-129 0 -183.5 -67.5t-70.5 -196.5l-33 -254l80 -12l-27 -205h-362z" />
<glyph unicode="s" horiz-adv-x="870" d="M4 29l55 309h205v-133q12 -2 23 -2q10 -2 20 -2h19q29 0 57.5 4t52 13t37.5 25.5t14 41.5q0 27 -29.5 48t-73.5 42.5t-96 46t-96.5 59.5t-74 81t-29.5 112q0 88 38 149.5t100.5 98t142.5 54t163 17.5q100 0 187.5 -14t130.5 -27l-59 -311h-205v129q-10 2 -28.5 4t-43.5 2 q-47 0 -89 -15.5t-42 -58.5q0 -27 29.5 -47t74.5 -41.5t96.5 -45t96.5 -57.5t74.5 -81t29.5 -113q0 -96 -38.5 -159.5t-103 -103.5t-146.5 -56t-166 -16q-47 0 -98.5 5t-97.5 12t-81 15.5t-49 14.5z" />
<glyph unicode="t" horiz-adv-x="587" d="M49 748l27 215l102 14l64 213l264 106l-41 -319h158l-27 -229h-154l-49 -390q-2 -12 -3 -30.5t-1 -26.5q0 -53 31 -73.5t84 -20.5q14 0 29.5 2t29.5 6l-61 -215q-16 -6 -50 -12t-87 -6q-135 0 -202 70.5t-67 199.5q0 16 1 39.5t5 46.5l52 410h-105z" />
<glyph unicode="u" horiz-adv-x="1017" d="M57 770l25 205q16 4 39.5 8t47.5 7t45.5 4t31.5 1q174 0 174 -155v-16.5t-2 -18.5l-58 -477q-2 -8 -2 -23q0 -43 25 -67.5t70 -24.5q43 0 71.5 20.5t47 54.5t29.5 80t17 99l35 281l-73 14l24 213h359l-101 -758l90 -14l-24 -205q-23 -4 -61 -12.5t-72 -8.5q-66 0 -111 30 t-53 89l-4 25h-9q-45 -59 -120.5 -100t-171.5 -41q-127 0 -193.5 68.5t-66.5 191.5q0 16 2 38.5t6 40.5l61 437z" />
<glyph unicode="v" horiz-adv-x="917" d="M33 772l24 195l308 20l59 -684l-8 -74h8q16 35 50 124t69 192q12 33 22 68.5t18.5 65.5t13.5 52.5t7 30.5v215q27 4 55 10q23 4 51.5 7t55.5 3q86 0 122 -38.5t36 -104.5q0 -76 -39 -187.5t-99 -234.5q-57 -121 -125.5 -234.5t-119.5 -197.5h-332l-115 760z" />
<glyph unicode="w" horiz-adv-x="1409" d="M37 772l24 195l308 20l39 -684l-9 -74h9q8 18 21 51t28.5 74t33 89.5t33.5 95.5q29 80 43.5 138t20.5 85v215q27 4 53 10q23 4 51.5 7t55.5 3q86 0 122.5 -37.5t36.5 -103.5q0 -31 -6 -54.5t-14 -56.5l33 -442l-9 -74h9q8 18 21 49t29.5 71t33 86t32.5 93 q29 84 41.5 138.5t22.5 95.5v215q27 4 53 10q23 4 51.5 7t55.5 3q86 0 122.5 -37.5t36.5 -103.5q0 -78 -43 -193.5t-102 -242.5q-55 -117 -115.5 -227.5t-107.5 -192.5h-320l-29 358l11 74h-11q-18 -49 -43.5 -110.5t-52 -121t-51.5 -113.5t-43 -87h-319l-95 760z" />
<glyph unicode="x" horiz-adv-x="942" d="M-51 0l301 524l-100 230l-80 16l24 205q31 10 73 15t64 5q76 0 119 -24.5t66 -96.5l53 -182l8 -63h10l23 63l74 133l65 152h334l-293 -453l119 -303l80 -16l-25 -205q-29 -10 -67.5 -15t-61.5 -5q-76 0 -119 25.5t-67 94.5l-86 219l-6 66h-11l-18 -66l-92 -169l-51 -150 h-336z" />
<glyph unicode="y" horiz-adv-x="915" d="M-55 -121q23 -2 30 -3t29 -1q98 0 178 54.5t135 172.5h-124l-101 658l-61 12l24 195l307 20l62 -643l-8 -74h8q16 35 45 102.5t63 162.5q29 82 43.5 134t26.5 93v215q29 4 57 10q25 4 53.5 7t55.5 3q86 0 120 -36.5t34 -102.5q0 -78 -40 -199.5t-98 -252.5 q-51 -113 -108.5 -220.5t-110.5 -185.5q-66 -98 -123 -165.5t-119.5 -109.5t-137 -60.5t-175.5 -20.5q-16 0 -36.5 2t-28.5 4v229z" />
<glyph unicode="z" horiz-adv-x="870" d="M-20 0l28 236l475 481l47 28l2 9h-206l-39 -107h-195v330h782l-28 -244l-484 -495l-43 -19l-2 -10h228l53 115h213q-8 -123 -29.5 -192t-60.5 -100.5t-97.5 -38.5t-140.5 -7q-57 0 -124.5 2t-136 5t-132 5t-110.5 2z" />
<glyph unicode="{" horiz-adv-x="466" d="M12 485v9l76 77q14 14 22.5 24.5t13.5 22t8 23.5t5 33l41 321q14 104 62.5 149.5t150.5 45.5h129l-20 -164h-94q-35 0 -48.5 -12.5t-17.5 -48.5l-41 -324q-4 -35 -12 -57.5t-39 -55.5l-39 -39l29 -40q16 -23 21 -40.5t5 -35.5v-16.5t-2 -18.5l-39 -324q-2 -8 -2 -22 q0 -41 53 -41h95l-21 -162h-129q-88 0 -129 35t-41 113q0 10 1 22t3 25l39 321q2 10 3 19.5t1 17.5q0 16 -6 29.5t-22 36.5z" />
<glyph unicode="|" horiz-adv-x="372" d="M12 -264l178 1454h168l-178 -1454h-168z" />
<glyph unicode="}" horiz-adv-x="466" d="M-57 -211l20 162h92q35 0 49.5 13t18.5 50l39 324q2 18 5 31.5t8 26t14.5 24.5t25.5 29l39 40l-29 39q-16 23 -23 39.5t-7 34.5q0 10 1 19.5t3 19.5l41 324q0 6 1 11t1 9q0 25 -13.5 33t-42.5 8h-94l21 164h131q88 0 129 -35t41 -113v-22t-2 -25l-37 -290q-2 -10 -4 -35 t-2 -31q0 -16 4 -30.5t20 -37.5l58 -77v-9l-78 -77q-29 -29 -36 -49.5t-11 -53.5l-39 -321q-12 -104 -63.5 -149.5t-151.5 -45.5h-129z" />
<glyph unicode="~" d="M96 479l21 170q10 6 30.5 16.5t50 21.5t65.5 18.5t75 7.5q43 0 86 -13.5t87 -30t87 -29.5t84 -13q66 0 124 24.5t91 44.5l-23 -170q-8 -6 -28.5 -17t-49 -21.5t-63.5 -17.5t-74 -7q-43 0 -86 13t-88 29.5t-89 30t-87 13.5q-63 0 -122.5 -23.5t-90.5 -46.5z" />
<glyph unicode="&#xa1;" horiz-adv-x="505" d="M-55 -319l180 935h237l-126 -935h-291zM137 844q0 63 38 107t114 44q59 0 95 -35.5t36 -91.5q0 -74 -43 -112.5t-113 -38.5q-57 0 -92 35.5t-35 91.5z" />
<glyph unicode="&#xa2;" d="M88 453q0 141 35 253.5t99.5 193.5t153.5 129t199 65l27 202h143l-24 -196q33 -2 69.5 -5t71.5 -8.5t65.5 -12.5t53.5 -13l-47 -328h-213v123q-8 2 -25.5 3t-31.5 1q-61 0 -112.5 -29.5t-88.5 -81t-57.5 -120t-20.5 -148.5q0 -121 52 -189.5t167 -68.5q39 0 78 9.5 t75 25.5t64.5 35.5t46.5 42.5v-264q-45 -31 -111.5 -54.5t-172.5 -33.5l-25 -197h-143l24 203q-158 25 -255 142.5t-97 320.5z" />
<glyph unicode="&#xa3;" d="M6 0l37 203l121 30l29 242h-160l39 143h139l10 93q23 205 141.5 298t315.5 93q37 0 80 -3t87 -8.5t83 -12.5t67 -15l-61 -328h-205v127h-31q-98 0 -138 -41t-48 -112l-10 -91h368l-36 -143h-351l-28 -235h270l168 14l-31 -254h-856z" />
<glyph unicode="&#xa4;" d="M53 283l137 125q-16 27 -25 67.5t-9 81.5q0 59 15 114.5t50 102.5l-98 117l127 117l96 -121q41 27 90 37t96 10q94 0 166 -45l138 127l108 -121l-139 -125q39 -72 39 -154q0 -125 -70 -219l94 -112l-123 -117l-94 113q-41 -25 -90 -34t-96 -9q-43 0 -88 12t-80 35 l-135 -123zM322 567q0 -70 45 -120t116 -50q41 0 77 16.5t62.5 44t42 64.5t15.5 80q0 70 -48 121t-116 51q-41 0 -77 -16.5t-62.5 -44t-40.5 -65.5t-14 -81z" />
<glyph unicode="&#xa5;" d="M27 332l34 143h236l-43 137h-193l35 142h115l-105 329h302l86 -376l4 -64h8l20 64l103 202l57 174h324l-187 -329h133l-32 -142h-176l-82 -137h256l-33 -143h-277l-41 -332h-292l40 332h-292z" />
<glyph unicode="&#xa6;" horiz-adv-x="372" d="M12 -264l76 612h168l-76 -612h-168zM117 580l73 610h168l-73 -610h-168z" />
<glyph unicode="&#xa7;" horiz-adv-x="757" d="M-10 -205l43 277h141v-142h43q35 0 68.5 5.5t59.5 19.5t42 37.5t16 58.5q0 43 -29.5 76t-94.5 74q-102 63 -164 128.5t-62 168.5q0 94 43 156.5t107 115.5q-43 59 -43 141q0 76 30.5 132.5t83 93.5t119 54t137.5 17q59 0 126 -7t120 -21l-47 -273h-145v142q-8 2 -26.5 2 h-25.5q-37 0 -69.5 -6.5t-59 -20.5t-42 -37.5t-15.5 -58.5q0 -43 32 -76t99 -74q98 -63 157.5 -125.5t59.5 -163.5q0 -94 -42 -159.5t-103 -118.5q18 -29 29.5 -63.5t11.5 -75.5q0 -76 -30 -132.5t-80 -93t-114.5 -55t-134.5 -18.5q-84 0 -145 6t-96 16zM231 516 q0 -49 39 -85t111 -83l55 -37q35 33 57.5 70t22.5 82q0 47 -35 85t-104 81l-64 39q-39 -35 -60.5 -71t-21.5 -81z" />
<glyph unicode="&#xa8;" horiz-adv-x="1011" d="M375 1120l33 266h170l-33 -266h-170zM645 1120l33 266h168l-33 -266h-168z" />
<glyph unicode="&#xa9;" horiz-adv-x="1048" d="M84 899q0 104 37 195.5t101.5 159t149.5 106.5t183 39t184 -39t150.5 -106.5t102.5 -158.5t38 -196q0 -104 -38 -194.5t-102.5 -158t-150.5 -106.5t-184 -39t-183 39t-149.5 106.5t-101.5 158t-37 194.5zM186 899q0 -84 29 -155.5t79 -126t116.5 -85t144.5 -30.5 t145.5 30.5t118.5 85t80 126t29 155.5q0 82 -29 153.5t-80 126t-118.5 86t-145.5 31.5t-144.5 -31.5t-116.5 -86t-79 -126t-29 -153.5zM326 848q0 156 84 242t213 86q35 0 73.5 -5.5t73.5 -11.5l-22 -184h-103v88h-14q-70 0 -117 -52.5t-47 -146.5q0 -57 29.5 -96t85.5 -39 q39 0 77.5 17.5t57.5 37.5v-122q-23 -16 -66 -33t-102 -17q-98 0 -160.5 64.5t-62.5 171.5z" />
<glyph unicode="&#xaa;" horiz-adv-x="602" d="M63 807q0 88 25 160.5t73 125t118.5 81t160.5 28.5q51 0 107.5 -3t89.5 -7l-23 -102l-43 -361l39 -8l-14 -125q-10 -4 -30.5 -8t-43.5 -4q-90 0 -102 84l-4 26h-8q-16 -41 -58.5 -74.5t-109.5 -33.5q-86 0 -131.5 61.5t-45.5 159.5zM240 829q0 -41 14 -67.5t49 -26.5 q31 0 53.5 18.5t38 49.5t23.5 73t14 89l10 92h-10q-4 0 -10 1t-10 1q-86 0 -129 -65.5t-43 -164.5z" />
<glyph unicode="&#xab;" horiz-adv-x="1026" d="M61 553l471 465l103 -129l-352 -336l268 -356l-135 -111zM451 553l469 465l104 -129l-352 -336l268 -356l-135 -111z" />
<glyph unicode="&#xac;" d="M109 653l18 164h772l-57 -465h-166l39 301h-606z" />
<glyph unicode="&#xad;" horiz-adv-x="626" d="M61 412l21 163h487l-20 -163h-488z" />
<glyph unicode="&#xae;" horiz-adv-x="1048" d="M84 899q0 104 37 195.5t101.5 159t149.5 106.5t183 39t184 -39t150.5 -106.5t102.5 -158.5t38 -196q0 -104 -38 -194.5t-102.5 -158t-150.5 -106.5t-184 -39t-183 39t-149.5 106.5t-101.5 158t-37 194.5zM186 899q0 -84 29 -155.5t79 -126t116.5 -85t144.5 -30.5 t145.5 30.5t118.5 85t80 126t29 155.5q0 82 -29 153.5t-80 126t-118.5 86t-145.5 31.5t-144.5 -31.5t-116.5 -86t-79 -126t-29 -153.5zM338 627l16 69l47 369l-36 8l12 94h246q68 0 113.5 -34.5t45.5 -104.5q0 -61 -28.5 -96t-71.5 -49v-9q25 -10 37 -30.5t16 -67.5v-51 l39 -6l-12 -92h-150l-8 145q-4 39 -17.5 52.5t-47.5 13.5h-37l-27 -211h-137zM514 930h59q33 0 55.5 16.5t22.5 57.5q0 57 -61 57h-62z" />
<glyph unicode="&#xaf;" horiz-adv-x="1011" d="M322 1180l20 170h561l-20 -170h-561z" />
<glyph unicode="&#xb0;" horiz-adv-x="602" d="M94 881q0 143 74 232t207 89q104 0 155.5 -59.5t51.5 -157.5q0 -152 -74 -239t-209 -87q-106 0 -155.5 62t-49.5 160zM152 465l145 141l119 -141l-148 -133zM250 885q0 -43 15.5 -73t53.5 -30q31 0 51.5 16.5t33 44t17.5 61.5t5 71q0 45 -15.5 74.5t-54.5 29.5 q-31 0 -51 -17.5t-32.5 -45t-17.5 -62t-5 -69.5z" />
<glyph unicode="&#xb1;" d="M43 0l20 164h775l-21 -164h-774zM113 604l20 164h303l39 313h166l-39 -313h303l-20 -164h-303l-39 -317h-166l39 317h-303z" />
<glyph unicode="&#xb2;" horiz-adv-x="518" d="M41 594l16 139q88 49 146.5 85t94.5 65.5t51.5 54.5t15.5 51q0 41 -30 58.5t-79 17.5h-14l-39 -109h-103v215q41 10 90.5 17.5t94.5 7.5q100 0 168.5 -46t68.5 -142q0 -86 -52 -149.5t-179 -127.5v-8h135l94 8l-16 -137h-463z" />
<glyph unicode="&#xb3;" horiz-adv-x="522" d="M55 604v137q37 -14 82 -22t90 -8q14 0 35 2t41.5 9t34.5 20.5t14 35.5q0 41 -29.5 53.5t-82.5 12.5h-86l12 102h86q45 0 83 13.5t38 54.5q0 43 -33 54t-68 11h-16t-23 -2l-24 -73h-107v176q94 25 195 24q49 0 92 -9t76 -28.5t52.5 -50.5t19.5 -74q0 -53 -26 -85.5 t-73 -53.5v-8q29 -16 52.5 -45t23.5 -80q0 -55 -26.5 -92t-69.5 -58.5t-97.5 -29.5t-107.5 -8q-45 0 -89 8t-69 14z" />
<glyph unicode="&#xb4;" horiz-adv-x="1011" d="M352 1184l441 217l61 -191l-442 -108z" />
<glyph unicode="&#xb5;" horiz-adv-x="1017" d="M-20 -342l38 174l119 926l-74 12l25 205q16 2 40 6t47.5 7t45 5t31.5 2q174 0 174 -155v-16.5t-2 -18.5l-55 -457q-2 -6 -3 -22.5t-1 -20.5q0 -43 24.5 -67.5t69.5 -24.5q43 0 71.5 20.5t47 54.5t29.5 80t18 99l28 281l-73 14l24 213h359l-95 -758l90 -14l-24 -205 q-23 -4 -60.5 -12.5t-72.5 -8.5q-66 0 -111 30t-53 89l-4 25h-8q-35 -59 -96.5 -99t-133.5 -40q-23 0 -36 2t-35 6l-43 -332h-301z" />
<glyph unicode="&#xb6;" horiz-adv-x="950" d="M94 737q0 186 114 298t318 112h490l-19 -148l-100 -14l-166 -1343h-156l166 1343h-143l-166 -1343h-254l19 143l98 18l80 643q-141 10 -211 87t-70 204z" />
<glyph unicode="&#xb7;" horiz-adv-x="407" d="M72 561q0 74 42 114t111 40q55 0 92 -35t37 -92q0 -68 -39.5 -110t-113.5 -42q-59 0 -94 35t-35 90z" />
<glyph unicode="&#xb8;" horiz-adv-x="1011" d="M233 -340l37 107q16 -4 41 -7.5t49 -3.5q35 0 60.5 8.5t25.5 40.5q0 20 -16 31.5t-45 11.5q-18 0 -36.5 -2t-31.5 -4l48 158h131l-9 -66q53 -4 91 -36.5t38 -85.5q0 -43 -18 -75t-50 -53.5t-75 -31.5t-90 -10q-59 0 -96 7t-54 11z" />
<glyph unicode="&#xb9;" horiz-adv-x="495" d="M63 596l15 129h141l41 293l-6 2l-21 -37q-27 -18 -65.5 -30.5t-67.5 -20.5l-6 139q47 10 104.5 41t98.5 78h147l-65 -465h121l-15 -129h-422z" />
<glyph unicode="&#xba;" horiz-adv-x="589" d="M66 836q0 162 83.5 263t233.5 101q121 0 178 -67.5t57 -180.5q0 -172 -83.5 -269t-237.5 -97q-121 0 -176 68.5t-55 181.5zM242 840q0 -49 17 -82t63 -33q33 0 56 18.5t38.5 49t21.5 69.5t6 80q0 51 -18 84t-64 33q-35 0 -57 -18.5t-36.5 -49t-20.5 -70.5t-6 -81z" />
<glyph unicode="&#xbb;" horiz-adv-x="1026" d="M25 213l356 340l-268 352l133 113l354 -465l-469 -467zM414 213l354 340l-266 352l133 113l354 -465l-467 -467z" />
<glyph unicode="&#xbc;" horiz-adv-x="1167" d="M59 596l15 129h141l41 293l-6 2l-21 -37q-27 -18 -65.5 -30.5t-67.5 -20.5l-6 139q47 10 104.5 41t98.5 78h147l-65 -465h121l-15 -129h-422zM117 0l817 1190h137l-817 -1190h-137zM582 106l18 148l254 340h211l-45 -367h63l-14 -121h-63l-13 -106h-151l12 106h-272z M715 227h155l27 213l16 37h-8l-160 -231l-30 -13v-6z" />
<glyph unicode="&#xbd;" horiz-adv-x="1202" d="M66 596l14 129h141l41 293l-6 2l-20 -37q-27 -18 -66 -30.5t-68 -20.5l-6 139q47 10 104.5 41t98.5 78h147l-65 -465h121l-15 -129h-421zM117 0l817 1190h137l-817 -1190h-137zM635 0l16 139q88 49 146.5 86t94.5 67t51 55.5t15 51.5q0 41 -29.5 58.5t-78.5 17.5h-14 l-39 -108h-103v215q41 10 90.5 17t94.5 7q100 0 168.5 -46t68.5 -142q0 -86 -52 -151.5t-179 -129.5v-8h135l94 8l-16 -137h-463z" />
<glyph unicode="&#xbe;" horiz-adv-x="1099" d="M61 604v137q37 -14 82 -22t90 -8q14 0 35 2t41.5 9t34.5 20.5t14 35.5q0 41 -29.5 53.5t-82.5 12.5h-86l12 102h86q45 0 83 13.5t38 54.5q0 43 -33 54t-67 11h-16.5t-22.5 -2l-25 -73h-106v176q94 25 194 24q49 0 92 -9t76 -28.5t52.5 -50.5t19.5 -74q0 -53 -25.5 -85.5 t-73.5 -53.5v-8q29 -16 52.5 -45t23.5 -80q0 -55 -26.5 -92t-69.5 -58.5t-97.5 -29.5t-107.5 -8q-45 0 -89 8t-69 14zM104 0l818 1190h135l-817 -1190h-136zM522 106l19 148l256 340h209l-45 -367h63l-14 -121h-64l-12 -106h-150l13 106h-275zM657 227h156l27 213l14 37h-8 l-160 -231l-29 -13v-6z" />
<glyph unicode="&#xbf;" horiz-adv-x="823" d="M-29 25q0 82 32 153.5t86 127.5t127 97t157 62l35 149h229l-41 -299q-59 -10 -118.5 -29.5t-106.5 -52t-76 -78.5t-29 -110q0 -70 44 -107.5t112 -37.5h18l58 178h188v-379q-68 -18 -140.5 -28.5t-148.5 -10.5q-90 0 -167.5 24.5t-135 70.5t-90.5 114t-33 156zM410 842 q0 68 39.5 109.5t113.5 41.5q59 0 94 -34.5t35 -90.5q0 -74 -44 -113.5t-113 -39.5q-55 0 -90 34.5t-35 92.5z" />
<glyph unicode="&#xc0;" horiz-adv-x="1155" d="M-51 0l401 1057l-78 16l29 223h610l123 -1060l72 -13l-27 -223h-381l13 172l-9 145h-311l-26 -81l69 -13l-26 -223h-459zM418 1485l104 190l389 -217l-82 -82zM477 569h209l-33 441v82h-10l-18 -82z" />
<glyph unicode="&#xc1;" horiz-adv-x="1155" d="M-51 0l401 1057l-78 16l29 223h610l123 -1060l72 -13l-27 -223h-381l13 172l-9 145h-311l-26 -81l69 -13l-26 -223h-459zM422 1458l440 217l62 -190l-443 -109zM477 569h209l-33 441v82h-10l-18 -82z" />
<glyph unicode="&#xc2;" horiz-adv-x="1155" d="M-51 0l401 1057l-78 16l29 223h610l123 -1060l72 -13l-27 -223h-381l13 172l-9 145h-311l-26 -81l69 -13l-26 -223h-459zM360 1468l256 170q16 12 34 16.5t30 4.5q14 0 30.5 -5t30.5 -16l234 -170l-84 -86l-223 91l-246 -91zM477 569h209l-33 441v82h-10l-18 -82z" />
<glyph unicode="&#xc3;" horiz-adv-x="1155" d="M-51 0l401 1057l-78 16l29 223h610l123 -1060l72 -13l-27 -223h-381l13 172l-9 145h-311l-26 -81l69 -13l-26 -223h-459zM340 1448l45 154q12 8 60.5 26.5t119.5 18.5q27 0 57.5 -5.5t64.5 -11.5t66.5 -11t63.5 -5q51 0 94 9t72 19l-41 -153q-14 -8 -62.5 -26.5 t-117.5 -18.5q-27 0 -58.5 5t-65.5 11t-67.5 11.5t-62.5 5.5q-59 0 -99 -10.5t-69 -18.5zM477 569h209l-33 441v82h-10l-18 -82z" />
<glyph unicode="&#xc4;" horiz-adv-x="1155" d="M-51 0l401 1057l-78 16l29 223h610l123 -1060l72 -13l-27 -223h-381l13 172l-9 145h-311l-26 -81l69 -13l-26 -223h-459zM442 1399l33 266h170l-33 -266h-170zM477 569h209l-33 441v82h-10l-18 -82zM713 1399l32 266h168l-32 -266h-168z" />
<glyph unicode="&#xc5;" horiz-adv-x="1155" d="M-51 0l401 1057l-78 16l29 223h610l123 -1060l72 -13l-27 -223h-381l13 172l-9 145h-311l-26 -81l69 -13l-26 -223h-459zM459 1503q0 88 60.5 140.5t166.5 52.5q94 0 147.5 -43t53.5 -115q0 -88 -60.5 -137t-167.5 -49q-94 0 -147 43t-53 108zM477 569h209l-33 441v82 h-10l-18 -82zM616 1516q0 -20 13.5 -36t38.5 -16q35 0 50 20.5t15 43.5t-13 39t-42 16q-31 0 -46.5 -19t-15.5 -48z" />
<glyph unicode="&#xc6;" horiz-adv-x="1597" d="M-55 0l399 1059l-76 14l29 223h1270l-45 -407h-222v147h-256l-10 -258h420l-12 -241h-418l-10 -277h250l36 148h218v-408h-840l27 152l8 186h-334l-39 -102l68 -13l-27 -223h-436zM471 590h254l27 444h-117l-8 -39z" />
<glyph unicode="&#xc7;" horiz-adv-x="1034" d="M41 524q0 184 51 330.5t143.5 249t220.5 157t283 54.5q92 0 186.5 -16.5t153.5 -32.5l-69 -422h-228v205h-37q-168 0 -269 -127t-101 -357q0 -66 15.5 -123t46 -99t77.5 -66.5t113 -24.5q106 0 188 46t125 97v-305q-49 -35 -133 -68.5t-213 -39.5l-6 -48q53 -4 91 -36.5 t38 -85.5q0 -43 -18.5 -75t-50.5 -53.5t-75 -31.5t-90 -10q-59 0 -96 7t-53 11l37 107q16 -4 40.5 -7.5t49.5 -3.5q35 0 60.5 8.5t25.5 40.5q0 20 -16.5 31.5t-45.5 11.5q-18 0 -36.5 -2t-30.5 -4l43 148q-96 14 -174 57t-132.5 111.5t-84 161t-29.5 204.5z" />
<glyph unicode="&#xc8;" horiz-adv-x="1040" d="M29 0l37 170l112 887l-82 16l29 223h940l-68 -407h-219v147h-291l-30 -258h467l-31 -241h-467l-35 -277h299l51 148h195v-408h-907zM418 1485l104 190l389 -217l-82 -82z" />
<glyph unicode="&#xc9;" horiz-adv-x="1040" d="M29 0l37 170l112 887l-82 16l29 223h940l-68 -407h-219v147h-291l-30 -258h467l-31 -241h-467l-35 -277h299l51 148h195v-408h-907zM412 1458l440 217l61 -190l-442 -109z" />
<glyph unicode="&#xca;" horiz-adv-x="1040" d="M29 0l37 170l112 887l-82 16l29 223h940l-68 -407h-219v147h-291l-30 -258h467l-31 -241h-467l-35 -277h299l51 148h195v-408h-907zM319 1468l256 170q16 12 34 16.5t30 4.5q14 0 30.5 -5t30.5 -16l234 -170l-84 -86l-223 91l-246 -91z" />
<glyph unicode="&#xcb;" horiz-adv-x="1040" d="M29 0l37 170l112 887l-82 16l29 223h940l-68 -407h-219v147h-291l-30 -258h467l-31 -241h-467l-35 -277h299l51 148h195v-408h-907zM426 1399l33 266h170l-33 -266h-170zM696 1399l33 266h168l-33 -266h-168z" />
<glyph unicode="&#xcc;" horiz-adv-x="557" d="M29 0l37 170l112 887l-82 16l29 223h395l-131 -1058l82 -15l-27 -223h-415zM115 1485l104 190l389 -217l-82 -82z" />
<glyph unicode="&#xcd;" horiz-adv-x="557" d="M29 0l37 170l112 887l-82 16l29 223h395l-131 -1058l82 -15l-27 -223h-415zM123 1458l440 217l62 -190l-443 -109z" />
<glyph unicode="&#xce;" horiz-adv-x="557" d="M29 0l37 170l112 887l-82 16l29 223h395l-131 -1058l82 -15l-27 -223h-415zM55 1468l256 170q16 12 33.5 16.5t30.5 4.5q14 0 30.5 -5t30.5 -16l234 -170l-84 -86l-224 91l-245 -91z" />
<glyph unicode="&#xcf;" horiz-adv-x="557" d="M29 0l37 170l112 887l-82 16l29 223h395l-131 -1058l82 -15l-27 -223h-415zM145 1401l33 266h170l-33 -266h-170zM416 1401l33 266h167l-32 -266h-168z" />
<glyph unicode="&#xd0;" horiz-adv-x="1163" d="M2 657l131 27l47 373l-84 16l29 223h473q268 0 406.5 -138t138.5 -406q0 -375 -168 -563.5t-479 -188.5h-467l39 170l41 334l-93 -21zM391 260h109q162 0 240.5 119t78.5 366q0 145 -56 218t-179 73h-97l-34 -284l155 32l15 -170l-193 -43z" />
<glyph unicode="&#xd1;" horiz-adv-x="1216" d="M29 0l37 168l114 887l-88 18l29 223h473l211 -890h12v79l41 574l-82 14l29 223h403l-39 -170l-145 -1126h-377l-213 911h-10v-86l-45 -587l82 -15l-27 -223h-405zM389 1448l45 154q14 8 61.5 26.5t118.5 18.5q27 0 57.5 -5.5t64.5 -11.5t67 -11t63 -5q86 0 166 28 l-41 -153q-14 -8 -62 -26.5t-118 -18.5q-53 0 -124 16.5t-130 16.5t-99 -10.5t-69 -18.5z" />
<glyph unicode="&#xd2;" horiz-adv-x="1181" d="M25 518q0 184 45 331.5t128 251t202.5 159t267.5 55.5q119 0 207 -38t146 -107.5t88 -168t30 -219.5q0 -186 -44 -334.5t-127 -252t-201 -158.5t-267 -55q-238 0 -356.5 144t-118.5 392zM358 520q0 -55 8.5 -105t29 -88t52 -60.5t80.5 -22.5q74 0 126.5 44t86 116.5 t49 168t15.5 197.5q0 57 -9.5 108.5t-28.5 90.5t-52 61.5t-82 22.5q-74 0 -126 -45t-85 -119t-48.5 -170.5t-15.5 -198.5zM451 1485l104 190l389 -217l-82 -82z" />
<glyph unicode="&#xd3;" horiz-adv-x="1181" d="M25 518q0 184 45 331.5t128 251t202.5 159t267.5 55.5q119 0 207 -38t146 -107.5t88 -168t30 -219.5q0 -186 -44 -334.5t-127 -252t-201 -158.5t-267 -55q-238 0 -356.5 144t-118.5 392zM358 520q0 -55 8.5 -105t29 -88t52 -60.5t80.5 -22.5q74 0 126.5 44t86 116.5 t49 168t15.5 197.5q0 57 -9.5 108.5t-28.5 90.5t-52 61.5t-82 22.5q-74 0 -126 -45t-85 -119t-48.5 -170.5t-15.5 -198.5zM446 1458l443 217l59 -190l-440 -109z" />
<glyph unicode="&#xd4;" horiz-adv-x="1181" d="M25 518q0 184 45 331.5t128 251t202.5 159t267.5 55.5q119 0 207 -38t146 -107.5t88 -168t30 -219.5q0 -186 -44 -334.5t-127 -252t-201 -158.5t-267 -55q-238 0 -356.5 144t-118.5 392zM358 520q0 -55 8.5 -105t29 -88t52 -60.5t80.5 -22.5q74 0 126.5 44t86 116.5 t49 168t15.5 197.5q0 57 -9.5 108.5t-28.5 90.5t-52 61.5t-82 22.5q-74 0 -126 -45t-85 -119t-48.5 -170.5t-15.5 -198.5zM381 1468l256 170q16 12 33.5 16.5t29.5 4.5q14 0 31 -5t31 -16l233 -170l-84 -86l-223 91l-246 -91z" />
<glyph unicode="&#xd5;" horiz-adv-x="1181" d="M25 518q0 184 45 331.5t128 251t202.5 159t267.5 55.5q119 0 207 -38t146 -107.5t88 -168t30 -219.5q0 -186 -44 -334.5t-127 -252t-201 -158.5t-267 -55q-238 0 -356.5 144t-118.5 392zM356 1448l43 154q14 8 61.5 26.5t121.5 18.5q25 0 56.5 -5.5t64 -11.5t65.5 -11 t63 -5q59 0 98.5 9t67.5 19l-41 -153q-14 -8 -62 -26.5t-118 -18.5q-53 0 -123.5 16.5t-130.5 16.5q-59 0 -98 -10.5t-68 -18.5zM358 520q0 -55 8.5 -105t29 -88t52 -60.5t80.5 -22.5q74 0 126.5 44t86 116.5t49 168t15.5 197.5q0 57 -9.5 108.5t-28.5 90.5t-52 61.5 t-82 22.5q-74 0 -126 -45t-85 -119t-48.5 -170.5t-15.5 -198.5z" />
<glyph unicode="&#xd6;" horiz-adv-x="1181" d="M25 518q0 184 45 331.5t128 251t202.5 159t267.5 55.5q119 0 207 -38t146 -107.5t88 -168t30 -219.5q0 -186 -44 -334.5t-127 -252t-201 -158.5t-267 -55q-238 0 -356.5 144t-118.5 392zM358 520q0 -55 8.5 -105t29 -88t52 -60.5t80.5 -22.5q74 0 126.5 44t86 116.5 t49 168t15.5 197.5q0 57 -9.5 108.5t-28.5 90.5t-52 61.5t-82 22.5q-74 0 -126 -45t-85 -119t-48.5 -170.5t-15.5 -198.5zM467 1399l33 266h168l-33 -266h-168zM735 1399l33 266h170l-33 -266h-170z" />
<glyph unicode="&#xd7;" d="M90 328l283 262l-217 262l127 117l219 -262l282 264l105 -127l-283 -260l223 -267l-129 -116l-223 266l-287 -262z" />
<glyph unicode="&#xd8;" horiz-adv-x="1181" d="M-10 -82l147 213q-57 70 -84.5 167t-27.5 220q0 184 45 331.5t128 251t202.5 159t267.5 55.5q147 0 250 -60l73 105h135l-120 -174q66 -70 99.5 -172.5t33.5 -231.5q0 -186 -44 -334.5t-127 -252t-201 -158.5t-267 -55q-168 0 -279 75l-96 -139h-135zM358 486.5 q0 -17.5 2 -33.5l383 551q-43 49 -110 49q-74 0 -126 -45t-85 -119t-48.5 -170t-15.5 -199v-33.5zM399 315q20 -35 51 -53t78 -18q74 0 126.5 44t86 116.5t49 168t15.5 197.5q0 29 -2 57.5t-8 55.5z" />
<glyph unicode="&#xd9;" horiz-adv-x="1153" d="M84 356q0 23 2 52.5t6 54.5l76 594l-84 16l29 223h393l-100 -827q-6 -53 -7 -78q0 -139 140 -139q92 0 133 53t53 160l72 594l-82 14l28 223h398l-105 -841q-29 -242 -155.5 -357.5t-364.5 -115.5q-215 0 -323.5 91t-108.5 283zM444 1485l105 190l389 -217l-82 -82z" />
<glyph unicode="&#xda;" horiz-adv-x="1153" d="M84 356q0 23 2 52.5t6 54.5l76 594l-84 16l29 223h393l-100 -827q-6 -53 -7 -78q0 -139 140 -139q92 0 133 53t53 160l72 594l-82 14l28 223h398l-105 -841q-29 -242 -155.5 -357.5t-364.5 -115.5q-215 0 -323.5 91t-108.5 283zM440 1458l443 217l59 -190l-440 -109z" />
<glyph unicode="&#xdb;" horiz-adv-x="1153" d="M84 356q0 23 2 52.5t6 54.5l76 594l-84 16l29 223h393l-100 -827q-6 -53 -7 -78q0 -139 140 -139q92 0 133 53t53 160l72 594l-82 14l28 223h398l-105 -841q-29 -242 -155.5 -357.5t-364.5 -115.5q-215 0 -323.5 91t-108.5 283zM375 1468l256 170q16 12 33.5 16.5 t29.5 4.5q14 0 30.5 -5t31.5 -16l233 -170l-84 -86l-223 91l-246 -91z" />
<glyph unicode="&#xdc;" horiz-adv-x="1153" d="M84 356q0 23 2 52.5t6 54.5l76 594l-84 16l29 223h393l-100 -827q-6 -53 -7 -78q0 -139 140 -139q92 0 133 53t53 160l72 594l-82 14l28 223h398l-105 -841q-29 -242 -155.5 -357.5t-364.5 -115.5q-215 0 -323.5 91t-108.5 283zM453 1399l32 266h168l-32 -266h-168z M721 1399l33 266h170l-33 -266h-170z" />
<glyph unicode="&#xdd;" horiz-adv-x="1042" d="M63 1073l29 223h328l94 -497v-82h10l21 84l149 325l54 170h364l-463 -843l-55 -453h-404l27 223l86 15l27 215l-174 602zM385 1458l442 217l60 -190l-441 -109z" />
<glyph unicode="&#xde;" horiz-adv-x="1075" d="M29 0l39 174l112 883l-84 16l29 223h397l-22 -170h170q182 0 288.5 -99t106.5 -279q0 -123 -38 -210t-104.5 -142.5t-156.5 -81t-195 -25.5h-174l-35 -289h-333zM430 547h119q86 0 141 39t55 141q0 74 -43 107.5t-120 33.5h-113z" />
<glyph unicode="&#xdf;" horiz-adv-x="1062" d="M43 0l37 176l72 572h-99l27 215l98 14l8 51q33 193 144.5 283t300.5 90q76 0 144.5 -22.5t119.5 -63.5t82 -100.5t31 -133.5q0 -84 -35 -145.5t-88 -114.5l-49 -49v-10l49 -64q49 -63 91 -142t42 -179t-33 -174t-89 -123t-133 -73.5t-163 -24.5q-16 0 -42 1t-52.5 4 t-52 6t-39.5 7l67 229q8 -4 36 -8t48 -4q66 0 114 41t48 119q0 66 -41 124t-94 134q-20 29 -37.5 55.5t-17.5 61.5q0 37 27.5 73.5t72.5 83.5q41 41 62.5 80t21.5 82q0 47 -32 76t-81 29q-70 0 -100.5 -49.5t-40.5 -129.5l-123 -997h-301z" />
<glyph unicode="&#xe0;" horiz-adv-x="1003" d="M29 350q0 145 41 264t119.5 204t193.5 131t262 46q86 0 178 -6t146 -10l-37 -168l-72 -594l66 -12l-25 -205q-16 -4 -51 -12t-70 -8q-80 0 -117.5 35.5t-50.5 101.5l-8 43h-10q-14 -33 -39 -65t-59.5 -57.5t-79.5 -40.5t-101 -15q-139 0 -212.5 101t-73.5 267zM317 385 q0 -70 24 -114t81 -44q51 0 87 30t60.5 81t39 119.5t24.5 146.5l18 152q-10 0 -18 2q-8 0 -16.5 1t-16.5 1q-72 0 -125 -29t-88 -79t-52.5 -118.5t-17.5 -148.5zM383 1208l104 191l390 -217l-82 -82z" />
<glyph unicode="&#xe1;" horiz-adv-x="1003" d="M29 350q0 145 41 264t119.5 204t193.5 131t262 46q86 0 178 -6t146 -10l-37 -168l-72 -594l66 -12l-25 -205q-16 -4 -51 -12t-70 -8q-80 0 -117.5 35.5t-50.5 101.5l-8 43h-10q-14 -33 -39 -65t-59.5 -57.5t-79.5 -40.5t-101 -15q-139 0 -212.5 101t-73.5 267zM317 385 q0 -70 24 -114t81 -44q51 0 87 30t60.5 81t39 119.5t24.5 146.5l18 152q-10 0 -18 2q-8 0 -16.5 1t-16.5 1q-72 0 -125 -29t-88 -79t-52.5 -118.5t-17.5 -148.5zM399 1192l443 217l59 -190l-440 -109z" />
<glyph unicode="&#xe2;" horiz-adv-x="1003" d="M29 350q0 145 41 264t119.5 204t193.5 131t262 46q86 0 178 -6t146 -10l-37 -168l-72 -594l66 -12l-25 -205q-16 -4 -51 -12t-70 -8q-80 0 -117.5 35.5t-50.5 101.5l-8 43h-10q-14 -33 -39 -65t-59.5 -57.5t-79.5 -40.5t-101 -15q-139 0 -212.5 101t-73.5 267zM317 385 q0 -70 24 -114t81 -44q51 0 87 30t60.5 81t39 119.5t24.5 146.5l18 152q-10 0 -18 2q-8 0 -16.5 1t-16.5 1q-72 0 -125 -29t-88 -79t-52.5 -118.5t-17.5 -148.5zM328 1210l256 170q16 12 33.5 16.5t29.5 4.5q14 0 30.5 -5t31.5 -16l233 -170l-84 -86l-223 90l-246 -90z" />
<glyph unicode="&#xe3;" horiz-adv-x="1003" d="M29 350q0 145 41 264t119.5 204t193.5 131t262 46q86 0 178 -6t146 -10l-37 -168l-72 -594l66 -12l-25 -205q-16 -4 -51 -12t-70 -8q-80 0 -117.5 35.5t-50.5 101.5l-8 43h-10q-14 -33 -39 -65t-59.5 -57.5t-79.5 -40.5t-101 -15q-139 0 -212.5 101t-73.5 267zM317 385 q0 -70 24 -114t81 -44q51 0 87 30t60.5 81t39 119.5t24.5 146.5l18 152q-10 0 -18 2q-8 0 -16.5 1t-16.5 1q-72 0 -125 -29t-88 -79t-52.5 -118.5t-17.5 -148.5zM326 1167l41 154q16 8 64 26.5t120 18.5q25 0 56.5 -5t64.5 -11.5t65.5 -11.5t63.5 -5q59 0 98 9.5t68 19.5 l-41 -154q-14 -8 -62.5 -26.5t-118.5 -18.5q-27 0 -58.5 5.5t-65 11.5t-66.5 11t-63 5q-59 0 -99.5 -10t-66.5 -19z" />
<glyph unicode="&#xe4;" horiz-adv-x="1003" d="M29 350q0 145 41 264t119.5 204t193.5 131t262 46q86 0 178 -6t146 -10l-37 -168l-72 -594l66 -12l-25 -205q-16 -4 -51 -12t-70 -8q-80 0 -117.5 35.5t-50.5 101.5l-8 43h-10q-14 -33 -39 -65t-59.5 -57.5t-79.5 -40.5t-101 -15q-139 0 -212.5 101t-73.5 267zM317 385 q0 -70 24 -114t81 -44q51 0 87 30t60.5 81t39 119.5t24.5 146.5l18 152q-10 0 -18 2q-8 0 -16.5 1t-16.5 1q-72 0 -125 -29t-88 -79t-52.5 -118.5t-17.5 -148.5zM410 1133l32 266h168l-32 -266h-168zM678 1133l33 266h170l-33 -266h-170z" />
<glyph unicode="&#xe5;" horiz-adv-x="1003" d="M29 350q0 145 41 264t119.5 204t193.5 131t262 46q86 0 178 -6t146 -10l-37 -168l-72 -594l66 -12l-25 -205q-16 -4 -51 -12t-70 -8q-80 0 -117.5 35.5t-50.5 101.5l-8 43h-10q-14 -33 -39 -65t-59.5 -57.5t-79.5 -40.5t-101 -15q-139 0 -212.5 101t-73.5 267zM317 385 q0 -70 24 -114t81 -44q51 0 87 30t60.5 81t39 119.5t24.5 146.5l18 152q-10 0 -18 2q-8 0 -16.5 1t-16.5 1q-72 0 -125 -29t-88 -79t-52.5 -118.5t-17.5 -148.5zM436 1225q0 88 60.5 140t167.5 52q94 0 147 -42.5t53 -114.5q0 -88 -60.5 -137.5t-166.5 -49.5 q-94 0 -147.5 43t-53.5 109zM594 1237q0 -20 13.5 -35.5t37.5 -15.5q35 0 50.5 20.5t15.5 42.5q0 23 -13.5 39.5t-42.5 16.5q-31 0 -46 -19.5t-15 -48.5z" />
<glyph unicode="&#xe6;" horiz-adv-x="1454" d="M18 254q0 109 52.5 182.5t137.5 119.5t191.5 68.5t216.5 28.5q66 170 197 256t299 86q154 0 245 -74.5t91 -203.5q0 -92 -42 -160t-107.5 -115t-145.5 -72.5t-156 -33.5l-137 -14q2 -35 21.5 -56.5t50.5 -34t69.5 -17.5t81.5 -5q6 0 18.5 1t16.5 3l37 102h197v-278 q-20 -8 -57.5 -18.5t-83.5 -18.5t-98 -13t-103 -5q-244 0 -355 147h-14q-55 -66 -132 -107.5t-187 -41.5q-68 0 -124.5 20t-96.5 57t-61.5 87.5t-21.5 109.5zM301 299q0 -43 22.5 -69.5t69.5 -26.5q86 0 132.5 76.5t56.5 195.5q-49 0 -98.5 -9t-90.5 -30.5t-66.5 -54.5 t-25.5 -82zM885 500q49 0 98 9t90 29.5t66.5 53.5t25.5 80q0 43 -22.5 71.5t-69.5 28.5q-86 0 -132 -76.5t-56 -195.5z" />
<glyph unicode="&#xe7;" horiz-adv-x="821" d="M23 408q0 135 40.5 243.5t115.5 185t179.5 117.5t231.5 41q53 0 96 -6t78 -12q37 -8 72 -19l-60 -319h-201v125h-24q-121 -10 -179.5 -100.5t-58.5 -227.5q0 -100 43 -160.5t142 -60.5q70 0 131 27.5t102 72.5v-241q-25 -23 -97.5 -53.5t-176.5 -36.5l-6 -50 q53 -4 91 -36.5t38 -85.5q0 -43 -18.5 -75t-50.5 -53.5t-75 -31.5t-90 -10q-59 0 -96 7t-53 11l36 107q16 -4 41 -7.5t50 -3.5q35 0 60.5 8.5t25.5 40.5q0 20 -16.5 31.5t-45.5 11.5q-18 0 -36.5 -2t-30.5 -4l43 150q-147 29 -224 139.5t-77 276.5z" />
<glyph unicode="&#xe8;" horiz-adv-x="931" d="M29 412q0 125 38.5 231.5t111.5 185t175.5 122.5t231.5 44q156 0 248 -75.5t92 -204.5q0 -90 -47.5 -150.5t-118 -99.5t-153.5 -59.5t-156 -26.5l-125 -12q2 -45 19 -75t48 -47.5t74 -24.5t92 -7h37l37 102h196v-278q-20 -8 -56 -18.5t-80 -18.5t-95 -13t-102 -5 q-223 0 -345 114.5t-122 315.5zM336 1206l104 191l389 -217l-81 -82zM338 539q164 16 238.5 54t74.5 103q0 35 -24.5 56.5t-69.5 21.5q-82 0 -138.5 -58.5t-74.5 -148.5z" />
<glyph unicode="&#xe9;" horiz-adv-x="931" d="M29 412q0 125 38.5 231.5t111.5 185t175.5 122.5t231.5 44q156 0 248 -75.5t92 -204.5q0 -90 -47.5 -150.5t-118 -99.5t-153.5 -59.5t-156 -26.5l-125 -12q2 -45 19 -75t48 -47.5t74 -24.5t92 -7h37l37 102h196v-278q-20 -8 -56 -18.5t-80 -18.5t-95 -13t-102 -5 q-223 0 -345 114.5t-122 315.5zM338 539q164 16 238.5 54t74.5 103q0 35 -24.5 56.5t-69.5 21.5q-82 0 -138.5 -58.5t-74.5 -148.5zM352 1180l441 217l61 -191l-442 -108z" />
<glyph unicode="&#xea;" horiz-adv-x="931" d="M29 412q0 125 38.5 231.5t111.5 185t175.5 122.5t231.5 44q156 0 248 -75.5t92 -204.5q0 -90 -47.5 -150.5t-118 -99.5t-153.5 -59.5t-156 -26.5l-125 -12q2 -45 19 -75t48 -47.5t74 -24.5t92 -7h37l37 102h196v-278q-20 -8 -56 -18.5t-80 -18.5t-95 -13t-102 -5 q-223 0 -345 114.5t-122 315.5zM272 1210l256 170q16 12 34 16.5t30 4.5q14 0 30.5 -5t30.5 -16l234 -170l-84 -86l-223 90l-246 -90zM338 539q164 16 238.5 54t74.5 103q0 35 -24.5 56.5t-69.5 21.5q-82 0 -138.5 -58.5t-74.5 -148.5z" />
<glyph unicode="&#xeb;" horiz-adv-x="931" d="M29 412q0 125 38.5 231.5t111.5 185t175.5 122.5t231.5 44q156 0 248 -75.5t92 -204.5q0 -90 -47.5 -150.5t-118 -99.5t-153.5 -59.5t-156 -26.5l-125 -12q2 -45 19 -75t48 -47.5t74 -24.5t92 -7h37l37 102h196v-278q-20 -8 -56 -18.5t-80 -18.5t-95 -13t-102 -5 q-223 0 -345 114.5t-122 315.5zM338 539q164 16 238.5 54t74.5 103q0 35 -24.5 56.5t-69.5 21.5q-82 0 -138.5 -58.5t-74.5 -148.5zM356 1133l33 266h168l-33 -266h-168zM625 1133l32 266h170l-32 -266h-170z" />
<glyph unicode="&#xec;" horiz-adv-x="501" d="M47 772l25 195l372 20l-94 -770l70 -12l-25 -205q-16 -4 -38.5 -8t-46 -7t-44 -4t-30.5 -1q-86 0 -132.5 36.5t-46.5 110.5q0 10 1 20.5t3 20.5l78 588zM74 1208l104 191l389 -217l-82 -82z" />
<glyph unicode="&#xed;" horiz-adv-x="501" d="M47 772l25 195l372 20l-94 -770l70 -12l-25 -205q-16 -4 -38.5 -8t-46 -7t-44 -4t-30.5 -1q-86 0 -132.5 36.5t-46.5 110.5q0 10 1 20.5t3 20.5l78 588zM51 1180l443 217l59 -191l-440 -108z" />
<glyph unicode="&#xee;" horiz-adv-x="501" d="M-14 1212l256 170q16 12 33.5 16.5t29.5 4.5q14 0 30.5 -5t31.5 -16l233 -170l-84 -86l-223 91l-246 -91zM47 772l25 195l372 20l-94 -770l70 -12l-25 -205q-16 -4 -38.5 -8t-46 -7t-44 -4t-30.5 -1q-86 0 -132.5 36.5t-46.5 110.5q0 10 1 20.5t3 20.5l78 588z" />
<glyph unicode="&#xef;" horiz-adv-x="501" d="M47 772l25 195l372 20l-94 -770l70 -12l-25 -205q-16 -4 -38.5 -8t-46 -7t-44 -4t-30.5 -1q-86 0 -132.5 36.5t-46.5 110.5q0 10 1 20.5t3 20.5l78 588zM68 1133l32 266h168l-32 -266h-168zM336 1133l33 266h170l-33 -266h-170z" />
<glyph unicode="&#xf0;" horiz-adv-x="960" d="M29 391q0 111 34.5 201t93 155.5t137.5 103.5t167 44l33 2l32 -14l6 6l-81 155l-172 -38l-17 170l113 24l-72 135l303 68l74 -137l176 39l12 -170l-120 -27q33 -70 66.5 -142.5t60 -147.5t44 -148.5t17.5 -143.5q0 -264 -135 -404t-377 -140q-98 0 -172 31.5t-124 87 t-74.5 130t-24.5 160.5zM313 399q0 -76 34 -131t112 -55q53 0 90 23.5t59.5 62.5t31.5 89t9 104q0 72 -30.5 125t-108.5 53q-51 0 -88 -21.5t-61.5 -58.5t-36 -86.5t-11.5 -104.5z" />
<glyph unicode="&#xf1;" horiz-adv-x="1017" d="M41 0l100 758l-90 14l25 205q23 4 66.5 12t78.5 8q66 0 108 -29.5t46 -88.5l2 -25h8q49 57 119.5 99t175.5 42q129 0 192.5 -71.5t63.5 -194.5q0 -16 -1 -32.5t-3 -32.5l-64 -445l78 -14l-24 -205q-16 -4 -40 -8t-47.5 -7t-45 -4t-31.5 -1q-172 0 -172 153v18.5t2 18.5 l55 463q2 10 2 20.5v14.5q0 43 -22.5 68.5t-69.5 25.5q-43 0 -72.5 -19.5t-48 -53.5t-30 -80t-17.5 -101l-61 -508h-283zM266 1167l43 154q14 8 62.5 26.5t120.5 18.5q53 0 121.5 -16.5t129.5 -16.5q59 0 98.5 9.5t65.5 19.5l-41 -154q-14 -8 -61 -26.5t-119 -18.5 q-53 0 -122.5 16.5t-129.5 16.5q-61 0 -101 -10t-67 -19z" />
<glyph unicode="&#xf2;" horiz-adv-x="952" d="M29 393q0 135 34.5 246t102 189.5t165 122.5t220.5 44q195 0 291 -112.5t96 -296.5q0 -139 -36 -252t-103.5 -190.5t-165.5 -119.5t-223 -42q-197 0 -289 113.5t-92 297.5zM317 406q0 -84 29 -139.5t103 -55.5q55 0 94 30.5t62.5 80t34.5 114t11 131.5q0 86 -29.5 141.5 t-105.5 55.5q-55 0 -93 -31t-61.5 -81t-34 -114t-10.5 -132zM336 1208l104 191l389 -217l-81 -82z" />
<glyph unicode="&#xf3;" horiz-adv-x="952" d="M29 393q0 135 34.5 246t102 189.5t165 122.5t220.5 44q195 0 291 -112.5t96 -296.5q0 -139 -36 -252t-103.5 -190.5t-165.5 -119.5t-223 -42q-197 0 -289 113.5t-92 297.5zM317 406q0 -84 29 -139.5t103 -55.5q55 0 94 30.5t62.5 80t34.5 114t11 131.5q0 86 -29.5 141.5 t-105.5 55.5q-55 0 -93 -31t-61.5 -81t-34 -114t-10.5 -132zM332 1184l442 217l60 -191l-441 -108z" />
<glyph unicode="&#xf4;" horiz-adv-x="952" d="M29 393q0 135 34.5 246t102 189.5t165 122.5t220.5 44q195 0 291 -112.5t96 -296.5q0 -139 -36 -252t-103.5 -190.5t-165.5 -119.5t-223 -42q-197 0 -289 113.5t-92 297.5zM270 1210l256 170q16 12 34 16.5t30 4.5q14 0 30.5 -5t30.5 -16l234 -170l-84 -86l-223 90 l-246 -90zM317 406q0 -84 29 -139.5t103 -55.5q55 0 94 30.5t62.5 80t34.5 114t11 131.5q0 86 -29.5 141.5t-105.5 55.5q-55 0 -93 -31t-61.5 -81t-34 -114t-10.5 -132z" />
<glyph unicode="&#xf5;" horiz-adv-x="952" d="M29 393q0 135 34.5 246t102 189.5t165 122.5t220.5 44q195 0 291 -112.5t96 -296.5q0 -139 -36 -252t-103.5 -190.5t-165.5 -119.5t-223 -42q-197 0 -289 113.5t-92 297.5zM264 1167l41 154q16 10 63.5 27.5t118.5 17.5q27 0 57.5 -5t64.5 -11.5t67 -11.5t63 -5 q59 0 99.5 9.5t66.5 19.5l-43 -154q-12 -8 -60 -26.5t-118 -18.5q-53 0 -124 16.5t-130 16.5t-99 -10t-67 -19zM317 406q0 -84 29 -139.5t103 -55.5q55 0 94 30.5t62.5 80t34.5 114t11 131.5q0 86 -29.5 141.5t-105.5 55.5q-55 0 -93 -31t-61.5 -81t-34 -114t-10.5 -132z " />
<glyph unicode="&#xf6;" horiz-adv-x="952" d="M29 393q0 135 34.5 246t102 189.5t165 122.5t220.5 44q195 0 291 -112.5t96 -296.5q0 -139 -36 -252t-103.5 -190.5t-165.5 -119.5t-223 -42q-197 0 -289 113.5t-92 297.5zM317 406q0 -84 29 -139.5t103 -55.5q55 0 94 30.5t62.5 80t34.5 114t11 131.5q0 86 -29.5 141.5 t-105.5 55.5q-55 0 -93 -31t-61.5 -81t-34 -114t-10.5 -132zM346 1133l33 266h168l-33 -266h-168zM614 1133l33 266h170l-33 -266h-170z" />
<glyph unicode="&#xf7;" d="M90 496l21 163h788l-20 -163h-789zM309 229q0 74 44 114t114 40q55 0 90 -38t35 -95q0 -63 -42 -104.5t-112 -41.5q-59 0 -94 35t-35 90zM393 891q0 74 44 113.5t114 39.5q55 0 90 -37.5t35 -95.5q0 -63 -42 -104t-112 -41q-59 0 -94 35t-35 90z" />
<glyph unicode="&#xf8;" horiz-adv-x="952" d="M0 -82l125 172q-96 109 -96 303q0 135 34.5 246t102 189.5t165 122.5t220.5 44q98 0 176 -32l74 100h137l-115 -162q57 -53 86 -134t29 -181q0 -139 -36 -252t-103.5 -190.5t-165.5 -119.5t-223 -42q-115 0 -197 41l-78 -105h-135zM317 371l263 377q-27 16 -64 16 q-55 0 -93 -31t-61.5 -81t-34 -114.5t-10.5 -131.5v-35zM365 242q31 -31 84 -31q55 0 94 30.5t62.5 80t34.5 114t11 131.5q0 41 -6 76z" />
<glyph unicode="&#xf9;" horiz-adv-x="1017" d="M57 770l25 205q16 4 39.5 8t47.5 7t45.5 4t31.5 1q174 0 174 -155v-16.5t-2 -18.5l-58 -477q-2 -8 -2 -23q0 -43 25 -67.5t70 -24.5q43 0 71.5 20.5t47 54.5t29.5 80t17 99l35 281l-73 14l24 213h359l-101 -758l90 -14l-24 -205q-23 -4 -61 -12.5t-72 -8.5q-66 0 -111 30 t-53 89l-4 25h-9q-45 -59 -120.5 -100t-171.5 -41q-127 0 -193.5 68.5t-66.5 191.5q0 33 6 69l63 447zM356 1206l105 191l389 -217l-82 -82z" />
<glyph unicode="&#xfa;" horiz-adv-x="1017" d="M57 770l25 205q16 4 39.5 8t47.5 7t45.5 4t31.5 1q174 0 174 -155v-16.5t-2 -18.5l-58 -477q-2 -8 -2 -23q0 -43 25 -67.5t70 -24.5q43 0 71.5 20.5t47 54.5t29.5 80t17 99l35 281l-73 14l24 213h359l-101 -758l90 -14l-24 -205q-23 -4 -61 -12.5t-72 -8.5q-66 0 -111 30 t-53 89l-4 25h-9q-45 -59 -120.5 -100t-171.5 -41q-127 0 -193.5 68.5t-66.5 191.5q0 33 6 69l63 447zM360 1186l443 217l59 -191l-440 -108z" />
<glyph unicode="&#xfb;" horiz-adv-x="1017" d="M57 770l25 205q16 4 39.5 8t47.5 7t45.5 4t31.5 1q174 0 174 -155v-16.5t-2 -18.5l-58 -477q-2 -8 -2 -23q0 -43 25 -67.5t70 -24.5q43 0 71.5 20.5t47 54.5t29.5 80t17 99l35 281l-73 14l24 213h359l-101 -758l90 -14l-24 -205q-23 -4 -61 -12.5t-72 -8.5q-66 0 -111 30 t-53 89l-4 25h-9q-45 -59 -120.5 -100t-171.5 -41q-127 0 -193.5 68.5t-66.5 191.5q0 33 6 69l63 447zM270 1208l256 170q16 12 34 16.5t30 4.5q14 0 30.5 -5t30.5 -16l234 -170l-84 -86l-223 90l-246 -90z" />
<glyph unicode="&#xfc;" horiz-adv-x="1017" d="M57 770l25 205q16 4 39.5 8t47.5 7t45.5 4t31.5 1q174 0 174 -155v-16.5t-2 -18.5l-58 -477q-2 -8 -2 -23q0 -43 25 -67.5t70 -24.5q43 0 71.5 20.5t47 54.5t29.5 80t17 99l35 281l-73 14l24 213h359l-101 -758l90 -14l-24 -205q-23 -4 -61 -12.5t-72 -8.5q-66 0 -111 30 t-53 89l-4 25h-9q-45 -59 -120.5 -100t-171.5 -41q-127 0 -193.5 68.5t-66.5 191.5q0 33 6 69l63 447zM362 1133l33 266h168l-33 -266h-168zM631 1133l33 266h170l-33 -266h-170z" />
<glyph unicode="&#xfd;" horiz-adv-x="915" d="M-55 -121q23 -2 30 -3t29 -1q98 0 178 54.5t135 172.5h-124l-101 658l-61 12l24 195l307 20l62 -643l-8 -74h8q16 35 45 102.5t63 162.5q29 82 44.5 134t25.5 93v215q29 4 57 10q25 4 53.5 7t55.5 3q86 0 120 -36.5t34 -102.5q0 -78 -40 -199.5t-98 -252.5 q-51 -113 -108.5 -220.5t-110.5 -185.5q-66 -98 -123 -165.5t-119.5 -109.5t-137 -60.5t-175.5 -20.5q-16 0 -36.5 2t-28.5 4v229zM295 1180l440 217l60 -191l-441 -108z" />
<glyph unicode="&#xfe;" horiz-adv-x="978" d="M-20 -348l36 178l170 1337l-75 15l22 188q16 4 40 8t47.5 7.5t45 4.5t31.5 1q174 0 174 -150q0 -10 -1 -21.5t-3 -21.5l-39 -295h8q41 37 95.5 64.5t125.5 27.5q76 0 135.5 -28.5t98.5 -78.5t59.5 -118t20.5 -147q0 -156 -44 -273t-125 -194.5t-193.5 -116.5t-250.5 -39 h-43l-14 -121l86 -16l-25 -195zM346 221q10 -2 19 -2q8 -2 16 -2h16q68 0 120 29.5t89 80t55.5 118t18.5 143.5t-26.5 125t-86.5 49q-53 0 -88 -33t-57.5 -87t-36.5 -123.5t-23 -145.5q-4 -45 -9 -86t-7 -66z" />
<glyph unicode="&#xff;" horiz-adv-x="915" d="M-55 -121q23 -2 30 -3t29 -1q98 0 178 54.5t135 172.5h-124l-101 658l-61 12l24 195l307 20l62 -643l-8 -74h8q16 35 45 102.5t63 162.5q29 82 44.5 134t25.5 93v215q29 4 57 10q25 4 53.5 7t55.5 3q86 0 120 -36.5t34 -102.5q0 -78 -40 -199.5t-98 -252.5 q-51 -113 -108.5 -220.5t-110.5 -185.5q-66 -98 -123 -165.5t-119.5 -109.5t-137 -60.5t-175.5 -20.5q-16 0 -36.5 2t-28.5 4v229zM307 1133l33 266h170l-33 -266h-170zM578 1133l32 266h168l-33 -266h-167z" />
<glyph unicode="&#x152;" horiz-adv-x="1628" d="M41 508q0 184 42 330.5t126 248t207 155.5t286 54h951l-68 -407h-217v147h-272l-33 -262h457l-29 -242h-457l-35 -272h275l45 148h203v-408h-1002q-246 0 -362.5 133t-116.5 375zM371 528q0 -123 45 -197.5t157 -74.5h115l96 784h-88q-88 0 -150.5 -38.5t-101 -107.5 t-56 -163t-17.5 -203z" />
<glyph unicode="&#x153;" horiz-adv-x="1517" d="M29 391q0 133 34.5 243.5t100 190.5t162 125t219.5 45q92 0 166.5 -33.5t115.5 -89.5h15q63 59 144 91t179 32q154 0 250 -73.5t96 -204.5q0 -92 -47 -154.5t-117.5 -100.5t-153.5 -57.5t-157 -25.5l-125 -12q2 -45 19.5 -75t48.5 -47.5t74 -24.5t92 -7h37l37 102h196 v-278q-20 -8 -57 -18.5t-85 -18.5t-100.5 -13t-103.5 -5q-123 0 -206 28.5t-140 87.5h-12q-53 -53 -128 -84.5t-167 -31.5q-201 0 -294 112.5t-93 296.5zM319 406q0 -84 29 -139.5t103 -55.5q55 0 94 30.5t62.5 80t34.5 114t11 131.5q0 86 -29.5 141.5t-105.5 55.5 q-55 0 -93 -31t-61.5 -81t-34 -114t-10.5 -132zM924 539q166 16 239.5 54t73.5 105q0 37 -26.5 56.5t-67.5 19.5q-82 0 -138.5 -58.5t-74.5 -148.5z" />
<glyph unicode="&#x178;" horiz-adv-x="1042" d="M63 1073l29 223h328l94 -497v-82h10l21 84l149 325l54 170h364l-463 -843l-55 -453h-404l27 223l86 15l27 215l-174 602zM387 1403l33 266h170l-33 -266h-170zM657 1403l33 266h168l-33 -266h-168z" />
<glyph unicode="&#x2c6;" horiz-adv-x="1011" d="M297 1198l256 170q16 12 33.5 16.5t29.5 4.5q14 0 31 -5.5t31 -15.5l233 -170l-84 -86l-223 90l-246 -90z" />
<glyph unicode="&#x2dc;" horiz-adv-x="1011" d="M293 1165l41 154q16 8 64 26.5t120 18.5q51 0 121 -16.5t131 -16.5q59 0 96 9.5t66 19.5l-39 -154q-14 -8 -62.5 -26.5t-119.5 -18.5q-53 0 -123 16.5t-129 16.5q-61 0 -100.5 -10t-65.5 -19z" />
<glyph unicode="&#x2000;" horiz-adv-x="848" />
<glyph unicode="&#x2001;" horiz-adv-x="1696" />
<glyph unicode="&#x2002;" horiz-adv-x="848" />
<glyph unicode="&#x2003;" horiz-adv-x="1696" />
<glyph unicode="&#x2004;" horiz-adv-x="565" />
<glyph unicode="&#x2005;" horiz-adv-x="424" />
<glyph unicode="&#x2006;" horiz-adv-x="282" />
<glyph unicode="&#x2007;" horiz-adv-x="282" />
<glyph unicode="&#x2008;" horiz-adv-x="212" />
<glyph unicode="&#x2009;" horiz-adv-x="339" />
<glyph unicode="&#x200a;" horiz-adv-x="94" />
<glyph unicode="&#x2010;" horiz-adv-x="626" d="M61 412l21 163h487l-20 -163h-488z" />
<glyph unicode="&#x2011;" horiz-adv-x="626" d="M61 412l21 163h487l-20 -163h-488z" />
<glyph unicode="&#x2012;" horiz-adv-x="626" d="M61 412l21 163h487l-20 -163h-488z" />
<glyph unicode="&#x2013;" horiz-adv-x="1024" d="M-6 412l16 163h1024l-18 -163h-1022z" />
<glyph unicode="&#x2014;" horiz-adv-x="2048" d="M-6 412l16 163h2048l-18 -163h-2046z" />
<glyph unicode="&#x2018;" horiz-adv-x="399" d="M119 1087q0 41 16.5 76t46.5 76l111 141l98 -12l-63 -145q29 -10 50 -40t21 -77q0 -59 -43 -104.5t-108 -45.5q-55 0 -92 37t-37 94z" />
<glyph unicode="&#x2019;" horiz-adv-x="399" d="M135 1094q0 4 1 10t1 10q10 57 49 96t103 39q55 0 91 -35.5t36 -91.5q0 -41 -12.5 -72.5t-47.5 -76.5l-112 -148l-99 13l64 145q-29 6 -51.5 35t-22.5 76z" />
<glyph unicode="&#x201a;" horiz-adv-x="399" d="M16 111q0 61 40 108t114 47q55 0 91 -35.5t36 -91.5q0 -41 -12.5 -72.5t-46.5 -76.5l-113 -148l-98 13l63 145q-29 10 -51.5 36.5t-22.5 74.5z" />
<glyph unicode="&#x201c;" horiz-adv-x="768" d="M135 1083q0 41 12.5 73t47.5 77l112 147l99 -12l-64 -145q29 -10 51.5 -37t22.5 -74q0 -61 -40 -108.5t-114 -47.5q-55 0 -91 36t-36 91zM504 1083q0 41 12 73t47 77l113 147l98 -12l-63 -145q29 -10 51 -37t22 -74q0 -61 -39.5 -108.5t-113.5 -47.5q-55 0 -91 36t-36 91 z" />
<glyph unicode="&#x201d;" horiz-adv-x="768" d="M147 1094q0 61 40 108t114 47q55 0 91 -35.5t36 -91.5q0 -41 -12.5 -72.5t-46.5 -76.5l-113 -148l-98 13l63 145q-29 10 -51.5 37t-22.5 74zM516 1094q0 61 40 108t114 47q55 0 91 -35.5t36 -91.5q0 -41 -12.5 -72.5t-47.5 -76.5l-112 -148l-99 13l64 145 q-29 10 -51.5 37t-22.5 74z" />
<glyph unicode="&#x201e;" horiz-adv-x="768" d="M23 111q0 61 39.5 108t113.5 47q55 0 91 -35.5t36 -91.5q0 -41 -12 -72.5t-47 -76.5l-113 -148l-98 13l63 145q-29 10 -51 36.5t-22 74.5zM391 111q0 61 40 108t114 47q55 0 91 -35.5t36 -91.5q0 -41 -12.5 -72.5t-47.5 -76.5l-112 -148l-99 13l64 145q-29 10 -51.5 36.5 t-22.5 74.5z" />
<glyph unicode="&#x2022;" horiz-adv-x="559" d="M88 545q0 98 56 163.5t167 65.5q86 0 139.5 -52t53.5 -132q0 -111 -61.5 -169.5t-161.5 -58.5q-88 0 -140.5 51.5t-52.5 131.5z" />
<glyph unicode="&#x2026;" horiz-adv-x="1136" d="M16 106q0 74 43 114t113 40q55 0 91 -35t36 -92q0 -68 -42 -109.5t-112 -41.5q-59 0 -94 34.5t-35 89.5zM385 106q0 74 43 114t113 40q55 0 91 -35t36 -92q0 -68 -42 -109.5t-112 -41.5q-59 0 -94 34.5t-35 89.5zM754 106q0 74 43 114t112 40q55 0 91 -35t36 -92 q0 -68 -41.5 -109.5t-111.5 -41.5q-59 0 -94 34.5t-35 89.5z" />
<glyph unicode="&#x202f;" horiz-adv-x="339" />
<glyph unicode="&#x2039;" horiz-adv-x="638" d="M61 553l471 465l103 -129l-352 -336l268 -356l-135 -111z" />
<glyph unicode="&#x203a;" horiz-adv-x="638" d="M16 213l357 340l-269 352l134 113l354 -465l-469 -467z" />
<glyph unicode="&#x2044;" horiz-adv-x="321" d="M-252 0l754 1190h135l-754 -1190h-135z" />
<glyph unicode="&#x205f;" horiz-adv-x="424" />
<glyph unicode="&#x2070;" horiz-adv-x="563" d="M70 829q0 174 71.5 272.5t210.5 98.5q111 0 169.5 -66.5t58.5 -181.5q0 -170 -76 -268t-213 -98q-111 0 -166 66t-55 177zM229 846q0 -53 15.5 -92t58.5 -39q29 0 51.5 18.5t37 50t21.5 72.5t7 84q0 53 -16.5 91t-57.5 38q-31 0 -53.5 -18.5t-36.5 -49t-20.5 -71.5 t-6.5 -84z" />
<glyph unicode="&#x2074;" horiz-adv-x="542" d="M53 702l19 148l254 340h211l-45 -367h63l-14 -121h-64l-12 -106h-152l13 106h-273zM186 823h156l27 213l16 37h-8l-160 -231l-31 -13v-6z" />
<glyph unicode="&#x2075;" horiz-adv-x="499" d="M41 606l29 182h114v-71h25q55 0 95 15.5t40 62.5q0 41 -46 60t-128 19h-61l38 316h371l-16 -137l-92 10h-129l-11 -86q45 0 87 -12.5t75 -35t52.5 -57t19.5 -81.5q0 -59 -24.5 -98.5t-65.5 -63t-93.5 -33.5t-105.5 -10q-41 0 -89 5t-85 15z" />
<glyph unicode="&#x2076;" horiz-adv-x="544" d="M76 838q0 82 20.5 148.5t61.5 113.5t103.5 73.5t148.5 26.5q39 0 89 -7t79 -17l-29 -177h-117v72l-20 2q-70 0 -106 -25.5t-52 -86.5q18 2 30.5 3t24.5 1q106 0 175 -43t69 -134q0 -98 -70.5 -150t-181.5 -52q-115 0 -170 71.5t-55 180.5zM231 821q0 -51 19.5 -82.5 t66.5 -31.5q37 0 59.5 22t22.5 57q0 47 -33.5 63.5t-80.5 16.5q-16 0 -28.5 -1t-23.5 -3q-2 -10 -2 -20.5v-20.5z" />
<glyph unicode="&#x2077;" horiz-adv-x="468" d="M92 975v215h440l-16 -137q-59 -51 -98 -111.5t-63.5 -121t-37 -116t-16.5 -96.5l-2 -14h-162l2 14q14 111 57.5 224.5t129.5 209.5l26 13v8h-125l-28 -88h-107z" />
<glyph unicode="&#x2078;" horiz-adv-x="552" d="M55 739q0 53 30 92t79 64v8q-27 16 -44.5 45t-17.5 64q0 51 22.5 87t59.5 59.5t82 33.5t92 10q43 0 82 -9t70 -27.5t49.5 -47t18.5 -67.5q0 -57 -31 -90t-72 -52v-8q29 -20 50.5 -51t21.5 -72q0 -51 -23.5 -87t-60.5 -59.5t-84 -34.5t-96 -11q-94 0 -161 36.5t-67 116.5z M197 764q0 -29 27.5 -43t62.5 -14q39 0 68.5 15t29.5 50q0 29 -24.5 44t-65.5 26l-21 6q-33 -14 -55 -33.5t-22 -50.5zM262 1024q0 -29 24.5 -42t59.5 -24l19 -6q23 10 47 28.5t24 51.5q0 29 -25.5 42t-60.5 13t-61.5 -16t-26.5 -47z" />
<glyph unicode="&#x2079;" horiz-adv-x="544" d="M61 610l29 176h115v-71l22 -2q70 0 106 25.5t52 86.5q-18 -2 -30.5 -3t-24.5 -1q-106 0 -175 43t-69 133q0 98 70.5 150.5t181.5 52.5q115 0 170 -71.5t55 -180.5q0 -164 -82 -263t-252 -99q-39 0 -89 7t-79 17zM240 999q0 -47 33.5 -63t80.5 -16q16 0 28.5 1t23.5 3 q2 10 2 20v21q0 51 -19.5 82.5t-66.5 31.5q-37 0 -59.5 -22.5t-22.5 -57.5z" />
<glyph unicode="&#x207d;" horiz-adv-x="305" d="M94 817q0 45 6 92q14 117 63.5 223.5t112.5 192.5l76 -55q-25 -41 -50.5 -89t-47 -106.5t-34.5 -126t-13 -147.5q0 -84 15.5 -152.5t37.5 -122.5l-88 -55q-35 68 -56.5 159t-21.5 187z" />
<glyph unicode="&#x207e;" horiz-adv-x="305" d="M51 526q25 39 50.5 88.5t47 107.5t35 125.5t13.5 145.5q0 86 -15.5 155t-38.5 122l88 55q35 -68 56.5 -159t21.5 -187q0 -47 -6 -92q-14 -117 -63.5 -223.5t-112.5 -192.5z" />
<glyph unicode="&#x207f;" horiz-adv-x="636" d="M70 596l61 463l-55 8l14 125q14 4 41 8t49 4q82 0 92 -71l2 -17h9q29 35 71.5 60.5t106.5 25.5q78 0 116.5 -43t38.5 -119v-20t-2 -21l-39 -270l48 -8l-15 -125q-20 -6 -54 -10t-46 -4q-106 0 -107 94v12t2 19l33 251q2 10 3 24.5t1 21.5q0 57 -57 57q-53 0 -73.5 -45 t-28.5 -111l-39 -309h-172z" />
<glyph unicode="&#x20ac;" d="M18 344l48 131h77q0 63 13 135h-107l47 129h97q66 172 208 267.5t342 95.5q92 0 158 -14.5t100 -24.5l-73 -203q-27 10 -74 19.5t-88 9.5q-199 0 -277 -150h353l-47 -129h-351q-8 -27 -11 -63.5t-3 -71.5h379l-45 -131h-309q16 -66 63 -106.5t137 -40.5q68 0 129.5 23.5 t104.5 58.5l24 -207q-45 -27 -126.5 -58.5t-200.5 -31.5q-168 0 -284 95t-146 267h-138z" />
<glyph unicode="&#x2122;" horiz-adv-x="1026" d="M111 1288l14 115h586l26 -313l-2 -35h8l7 35l104 313h209l-16 -76l-46 -471h-141l55 422h-8l-4 -29l-137 -393h-107l-38 393v29h-9l-47 -422h-149l18 76l53 356h-125l-53 -430h-147l14 76l43 354h-108z" />
<glyph unicode="&#x2153;" horiz-adv-x="1169" d="M72 596l14 129h141l41 293l-6 2l-20 -37q-27 -18 -66 -30.5t-67 -20.5l-7 139q47 10 104.5 41t98.5 78h148l-66 -465h121l-14 -129h-422zM125 0l817 1190h137l-817 -1190h-137zM639 10v137q37 -14 82 -22t90 -8q14 0 34.5 2t41 9t35 20.5t14.5 35.5q0 41 -29.5 53.5 t-83.5 12.5h-86l13 102h86q45 0 82.5 13.5t37.5 54.5q0 43 -32.5 54t-67.5 11h-16t-23 -2l-24 -73h-107v176q94 25 195 24q49 0 92 -9t75.5 -28.5t52 -50t19.5 -73.5q0 -53 -25.5 -86t-72.5 -54v-8q29 -16 52.5 -45t23.5 -80q0 -55 -27 -92t-70 -58.5t-97 -29.5t-107 -8 q-45 0 -89 8t-69 14z" />
<glyph unicode="&#x2154;" horiz-adv-x="1198" d="M43 594l16 139q88 49 146.5 86t94.5 66.5t51.5 55.5t15.5 52q0 41 -30 58.5t-79 17.5h-14l-39 -108h-103v215q41 10 90.5 17t94.5 7q100 0 168.5 -46t68.5 -142q0 -86 -52 -151.5t-179 -129.5v-8h135l94 8l-16 -137h-463zM135 0l815 1190h137l-817 -1190h-135zM651 10 v137q37 -14 82 -22t90 -8q14 0 35 2t41.5 9t34.5 20.5t14 35.5q0 41 -29.5 53.5t-82.5 12.5h-86l12 102h86q45 0 83 13.5t38 54.5q0 43 -33 54t-68 11h-16t-23 -2l-24 -73h-107v176q94 25 195 24q49 0 92 -9t76 -28.5t52.5 -50t19.5 -73.5q0 -53 -26 -86t-73 -54v-8 q29 -16 52.5 -45t23.5 -80q0 -55 -26.5 -92t-69.5 -58.5t-97.5 -29.5t-107.5 -8q-45 0 -89 8t-69 14z" />
<glyph unicode="&#x215b;" horiz-adv-x="1171" d="M74 596l14 129h141l41 293l-6 2l-20 -37q-27 -18 -66 -30.5t-67 -20.5l-7 139q47 10 104.5 41t98.5 78h148l-66 -465h121l-14 -129h-422zM125 0l817 1192h137l-817 -1192h-137zM602 145q0 53 30 92t79 64v8q-27 16 -44.5 46t-17.5 65q0 51 22.5 87t59.5 58.5t82 32.5 t92 10q43 0 83 -9t69.5 -27.5t48 -47t18.5 -67.5q0 -55 -29.5 -89t-70.5 -53v-8q29 -20 49.5 -51t20.5 -72q0 -51 -23.5 -87t-60.5 -59.5t-84 -34.5t-97 -11q-94 0 -160.5 37t-66.5 116zM743 170q0 -29 28 -43t65 -14t66.5 15t29.5 50q0 29 -24.5 45.5t-63.5 26.5l-23 4 q-33 -12 -55.5 -32.5t-22.5 -51.5zM809 430q0 -27 25.5 -41t58.5 -24l18 -7q23 10 47.5 30t24.5 50q0 29 -25.5 42.5t-60.5 13.5t-61.5 -16.5t-26.5 -47.5z" />
<glyph unicode="&#x215c;" horiz-adv-x="1157" d="M59 604v137q37 -14 82 -22t90 -8q14 0 35 2t41.5 9t34.5 20.5t14 35.5q0 41 -29.5 53.5t-82.5 12.5h-86l12 102h86q45 0 83 13.5t38 54.5q0 43 -33 54t-68 11h-16t-22 -2l-25 -73h-107v176q94 25 195 24q49 0 92 -9t76 -28.5t52.5 -50.5t19.5 -74q0 -53 -26 -85.5 t-73 -53.5v-8q29 -16 52.5 -45t23.5 -80q0 -55 -26.5 -92t-69.5 -58.5t-97.5 -29.5t-107.5 -8q-45 0 -89 8t-69 14zM109 0l817 1190h135l-817 -1190h-135zM582 145q0 53 29.5 92t78.5 64v8q-27 16 -44 46t-17 65q0 51 22.5 87t59.5 58.5t82 32.5t92 10q43 0 83 -9 t69.5 -27.5t48 -47t18.5 -67.5q0 -55 -30 -89t-70 -53v-8q29 -20 49 -51t20 -72q0 -51 -23.5 -87t-60.5 -59.5t-84 -34.5t-96 -11q-94 0 -160.5 37t-66.5 116zM723 170q0 -29 27.5 -43t64.5 -14t66.5 15t29.5 50q0 29 -24.5 45.5t-63.5 26.5l-22 4q-33 -12 -55.5 -32.5 t-22.5 -51.5zM788 430q0 -27 26 -41t58 -24l19 -7q23 10 47.5 30t24.5 50q0 29 -26 42.5t-60 13.5q-35 0 -62 -16.5t-27 -47.5z" />
<glyph unicode="&#x215d;" horiz-adv-x="1148" d="M51 606l29 182h115v-71h24q55 0 95 15.5t40 62.5q0 41 -46 60t-128 19h-61l39 316h370l-16 -137l-92 10h-129l-10 -86q45 0 87 -12.5t74.5 -35t52 -57t19.5 -81.5q0 -59 -24.5 -98.5t-65.5 -63t-93 -33.5t-106 -10q-41 0 -89 5t-85 15zM98 0l817 1190h136l-818 -1190 h-135zM582 145q0 53 29.5 92t78.5 64v8q-27 16 -44 46t-17 65q0 51 22.5 87t59.5 58.5t82 32.5t92 10q43 0 83 -9t69.5 -27.5t48 -47t18.5 -67.5q0 -55 -30 -89t-70 -53v-8q29 -20 49 -51t20 -72q0 -51 -23.5 -87t-60.5 -59.5t-84 -34.5t-96 -11q-94 0 -160.5 37t-66.5 116z M723 170q0 -29 27.5 -43t64.5 -14t66.5 15t29.5 50q0 29 -24.5 45.5t-63.5 26.5l-22 4q-33 -12 -55.5 -32.5t-22.5 -51.5zM788 430q0 -27 26 -41t58 -24l19 -7q23 10 47.5 30t24.5 50q0 29 -26 42.5t-60 13.5q-35 0 -62 -16.5t-27 -47.5z" />
<glyph unicode="&#x215e;" horiz-adv-x="1054" d="M-4 0l813 1192h137l-819 -1192h-131zM96 975v215h441l-17 -137q-59 -51 -98 -111.5t-63.5 -121t-37 -116t-16.5 -96.5l-2 -14h-162l2 14q14 111 57.5 224.5t129.5 209.5l26 13v8h-125l-28 -88h-107zM487 143q0 53 30 92t79 64v8q-27 16 -44 45t-17 64q0 51 22.5 87 t59 59.5t81.5 33.5t93 10q43 0 81.5 -9t69.5 -27.5t49.5 -47t18.5 -67.5q0 -57 -31 -90t-72 -52v-8q29 -20 50.5 -51t21.5 -72q0 -51 -23.5 -87t-60.5 -59.5t-84 -34.5t-96 -11q-94 0 -161 36.5t-67 116.5zM629 168q0 -29 27.5 -43t62.5 -14q39 0 68.5 15t29.5 50 q0 29 -24.5 44.5t-65.5 25.5l-20 6q-33 -14 -55.5 -33.5t-22.5 -50.5zM694 428q0 -29 24.5 -42t59.5 -24l19 -6q23 10 47 28.5t24 51.5q0 29 -25.5 42.5t-60.5 13.5t-61.5 -16.5t-26.5 -47.5z" />
<glyph unicode="&#x2160;" horiz-adv-x="516" d="M-63 0l8 74h104l19 86l104 850h-115l11 73h520l-10 -73h-113l-115 -936h113l-8 -74h-518z" />
<glyph unicode="&#x2164;" horiz-adv-x="1007" d="M-63 0l8 74h274l-110 936h-52l11 73h1011l-10 -73h-53l-346 -936h284l-8 -74h-1009zM414 1010l51 -713l-4 -72h10l16 72l201 631l14 82h-288z" />
<glyph unicode="&#x2169;" horiz-adv-x="1013" d="M-63 0l8 74h43l303 483l-166 453h-68l11 73h1017l-10 -73h-69l-279 -453l188 -483h46l-9 -74h-1015zM313 74h283l-94 270l-4 59h-11l-20 -59l-127 -205zM434 1010l80 -262l8 -64h10l21 64l113 196l18 66h-250z" />
<glyph unicode="&#x216c;" horiz-adv-x="770" d="M-66 0l9 74h110l19 80l104 856h-121l11 73h774l-11 -73h-362l-94 -774h307l-21 -162h56l-8 -74h-773z" />
<glyph unicode="&#x216d;" horiz-adv-x="909" d="M-63 0l8 74h260q-70 49 -120 152.5t-50 232.5q0 100 24.5 187t67.5 156.5t100.5 122t120.5 85.5h-291l11 73h913l-10 -73h-78l-70 -203q-29 14 -77 27.5t-107 13.5q-72 0 -128 -27.5t-96 -77t-60.5 -115t-20.5 -139.5q0 -104 53 -178.5t164 -74.5q88 0 146.5 38.5 t97.5 83.5l32 -237q-12 -10 -37.5 -25.5t-41.5 -21.5h108l-8 -74h-911z" />
<glyph unicode="&#x216e;" horiz-adv-x="1120" d="M-63 0l8 74h149l23 100l86 684l-76 21l14 131h-84l11 73h1138l-10 -73h-295q168 -113 168 -381q0 -209 -63.5 -346.5t-180.5 -208.5h256l-8 -74h-1136zM416 229h96q131 0 194.5 93.5t63.5 306.5q0 115 -45 170t-150 55h-83z" />
<glyph unicode="&#x216f;" horiz-adv-x="1445" d="M-68 0l9 74h73l23 80l156 856h-140l10 73h1450l-10 -73h-135l-12 -80l-53 -856h86l-9 -74h-1448zM309 74h226l-95 706v58h-10zM621 1010l71 -631l-4 -57h10l13 57l225 631h-315zM793 74h221l73 762h-10l-10 -56z" />
<glyph unicode="&#x25fc;" horiz-adv-x="993" d="M0 0v993h993v-993h-993z" />
<glyph horiz-adv-x="2037" d="M41 559q0 180 49 320.5t138 237.5t215 147.5t280 50.5q82 0 153.5 -13.5t104.5 -23.5l-72 -434h-225v198h-27q-74 0 -128 -36.5t-88.5 -97t-52 -136.5t-17.5 -156t17.5 -147.5t56 -116.5t97 -76.5t142.5 -27.5q150 0 254 45l127 1003h313l-61 -499h315l62 499h327 l-39 -170l-114 -897l82 -16l-27 -213h-389l65 543h-315l-55 -461q-125 -37 -274.5 -68.5t-346.5 -31.5q-129 0 -233.5 39.5t-179 115.5t-114.5 182.5t-40 239.5z" />
<glyph horiz-adv-x="1882" d="M41 561q0 176 47 315.5t135 236.5t211 149.5t277 52.5q84 0 159.5 -12.5t110.5 -24.5l-72 -434h-223v198h-29q-68 0 -121 -33.5t-88.5 -93t-55 -138.5t-19.5 -171q0 -164 78.5 -261t240.5 -97q84 0 139.5 12t108.5 33l133 1079l414 21l-27 -215l-131 -25l-35 -276h11 q37 47 101 83.5t148 36.5q123 0 186.5 -70.5t63.5 -191.5q0 -35 -6 -71l-63 -445l75 -14l-24 -205q-16 -4 -39 -8t-46.5 -7t-44 -4t-30.5 -1q-176 0 -176 151v20.5t2 20.5l53 455q2 10 2 30q0 47 -21.5 76t-70.5 29q-43 0 -71.5 -19.5t-47 -53.5t-30 -80t-17.5 -101 l-49 -432q-123 -37 -268.5 -65.5t-321.5 -28.5q-129 0 -234.5 39.5t-179 115.5t-114.5 183.5t-41 240.5z" />
<glyph horiz-adv-x="1728" d="M23 422q0 135 38.5 241.5t109.5 180.5t172 112.5t226 38.5q72 0 136.5 -12t89.5 -20l-58 -324h-213v119h-18q-45 0 -80 -22.5t-59.5 -62.5t-37 -93.5t-12.5 -114.5q0 -109 59.5 -180.5t184.5 -71.5q68 0 121 12.5t100 28.5l138 1118l413 21l-26 -215l-131 -25l-35 -276 h10q37 47 101.5 83.5t148.5 36.5q123 0 186.5 -70.5t63.5 -191.5q0 -35 -6 -71l-64 -445l76 -14l-25 -205q-16 -4 -38.5 -8t-46 -7t-44 -4t-30.5 -1q-176 0 -177 151v20.5t2 20.5l54 455q2 10 2 30q0 47 -21.5 76t-70.5 29q-43 0 -72 -19.5t-47.5 -53.5t-29.5 -80t-17 -101 l-52 -445q-39 -10 -95 -24t-124.5 -26.5t-148.5 -21.5t-164 -9q-227 0 -358 111.5t-131 328.5z" />
<glyph horiz-adv-x="1927" d="M41 565q0 176 47 315.5t136 235.5t216 147.5t285 51.5q84 0 152.5 -14.5t103.5 -26.5l-72 -430h-221v196h-22q-72 0 -127.5 -33.5t-92 -93t-56 -138.5t-19.5 -171q0 -76 19.5 -141.5t59 -112.5t98 -74.5t136.5 -27.5q72 0 129 9t117 32l96 794h293l-51 -415h266l51 415 h307l-34 -170l-93 -700l72 -20l-22 -193h-363l55 451h-266l-47 -377q-129 -37 -268.5 -64.5t-315.5 -27.5q-129 0 -234.5 40.5t-179 116.5t-114.5 183.5t-41 242.5z" />
<glyph horiz-adv-x="1810" d="M14 467q0 156 43 274.5t121 198.5t185.5 121t236.5 41q33 0 69 -3t67.5 -8.5t58 -11.5t41.5 -12l-58 -334h-205v121h-26q-55 0 -98 -26.5t-73 -72.5t-45.5 -108.5t-15.5 -136.5q0 -129 59.5 -210t192.5 -81q66 0 127.5 13.5t114.5 33.5l100 817h291l-51 -415h268l51 415 h308l-33 -149l-94 -721l71 -23l-22 -190h-363l56 451h-269l-47 -381q-111 -29 -251 -57.5t-314 -28.5q-117 0 -208 33.5t-155.5 97t-98.5 152.5t-34 200z" />
<glyph horiz-adv-x="1038" d="M-51 0l352 858l-76 21l25 204h581l87 -862l69 -16l-24 -205h-357l17 174l-7 119h-258l-26 -72l69 -16l-24 -205h-428zM436 500h170l-22 338v69h-11l-16 -69z" />
<glyph horiz-adv-x="1038" d="M-51 0l352 858l-76 21l25 204h581l87 -862l69 -16l-24 -205h-357l17 174l-7 119h-258l-26 -72l69 -16l-24 -205h-428zM330 1251l440 217l61 -190l-442 -109zM436 500h170l-22 338v69h-11l-16 -69z" />
<glyph horiz-adv-x="1038" d="M-51 0l352 858l-76 21l25 204h581l87 -862l69 -16l-24 -205h-357l17 174l-7 119h-258l-26 -72l69 -16l-24 -205h-428zM258 1274l256 170q16 12 33.5 16t30.5 4q14 0 30.5 -5t30.5 -15l233 -170l-84 -86l-223 90l-246 -90zM436 500h170l-22 338v69h-11l-16 -69z" />
<glyph horiz-adv-x="1038" d="M-51 0l352 858l-76 21l25 204h581l87 -862l69 -16l-24 -205h-357l17 174l-7 119h-258l-26 -72l69 -16l-24 -205h-428zM354 1194l33 266h170l-33 -266h-170zM436 500h170l-22 338v69h-11l-16 -69zM625 1194l32 266h168l-32 -266h-168z" />
<glyph horiz-adv-x="1343" d="M-55 0l342 848l-82 20l26 215h1104l-39 -321h-202v100h-181l-8 -209h357v-207h-367l-8 -225h184l27 101h198v-322h-725l23 147l6 146h-246l-26 -72l69 -16l-24 -205h-428zM432 500h178l15 344l8 55h-66l-12 -55z" />
<glyph horiz-adv-x="1038" d="M-51 0l352 858l-76 21l25 204h581l87 -862l69 -16l-24 -205h-357l17 174l-7 119h-258l-26 -72l69 -16l-24 -205h-428zM346 1276l105 190l389 -217l-82 -82zM436 500h170l-22 338v69h-11l-16 -69z" />
<glyph horiz-adv-x="1038" d="M-51 0l352 858l-76 21l25 204h581l87 -862l69 -16l-24 -205h-357l17 174l-7 119h-258l-26 -72l69 -16l-24 -205h-428zM377 1309q0 88 60.5 140t166.5 52q94 0 147.5 -43t53.5 -115q0 -88 -60.5 -137t-166.5 -49q-94 0 -147.5 43t-53.5 109zM436 500h170l-22 338v69h-11 l-16 -69zM535 1321q0 -20 13 -35.5t38 -15.5q35 0 50 20.5t15 42.5q0 23 -13 39.5t-42 16.5q-31 0 -46 -19.5t-15 -48.5z" />
<glyph horiz-adv-x="1038" d="M-51 0l352 858l-76 21l25 204h581l87 -862l69 -16l-24 -205h-357l17 174l-7 119h-258l-26 -72l69 -16l-24 -205h-428zM274 1233l43 153q14 8 62.5 27t120.5 19q53 0 121.5 -16.5t130.5 -16.5q59 0 96 9t65 19l-39 -153q-14 -8 -61 -26.5t-119 -18.5q-53 0 -122.5 16.5 t-129.5 16.5q-61 0 -101 -10.5t-67 -18.5zM436 500h170l-22 338v69h-11l-16 -69z" />
<glyph horiz-adv-x="1021" d="M29 0l37 174l86 684l-76 21l24 204h572q66 0 122 -16t98 -48t65.5 -81t23.5 -113q0 -106 -48 -167.5t-116 -90.5l-2 -10q53 -29 88 -88t35 -139q0 -166 -101.5 -248t-269.5 -82h-538zM362 221h127q72 0 114 30t42 107q0 51 -31.5 81t-91.5 30h-129zM412 637h137 q59 0 95 32.5t36 98.5q0 45 -26.5 72.5t-84.5 27.5h-129z" />
<glyph horiz-adv-x="872" d="M14 453q0 158 43 279.5t122 203.5t187.5 124t241.5 42q33 0 72 -3t77 -9.5t71.5 -13.5t58.5 -15l-56 -328h-204v127h-37q-61 0 -112.5 -29.5t-88.5 -81t-57.5 -120t-20.5 -148.5q0 -111 54.5 -184.5t164.5 -73.5q33 0 69 8.5t69.5 22.5t62.5 33.5t47 42.5v-264 q-51 -33 -128 -58.5t-199 -25.5q-94 0 -174 31.5t-138.5 91t-91.5 147.5t-33 201z" />
<glyph horiz-adv-x="872" d="M14 453q0 158 43 279.5t122 203.5t187.5 124t241.5 42q33 0 72 -3t77 -9.5t71.5 -13.5t58.5 -15l-56 -328h-204v127h-37q-61 0 -112.5 -29.5t-88.5 -81t-57.5 -120t-20.5 -148.5q0 -111 54.5 -184.5t164.5 -73.5q33 0 69 8.5t69.5 22.5t62.5 33.5t47 42.5v-264 q-47 -31 -115.5 -55.5t-177.5 -28.5l-6 -48q53 -4 91 -36.5t38 -85.5q0 -43 -18.5 -75t-50 -53.5t-74.5 -31.5t-90 -10q-59 0 -96 7t-54 11l37 107q16 -4 41 -7.5t49 -3.5q35 0 60.5 8.5t25.5 40.5q0 20 -16 31.5t-45 11.5q-18 0 -36.5 -2t-31.5 -4l43 150 q-152 29 -245 145.5t-93 315.5z" />
<glyph horiz-adv-x="1038" d="M29 0l37 174l86 684l-76 21l24 204h463q223 0 339 -115.5t116 -338.5q0 -315 -144.5 -472t-394.5 -157h-450zM365 229h96q131 0 194.5 93.5t63.5 306.5q0 115 -45 170t-150 55h-84z" />
<glyph horiz-adv-x="921" d="M29 0l37 176l86 682l-76 21l24 204h813l-55 -321h-203v100h-215l-26 -209h409l-26 -207h-410l-27 -223h232l26 99h187v-322h-776z" />
<glyph horiz-adv-x="921" d="M29 0l37 176l86 682l-76 21l24 204h813l-55 -321h-203v100h-215l-26 -209h409l-26 -207h-410l-27 -223h232l26 99h187v-322h-776zM299 1251l440 217l62 -190l-443 -109z" />
<glyph horiz-adv-x="921" d="M29 0l37 176l86 682l-76 21l24 204h813l-55 -321h-203v100h-215l-26 -209h409l-26 -207h-410l-27 -223h232l26 99h187v-322h-776zM229 1274l256 170q16 12 34 16t30 4q14 0 30.5 -5t30.5 -15l234 -170l-84 -86l-223 90l-246 -90z" />
<glyph horiz-adv-x="921" d="M29 0l37 176l86 682l-76 21l24 204h813l-55 -321h-203v100h-215l-26 -209h409l-26 -207h-410l-27 -223h232l26 99h187v-322h-776zM340 1194l33 266h168l-33 -266h-168zM608 1194l33 266h170l-33 -266h-170z" />
<glyph horiz-adv-x="921" d="M29 0l37 176l86 682l-76 21l24 204h813l-55 -321h-203v100h-215l-26 -209h409l-26 -207h-410l-27 -223h232l26 99h187v-322h-776zM301 1276l105 190l389 -217l-82 -82z" />
<glyph horiz-adv-x="1038" d="M-2 573l121 25l33 260l-76 21l24 204h463q223 0 339 -115.5t116 -338.5q0 -315 -144.5 -472t-394.5 -157h-450l37 174l30 248l-90 -19zM365 229h96q131 0 194.5 93.5t63.5 306.5q0 115 -45 170t-150 55h-84l-22 -192l117 26l14 -168l-154 -33z" />
<glyph horiz-adv-x="849" d="M29 0l37 172l84 686l-74 21l24 204h789l-55 -321h-201v100h-195l-28 -235h387l-27 -217h-387l-25 -187l76 -18l-24 -205h-381z" />
<glyph horiz-adv-x="1017" d="M14 438q0 154 43 277t125 209t202 132t273 46q68 0 157 -13.5t169 -37.5l-61 -320h-199v125q-14 4 -43 8t-57 4q-78 0 -136.5 -31.5t-98.5 -88t-60.5 -132t-20.5 -163.5q0 -51 10.5 -96.5t34 -79t61.5 -53t93 -19.5q66 0 106 16l23 187h-133l24 196h398l-64 -530 q-82 -41 -179 -66.5t-218 -25.5q-96 0 -178 27.5t-141.5 84t-94.5 142.5t-35 202z" />
<glyph horiz-adv-x="1071" d="M29 0l34 174l84 684l-73 21l24 204h365l-51 -419h266l51 419h307l-37 -176l-90 -684l74 -18l-25 -205h-362l55 446h-266l-29 -225l68 -16l-25 -205h-370z" />
<glyph horiz-adv-x="514" d="M29 0l37 174l84 684l-76 19l26 206h365l-107 -862l68 -16l-25 -205h-372z" />
<glyph horiz-adv-x="514" d="M29 0l37 174l84 684l-76 19l26 206h365l-107 -862l68 -16l-25 -205h-372zM68 1251l440 217l61 -190l-442 -109z" />
<glyph horiz-adv-x="514" d="M16 1274l256 170q16 12 34 16t30 4q14 0 30.5 -5t30.5 -15l234 -170l-84 -86l-223 90l-246 -90zM29 0l37 174l84 684l-76 19l26 206h365l-107 -862l68 -16l-25 -205h-372z" />
<glyph horiz-adv-x="514" d="M29 0l37 174l84 684l-76 19l26 206h365l-107 -862l68 -16l-25 -205h-372zM82 1194l33 266h168l-33 -266h-168zM350 1194l33 266h170l-33 -266h-170z" />
<glyph horiz-adv-x="514" d="M29 0l37 174l84 684l-76 19l26 206h365l-107 -862l68 -16l-25 -205h-372zM86 1276l104 190l390 -217l-82 -82z" />
<glyph horiz-adv-x="643" d="M-25 -12v227q14 -4 38 -5t36 -1q82 0 123 38t51 128l60 483l-207 19l26 206h512l-30 -153l-72 -574q-25 -203 -133.5 -288.5t-315.5 -85.5q-4 0 -16 1t-26.5 2t-26.5 2t-19 1z" />
<glyph horiz-adv-x="972" d="M29 0l41 174l82 684l-76 21l24 204h365l-49 -387h10l20 60l244 327h336l-338 -442l156 -416l78 -20l-25 -205h-272l-164 438h-8l-80 -106l-15 -111l68 -16l-25 -205h-372z" />
<glyph horiz-adv-x="782" d="M29 0l34 174l84 684l-73 21l24 204h365l-105 -847h148l33 106h182v-342h-692z" />
<glyph horiz-adv-x="1482" d="M6 0l47 174l111 686l-70 19l25 204h493l105 -663v-58h8l12 58l252 663h424l-31 -174l-51 -688l72 -16l-25 -205h-354l86 836h-12l-13 -56l-301 -780h-213l-120 780v58h-13l-100 -617l72 -16l-25 -205h-379z" />
<glyph horiz-adv-x="1079" d="M29 0l37 172l86 696l-78 21l24 194h410l192 -755h11l-4 69l20 465l-70 17l25 204h367l-37 -168l-113 -915h-334l-186 762h-8v-72l-27 -469l70 -16l-25 -205h-360z" />
<glyph horiz-adv-x="1079" d="M29 0l37 172l86 696l-78 21l24 194h410l192 -755h11l-4 69l20 465l-70 17l25 204h367l-37 -168l-113 -915h-334l-186 762h-8v-72l-27 -469l70 -16l-25 -205h-360zM295 1233l43 153q14 8 62.5 27t119.5 19q27 0 57.5 -5.5t64.5 -11.5t66.5 -11t63.5 -5q59 0 98 9t66 19 l-41 -153q-14 -8 -61.5 -26.5t-116.5 -18.5q-27 0 -58.5 5t-65.5 11t-67.5 11.5t-62.5 5.5q-61 0 -101 -10.5t-67 -18.5z" />
<glyph horiz-adv-x="1024" d="M14 449q0 313 149.5 483t411.5 170q207 0 318 -126t111 -337q0 -322 -148.5 -489.5t-413.5 -167.5q-209 0 -318.5 125t-109.5 342zM313 451q0 -47 9.5 -90.5t28 -75t48 -50t72.5 -18.5q61 0 105.5 34t72 91t40.5 133t13 160q0 47 -9 90t-28.5 74.5t-50 50t-73.5 18.5 q-66 0 -109 -37.5t-69.5 -98t-38 -134t-11.5 -147.5z" />
<glyph horiz-adv-x="1024" d="M14 449q0 313 149.5 483t411.5 170q207 0 318 -126t111 -337q0 -322 -148.5 -489.5t-413.5 -167.5q-209 0 -318.5 125t-109.5 342zM313 451q0 -47 9.5 -90.5t28 -75t48 -50t72.5 -18.5q61 0 105.5 34t72 91t40.5 133t13 160q0 47 -9 90t-28.5 74.5t-50 50t-73.5 18.5 q-66 0 -109 -37.5t-69.5 -98t-38 -134t-11.5 -147.5zM338 1251l440 217l62 -190l-443 -109z" />
<glyph horiz-adv-x="1024" d="M14 449q0 313 149.5 483t411.5 170q207 0 318 -126t111 -337q0 -322 -148.5 -489.5t-413.5 -167.5q-209 0 -318.5 125t-109.5 342zM293 1274l256 170q16 12 33.5 16t29.5 4q14 0 30.5 -5t31.5 -15l233 -170l-84 -86l-223 90l-246 -90zM313 451q0 -47 9.5 -90.5t28 -75 t48 -50t72.5 -18.5q61 0 105.5 34t72 91t40.5 133t13 160q0 47 -9 90t-28.5 74.5t-50 50t-73.5 18.5q-66 0 -109 -37.5t-69.5 -98t-38 -134t-11.5 -147.5z" />
<glyph horiz-adv-x="1024" d="M14 449q0 313 149.5 483t411.5 170q207 0 318 -126t111 -337q0 -322 -148.5 -489.5t-413.5 -167.5q-209 0 -318.5 125t-109.5 342zM313 451q0 -47 9.5 -90.5t28 -75t48 -50t72.5 -18.5q61 0 105.5 34t72 91t40.5 133t13 160q0 47 -9 90t-28.5 74.5t-50 50t-73.5 18.5 q-66 0 -109 -37.5t-69.5 -98t-38 -134t-11.5 -147.5zM371 1194l32 266h168l-32 -266h-168zM639 1194l33 266h170l-33 -266h-170z" />
<glyph horiz-adv-x="1419" d="M14 430q0 160 41 283t118 204.5t183.5 123.5t239.5 42h815l-55 -321h-203v100h-209l-29 -225h412l-24 -195h-412l-27 -219h215l27 99h207v-322h-903q-203 0 -299.5 114.5t-96.5 315.5zM311 453q0 -106 40 -168t138 -62h86l80 639h-71q-74 0 -126 -31.5t-85 -87 t-47.5 -130t-14.5 -160.5z" />
<glyph horiz-adv-x="1024" d="M14 449q0 313 149.5 483t411.5 170q207 0 318 -126t111 -337q0 -322 -148.5 -489.5t-413.5 -167.5q-209 0 -318.5 125t-109.5 342zM313 451q0 -47 9.5 -90.5t28 -75t48 -50t72.5 -18.5q61 0 105.5 34t72 91t40.5 133t13 160q0 47 -9 90t-28.5 74.5t-50 50t-73.5 18.5 q-66 0 -109 -37.5t-69.5 -98t-38 -134t-11.5 -147.5zM362 1276l105 190l389 -217l-82 -82z" />
<glyph horiz-adv-x="1024" d="M-25 -82l142 201q-49 59 -76 142t-27 188q0 313 149.5 483t411.5 170q55 0 105.5 -11.5t91.5 -27.5l76 108h135l-119 -167q68 -59 104 -152.5t36 -212.5q0 -322 -148.5 -489.5t-413.5 -167.5q-72 0 -133 17t-108 46l-90 -127h-136zM313 427.5q0 -11.5 2 -21.5l308 442 q-35 20 -76 20q-66 0 -110 -37.5t-71.5 -98t-40 -134.5t-12.5 -147v-23.5zM356 270q37 -53 109 -53q61 0 106 34t75 91t43 133t13 160q0 31 -4 59.5t-10 53.5z" />
<glyph horiz-adv-x="1024" d="M14 449q0 313 149.5 483t411.5 170q207 0 318 -126t111 -337q0 -322 -148.5 -489.5t-413.5 -167.5q-209 0 -318.5 125t-109.5 342zM266 1233l41 153q16 8 64.5 27t120.5 19q25 0 56.5 -5.5t64 -11.5t65.5 -11t63 -5q59 0 97.5 9t66.5 19l-39 -153q-14 -8 -62 -26.5 t-118 -18.5q-27 0 -58.5 5t-65.5 11t-66.5 11.5t-63.5 5.5q-59 0 -99 -10.5t-67 -18.5zM313 451q0 -47 9.5 -90.5t28 -75t48 -50t72.5 -18.5q61 0 105.5 34t72 91t40.5 133t13 160q0 47 -9 90t-28.5 74.5t-50 50t-73.5 18.5q-66 0 -109 -37.5t-69.5 -98t-38 -134 t-11.5 -147.5z" />
<glyph horiz-adv-x="972" d="M29 0l28 174l90 684l-73 21l24 204h527q162 0 251 -82.5t89 -232.5q0 -102 -31 -177t-85 -124t-129 -72.5t-161 -23.5h-186l-19 -144l97 -24l-25 -203h-397zM399 590h99q78 0 124 38t46 117q0 61 -36 92t-102 31h-96z" />
<glyph horiz-adv-x="1024" d="M14 453q0 158 40 279.5t113 203.5t175 124t229 42q104 0 184.5 -34t135.5 -96.5t84 -148.5t29 -190q0 -246 -102.5 -413t-295.5 -218v-8l84 -193h-250l-65 185q-88 6 -154.5 41.5t-113 97t-70 144.5t-23.5 184zM313 451q0 -47 8.5 -90.5t26 -75t46 -50t71.5 -18.5 q61 0 106 34t75 91t43 133t13 160q0 47 -8 90t-26.5 74.5t-48 50t-72.5 18.5q-66 0 -110 -37.5t-71.5 -98t-40 -134t-12.5 -147.5z" />
<glyph horiz-adv-x="1028" d="M29 0l34 174l84 684l-73 21l24 204h561q141 0 230.5 -67.5t89.5 -202.5q0 -129 -58.5 -198.5t-146.5 -98.5l-2 -10q25 -10 43.5 -24.5t30.5 -36t19 -52.5t9 -76l5 -96l67 -16l-24 -205h-320l-16 281q-4 78 -33 102.5t-94 24.5h-82l-23 -187l68 -16l-25 -205h-368z M401 612h117q66 0 113 35t47 107q0 53 -32 83.5t-93 30.5h-121z" />
<glyph horiz-adv-x="868" d="M-23 25l66 327h205v-149q10 -2 28.5 -3t26.5 -1q76 0 129 25.5t53 80.5q0 35 -29.5 60.5t-74.5 49t-98.5 50.5t-98.5 63.5t-74.5 88t-29.5 124.5q0 96 41 165t109.5 112t156.5 63.5t184 20.5q37 0 81 -4t87 -10.5t81 -13.5t63 -13l-68 -330h-197v152l-47 4 q-33 0 -65.5 -5t-58 -17.5t-41 -33t-15.5 -51.5q0 -35 30 -60.5t75 -49t97 -50t97 -62.5t75 -87t30 -125q0 -98 -41 -167.5t-111 -114t-161 -63.5t-189 -19q-41 0 -85 3t-87 9t-80 14t-64 17z" />
<glyph horiz-adv-x="800" d="M47 862l27 221h755l-26 -221h-232l-106 -862h-303l31 174l86 688h-232z" />
<glyph horiz-adv-x="972" d="M23 0l34 174l90 684l-73 21l24 204h363l-19 -143h164q158 0 249 -80t91 -231q0 -104 -30.5 -180t-84 -125.5t-128 -73t-162.5 -23.5h-187l-26 -227h-305zM383 446h100q72 0 119 39t47 117q0 61 -37 92t-100 31h-96z" />
<glyph horiz-adv-x="1050" d="M78 307q0 37 6 86l61 467l-65 19l24 204h357l-86 -690q-2 -12 -3 -27.5t-1 -25.5q0 -129 127 -129q76 0 108.5 47t42.5 137l58 467l-70 17l25 204h360l-86 -702q-27 -207 -140.5 -303t-322.5 -96q-182 0 -288.5 79.5t-106.5 245.5z" />
<glyph horiz-adv-x="1050" d="M78 307q0 37 6 86l61 467l-65 19l24 204h357l-86 -690q-2 -12 -3 -27.5t-1 -25.5q0 -129 127 -129q76 0 108.5 47t42.5 137l58 467l-70 17l25 204h360l-86 -702q-27 -207 -140.5 -303t-322.5 -96q-182 0 -288.5 79.5t-106.5 245.5zM350 1251l441 217l61 -190l-442 -109z " />
<glyph horiz-adv-x="1050" d="M78 307q0 37 6 86l61 467l-65 19l24 204h357l-86 -690q-2 -12 -3 -27.5t-1 -25.5q0 -129 127 -129q76 0 108.5 47t42.5 137l58 467l-70 17l25 204h360l-86 -702q-27 -207 -140.5 -303t-322.5 -96q-182 0 -288.5 79.5t-106.5 245.5zM293 1274l256 170q16 12 33.5 16 t29.5 4q14 0 30.5 -5t31.5 -15l233 -170l-84 -86l-223 90l-246 -90z" />
<glyph horiz-adv-x="1050" d="M78 307q0 37 6 86l61 467l-65 19l24 204h357l-86 -690q-2 -12 -3 -27.5t-1 -25.5q0 -129 127 -129q76 0 108.5 47t42.5 137l58 467l-70 17l25 204h360l-86 -702q-27 -207 -140.5 -303t-322.5 -96q-182 0 -288.5 79.5t-106.5 245.5zM369 1194l32 266h170l-32 -266h-170z M637 1194l33 266h170l-33 -266h-170z" />
<glyph horiz-adv-x="1050" d="M78 307q0 37 6 86l61 467l-65 19l24 204h357l-86 -690q-2 -12 -3 -27.5t-1 -25.5q0 -129 127 -129q76 0 108.5 47t42.5 137l58 467l-70 17l25 204h360l-86 -702q-27 -207 -140.5 -303t-322.5 -96q-182 0 -288.5 79.5t-106.5 245.5zM342 1276l104 190l390 -217l-82 -82z " />
<glyph horiz-adv-x="956" d="M45 879l25 204h311l31 -786v-72h12l12 72l201 567l-57 15l24 204h404l-410 -1083h-418l-80 864z" />
<glyph horiz-adv-x="1523" d="M55 879l25 204h326l16 -827h10l10 74l174 577l27 176h322l43 -753l-11 -74h11l192 606l-63 17l24 204h406l-367 -1083h-379l-39 709l4 75h-10l-16 -75l-225 -709h-379l-50 864z" />
<glyph horiz-adv-x="974" d="M-51 0l327 569l-102 285l-94 25l24 204h312l90 -282l6 -66h8l23 66l63 108l74 174h338l-303 -514l114 -346l78 -20l-24 -203h-299l-101 332l-6 57h-10l-16 -57l-86 -156l-72 -176h-344z" />
<glyph horiz-adv-x="919" d="M51 881l25 202h301l69 -409v-68h9l18 68l107 233l55 176h338l-406 -706l-45 -377h-358l24 205l68 14l18 158l-133 479z" />
<glyph horiz-adv-x="919" d="M51 881l25 202h301l69 -409v-68h9l18 68l107 233l55 176h338l-406 -706l-45 -377h-358l24 205l68 14l18 158l-133 479zM268 1251l441 217l61 -190l-442 -109z" />
<glyph horiz-adv-x="919" d="M51 881l25 202h301l69 -409v-68h9l18 68l107 233l55 176h338l-406 -706l-45 -377h-358l24 205l68 14l18 158l-133 479zM295 1194l33 266h170l-33 -266h-170zM565 1194l33 266h170l-33 -266h-170z" />
<glyph horiz-adv-x="876" d="M-33 0l27 244l500 581l47 27v10h-228l-32 -100h-187v321h789l-31 -241l-498 -584l-55 -25v-10h262l35 99h186v-322h-815z" />
<glyph horiz-adv-x="602" d="M63 809q0 88 25 160.5t73 124t117.5 80t159.5 28.5q53 0 109.5 -3t87.5 -7l-21 -102l-45 -361l41 -8l-16 -125q-10 -4 -30.5 -8t-43.5 -4q-47 0 -70.5 21.5t-29.5 62.5l-4 26h-8q-18 -41 -59.5 -74.5t-110.5 -33.5q-86 0 -130.5 61.5t-44.5 161.5zM240 831 q0 -43 14 -69.5t49 -26.5q31 0 53.5 18.5t37 49.5t23.5 73t15 89l10 92h-10q-4 0 -10 1t-10 1q-88 0 -130 -64.5t-42 -163.5z" />
<glyph horiz-adv-x="606" d="M57 604l25 109l90 719l236 12l-17 -133l-61 -11l-21 -147h8q8 8 45 32.5t97 24.5q86 0 132 -61.5t46 -159.5q0 -88 -23.5 -161.5t-71.5 -128t-122 -84t-174 -29.5q-47 0 -100.5 5t-88.5 13zM254 733q6 -2 12 -2h21q86 0 128 68.5t42 161.5q0 47 -17.5 76.5t-52.5 29.5 q-61 0 -88 -69.5t-37 -170.5z" />
<glyph horiz-adv-x="495" d="M63 844q0 82 25 148.5t71 112.5t109.5 71.5t141.5 25.5q31 0 58.5 -4t47.5 -8q23 -6 43 -10l-37 -195h-125v76h-12q-72 -6 -107.5 -60.5t-35.5 -138.5q0 -61 25.5 -98t84.5 -37q43 0 82 17.5t64 43.5v-147q-16 -14 -67.5 -35.5t-123.5 -21.5q-117 0 -180.5 71.5 t-63.5 188.5z" />
<glyph horiz-adv-x="600" d="M61 813q0 182 99.5 288.5t283.5 106.5h15l10 97l-53 12l14 113l238 12l-23 -109l-72 -604l39 -6l-16 -127q-10 -4 -37 -8t-37 -4q-43 0 -70.5 20.5t-31.5 57.5l-4 32h-8q-16 -41 -58.5 -74.5t-109.5 -33.5q-86 0 -132.5 62.5t-46.5 164.5zM242 838q0 -49 15 -76t54 -27 q29 0 49.5 18.5t35 50.5t22.5 74t14 91l10 90q-4 0 -10 2q-4 0 -10 1t-10 1q-86 0 -128 -65.5t-42 -159.5z" />
<glyph horiz-adv-x="569" d="M66 846q0 76 23.5 140.5t67.5 112.5t106.5 74.5t139.5 26.5q96 0 151.5 -46t55.5 -124q0 -55 -28.5 -92t-71.5 -60.5t-93 -36t-95 -16.5l-76 -6q2 -55 42 -74.5t99 -19.5h23l22 61h119v-168q-23 -10 -81 -22t-122 -12q-135 0 -208.5 69.5t-73.5 192.5zM254 924 q98 10 144 31.5t46 62.5q0 47 -57 47q-51 0 -85 -36t-44 -89z" />
<glyph horiz-adv-x="309" d="M72 1075l14 119l231 12l-57 -471l41 -10l-14 -125q-20 -6 -54 -9t-47 -3q-109 0 -108 92q0 6 1 12t1 13l49 360zM131 1348l125 114l94 -114l-123 -115z" />
<glyph horiz-adv-x="307" d="M80 680q0 6 1 13t1 14l80 600l-58 10l15 115l229 12l-88 -711l43 -6l-14 -127q-20 -6 -54 -9t-49 -3q-106 0 -106 92z" />
<glyph horiz-adv-x="937" d="M70 596l61 463l-55 8l14 125q12 4 42 8t44 4q80 0 96 -74l2 -12h9q27 35 67.5 59.5t100.5 24.5q53 0 91 -22.5t54 -61.5h8q29 35 69 59.5t97 24.5q152 0 152 -151v-19.5t-2 -19.5l-39 -281l47 -10l-15 -125q-20 -4 -54 -8t-46 -4q-106 0 -106 92q0 6 1 19.5t3 27.5 l30 240q2 8 3 22t1 19q0 57 -53 57q-51 0 -69.5 -39t-28.5 -111l-39 -315h-172l45 373q2 10 3 21t1 16q0 25 -13 40t-40 15q-49 0 -68.5 -38t-29.5 -112l-39 -315h-172z" />
<glyph horiz-adv-x="591" d="M66 836q0 166 82.5 266t234.5 100q119 0 177 -68.5t58 -181.5q0 -170 -83.5 -268t-237.5 -98q-121 0 -176 68.5t-55 181.5zM242 844q0 -51 16 -85t64 -34q33 0 56 18.5t37.5 49t21.5 69.5t7 80q0 51 -17 85t-65 34q-35 0 -57 -18.5t-36.5 -49t-20.5 -69.5t-6 -80z" />
<glyph horiz-adv-x="409" d="M70 596l61 463l-53 8l14 125q12 4 36 8t46 4q80 0 98 -71l4 -17h9q25 39 68.5 62.5t117.5 23.5v-162q-4 2 -16.5 3t-22.5 1q-78 0 -110.5 -41.5t-42.5 -119.5l-21 -154l49 -8l-16 -125h-221z" />
<glyph horiz-adv-x="499" d="M45 614l33 189h125v-84h26q37 0 73 9t36 42q0 25 -38 42t-83 39.5t-83 58.5t-38 96q0 55 24.5 92t64.5 59.5t90.5 32.5t103.5 10q59 0 106 -6t74 -14l-37 -195h-125v82h-35q-31 0 -58.5 -8t-27.5 -37q0 -25 38 -41t83 -38.5t83 -57.5t38 -94t-25.5 -99.5t-65.5 -64 t-92 -32.5t-104 -9q-27 0 -55.5 3t-55 7t-47 9t-28.5 9z" />
<glyph horiz-adv-x="364" d="M76 1051l16 133l62 8l39 129l161 65l-24 -194h96l-16 -141h-93l-30 -236q-2 -8 -2 -19.5v-15.5q0 -35 18.5 -47t50.5 -12h17.5t17.5 4l-37 -131q-10 -4 -30.5 -7t-51.5 -3q-84 0 -125 43t-41 121q0 12 1 26t4 29l30 248h-63z" />
<glyph horiz-adv-x="550" d="M-33 -6q0 174 75 272.5t214 98.5q111 0 166 -67t55 -181q0 -170 -79 -268.5t-216 -98.5q-111 0 -163 66.5t-52 177.5zM127 10q0 -53 15.5 -92t58.5 -39q29 0 51 18.5t36.5 50.5t21.5 72.5t7 83.5q0 53 -16 91t-57 38q-31 0 -53.5 -18t-37 -49t-20.5 -72t-6 -84z" />
<glyph horiz-adv-x="495" d="M-41 -240l14 129h142l41 293l-6 2l-21 -37q-27 -18 -65.5 -30.5t-67.5 -20.5l-6 140q47 10 104.5 40.5t98.5 77.5h147l-66 -465h121l-14 -129h-422z" />
<glyph horiz-adv-x="518" d="M-55 -240l16 140q88 49 146.5 86t94.5 66.5t51 55t15 52.5q0 41 -29.5 58.5t-78.5 17.5h-15l-39 -109h-102v215q41 10 90 17.5t94 7.5q100 0 169 -46.5t69 -142.5q0 -86 -52 -151.5t-179 -128.5v-9h135l94 9l-16 -138h-463z" />
<glyph horiz-adv-x="522" d="M-43 -90q37 -14 82 -22.5t90 -8.5q14 0 34.5 2t41 9.5t35 20.5t14.5 36q0 41 -29.5 53t-83.5 12h-86l13 103h86q45 0 82.5 13t37.5 54q0 43 -32.5 54.5t-67.5 11.5h-16t-23 -2l-24 -74h-107v176q94 25 195 25q49 0 92 -9.5t75.5 -29t52 -50t19.5 -73.5q0 -53 -25.5 -86 t-72.5 -53v-9q29 -16 52.5 -44.5t23.5 -79.5q0 -55 -27 -92t-70 -58.5t-97 -30t-107 -8.5q-45 0 -89 8.5t-69 14.5v137z" />
<glyph horiz-adv-x="542" d="M-49 -135l18 147l254 340h211l-45 -366h64l-15 -121h-63l-13 -107h-151l12 107h-272zM84 -8v-6h156l26 213l17 37h-9l-159 -232z" />
<glyph horiz-adv-x="499" d="M-59 -229l28 182h115v-72h25q55 0 95 15.5t40 62.5q0 41 -46 60.5t-128 19.5h-62l39 315h371l-17 -137l-92 10h-129l-10 -86q45 0 87 -12t75 -34.5t52 -57.5t19 -82q0 -59 -24.5 -98t-65.5 -62.5t-93 -34t-105 -10.5q-41 0 -89.5 5t-84.5 16z" />
<glyph horiz-adv-x="544" d="M-25 4q0 82 20.5 148.5t61.5 113.5t103.5 74t148.5 27q39 0 89.5 -7.5t78.5 -17.5l-28 -176h-117v72l-21 2q-70 0 -105.5 -26t-51.5 -87q18 2 30.5 3t24.5 1q106 0 175 -43t69 -133q0 -98 -71 -150.5t-181 -52.5q-115 0 -170.5 72t-55.5 180zM131 8.5v-20.5 q0 -51 19.5 -83t66.5 -32q37 0 59.5 22.5t22.5 57.5q0 47 -34 63.5t-81 16.5q-16 0 -28.5 -1t-22.5 -3q-2 -10 -2 -20.5z" />
<glyph horiz-adv-x="468" d="M-14 139v215h440l-16 -137q-59 -51 -98.5 -111.5t-64 -121t-36.5 -115.5t-16 -96l-2 -15h-162l2 15q14 111 57 224.5t129 209.5l27 12v8h-125l-29 -88h-106z" />
<glyph horiz-adv-x="552" d="M-47 -98q0 53 29.5 92t78.5 63v9q-27 16 -44 44.5t-17 63.5q0 51 22.5 87t59.5 59.5t82 34t92 10.5q43 0 82 -9.5t69.5 -28t49 -47t18.5 -67.5q0 -57 -30.5 -90t-71.5 -51v-9q29 -20 50 -50.5t21 -71.5q0 -51 -23.5 -87t-60 -59.5t-84 -35t-96.5 -11.5q-94 0 -160.5 37 t-66.5 117zM94 -74q0 -29 28 -43t62 -14q39 0 69 15.5t30 49.5q0 29 -25 44.5t-65 25.5l-21 6q-33 -14 -55.5 -33.5t-22.5 -50.5zM160 186q0 -29 24.5 -42t59.5 -23l18 -6q23 10 47.5 28.5t24.5 51.5q0 29 -25.5 42t-60.5 13t-61.5 -16.5t-26.5 -47.5z" />
<glyph horiz-adv-x="544" d="M-47 -225l29 176h114v-72l23 -2q70 0 105.5 25.5t51.5 87.5q-18 -2 -30.5 -3t-24.5 -1q-106 0 -175 43t-69 133q0 98 71 150.5t181 52.5q115 0 170.5 -72t55.5 -180q0 -164 -82 -263.5t-252 -99.5q-39 0 -89 7t-79 18zM131 164q0 -47 34 -63.5t81 -16.5q16 0 28.5 1 t22.5 3q2 10 2 20.5v20.5q0 51 -19.5 83t-66.5 32q-37 0 -59.5 -22.5t-22.5 -57.5z" />
<glyph horiz-adv-x="305" d="M6 94q0 45 6 92q14 117 63.5 223.5t112.5 192.5l76 -55q-25 -41 -50.5 -89t-47 -106.5t-34.5 -126t-13 -147.5q0 -84 15.5 -152.5t37.5 -122.5l-88 -55q-35 68 -56.5 159t-21.5 187z" />
<glyph horiz-adv-x="305" d="M-35 -195q25 39 50.5 88.5t47 107.5t35 126t13.5 145q0 86 -15.5 155t-38.5 122l88 55q35 -68 56.5 -159t21.5 -187q0 -47 -6 -92q-14 -117 -63.5 -223.5t-112.5 -192.5z" />
<glyph horiz-adv-x="1015" d="M51 426q0 156 35 282t102.5 213t165 134t221.5 47q100 0 177 -32t127.5 -90t76 -142t25.5 -187q0 -156 -37 -279.5t-106.5 -210.5t-170 -133t-225.5 -46q-201 0 -296 120.5t-95 323.5zM340 453q0 -49 7 -91.5t22.5 -75t42 -51t65.5 -18.5q53 0 93 34t67 91t40 132t13 157 q0 47 -7 90t-23.5 74.5t-42 50t-64.5 18.5q-57 0 -98 -33.5t-67 -90t-37 -131t-11 -156.5z" />
<glyph horiz-adv-x="870" d="M20 0l29 236h256l76 532l-8 4l-41 -67q-45 -33 -116 -55.5t-126 -37.5l-12 256q88 16 190.5 71.5t180.5 143.5h268l-121 -847h225l-28 -236h-773z" />
<glyph horiz-adv-x="931" d="M-2 0l29 252q168 90 276.5 156.5t172 120t87 98.5t23.5 94q0 72 -53.5 107.5t-143.5 35.5h-27l-69 -196h-195v389q74 18 163 31.5t169 13.5q88 0 169 -23.5t142.5 -69.5t98.5 -114t37 -156q0 -76 -24 -140t-75 -123.5t-132 -115t-195 -112.5l2 -12h245l172 14l-30 -250 h-842z" />
<glyph horiz-adv-x="935" d="M29 20v250q68 -25 148.5 -40t160.5 -15q27 0 65.5 3t74.5 15.5t61.5 38t25.5 70.5q0 68 -58 89.5t-147 21.5h-155l22 186h156q43 0 81 5t68.5 19.5t49 37t20.5 59.5q0 39 -17.5 61.5t-45 34.5t-60.5 15t-65 3h-31.5t-32.5 -2l-45 -133h-194v318q86 23 172 34t182 11 q86 0 164 -16.5t138 -52.5t95 -91t35 -133q0 -92 -48 -153.5t-130 -98.5v-8q53 -29 95 -84t42 -146q0 -102 -47 -167.5t-122 -103.5t-170 -52t-191 -14q-82 0 -167 13t-130 25z" />
<glyph horiz-adv-x="972" d="M10 193l33 266l469 624h383l-82 -669h115l-29 -221h-117l-22 -193h-275l23 193h-498zM256 422l4 -8h281l47 389l26 65l-10 2l-295 -421z" />
<glyph horiz-adv-x="892" d="M6 20l60 332h202v-133h43q102 0 168 30t66 113q0 78 -85 112t-233 34h-112l71 575h676l-31 -249l-167 16h-236l-18 -154q82 -2 158.5 -23.5t136 -63.5t95.5 -105.5t36 -147.5q0 -109 -43 -180.5t-115 -114.5t-164 -61t-190 -18q-78 0 -165 11t-153 27z" />
<glyph horiz-adv-x="968" d="M51 440q0 147 33 269t102.5 209.5t179 135.5t263.5 48q37 0 82 -4t91 -10.5t87 -14.5t67 -16l-59 -320h-207v131q-4 2 -28.5 4t-34.5 2q-117 0 -174.5 -52t-75.5 -156q33 4 55.5 5t44.5 1q96 0 177 -19.5t140.5 -58.5t93.5 -99.5t34 -140.5q0 -90 -33 -159.5 t-91.5 -116.5t-141.5 -71.5t-183 -24.5q-106 0 -185 34.5t-131.5 96t-79 145.5t-26.5 182zM334 414q0 -92 34.5 -151.5t123.5 -59.5q66 0 107.5 40.5t41.5 106.5q0 82 -61.5 113t-149.5 31q-47 0 -92 -7q-2 -18 -3 -36.5t-1 -36.5z" />
<glyph horiz-adv-x="825" d="M66 694v389h802l-30 -247q-106 -92 -178 -203t-116 -221.5t-67.5 -212t-32.5 -174.5l-2 -25h-292l2 25q12 100 37.5 203.5t66.5 205t99.5 198.5t136.5 183l49 29v8h-230l-53 -158h-192z" />
<glyph horiz-adv-x="983" d="M20 260q0 98 51.5 169t143.5 114l2 8q-49 31 -80 85t-31 120q0 92 41 158.5t106.5 107.5t148.5 60.5t167 19.5q78 0 150 -17.5t127 -51.5t88 -87t33 -123q0 -100 -54.5 -161.5t-128.5 -96.5l-2 -8q53 -35 91 -93t38 -134q0 -92 -42 -158t-109.5 -109t-154.5 -62t-175 -19 q-84 0 -158.5 16t-130 50t-88.5 86t-33 126zM276 305q0 -53 50.5 -78.5t115.5 -25.5q68 0 122 28.5t54 89.5q0 49 -45 78t-116 49l-39 11q-59 -25 -100.5 -62t-41.5 -90zM395 776q0 -47 46 -73.5t108 -45.5l33 -10q18 6 40.5 19.5t42 31t33 41t13.5 52.5q0 53 -46.5 76.5 t-107.5 23.5q-63 0 -112.5 -30t-49.5 -85z" />
<glyph d="M23 27l59 319h207v-131q4 -2 28.5 -4t34.5 -2q117 0 174.5 52t75.5 157q-33 -4 -55.5 -5t-44.5 -1q-96 0 -177 19.5t-140.5 58t-93.5 99t-34 140.5q0 90 33 159.5t91.5 117t141.5 72t183 24.5q106 0 185 -35t131 -96.5t79 -145.5t27 -182q0 -147 -33 -269t-102.5 -209 t-179 -135t-263.5 -48q-37 0 -82 4t-91 10t-87 14t-67 17zM338 733q0 -82 61.5 -112.5t149.5 -30.5q27 0 48 1t44 5q2 18 3 36.5t1 37.5q0 92 -35 151.5t-123 59.5q-66 0 -107.5 -41t-41.5 -107z" />
<glyph horiz-adv-x="550" d="M-33 178q0 174 75 272.5t214 98.5q111 0 166 -66.5t55 -181.5q0 -170 -79 -268.5t-216 -98.5q-111 0 -163 66.5t-52 177.5zM127 195q0 -53 15.5 -92.5t58.5 -39.5q29 0 51 18.5t36.5 50.5t21.5 73t7 84q0 53 -16 91t-57 38q-31 0 -53.5 -18.5t-37 -49.5t-20.5 -71.5 t-6 -83.5z" />
<glyph horiz-adv-x="495" d="M-41 -55l14 129h142l41 293l-6 2l-21 -37q-27 -18 -65.5 -30.5t-67.5 -20.5l-6 139q47 10 104.5 41t98.5 78h147l-66 -465h121l-14 -129h-422z" />
<glyph horiz-adv-x="518" d="M-55 -55l16 139q88 49 146.5 86t94.5 66.5t51 55t15 52.5q0 41 -29.5 58.5t-78.5 17.5h-15l-39 -109h-102v215q41 10 90 17.5t94 7.5q100 0 169 -46t69 -143q0 -86 -52 -151.5t-179 -128.5v-8h135l94 8l-16 -137h-463z" />
<glyph horiz-adv-x="522" d="M-43 -43v137q37 -14 82 -22.5t90 -8.5q14 0 34.5 2.5t41 9.5t35 20.5t14.5 35.5q0 41 -29.5 53.5t-83.5 12.5h-86l13 102h86q45 0 82.5 13.5t37.5 54.5q0 43 -32.5 54t-67.5 11h-16t-23 -2l-24 -74h-107v176q94 25 195 25q49 0 92 -9t75.5 -28.5t52 -50.5t19.5 -74 q0 -53 -25.5 -86t-72.5 -53v-8q29 -16 52.5 -45t23.5 -80q0 -55 -27 -92t-70 -58.5t-97 -30t-107 -8.5q-45 0 -89 8.5t-69 14.5z" />
<glyph horiz-adv-x="542" d="M-49 49l18 148l254 340h211l-45 -367h64l-15 -121h-63l-13 -106h-151l12 106h-272zM84 170h156l26 213l17 37h-9l-159 -232l-31 -12v-6z" />
<glyph horiz-adv-x="499" d="M-59 -45l28 182h115v-71h25q55 0 95 15t40 62q0 41 -46 60.5t-128 19.5h-62l39 316h371l-17 -138l-92 11h-129l-10 -86q45 0 87 -12.5t75 -35t52 -57.5t19 -82q0 -59 -24.5 -98t-65.5 -62.5t-93 -34t-105 -10.5q-41 0 -89.5 5.5t-84.5 15.5z" />
<glyph horiz-adv-x="544" d="M-25 188q0 82 20.5 148.5t61.5 114t103.5 74t148.5 26.5q39 0 89.5 -7t78.5 -18l-28 -176h-117v72l-21 2q-70 0 -105.5 -25.5t-51.5 -87.5q18 2 30.5 3t24.5 1q106 0 175 -43t69 -133q0 -98 -71 -150t-181 -52q-115 0 -170.5 71.5t-55.5 179.5zM131 172q0 -51 19.5 -83 t66.5 -32q37 0 59.5 22.5t22.5 57.5q0 47 -34 63.5t-81 16.5q-16 0 -28.5 -1t-22.5 -3q-2 -10 -2 -20.5v-20.5z" />
<glyph horiz-adv-x="468" d="M-14 324v215h440l-16 -138q-59 -51 -98.5 -111.5t-64 -120.5t-36.5 -115.5t-16 -96.5l-2 -14h-162l2 14q14 111 57 224.5t129 209.5l27 12v9h-125l-29 -88h-106z" />
<glyph horiz-adv-x="552" d="M-47 86q0 53 29.5 92t78.5 64v8q-27 16 -44 45t-17 63q0 51 22.5 87t59.5 59.5t82 34t92 10.5q43 0 82 -9.5t69.5 -27.5t49 -47t18.5 -68q0 -57 -30.5 -90t-71.5 -51v-8q29 -20 50 -51t21 -72q0 -51 -23.5 -87t-60 -59.5t-84 -35t-96.5 -11.5q-94 0 -160.5 37t-66.5 117z M94 111q0 -29 28 -43.5t62 -14.5q39 0 69 15.5t30 50.5q0 29 -25 44t-65 25l-21 7q-33 -14 -55.5 -34t-22.5 -50zM160 371q0 -29 24.5 -42.5t59.5 -23.5l18 -6q23 10 47.5 28.5t24.5 51.5q0 29 -25.5 42t-60.5 13t-61.5 -16.5t-26.5 -46.5z" />
<glyph horiz-adv-x="544" d="M-47 -41l29 176h114v-72l23 -2q70 0 105.5 26t51.5 87q-18 -2 -30.5 -3t-24.5 -1q-106 0 -175 43t-69 133q0 98 71 150.5t181 52.5q115 0 170.5 -71.5t55.5 -180.5q0 -164 -82 -263.5t-252 -99.5q-39 0 -89 7.5t-79 17.5zM131 348q0 -47 34 -63.5t81 -16.5q16 0 28.5 1 t22.5 3q2 10 2 20.5v20.5q0 51 -19.5 83t-66.5 32q-37 0 -59.5 -22.5t-22.5 -57.5z" />
<glyph horiz-adv-x="563" d="M70 829q0 174 71.5 272.5t210.5 98.5q111 0 169.5 -66.5t58.5 -181.5q0 -170 -76 -268t-213 -98q-111 0 -166 66t-55 177zM229 846q0 -53 15.5 -92t58.5 -39q29 0 51.5 18.5t37 50t21.5 72.5t7 84q0 53 -16.5 91t-57.5 38q-31 0 -53.5 -18.5t-36.5 -49t-20.5 -71.5 t-6.5 -84z" />
<glyph horiz-adv-x="495" d="M63 596l15 129h141l41 293l-6 2l-21 -37q-27 -18 -65.5 -30.5t-67.5 -20.5l-6 139q47 10 104.5 41t98.5 78h147l-65 -465h121l-15 -129h-422z" />
<glyph horiz-adv-x="518" d="M41 594l16 139q88 49 146.5 85t94.5 65.5t51.5 54.5t15.5 51q0 41 -30 58.5t-79 17.5h-14l-39 -109h-103v215q41 10 90.5 17.5t94.5 7.5q100 0 168.5 -46t68.5 -142q0 -86 -52 -149.5t-179 -127.5v-8h135l94 8l-16 -137h-463z" />
<glyph horiz-adv-x="522" d="M55 604v137q37 -14 82 -22t90 -8q14 0 35 2t41.5 9t34.5 20.5t14 35.5q0 41 -29.5 53.5t-82.5 12.5h-86l12 102h86q45 0 83 13.5t38 54.5q0 43 -33 54t-68 11h-16t-23 -2l-24 -73h-107v176q94 25 195 24q49 0 92 -9t76 -28.5t52.5 -50.5t19.5 -74q0 -53 -26 -85.5 t-73 -53.5v-8q29 -16 52.5 -45t23.5 -80q0 -55 -26.5 -92t-69.5 -58.5t-97.5 -29.5t-107.5 -8q-45 0 -89 8t-69 14z" />
<glyph horiz-adv-x="542" d="M53 702l19 148l254 340h211l-45 -367h63l-14 -121h-64l-12 -106h-152l13 106h-273zM186 823h156l27 213l16 37h-8l-160 -231l-31 -13v-6z" />
<glyph horiz-adv-x="499" d="M41 606l29 182h114v-71h25q55 0 95 15.5t40 62.5q0 41 -46 60t-128 19h-61l38 316h371l-16 -137l-92 10h-129l-11 -86q45 0 87 -12.5t75 -35t52.5 -57t19.5 -81.5q0 -59 -24.5 -98.5t-65.5 -63t-93.5 -33.5t-105.5 -10q-41 0 -89 5t-85 15z" />
<glyph horiz-adv-x="544" d="M76 838q0 82 20.5 148.5t61.5 113.5t103.5 73.5t148.5 26.5q39 0 89 -7t79 -17l-29 -177h-117v72l-20 2q-70 0 -106 -25.5t-52 -86.5q18 2 30.5 3t24.5 1q106 0 175 -43t69 -134q0 -98 -70.5 -150t-181.5 -52q-115 0 -170 71.5t-55 180.5zM231 821q0 -51 19.5 -82.5 t66.5 -31.5q37 0 59.5 22t22.5 57q0 47 -33.5 63.5t-80.5 16.5q-16 0 -28.5 -1t-23.5 -3q-2 -10 -2 -20.5v-20.5z" />
<glyph horiz-adv-x="468" d="M92 975v215h440l-16 -137q-59 -51 -98 -111.5t-63.5 -121t-37 -116t-16.5 -96.5l-2 -14h-162l2 14q14 111 57.5 224.5t129.5 209.5l26 13v8h-125l-28 -88h-107z" />
<glyph horiz-adv-x="552" d="M55 739q0 53 30 92t79 64v8q-27 16 -44.5 45t-17.5 64q0 51 22.5 87t59.5 59.5t82 33.5t92 10q43 0 82 -9t70 -27.5t49.5 -47t18.5 -67.5q0 -57 -31 -90t-72 -52v-8q29 -20 50.5 -51t21.5 -72q0 -51 -23.5 -87t-60.5 -59.5t-84 -34.5t-96 -11q-94 0 -161 36.5t-67 116.5z M197 764q0 -29 27.5 -43t62.5 -14q39 0 68.5 15t29.5 50q0 29 -24.5 44t-65.5 26l-21 6q-33 -14 -55 -33.5t-22 -50.5zM262 1024q0 -29 24.5 -42t59.5 -24l19 -6q23 10 47 28.5t24 51.5q0 29 -25.5 42t-60.5 13t-61.5 -16t-26.5 -47z" />
<glyph horiz-adv-x="544" d="M61 610l29 176h115v-71l22 -2q70 0 106 25.5t52 86.5q-18 -2 -30.5 -3t-24.5 -1q-106 0 -175 43t-69 133q0 98 70.5 150.5t181.5 52.5q115 0 170 -71.5t55 -180.5q0 -164 -82 -263t-252 -99q-39 0 -89 7t-79 17zM240 999q0 -47 33.5 -63t80.5 -16q16 0 28.5 1t23.5 3 q2 10 2 20v21q0 51 -19.5 82.5t-66.5 31.5q-37 0 -59.5 -22.5t-22.5 -57.5z" />
<glyph horiz-adv-x="399" d="M145 1161q0 74 44 114t114 40q55 0 90 -35t35 -92q0 -63 -40 -107.5t-114 -44.5q-59 0 -94 35t-35 90z" />
<glyph horiz-adv-x="1181" d="M31 295q0 109 49 184.5t127 136.5q-25 39 -36 84t-11 88q0 74 25.5 131.5t73.5 98.5t113.5 62.5t145.5 21.5q115 0 194 -50.5t89 -160.5h268l172 10l-57 -203h-178q-16 -104 -41 -207.5t-72 -181.5q43 -27 96 -51.5t98 -44.5l-71 -231q-25 8 -57.5 21t-69.5 30.5t-75 37 t-71 40.5q-66 -59 -155.5 -94t-200.5 -35q-78 0 -143.5 22.5t-112.5 63.5t-73.5 98t-26.5 129zM274 309q0 -53 38 -88t94 -35q76 1 133 52q-49 37 -106.5 94t-96.5 108q-27 -23 -44.5 -56.5t-17.5 -74.5zM412 784q0 -41 25.5 -87t65.5 -92t89 -90t98 -81q29 47 45.5 120 t26.5 144h-203q14 23 25.5 51.5t11.5 57.5q0 41 -23.5 62.5t-62.5 21.5q-41 0 -69.5 -26.5t-28.5 -80.5z" />
</font>
</defs>
</svg>
