<?xml version="1.0" standalone="no"?>
<!DOCTYPE svg PUBLIC "-//W3C//DTD SVG 1.1//EN" "http://www.w3.org/Graphics/SVG/1.1/DTD/svg11.dtd" >
<svg xmlns="http://www.w3.org/2000/svg">
<metadata></metadata>
<defs>
<font id="distefanoslabitalic" horiz-adv-x="972" >
<font-face units-per-em="2048" ascent="1536" descent="-512" />
<missing-glyph horiz-adv-x="368" />
<glyph unicode="&#xfb00;" horiz-adv-x="1099" d="M-164 -195q10 -2 23.5 -3t29.5 -1q76 0 124 39t59 119l104 856h-113l17 141l117 21l12 100q18 150 111.5 237t248.5 87q12 0 36 -1t34 -3v-164q-10 2 -23.5 3t-29.5 1q-86 0 -135.5 -48t-49.5 -147q0 -16 1 -26t4 -21q2 -10 4 -18h323l12 100q18 150 111.5 237t249.5 87 q12 0 35.5 -1t34.5 -3v-164q-10 2 -23.5 3t-30.5 1q-86 0 -135 -48t-49 -147q0 -16 1 -26t3 -21q2 -10 4 -18h174l-20 -162h-189l-104 -854q-18 -150 -112.5 -236.5t-248.5 -86.5q-12 0 -37.5 2t-35.5 4v161q10 -2 23.5 -3t29.5 -1q76 0 124 39t58 119l105 856h-338 l-105 -854q-18 -150 -112.5 -236.5t-247.5 -86.5q-12 0 -38 2t-36 4v161z" />
<glyph unicode="&#xfb01;" horiz-adv-x="1013" d="M-164 -190q10 -4 23.5 -6.5t29.5 -2.5q76 0 124 39t59 119l104 856h-113l17 141l117 21l12 100q18 150 111.5 237t248.5 87q12 0 36 -2t34 -4v-162q-10 2 -23.5 3t-29.5 1q-86 0 -135.5 -48t-49.5 -147q0 -16 1 -26t4 -21q2 -10 4 -18h522l-101 -817l87 -13l-19 -145 q-16 -6 -54 -14t-69 -8q-82 0 -114.5 33.5t-32.5 101.5q0 10 1 22.5t3 26.5l84 651h-342l-105 -854q-18 -150 -112.5 -236.5t-247.5 -86.5q-12 0 -36 2t-38 6v164zM713 1251l159 148l127 -148l-161 -149z" />
<glyph unicode="&#xfb02;" horiz-adv-x="1009" d="M-164 -190q10 -4 23.5 -6.5t29.5 -2.5q76 0 124 39t59 119l104 856h-113l17 141l117 21l12 106q10 86 46 146.5t91 98.5t127 55.5t156 17.5q45 0 98 -4t102.5 -9.5t89 -11.5t58.5 -8l-146 -1208l87 -13l-19 -145q-16 -6 -54 -14t-69 -8q-82 0 -114.5 33.5t-32.5 101.5 q0 10 1 22.5t3 26.5l133 1063q-23 4 -69 7t-95 3q-90 0 -145.5 -44t-55.5 -149q0 -16 1 -27t4 -22q2 -10 4 -18h174l-21 -162h-188l-105 -854q-18 -150 -112.5 -236.5t-247.5 -86.5q-12 0 -38 2t-36 6v164z" />
<glyph unicode="&#xfb03;" horiz-adv-x="1562" d="M-164 -195q10 -2 23.5 -3t29.5 -1q76 0 124 39t59 119l104 856h-113l17 141l117 21l12 100q18 150 111.5 237t248.5 87q12 0 36 -1t34 -3v-164q-10 2 -23.5 3t-29.5 1q-86 0 -135.5 -48t-49.5 -147q0 -16 1 -26t4 -21q2 -10 4 -18h323l12 100q18 150 111.5 237t249.5 87 q12 0 35.5 -1t34.5 -3v-164q-10 2 -23.5 3t-30.5 1q-86 0 -135 -48t-49 -147q0 -16 1 -26t3 -21q2 -10 4 -18h537l-101 -817l86 -13l-18 -145q-16 -6 -54 -14t-69 -8q-82 0 -114.5 33.5t-32.5 101.5q0 10 1 22.5t3 26.5l84 651h-357l-104 -854q-18 -150 -112.5 -236.5 t-248.5 -86.5q-12 0 -37.5 2t-35.5 4v161q10 -2 23.5 -3t29.5 -1q76 0 124 39t58 119l105 856h-338l-105 -854q-18 -150 -112.5 -236.5t-247.5 -86.5q-12 0 -38 2t-36 4v161zM1262 1251l159 148l127 -148l-162 -149z" />
<glyph unicode="&#xfb04;" horiz-adv-x="1558" d="M-164 -195q10 -2 23.5 -3t29.5 -1q76 0 124 39t59 119l104 856h-113l17 141l117 21l12 100q18 150 111.5 237t248.5 87q12 0 36 -1t34 -3v-164q-10 2 -23.5 3t-29.5 1q-86 0 -135.5 -48t-49.5 -147q0 -16 1 -26t4 -21q2 -10 4 -18h323l12 106q10 88 47 148.5t94.5 98.5 t131.5 54.5t158 16.5q39 0 92 -4t105 -9.5t94 -11.5t59 -8l-150 -1208l86 -13l-18 -145q-16 -6 -54 -14t-69 -8q-82 0 -113.5 32.5t-31.5 98.5q0 10 1 26.5t3 30.5l131 1063q-20 4 -67.5 7t-102.5 3q-76 0 -132.5 -35t-66.5 -116q-2 -12 -3 -27.5t-1 -26.5q0 -33 2 -43 l4 -16h176l-20 -162h-189l-104 -854q-18 -150 -112.5 -236.5t-248.5 -86.5q-12 0 -37.5 2t-35.5 4v161q10 -2 23.5 -3t29.5 -1q76 0 124 39t58 119l105 856h-338l-105 -854q-18 -150 -112.5 -236.5t-247.5 -86.5q-12 0 -38 2t-36 4v161z" />
<glyph horiz-adv-x="0" />
<glyph unicode="&#xd;" horiz-adv-x="368" />
<glyph unicode=" "  horiz-adv-x="368" />
<glyph unicode="&#x09;" horiz-adv-x="368" />
<glyph unicode="&#xa0;" horiz-adv-x="368" />
<glyph unicode="!" horiz-adv-x="479" d="M72 84q0 59 34.5 88t83.5 29q41 0 69 -29t28 -76t-31 -80.5t-84 -33.5q-45 0 -72.5 28.5t-27.5 73.5zM131 328l141 968h205l-178 -968h-168z" />
<glyph unicode="&#x22;" horiz-adv-x="559" d="M113 731l55 459h115l-56 -459h-114zM362 731l56 459h114l-55 -459h-115z" />
<glyph unicode="#" d="M20 289l15 110h168l110 346h-198l12 111h217l102 334h119l-102 -334h196l105 334h121l-105 -334h160l-12 -111h-180l-109 -346h211l-14 -110h-230l-88 -289h-121l88 289h-196l-88 -289h-119l88 289h-150zM324 399h196l109 346h-197z" />
<glyph unicode="$" d="M45 8l57 293h150v-158q20 -4 46 -5t52 -1q43 0 87 8.5t80 25.5t57.5 46t21.5 72q0 45 -33 77.5t-81 62.5t-104 59.5t-104.5 69.5t-81 92t-32.5 126q0 76 28.5 132.5t76.5 95t111.5 61t131.5 33.5l27 198h106l-25 -194q78 0 144.5 -7.5t138.5 -23.5l-55 -293h-146v158 q-16 4 -42.5 7t-61.5 3q-43 0 -82 -7t-69.5 -24.5t-49 -45t-18.5 -70.5q0 -45 32.5 -78t81 -60.5t105.5 -56.5t105.5 -66.5t81 -90t32.5 -125.5q0 -76 -27.5 -133.5t-73.5 -98.5t-106.5 -65.5t-128.5 -34.5l-26 -203h-107l25 195h-37q-74 0 -146.5 7t-140.5 19z" />
<glyph unicode="%" horiz-adv-x="1105" d="M72 831q0 168 71.5 268.5t200.5 100.5q109 0 165 -67.5t56 -182.5q0 -174 -73.5 -269t-200.5 -95q-111 0 -165 67t-54 178zM84 0l825 1190h109l-828 -1190h-106zM197 834q0 -59 21.5 -103.5t74.5 -44.5q39 0 66.5 22.5t45 58.5t25.5 82t8 93q0 63 -20.5 110.5t-73.5 47.5 q-41 0 -68.5 -23.5t-45 -61.5t-25.5 -85t-8 -96zM532 238q0 168 72 268t201 100q109 0 165 -67.5t56 -182.5q0 -174 -73.5 -269t-200.5 -95q-111 0 -165.5 67.5t-54.5 178.5zM657 240q0 -59 21.5 -103.5t75.5 -44.5q39 0 66.5 22.5t45 58.5t25.5 82t8 93q0 63 -20.5 110.5 t-73.5 47.5q-41 0 -68.5 -23.5t-45 -61.5t-26 -85t-8.5 -96z" />
<glyph unicode="&#x26;" horiz-adv-x="1253" d="M39 309q0 121 57.5 209t141.5 154q-31 47 -44.5 96t-13.5 94q0 76 26.5 140.5t76 109.5t117 70.5t151.5 25.5q59 0 111.5 -14t91.5 -43t61.5 -73t22.5 -101h348l131 10l-51 -166h-207q-18 -154 -52 -290t-100 -246q59 -41 113.5 -66.5t99.5 -48.5l-61 -188 q-23 8 -55.5 22t-69.5 33.5t-75 42t-75 45.5q-70 -66 -163 -104.5t-209 -38.5q-80 0 -148.5 22.5t-118 65.5t-78 103t-28.5 136zM233 332q0 -80 54.5 -134.5t136.5 -54.5q117 0 207 84q-39 29 -81 67t-82 79t-74 82t-56 75q-47 -35 -76 -82t-29 -116zM379 879 q0 -53 31.5 -116t84 -128.5t118 -130t135.5 -119.5q49 80 76.5 198.5t39.5 237.5h-223q8 16 15.5 43t7.5 56q0 55 -31 87.5t-94 32.5q-61 0 -110.5 -42t-49.5 -119z" />
<glyph unicode="'" horiz-adv-x="303" d="M109 731l55 459h115l-56 -459h-114z" />
<glyph unicode="(" horiz-adv-x="452" d="M55 362q0 35 2 71t6 73q27 209 112 378t185 306l80 -60q-49 -72 -98 -153.5t-87 -175.5t-61.5 -204t-23.5 -235q0 -158 34 -285.5t79 -226.5l-95 -59q-55 115 -94 260.5t-39 310.5z" />
<glyph unicode=")" horiz-adv-x="452" d="M-16 -150q47 70 95 150t86 174t61.5 204.5t23.5 242.5q0 154 -34 282.5t-77 226.5l94 60q53 -113 92.5 -258.5t39.5 -310.5q0 -35 -2.5 -71t-6.5 -73q-12 -104 -40.5 -198.5t-68.5 -179.5t-88 -161.5t-98 -146.5z" />
<glyph unicode="*" horiz-adv-x="735" d="M86 799l225 110l-198 113l69 98l180 -131l17 244h121l-43 -244l213 131l43 -100l-228 -111l201 -110l-68 -99l-180 127l-18 -237h-121l45 239l-213 -129z" />
<glyph unicode="+" d="M88 537l12 112h332l43 342h117l-43 -342h336l-13 -112h-335l-45 -357h-117l45 357h-332z" />
<glyph unicode="," horiz-adv-x="378" d="M4 -168l82 164q-27 8 -43 32.5t-16 57.5q0 47 30.5 85t83.5 38q45 0 70 -28.5t25 -74.5q0 -45 -15.5 -77.5t-42.5 -69.5l-96 -135z" />
<glyph unicode="-" horiz-adv-x="657" d="M78 436l14 113h457l-14 -113h-457z" />
<glyph unicode="." horiz-adv-x="378" d="M27 84q0 59 34.5 88t83.5 29q41 0 69 -29t28 -76t-31 -80.5t-84 -33.5q-45 0 -72.5 28.5t-27.5 73.5z" />
<glyph unicode="/" horiz-adv-x="643" d="M-35 0l584 1190h129l-588 -1190h-125z" />
<glyph unicode="0" d="M37 446q0 172 36 312.5t103.5 240t164.5 154.5t222 55q188 0 277.5 -126t89.5 -337q0 -174 -36 -315t-103.5 -240.5t-165 -153.5t-219.5 -54q-96 0 -165 32.5t-115 93t-67.5 146.5t-21.5 192zM240 455q0 -66 10 -121t31.5 -96t57.5 -64.5t89 -23.5q74 0 129 50t93 132 t57.5 185.5t19.5 211.5q0 66 -10 123t-32.5 99t-58.5 65.5t-87 23.5q-78 0 -134.5 -51t-93.5 -134t-54 -188.5t-17 -211.5z" />
<glyph unicode="1" d="M53 0l21 168h282l111 799q-2 0 -4 1t-4 1l-47 -68q-57 -43 -123 -71.5t-133 -47.5l-21 185q90 20 188.5 75.5t176.5 147.5h202q-35 -258 -70.5 -512t-72.5 -510h270l-20 -168h-756z" />
<glyph unicode="2" d="M12 0l25 199q166 109 282.5 197.5t191.5 165.5t109.5 144.5t34.5 129.5q0 94 -59 147t-182 53q-16 0 -37 -1t-37 -5l-57 -188h-142v323q63 16 149.5 29.5t162.5 13.5q88 0 163.5 -22.5t129 -66.5t84 -108.5t30.5 -148.5q0 -92 -33.5 -174t-102.5 -163t-173.5 -166 t-245.5 -181v-12h402l133 14l-23 -180h-805z" />
<glyph unicode="3" d="M45 18v183q4 -2 29.5 -10.5t64.5 -17.5t86 -16t94 -7q55 0 110.5 10t99.5 34.5t71 63.5t27 96q0 47 -23.5 79t-62.5 52.5t-87 28.5t-98 8h-131l21 160h131q51 0 103 8t94 30.5t69 61.5t27 99q0 82 -62.5 120.5t-161.5 38.5q-29 0 -56.5 -3t-55.5 -7q-10 -41 -22.5 -79 t-24.5 -79h-142v299q66 14 153 25.5t175 11.5q82 0 154.5 -17t128 -53t87 -92.5t31.5 -134.5q0 -113 -53 -187.5t-151 -115.5l-2 -6q70 -31 116.5 -94.5t46.5 -155.5q0 -102 -46 -172.5t-118.5 -115t-163.5 -63.5t-181 -19q-86 0 -164 13t-113 23z" />
<glyph unicode="4" d="M14 225l25 195l553 770h258l-98 -803h120l-20 -162h-121l-26 -225h-195l27 225h-523zM195 387h364l66 537l28 73h-10l-399 -567l-49 -33v-10z" />
<glyph unicode="5" d="M18 16l58 303h149v-163q23 -4 48.5 -5t48.5 -1q61 0 115.5 12t95 38.5t65.5 68.5t25 102q0 57 -30 96t-79 62.5t-112.5 32.5t-131.5 9h-116l75 619h643l-20 -180l-131 12h-311l-35 -291q88 0 171 -20.5t145.5 -61.5t100 -105.5t37.5 -156.5q0 -109 -40.5 -185.5 t-109.5 -125.5t-158 -71.5t-185 -22.5q-90 0 -171 9t-147 25z" />
<glyph unicode="6" d="M61 459q0 164 31 302t99.5 237.5t177 154.5t266.5 55q72 0 154.5 -15t134.5 -30l-58 -293h-149v156q-14 4 -47 8t-64 4q-145 0 -214.5 -87t-98.5 -246q86 18 156 18q88 0 166.5 -20.5t137 -61.5t92.5 -103.5t34 -146.5q0 -94 -29 -170t-81 -129t-128 -81.5t-168 -28.5 q-102 0 -180 35.5t-129 99t-77 150.5t-26 192zM260 444q0 -61 12.5 -114.5t39 -94t69.5 -64.5t104 -24q90 0 143.5 60t53.5 164q0 51 -20.5 89t-56.5 62.5t-84 35.5t-101 11q-45 0 -82 -5t-72 -13q-4 -29 -5 -53.5t-1 -53.5z" />
<glyph unicode="7" d="M135 854v336h803l-25 -203q-133 -125 -219 -256t-138 -258t-77.5 -243.5t-38.5 -213.5l-2 -16h-202l2 18q14 111 41.5 229t77 240.5t125 246.5t186.5 245l57 33v10h-403l-52 -168h-135z" />
<glyph unicode="8" d="M33 276q0 119 65.5 197t165.5 131v8q-61 35 -99 98.5t-38 143.5q0 88 38 154.5t99.5 110.5t139 66.5t159.5 22.5q76 0 142.5 -18.5t116.5 -55t80 -91t30 -128.5q0 -55 -17.5 -101t-47 -84t-67.5 -67.5t-79 -50.5l-2 -8q72 -43 112.5 -109.5t40.5 -152.5 q0 -96 -38.5 -163.5t-103 -111.5t-145.5 -64.5t-167 -20.5q-82 0 -151.5 18t-122 55t-82 92.5t-29.5 128.5zM219 299q0 -72 59.5 -112t143.5 -40q45 0 89 11.5t79 34t56.5 57.5t21.5 84q0 72 -57.5 111.5t-139.5 66.5l-45 14q-86 -33 -146.5 -89t-60.5 -138zM330 868 q0 -35 14 -61.5t39 -46t56.5 -33.5t66.5 -25l43 -14q27 8 61.5 25.5t64.5 43t50 59.5t20 75q0 72 -55 112.5t-135 40.5q-41 0 -81 -10t-72.5 -31.5t-52 -55.5t-19.5 -79z" />
<glyph unicode="9" d="M41 27l57 292h150v-155q14 -4 47 -8t63 -4q145 0 215 87t99 246q-86 -18 -156 -18q-90 0 -168 20.5t-136 61.5t-92 103.5t-34 146.5q0 94 28.5 169.5t81 129t128 82t168.5 28.5q102 0 180 -35.5t129 -99t76.5 -150.5t25.5 -192q0 -164 -30.5 -302t-99 -237.5 t-178.5 -154.5t-265 -55q-72 0 -155 15t-134 30zM283 819q0 -51 20.5 -89t56 -62.5t84 -35.5t101.5 -11q45 0 82 5t71 13q4 29 5.5 53.5t1.5 52.5q0 61 -12.5 114.5t-39 94.5t-69.5 64.5t-105 23.5q-90 0 -143 -59.5t-53 -163.5z" />
<glyph unicode=":" horiz-adv-x="378" d="M27 84q0 59 34.5 88t83.5 29q41 0 69 -29t28 -76t-31 -80.5t-84 -33.5q-45 0 -72.5 28.5t-27.5 73.5zM109 748q0 59 34.5 87.5t83.5 28.5q41 0 69 -28.5t28 -75.5t-31 -81t-84 -34q-45 0 -72.5 28.5t-27.5 74.5z" />
<glyph unicode=";" horiz-adv-x="378" d="M6 -168l82 164q-27 8 -43 32.5t-16 57.5q0 47 30.5 85t83.5 38q45 0 71 -28.5t26 -74.5q0 -45 -16.5 -77.5t-43.5 -69.5l-96 -135zM109 748q0 59 34.5 87.5t83.5 28.5q41 0 69 -28.5t28 -75.5t-31 -81t-84 -34q-45 0 -72.5 28.5t-27.5 74.5z" />
<glyph unicode="&#x3c;" d="M176 600l639 461l53 -105l-501 -356l413 -362l-80 -97z" />
<glyph unicode="=" d="M68 369l14 114h782l-14 -114h-782zM106 672l13 112h782l-12 -112h-783z" />
<glyph unicode="&#x3e;" d="M106 246l504 354l-409 365l78 96l522 -461l-637 -459z" />
<glyph unicode="?" horiz-adv-x="839" d="M141 950v320q47 14 128 29.5t167 15.5t159 -23.5t125 -68.5t80.5 -112t28.5 -150q0 -86 -32.5 -159t-89 -130.5t-131 -98.5t-156.5 -63l-37 -182h-168l39 297q70 12 135.5 35.5t117.5 62.5t84 94t32 129q0 92 -58.5 144.5t-156.5 52.5q-20 0 -43 -2t-39 -6l-52 -185h-133 zM156 84q0 59 34.5 88t83.5 29q41 0 69 -30t28 -73q0 -49 -31 -82.5t-84 -33.5q-45 0 -72.5 28.5t-27.5 73.5z" />
<glyph unicode="@" horiz-adv-x="1153" d="M18 250q0 158 44 294t125 236.5t197 157.5t257 57q104 0 186 -34.5t139.5 -95t88 -143.5t30.5 -181q0 -94 -25.5 -186.5t-77.5 -167t-132 -125t-188 -60.5l-17 109h-8q-8 -18 -22.5 -38t-37 -36.5t-53 -26.5t-67.5 -10q-88 0 -129 70.5t-41 169.5q0 96 25.5 177t72.5 139 t113.5 90t148.5 32q51 0 91 -3t69 -7l-27 -123l-41 -324l6 -98q104 37 165 143.5t61 265.5q0 166 -87 263.5t-255 97.5q-119 0 -211 -50t-155.5 -136t-96.5 -201t-33 -244q0 -92 22.5 -176t69.5 -147.5t119 -100.5t172 -37q104 0 190.5 28t159.5 65l-14 -115 q-76 -37 -159 -59.5t-195 -22.5q-121 0 -210 42t-149.5 116.5t-90.5 176t-30 218.5zM403 248q0 -66 20.5 -106t65.5 -40q76 0 112 82t52 222l21 167q-6 0 -15 2q-6 0 -15 1.5t-19 1.5q-55 0 -96.5 -27t-69 -71t-42 -104.5t-14.5 -127.5z" />
<glyph unicode="A" horiz-adv-x="1132" d="M-53 0l499 1116l-98 19l21 161h473l157 -1124l72 -12l-20 -160h-289l8 141l-22 197h-431l-69 -164l71 -12l-20 -162h-352zM391 514h340l-72 545v82h-8l-24 -82z" />
<glyph unicode="B" horiz-adv-x="1099" d="M55 0l35 143l121 975l-92 21l20 157h570q74 0 137 -20.5t108 -59t71 -97t26 -132.5q0 -119 -53.5 -198.5t-139.5 -116.5l-2 -8q72 -39 110 -110t38 -163q0 -98 -34 -172t-93.5 -122t-140.5 -72.5t-175 -24.5h-506zM311 176h219q49 0 95.5 11.5t81 38t55 68.5t20.5 103 q0 86 -48 135.5t-152 49.5h-222zM379 735h231q90 0 153.5 54.5t63.5 156.5q0 82 -42 127t-136 45h-223z" />
<glyph unicode="C" horiz-adv-x="1001" d="M47 520q0 184 49 330.5t139.5 250t214 159t275.5 55.5q37 0 80 -4t85 -10.5t80 -14.5t64 -14l-59 -320h-152v166q-6 2 -22.5 4t-34.5 4t-35.5 3t-28.5 1q-102 0 -181 -43t-134 -119.5t-84 -183t-29 -235.5q0 -80 17.5 -149.5t52.5 -121t90 -80t129 -28.5q53 0 103.5 14.5 t94.5 38t77.5 51t54.5 54.5v-228q-18 -16 -52 -36.5t-81 -39t-107.5 -30.5t-134.5 -12q-111 0 -198 37.5t-147 108.5t-93 170t-33 222z" />
<glyph unicode="D" horiz-adv-x="1161" d="M55 0l35 143l123 975l-94 21l20 157h482q256 0 376.5 -136t120.5 -392q0 -377 -160.5 -572.5t-465.5 -195.5h-437zM311 180h193q100 0 175 40t123 116t71.5 182.5t23.5 241.5q0 170 -67.5 262t-217.5 92h-186z" />
<glyph unicode="E" horiz-adv-x="1026" d="M55 0l35 143l121 975l-92 21l20 157h893l-63 -344h-154v162h-389l-43 -352h512l-23 -172h-512l-49 -410h396l43 164h145v-344h-840z" />
<glyph unicode="F" horiz-adv-x="958" d="M55 0l35 143q29 246 60.5 488.5t60.5 486.5l-92 21l20 157h854l-63 -344h-152v162h-352l-47 -373h467l-21 -172h-467l-49 -395q27 -4 53.5 -8t53.5 -8l-19 -158h-342z" />
<glyph unicode="G" horiz-adv-x="1114" d="M47 518q0 176 45 322.5t133 252t217 164t297 58.5q76 0 173.5 -13.5t174.5 -37.5l-59 -312h-154v166q-35 10 -75.5 14.5t-81.5 4.5q-111 0 -195 -44t-140 -124t-85 -190.5t-29 -241.5q0 -78 14.5 -146.5t48.5 -121t89 -82t135 -29.5q47 0 100.5 10t87.5 31l41 327h-213 l19 166h422l-76 -614q-80 -41 -186.5 -68.5t-237.5 -27.5q-102 0 -187 33.5t-146.5 101t-96.5 168t-35 233.5z" />
<glyph unicode="H" horiz-adv-x="1187" d="M55 0l35 143q29 246 60.5 488.5t60.5 486.5q-23 6 -45.5 10.5t-46.5 10.5l20 157h310l-66 -534h461l65 534h230q-8 -37 -15.5 -72.5t-17.5 -70.5l-123 -979q23 -4 46.5 -8t45.5 -8l-18 -158h-307l71 586h-461l-49 -408l84 -16l-20 -162h-320z" />
<glyph unicode="I" horiz-adv-x="505" d="M55 0l35 143l121 975l-92 21l20 157h310l-138 -1118l84 -16l-20 -162h-320z" />
<glyph unicode="J" horiz-adv-x="675" d="M-27 -10v180q10 -2 33 -3t39 -1q115 0 180.5 61.5t81.5 178.5l88 706l-272 18l20 166h502l-33 -145l-92 -748q-27 -211 -145.5 -316t-304.5 -105q-16 0 -50 2t-47 6z" />
<glyph unicode="K" horiz-adv-x="1064" d="M57 0l33 145l123 973q-23 6 -46.5 10.5t-47.5 10.5l20 157h310l-68 -540h10l41 80l402 460h258l-461 -524l274 -598l88 -16l-18 -158h-240l-260 604h-8l-123 -141l-33 -287l84 -14l-20 -162h-318z" />
<glyph unicode="L" horiz-adv-x="907" d="M57 0l35 143l123 975q-25 4 -48.5 9.5t-47.5 11.5l20 157h310l-138 -1116h336l37 162h147v-342h-774z" />
<glyph unicode="M" horiz-adv-x="1662" d="M37 0l39 143l168 975l-92 21l20 157h451l153 -929v-70h12l19 70l389 929h354l-26 -145l-70 -975l82 -14l-20 -162h-295l94 1090h-10l-21 -76l-432 -1014h-211l-186 1016v76h-11l-145 -914l88 -16l-20 -162h-330z" />
<glyph unicode="N" horiz-adv-x="1220" d="M57 0l33 139l125 979l-96 21l20 157h377l326 -1030h10v82l74 770l-86 17l20 161h316l-35 -143l-146 -1153h-280l-318 1040h-10v-86l-76 -776l84 -16l-20 -162h-318z" />
<glyph unicode="O" horiz-adv-x="1159" d="M47 514q0 188 43 336.5t124 252t195.5 158t260.5 54.5q111 0 194.5 -38t139 -107.5t83 -168t27.5 -219.5q0 -186 -41 -334.5t-118.5 -252t-193.5 -158.5t-265 -55q-219 0 -334 143t-115 389zM276 535q0 -76 13.5 -143.5t44.5 -119t78 -81t114 -29.5q92 0 161 49t113 131 t66.5 190.5t22.5 225.5q0 76 -14.5 144.5t-45 119.5t-79 81t-115.5 30q-96 0 -164 -51.5t-111 -135.5t-63.5 -191t-20.5 -220z" />
<glyph unicode="P" horiz-adv-x="1052" d="M55 0l35 143l123 975q-23 6 -46.5 10.5t-47.5 10.5l20 157h518q186 0 291 -89t105 -267q0 -117 -38 -201t-104.5 -136t-155.5 -76.5t-190 -24.5h-215l-39 -324l109 -20l-19 -158h-346zM373 682h176q57 0 108.5 12.5t90 40t61 73.5t22.5 116q0 106 -61 149t-172 43h-172z " />
<glyph unicode="Q" horiz-adv-x="1159" d="M49 514q0 387 161 594t452 207q111 0 195.5 -38t142 -107.5t87 -168t29.5 -219.5q0 -307 -101.5 -503.5t-299.5 -264.5l63 -247h-205l-55 217q-4 0 -8 -1t-8 -1q-219 0 -336 143t-117 389zM279 535q0 -68 11 -129.5t33.5 -110.5t59.5 -82t90 -45l-47 186h205l39 -155 q55 33 97 89t69.5 130t41 161t13.5 179q0 76 -14.5 144.5t-45 119.5t-78.5 81t-116 30q-96 0 -163.5 -51.5t-111 -135.5t-63.5 -191.5t-20 -219.5z" />
<glyph unicode="R" horiz-adv-x="1126" d="M59 0l33 143l123 975l-96 21l20 157h549q174 0 275.5 -81.5t101.5 -241.5q0 -150 -69.5 -235t-178.5 -117v-9q29 -14 47.5 -34.5t30.5 -51t19.5 -73.5t13.5 -105l18 -174l82 -16l-18 -158h-260l-39 350q-6 61 -20.5 99t-39 59.5t-62.5 29t-93 7.5h-138l-45 -369l82 -14 l-20 -162h-316zM377 705h211q106 0 178 61t72 176q0 174 -195 174h-215z" />
<glyph unicode="S" horiz-adv-x="970" d="M-4 29l57 323h156v-174q27 -8 66.5 -12t72.5 -4q51 0 101.5 9t91.5 31.5t66.5 58.5t25.5 89q0 59 -38 100.5t-94.5 75t-123 67.5t-122.5 77t-94 102t-38 146q0 109 44 184.5t117.5 122.5t170 68.5t200.5 21.5q41 0 87 -4t89 -11.5t78 -14.5t54 -13l-60 -324h-158v174 q-25 4 -60.5 8.5t-63.5 4.5q-49 0 -97.5 -8.5t-87.5 -30t-62.5 -56t-23.5 -90.5q0 -55 38 -94t95.5 -72.5t124 -67.5t123.5 -78t95 -105.5t38 -149.5q0 -115 -46 -191.5t-123 -124t-175 -66.5t-203 -19q-39 0 -83 4t-88 10t-83.5 14t-66.5 19z" />
<glyph unicode="T" horiz-adv-x="954" d="M84 952v344h944l-63 -344h-154v162h-166l-137 -1114h-229l34 143l119 971h-158l-47 -162h-143z" />
<glyph unicode="U" horiz-adv-x="1153" d="M106 346q0 45 7 98l84 676l-86 19l20 157h303l-104 -841q-6 -49 -6 -88q0 -102 44 -150.5t158 -48.5q133 0 195.5 72.5t79.5 214.5l82 663l-84 17l20 161h301l-104 -852q-29 -242 -148.5 -352t-355.5 -110q-406 0 -406 364z" />
<glyph unicode="V" horiz-adv-x="1044" d="M70 1139l20 157h264l107 -1015v-93h12l23 93l319 839l-78 15l21 161h352l-518 -1296h-295l-156 1122z" />
<glyph unicode="W" horiz-adv-x="1697" d="M76 1139l20 157h281l78 -1108h10l14 91l273 866l26 151h326l55 -1015l-10 -91h12l309 930l-77 15l20 161h350l-473 -1296h-311l-55 989v92h-13l-18 -92l-311 -989h-312l-118 1122z" />
<glyph unicode="X" horiz-adv-x="1073" d="M-61 0l436 668l-185 450l-88 21l19 157h252l155 -424l19 -77h12l25 75l186 287l68 139h272l-414 -628l209 -494l90 -16l-18 -158h-254l-176 485l-15 78h-10l-28 -78l-193 -311l74 -12l-21 -162h-415z" />
<glyph unicode="Y" horiz-adv-x="989" d="M70 1139l20 157h238l145 -559l10 -73h11l16 75l215 381l-72 15l21 161h379l-480 -821l-57 -475h-299l21 162l79 14l35 299l-202 645z" />
<glyph unicode="Z" horiz-adv-x="976" d="M-23 0l25 213l684 850l59 39v12h-426l-47 -162h-141v344h860l-26 -211l-684 -852l-60 -40v-13h465l43 162h141v-342h-893z" />
<glyph unicode="[" horiz-adv-x="468" d="M35 -211l172 1401h285l-13 -113h-168l-145 -1177h168l-15 -111h-284z" />
<glyph unicode="\" horiz-adv-x="616" d="M82 1190h121l327 -1190h-124z" />
<glyph unicode="]" horiz-adv-x="468" d="M-53 -211l14 111h166l145 1177h-168l13 113h284l-172 -1401h-282z" />
<glyph unicode="^" d="M16 369l523 639l360 -639l-100 -74l-285 514l-403 -510z" />
<glyph unicode="_" horiz-adv-x="1087" d="M-119 -358l15 112h1085l-14 -112h-1086z" />
<glyph unicode="`" horiz-adv-x="1003" d="M362 1241l97 150l325 -224l-69 -69z" />
<glyph unicode="a" horiz-adv-x="976" d="M20 344q0 152 42 272.5t121 204.5t189.5 129t250.5 45q111 0 183.5 -6t104.5 -10l-34 -158l-80 -661l82 -13l-19 -145q-18 -6 -50 -14t-62 -8q-59 0 -93 28.5t-39 75.5l-6 59h-8q-12 -18 -34.5 -45.5t-57.5 -53.5t-84 -44t-113 -18q-72 0 -127 27.5t-92 75.5t-55.5 114.5 t-18.5 144.5zM221 362q0 -43 8.5 -82.5t25.5 -69.5t46 -47.5t70 -17.5q70 0 120 38t84.5 103.5t55 154.5t33.5 194l20 188q-14 0 -29 2q-12 2 -27.5 3t-31.5 1q-92 0 -161.5 -34.5t-117 -96t-72 -147.5t-24.5 -189z" />
<glyph unicode="b" horiz-adv-x="978" d="M35 4l37 143l149 1225l305 21l-18 -156l-109 -18l-43 -355h11q8 12 28.5 34t54 43.5t79.5 37.5t106 16q145 0 220 -99t75 -253q0 -152 -40 -273.5t-119 -207.5t-195.5 -133t-270.5 -47q-29 0 -65.5 2t-74.5 5t-72 7t-58 8zM266 154q12 -2 27 -4q12 -2 27.5 -3.5 t31.5 -1.5q92 0 162 36t117 99.5t70.5 148.5t23.5 183q0 92 -36 155.5t-122 63.5q-66 0 -112.5 -37.5t-79.5 -103t-53.5 -155t-32.5 -193.5z" />
<glyph unicode="c" horiz-adv-x="800" d="M25 399q0 135 39.5 245t112.5 187.5t174.5 120.5t226.5 43q80 0 146.5 -12t92.5 -20l-55 -283h-146v145q-8 4 -28.5 5t-38.5 1q-78 -2 -138.5 -34.5t-101.5 -90t-62.5 -134t-21.5 -164.5q0 -111 56.5 -188t167.5 -77q92 0 154.5 41t101.5 82v-196q-14 -10 -40 -25.5 t-63 -29t-85 -23.5t-107 -10q-180 0 -282.5 113.5t-102.5 303.5z" />
<glyph unicode="d" horiz-adv-x="976" d="M20 356q0 150 43 267.5t122 200.5t191.5 127t252.5 44h73l27 224l-98 18l16 135l314 21l-33 -158l-131 -1075l82 -13l-19 -145q-18 -6 -53 -14t-66 -8q-121 0 -127 108l-4 55h-8q-10 -18 -32.5 -45.5t-58.5 -53.5t-85 -44t-113 -18q-74 0 -128 28.5t-91 78.5t-55.5 118.5 t-18.5 148.5zM223 373q0 -47 9.5 -88t28 -72t48 -49.5t70.5 -18.5q70 0 119 38t81.5 103.5t52 154.5t32.5 194l20 188q-12 0 -25 2q-10 2 -25.5 3t-31.5 1q-90 0 -160.5 -33.5t-119 -93t-74 -144.5t-25.5 -185z" />
<glyph unicode="e" horiz-adv-x="919" d="M25 399q0 119 37.5 227.5t107.5 190.5t168 130t219 48q147 0 237.5 -68.5t90.5 -187.5q0 -88 -43 -147.5t-115 -98t-163 -60t-189 -30.5l-146 -14q0 -244 256 -244q35 0 66 5.5t51 11.5l37 121h135v-248q-25 -10 -61.5 -19.5t-79.5 -16.5t-91 -12t-98 -5 q-209 0 -314 112.5t-105 304.5zM242 526l145 19q123 16 195.5 54t83.5 118q0 53 -34 87t-104 34q-53 0 -99 -22.5t-84 -63.5t-64.5 -98.5t-38.5 -127.5z" />
<glyph unicode="f" horiz-adv-x="563" d="M-164 -193q10 -2 23.5 -4t29.5 -2q76 0 124 39t59 119l104 856h-113l17 141l117 21l12 100q18 150 111.5 237t248.5 87q12 0 36 -2t34 -4v-162q-10 2 -23.5 3t-29.5 1q-86 0 -135.5 -48t-49.5 -147q0 -16 1 -26t4 -21q2 -10 4 -18h174l-21 -162h-188l-105 -854 q-18 -150 -112.5 -236.5t-247.5 -86.5q-12 0 -37 2t-37 6v161z" />
<glyph unicode="g" horiz-adv-x="976" d="M-23 -319l58 276h143v-154h60q72 0 130 13.5t102 45.5t74.5 86t45.5 136l14 80h-8q-14 -16 -35.5 -37t-53.5 -38t-76 -29.5t-101 -12.5q-147 0 -226 98.5t-79 257.5q0 137 44 247t123.5 186.5t189.5 117.5t243 41q111 0 182.5 -6t103.5 -10l-34 -158l-86 -710 q-31 -250 -161 -359.5t-378 -109.5q-86 0 -159 11t-116 28zM227 414q0 -86 38 -144.5t120 -58.5q66 0 114 32.5t81.5 91t54 140.5t31.5 180l18 168q-14 0 -29 2q-12 2 -27.5 3t-31.5 1q-84 0 -151.5 -30.5t-115.5 -85t-75 -131t-27 -168.5z" />
<glyph unicode="h" horiz-adv-x="1015" d="M57 0l168 1372l320 21l-19 -156l-123 -23l-41 -335h11q49 53 115.5 84.5t152.5 31.5q127 0 192.5 -73.5t65.5 -194.5q0 -14 -1 -28.5t-3 -30.5l-61 -508l86 -13l-19 -145q-16 -6 -54 -14t-69 -8q-78 0 -112.5 34.5t-34.5 104.5q0 10 1 25.5t3 27.5l57 483q2 10 2 18.5 v18.5q0 66 -33.5 100.5t-99.5 34.5q-57 0 -99 -23.5t-72 -65.5t-48 -101t-27 -131l-61 -506h-197z" />
<glyph unicode="i" horiz-adv-x="454" d="M68 831l16 136l291 20l-101 -827l86 -13l-18 -145q-16 -6 -54 -14t-69 -8q-82 0 -114.5 33.5t-32.5 101.5q0 10 1 22.5t3 26.5l84 651zM156 1251l159 148l127 -148l-161 -149z" />
<glyph unicode="j" horiz-adv-x="507" d="M-113 -197q6 -2 20.5 -3t24.5 -1q84 0 124 50.5t50 138.5l101 817l-160 26l16 136l381 20l-36 -147l-105 -848q-20 -166 -101 -260t-239 -94q-16 0 -40.5 2t-35.5 6v157zM199 1251l159 148l127 -148l-161 -149z" />
<glyph unicode="k" horiz-adv-x="946" d="M43 0l33 145l137 1076l-96 16l16 135l291 21l-94 -772l12 -3l29 56l315 303h252l-363 -350l203 -467l82 -13l-18 -145q-18 -6 -47 -14t-60 -8q-33 0 -53 6t-34.5 20t-26 34.5t-23.5 49.5l-168 393h-10l-121 -118l-27 -207l82 -13l-18 -145h-293z" />
<glyph unicode="l" horiz-adv-x="456" d="M72 115q0 10 2 27.5t4 31.5l133 1045l-94 16l16 137l291 19l-150 -1231l86 -13l-18 -145q-16 -6 -54 -14t-69 -8q-82 0 -114.5 33.5t-32.5 101.5z" />
<glyph unicode="m" horiz-adv-x="1521" d="M45 0l105 817l-82 12l16 146q20 6 55 14t66 8q59 0 85.5 -28.5t31.5 -75.5l4 -45h8q41 59 110.5 103t169.5 44q94 0 161 -42t85 -109h8q47 61 118 106t169 45q123 0 188.5 -62.5t65.5 -182.5q0 -14 -1 -27.5t-3 -28.5l-66 -534l86 -13l-18 -145q-16 -6 -54 -14t-69 -8 q-82 0 -114.5 33.5t-32.5 101.5q0 10 1 22.5t3 26.5l59 493q2 12 2 23.5v21.5q0 61 -27.5 95t-91.5 34q-55 0 -96 -24.5t-69.5 -67.5t-47 -103.5t-26.5 -133.5l-62 -502h-196l80 657q2 12 2 23.5v21.5q0 59 -29 94t-94 35q-111 0 -166 -89t-74 -240l-61 -502h-199z" />
<glyph unicode="n" horiz-adv-x="1003" d="M45 0l105 817l-82 12l16 146q20 6 55 14t66 8q59 0 85.5 -28.5t31.5 -75.5l4 -45h8q49 61 118.5 104t168.5 43q133 0 199.5 -69.5t66.5 -194.5q0 -16 -1 -31.5t-3 -31.5l-64 -510l88 -11l-18 -145q-16 -6 -55 -14t-70 -8q-82 0 -115 33.5t-33 101.5q0 10 1 22.5t4 26.5 l61 493q2 10 2 18.5v18.5q0 63 -31.5 100t-97.5 37q-61 0 -105 -26.5t-74 -72.5t-47.5 -106.5t-25.5 -127.5l-61 -498h-197z" />
<glyph unicode="o" horiz-adv-x="952" d="M27 391q0 133 32.5 245t96 191.5t154.5 123.5t208 44q92 0 163 -29.5t118 -83t70.5 -128t23.5 -166.5q0 -137 -33 -249t-95.5 -191.5t-154.5 -122.5t-211 -43q-184 0 -278 112.5t-94 296.5zM225 399q0 -109 45 -182.5t148 -73.5q72 0 124 34t86 92.5t50 136t16 167.5 q0 55 -11 102.5t-34.5 82.5t-61.5 54t-89 19q-74 0 -126.5 -35.5t-84 -95t-47 -137.5t-15.5 -164z" />
<glyph unicode="p" d="M-10 -350l30 145l130 1022l-82 12l16 146q20 6 55 14t66 8q59 0 85.5 -28.5t31.5 -75.5l4 -45h8q12 18 35.5 44t59.5 49.5t82 38.5t103 15q74 0 130.5 -27.5t96.5 -76.5t60.5 -116.5t20.5 -149.5q0 -154 -42 -270.5t-121 -195.5t-190.5 -119t-251.5 -40h-75l-23 -178 l98 -19l-16 -133zM260 162q12 -2 25 -4q10 -2 23.5 -2h29.5q90 0 160.5 32.5t120 93t75 143.5t25.5 185q0 96 -37 158.5t-121 62.5q-70 0 -118 -39.5t-80.5 -107.5t-51 -157t-30.5 -187z" />
<glyph unicode="q" horiz-adv-x="978" d="M20 340q0 145 40 266t117 207t191.5 134t264.5 48q29 0 66.5 -1t77.5 -4t76 -7t60 -8l-34 -146l-144 -1163l-305 -20l19 155l108 19l37 293h-10q-8 -12 -28.5 -35t-54.5 -44.5t-80 -36.5t-106 -15q-74 0 -129 26.5t-92 73.5t-55.5 113.5t-18.5 144.5zM223 362 q0 -96 36 -156.5t122 -60.5q66 0 113 38t79.5 103.5t53 154.5t32.5 194l23 188q-12 2 -27 4q-12 2 -26.5 3t-30.5 1q-94 0 -163.5 -35.5t-117 -99t-71 -148.5t-23.5 -186z" />
<glyph unicode="r" horiz-adv-x="628" d="M45 0l102 817l-81 12l16 146q20 6 55 14t66 8q59 0 85.5 -28.5t30.5 -75.5l5 -45h8q55 76 133 111.5t176 35.5v-198q-16 4 -36.5 6t-33.5 2q-72 0 -120 -24.5t-78.5 -67.5t-47 -102.5t-24.5 -131.5l-41 -323l78 -11l-19 -145h-274z" />
<glyph unicode="s" horiz-adv-x="843" d="M-2 37l51 273h148v-156q16 -4 52 -9.5t58 -5.5q39 0 78 4t68.5 16.5t49 36t21.5 60.5q0 39 -32.5 67.5t-81 55.5t-105.5 53.5t-105 63t-81 86t-33 118.5q0 82 38 138.5t99.5 91.5t139 50t157.5 15q35 0 73 -3t76 -9t72.5 -13t61.5 -16l-55 -274h-148v145q-16 4 -53 8.5 t-53 4.5q-37 0 -72 -4.5t-62.5 -16.5t-46 -32.5t-20.5 -53.5q0 -43 32.5 -72.5t81 -55t104.5 -51.5t104.5 -60.5t81 -83t32.5 -115.5q0 -90 -37 -150.5t-99.5 -96.5t-142 -50t-165.5 -14q-43 0 -88 6t-84 14t-70 17.5t-45 17.5z" />
<glyph unicode="t" horiz-adv-x="571" d="M47 815l19 148l114 16l49 213l193 104l-39 -319h207l-21 -162h-204l-60 -491q-2 -10 -3 -26.5t-1 -27.5q0 -66 34 -97.5t107 -31.5q10 0 27.5 1t26.5 5l-47 -147q-6 -4 -42 -11t-65 -7q-129 0 -187.5 66.5t-58.5 182.5q0 16 2 47t6 50l60 487h-117z" />
<glyph unicode="u" horiz-adv-x="1005" d="M66 829l16 146q18 6 57 14t70 8q82 0 114.5 -34.5t32.5 -100.5q0 -10 -1 -22.5t-3 -26.5l-63 -494q-2 -10 -2 -19v-19q0 -57 27.5 -96.5t97.5 -39.5q61 0 104 26t74 71t48 106.5t26 130.5l41 334l-87 16l19 148h287l-101 -817l82 -13l-18 -145q-18 -6 -53 -14t-66 -8 q-59 0 -86 28.5t-31 75.5l-4 45h-8q-47 -59 -118.5 -103t-176.5 -44q-129 0 -196.5 66.5t-67.5 189.5q0 35 6 71l66 510z" />
<glyph unicode="v" horiz-adv-x="876" d="M33 831l16 136l232 20l110 -721v-78h8q41 78 81 170.5t72 180.5t55.5 161.5t31.5 114.5l-6 162q25 10 54.5 15t51.5 5q66 0 94.5 -34.5t28.5 -88.5q0 -57 -32.5 -158.5t-102.5 -252.5q-31 -68 -68.5 -139.5t-73.5 -136t-67 -113.5t-45 -74h-225l-152 819z" />
<glyph unicode="w" horiz-adv-x="1347" d="M33 831l16 136l232 20l84 -723v-78h8q51 80 91 172.5t68.5 180.5t47 161.5t24.5 114.5l-6 162q25 10 54.5 15t52.5 5q66 0 94 -34.5t28 -88.5q0 -23 -5 -50t-11 -62l59 -498v-78h9q51 80 91 172.5t68.5 180.5t47 161.5t24.5 114.5l-6 162q25 10 54.5 15t51.5 5 q66 0 94.5 -34.5t28.5 -88.5q0 -53 -26.5 -156.5t-94.5 -254.5q-31 -68 -69.5 -139.5t-75.5 -136t-68.5 -113.5t-46.5 -74h-225l-55 369l20 73h-10q-31 -66 -65.5 -134t-67.5 -129.5t-60.5 -108.5t-42.5 -70h-225l-125 819z" />
<glyph unicode="x" horiz-adv-x="892" d="M-66 0l355 518l-133 295l-84 12l18 146q20 6 52 14t63 8q63 0 87.5 -26.5t49.5 -83.5l90 -207l10 -62h11l28 62l111 166l78 135h245l-327 -459l151 -358l82 -13l-18 -145q-18 -6 -48 -14t-61 -8q-33 0 -53 6t-34.5 19t-26 34.5t-23.5 50.5l-113 270l-14 64h-10l-27 -64 l-135 -204l78 -11l-19 -145h-383z" />
<glyph unicode="y" horiz-adv-x="876" d="M-47 -184q10 -2 33.5 -4t33.5 -2q84 0 151 54t114 136l45 82h-99l-129 737l-69 12l16 136l232 20l112 -698v-78h10q41 78 80 167t71 173t54.5 153.5t30.5 110.5l-6 162q25 10 54.5 15t51.5 5q66 0 94.5 -34.5t28.5 -88.5q0 -78 -40 -193.5t-97 -240.5t-118.5 -241.5 t-106.5 -196.5q-45 -78 -94.5 -144.5t-107.5 -113.5t-127 -73.5t-151 -26.5q-10 0 -33.5 2t-33.5 4v166z" />
<glyph unicode="z" horiz-adv-x="831" d="M-23 0l21 172l532 596l54 35v10h-303l-48 -129h-127v293h709l-22 -180l-531 -590l-49 -33q0 -6 2 -8h336l43 129h154q0 -104 -17.5 -165.5t-53.5 -92.5t-90.5 -40t-129.5 -9q-53 0 -119 2t-132.5 4t-127 4t-101.5 2z" />
<glyph unicode="{" horiz-adv-x="464" d="M25 489l2 9l75 75q33 33 40.5 49.5t11.5 51.5l45 354q20 162 178 162h110l-12 -113h-82q-41 0 -59.5 -17.5t-22.5 -58.5l-43 -348q-4 -39 -11 -60.5t-40 -51.5l-53 -52l41 -53q16 -23 20 -38t6 -31q0 -10 -1 -20.5t-3 -22.5l-43 -349q-2 -8 -2 -20q0 -55 66 -55h82 l-15 -111h-110q-141 0 -142 125v17.5t3 17.5l43 362q2 10 2 18.5v16.5q0 16 -5.5 30.5t-21.5 37.5z" />
<glyph unicode="|" horiz-adv-x="374" d="M18 -264l179 1454h116l-178 -1454h-117z" />
<glyph unicode="}" horiz-adv-x="464" d="M-53 -211l14 111h78q43 0 60.5 17t21.5 58l43 353q4 37 12 58.5t39 53.5l53 54l-41 51q-16 20 -20 36.5t-6 32.5q0 10 1 19.5t3 23.5l43 344q0 6 1 12.5t1 10.5q0 29 -14.5 41t-51.5 12h-80l13 113h108q145 0 146 -131q0 -8 -1 -15.5t-1 -15.5l-45 -358q-2 -10 -2 -17.5 v-13.5q0 -16 5 -31.5t21 -38.5l60 -75l-2 -9l-76 -75q-31 -31 -39 -50.5t-12 -52.5l-43 -358q-10 -82 -57.5 -121t-125.5 -39h-106z" />
<glyph unicode="~" d="M96 518l15 119q6 2 23.5 12t45 20.5t62 18.5t73.5 8q45 0 91.5 -14t91.5 -31.5t89 -32t89 -14.5q53 0 107.5 19.5t88.5 42.5l-14 -119q-6 -4 -23.5 -13.5t-45 -19.5t-62.5 -17.5t-74 -7.5q-45 0 -90 14.5t-90 31t-90 31t-90 14.5q-51 0 -106.5 -19.5t-90.5 -42.5z" />
<glyph unicode="&#xa1;" horiz-adv-x="479" d="M-31 -319l178 968h168l-141 -968h-205zM160 881q0 47 28.5 80.5t81.5 33.5q45 0 75 -28.5t30 -73.5q0 -59 -33 -88t-82 -29q-41 0 -70.5 29t-29.5 76z" />
<glyph unicode="&#xa2;" d="M98 440q0 137 36 251t99.5 198t152.5 137t196 70l26 200h105l-25 -194q63 0 137 -13.5t117 -29.5l-41 -283h-153v148q-16 4 -41 7t-43 3q-84 0 -151 -37t-113 -101.5t-69.5 -152.5t-23.5 -190q0 -133 62.5 -218t191.5 -85q45 0 86 12t77 30.5t63.5 41t46.5 42.5v-198 q-29 -25 -102 -56.5t-183 -37.5l-25 -197h-106l24 201q-158 20 -251 139t-93 313z" />
<glyph unicode="&#xa3;" d="M20 0l25 139l129 29l41 332h-160l27 102h145l17 125q27 199 139.5 287t310.5 88q78 0 147.5 -10.5t123.5 -22.5l-58 -299h-143v156q-12 4 -41 6t-43 2q-117 0 -169 -49t-67 -156l-16 -127h406l-25 -102h-393l-41 -334h323l156 14l-23 -180h-811z" />
<glyph unicode="&#xa4;" d="M70 281l135 120q-20 29 -31.5 73t-11.5 79q0 133 74 227l-97 117l92 80l93 -115q82 53 188 53q53 0 103.5 -17t84.5 -44l136 125l67 -82l-133 -121q20 -35 30.5 -78t10.5 -84q0 -59 -18.5 -117.5t-57.5 -105.5l94 -110l-90 -82l-94 112q-43 -29 -93 -40t-97 -11 q-49 0 -98.5 15.5t-88.5 46.5l-131 -121zM281 569q0 -39 13 -74.5t37.5 -62t58.5 -42t75 -15.5q47 0 89 18.5t72.5 50t48 74.5t17.5 92q0 39 -14 74t-39 60.5t-59.5 41t-75.5 15.5q-45 0 -85 -16.5t-71 -47t-49 -74t-18 -94.5z" />
<glyph unicode="&#xa5;" d="M33 350l24 103h281l-64 176h-206l24 102h150l-123 352h213l135 -446l8 -59h10l19 61l172 303l59 141h228l-209 -352h157l-26 -102h-189l-106 -176h287l-27 -103h-297l-43 -350h-205l43 350h-315z" />
<glyph unicode="&#xa6;" horiz-adv-x="374" d="M18 -264l76 612h117l-76 -612h-117zM123 580l74 610h116l-73 -610h-117z" />
<glyph unicode="&#xa7;" horiz-adv-x="741" d="M4 -207l29 240h100v-152q27 -6 66 -6q41 0 79.5 7t68.5 24.5t48.5 47.5t18.5 75q0 53 -36 95t-108 89q-96 61 -156.5 124.5t-60.5 162.5q0 96 49.5 164.5t116.5 121.5q-25 31 -40 71t-15 83q0 74 30.5 125t82 83t115 46t128.5 14q59 0 106.5 -6t90.5 -16l-29 -240h-98 v154q-16 2 -40 4t-40 2q-92 0 -152.5 -33t-60.5 -117q0 -53 36 -97t111 -93q92 -61 152.5 -124.5t60.5 -162.5q0 -96 -50 -164.5t-113 -121.5q23 -31 37 -70t14 -80q0 -72 -31 -123t-80 -84t-112.5 -48t-126.5 -15q-66 0 -114 6t-77 14zM174 520q0 -59 41 -106t127 -107 l72 -49q53 45 89 90t36 111q0 59 -40 105t-128 106l-76 51q-53 -45 -87 -90t-34 -111z" />
<glyph unicode="&#xa8;" horiz-adv-x="1003" d="M379 1133l31 253h137l-31 -253h-137zM618 1133l31 253h135l-30 -253h-136z" />
<glyph unicode="&#xa9;" horiz-adv-x="1064" d="M84 899q0 104 37 195.5t101.5 159t149.5 106.5t183 39t184 -39t150.5 -106.5t102.5 -158.5t38 -196q0 -104 -38 -194.5t-102.5 -158t-150.5 -106.5t-184 -39t-183 39t-149.5 106.5t-101.5 158t-37 194.5zM172 899q0 -86 29.5 -161.5t82 -131t122 -88.5t149.5 -33 t150.5 33t123 88.5t83 131t30.5 161.5q0 84 -30.5 160t-83 132t-123 89t-150.5 33t-149.5 -33t-122 -89t-82 -132t-29.5 -160zM334 850q0 76 23.5 136.5t63.5 103.5t95 65.5t121 22.5q31 0 60.5 -4.5t64.5 -12.5l-21 -157h-73v86q-20 4 -35 4q-86 0 -138.5 -64.5 t-52.5 -169.5q0 -72 33 -116t94 -44q47 0 84 20.5t56 41.5v-96q-14 -12 -55.5 -32t-106.5 -20q-96 0 -154.5 65.5t-58.5 170.5z" />
<glyph unicode="&#xaa;" horiz-adv-x="591" d="M49 805q0 186 98.5 291.5t268.5 105.5q68 0 112.5 -4t65.5 -6l-21 -96l-49 -406l49 -6l-10 -88q-10 -4 -29.5 -9t-41.5 -5q-74 0 -78 63l-2 37h-9q-6 -12 -19 -29.5t-34.5 -33t-51.5 -25.5t-69 -10q-90 0 -135 61.5t-45 159.5zM170 815q0 -53 21.5 -93t72.5 -40 q43 0 73 23.5t51.5 63.5t33.5 94.5t20 117.5l15 117q-10 0 -19 2q-8 0 -17 1t-20 1q-113 0 -172 -80t-59 -207z" />
<glyph unicode="&#xab;" horiz-adv-x="1021" d="M76 553l456 448l72 -88l-373 -360l285 -375l-96 -78zM451 553l456 448l76 -88l-375 -360l285 -375l-96 -80z" />
<glyph unicode="&#xac;" d="M86 680l14 115h750l-51 -418h-115l37 303h-635z" />
<glyph unicode="&#xad;" horiz-adv-x="657" d="M78 436l14 113h457l-14 -113h-457z" />
<glyph unicode="&#xae;" horiz-adv-x="1064" d="M84 899q0 104 37 195.5t101.5 159t149.5 106.5t183 39t184 -39t150.5 -106.5t102.5 -158.5t38 -196q0 -104 -38 -194.5t-102.5 -158t-150.5 -106.5t-184 -39t-183 39t-149.5 106.5t-101.5 158t-37 194.5zM172 899q0 -86 29.5 -161.5t82 -131t122 -88.5t149.5 -33 t150.5 33t123 88.5t83 131t30.5 161.5q0 84 -30.5 160t-83 132t-123 89t-150.5 33t-149.5 -33t-122 -89t-82 -132t-29.5 -160zM356 629l13 59l49 399l-45 9l8 73h237q72 0 117 -33.5t45 -105.5q0 -59 -31.5 -97t-72.5 -48v-8q27 -14 36 -33t15 -70l8 -72l37 -4l-8 -69h-121 l-14 145q-4 47 -23.5 61.5t-66.5 14.5h-54l-26 -221h-103zM494 924h84q49 0 72.5 23.5t27.5 64.5q0 47 -19.5 62.5t-64.5 15.5h-80z" />
<glyph unicode="&#xaf;" horiz-adv-x="1003" d="M319 1210l17 140h510l-17 -140h-510z" />
<glyph unicode="&#xb0;" horiz-adv-x="616" d="M127 868q0 152 67.5 243t184.5 91q92 0 137 -57.5t45 -155.5q0 -154 -68.5 -242t-185.5 -88q-90 0 -135 55.5t-45 153.5zM188 498l111 108l92 -108l-110 -107zM236 883q0 -53 18 -92t65 -39q33 0 57.5 19.5t42 52t26 71.5t8.5 80q0 57 -18.5 96t-67.5 39 q-37 0 -61.5 -20.5t-40 -52t-22.5 -72.5t-7 -82z" />
<glyph unicode="&#xb1;" d="M23 0l14 113h778l-14 -113h-778zM102 629l13 114h329l41 332h117l-41 -332h330l-12 -114h-330l-43 -348h-117l43 348h-330z" />
<glyph unicode="&#xb2;" horiz-adv-x="512" d="M43 594l12 115q90 53 153.5 92t102.5 71.5t56.5 63.5t17.5 68q0 47 -36 72.5t-95 25.5h-21.5t-21.5 -4l-31 -103h-74v179q39 10 87.5 16t80.5 6q90 0 156 -47t66 -137q0 -49 -16.5 -88t-50.5 -76t-87 -74t-129 -82v-8h199l80 12l-13 -102h-436z" />
<glyph unicode="&#xb3;" horiz-adv-x="518" d="M57 604v101q16 -6 61.5 -16.5t94.5 -10.5q20 0 48 3t52.5 13.5t42 28.5t17.5 49q0 51 -41 68.5t-96 17.5h-82l10 76h80q57 0 103 20.5t46 75.5q0 47 -38 64.5t-87 17.5q-16 0 -31.5 -2t-27.5 -6l-27 -86h-76v162q35 8 86.5 14t96.5 6q88 0 152.5 -36t64.5 -117 q0 -53 -27.5 -88t-75.5 -58v-8q37 -16 58.5 -47t21.5 -76q0 -53 -24.5 -88t-64.5 -56.5t-90 -30.5t-99 -9q-45 0 -87 7t-61 11z" />
<glyph unicode="&#xb4;" horiz-adv-x="1003" d="M354 1167l377 224l62 -150l-385 -143z" />
<glyph unicode="&#xb5;" horiz-adv-x="1001" d="M-14 -342l32 145l134 1016l-86 10l16 146q18 6 57 14t70 8q82 0 113.5 -34.5t31.5 -100.5v-22.5t-2 -26.5l-63 -494q-2 -16 -2 -25v-20q0 -61 32.5 -95t98.5 -34q55 0 98 26t72.5 71t48 106.5t27.5 130.5l41 334l-87 16l19 148h287l-101 -817l82 -13l-18 -145 q-18 -6 -53 -14t-66 -8q-59 0 -86 28.5t-31 75.5l-4 45h-8q-47 -59 -118.5 -103t-176.5 -44q-29 0 -54.5 7t-47.5 15l-43 -346h-213z" />
<glyph unicode="&#xb6;" horiz-adv-x="940" d="M88 764q0 88 29.5 158.5t84 121t130.5 77t166 26.5h458l-12 -98l-110 -15l-172 -1392h-113l172 1392h-160l-172 -1392h-221l12 96l111 16l88 717q-145 0 -218 78t-73 215z" />
<glyph unicode="&#xb7;" horiz-adv-x="378" d="M88 567q0 59 34 88t83 29q41 0 67.5 -28.5t26.5 -75.5t-30 -81t-83 -34q-45 0 -71.5 28.5t-26.5 73.5z" />
<glyph unicode="&#xb8;" horiz-adv-x="1003" d="M213 -342l29 84q12 -4 38.5 -8t55.5 -4q35 0 67.5 13t32.5 48q0 53 -71 53q-16 0 -33 -2t-29 -4l45 162h101l-11 -82q53 0 92 -34t39 -87q0 -39 -19.5 -67.5t-50 -48t-70.5 -29.5t-83 -10q-51 0 -84 6t-49 10z" />
<glyph unicode="&#xb9;" horiz-adv-x="495" d="M59 596l11 90h151l53 375l-6 2l-20 -35q-31 -25 -71 -38t-77 -23l-6 100q49 10 103.5 42t95.5 81h110l-69 -504h135l-12 -90h-398z" />
<glyph unicode="&#xba;" horiz-adv-x="565" d="M49 836q0 80 21.5 147.5t60.5 115.5t95.5 74.5t127.5 26.5q113 0 166 -67.5t53 -180.5q0 -166 -80.5 -266t-224.5 -100q-113 0 -166 67.5t-53 182.5zM170 838q0 -66 24.5 -110t88.5 -44q43 0 75.5 20.5t53 56.5t31 83t10.5 102q0 66 -26 111t-89 45q-45 0 -77 -21.5 t-52.5 -57.5t-29.5 -84t-9 -101z" />
<glyph unicode="&#xbb;" horiz-adv-x="1021" d="M18 186l377 367l-284 369l96 79l344 -448l-457 -455zM395 186l375 367l-283 369l93 79l348 -448l-455 -453z" />
<glyph unicode="&#xbc;" horiz-adv-x="1144" d="M59 596l11 90h151l53 375l-6 2l-20 -35q-31 -25 -71 -38t-77 -23l-6 100q49 10 103.5 42t95.5 81h110l-69 -504h135l-12 -90h-398zM102 0l828 1190h102l-827 -1190h-103zM551 117l10 106l291 371h154l-48 -389h66l-10 -88h-66l-16 -117h-107l15 117h-289zM645 211l2 -6 h203l33 272l16 33l-6 2l-219 -289z" />
<glyph unicode="&#xbd;" horiz-adv-x="1159" d="M59 596l11 90h151l53 375l-6 2l-20 -35q-31 -25 -71 -38t-77 -23l-6 100q49 10 103.5 42t95.5 81h110l-69 -504h135l-12 -90h-398zM102 0l828 1190h102l-827 -1190h-103zM600 0l12 115q90 53 153.5 92t102.5 71.5t56.5 63.5t17.5 68q0 47 -36 72.5t-95 25.5h-21.5 t-21.5 -4l-31 -103h-73v179q39 10 87 16t80 6q90 0 156 -47t66 -137q0 -49 -16.5 -88t-50.5 -76t-87 -74t-129 -82v-8h199l80 12l-13 -102h-436z" />
<glyph unicode="&#xbe;" horiz-adv-x="1089" d="M57 604v101q16 -6 61.5 -16.5t94.5 -10.5q20 0 48 3t52.5 13.5t42 28.5t17.5 49q0 51 -41 68.5t-96 17.5h-82l10 76h80q57 0 103 20.5t46 75.5q0 47 -38 64.5t-87 17.5q-16 0 -31.5 -2t-27.5 -6l-27 -86h-76v162q35 8 86.5 14t96.5 6q88 0 152.5 -36t64.5 -117 q0 -53 -27.5 -88t-75.5 -58v-8q37 -16 58.5 -47t21.5 -76q0 -53 -24.5 -88t-64.5 -56.5t-90 -30.5t-99 -9q-45 0 -87 7t-61 11zM94 0l828 1190h104l-829 -1190h-103zM518 117l10 106l291 371h154l-47 -389h65l-10 -88h-66l-16 -117h-106l14 117h-289zM612 211l2 -6h203 l33 272l16 33l-6 2l-219 -289z" />
<glyph unicode="&#xbf;" horiz-adv-x="839" d="M-20 16q0 86 32.5 159t89 130t131 98t156.5 64l37 182h168l-39 -297q-70 -12 -135.5 -35.5t-117.5 -62.5t-84 -94.5t-32 -128.5q0 -92 58.5 -144.5t156.5 -52.5q20 0 43 2t39 6l52 185h133v-320q-47 -14 -128 -29.5t-167 -15.5t-159 23.5t-125 68.5t-80.5 111.5 t-28.5 150.5zM438 879q0 49 31 82.5t84 33.5q45 0 72.5 -28.5t27.5 -73.5q0 -59 -34.5 -88t-83.5 -29q-41 0 -69 30t-28 73z" />
<glyph unicode="&#xc0;" horiz-adv-x="1132" d="M-53 0l499 1116l-98 19l21 161h473l157 -1124l72 -12l-20 -160h-289l8 141l-22 197h-431l-69 -164l71 -12l-20 -162h-352zM391 514h340l-72 545v82h-8l-24 -82zM420 1518l98 149l326 -223l-72 -70z" />
<glyph unicode="&#xc1;" horiz-adv-x="1132" d="M-53 0l499 1116l-98 19l21 161h473l157 -1124l72 -12l-20 -160h-289l8 141l-22 197h-431l-69 -164l71 -12l-20 -162h-352zM391 514h340l-72 545v82h-8l-24 -82zM434 1444l379 223l59 -149l-387 -144z" />
<glyph unicode="&#xc2;" horiz-adv-x="1132" d="M-53 0l499 1116l-98 19l21 161h473l157 -1124l72 -12l-20 -160h-289l8 141l-22 197h-431l-69 -164l71 -12l-20 -162h-352zM379 1475l227 172q20 16 38 20t28 4q29 0 61 -26l187 -170l-72 -70l-197 94l-219 -94zM391 514h340l-72 545v82h-8l-24 -82z" />
<glyph unicode="&#xc3;" horiz-adv-x="1132" d="M-53 0l499 1116l-98 19l21 161h473l157 -1124l72 -12l-20 -160h-289l8 141l-22 197h-431l-69 -164l71 -12l-20 -162h-352zM346 1470l35 129q2 2 17.5 9.5t38 15.5t52 14.5t64.5 6.5q59 0 127 -18.5t139 -18.5q45 0 80 7t64 17l-31 -125q-8 -6 -55.5 -25.5t-112.5 -19.5 q-63 0 -133 17.5t-139 17.5q-45 0 -78 -8t-68 -19zM391 514h340l-72 545v82h-8l-24 -82z" />
<glyph unicode="&#xc4;" horiz-adv-x="1132" d="M-53 0l499 1116l-98 19l21 161h473l157 -1124l72 -12l-20 -160h-289l8 141l-22 197h-431l-69 -164l71 -12l-20 -162h-352zM391 514h340l-72 545v82h-8l-24 -82zM461 1411l31 254h135l-31 -254h-135zM698 1411l31 254h135l-30 -254h-136z" />
<glyph unicode="&#xc5;" horiz-adv-x="1132" d="M-53 0l499 1116l-98 19l21 161h473l157 -1124l72 -12l-20 -160h-289l8 141l-22 197h-431l-69 -164l71 -12l-20 -162h-352zM391 514h340l-72 545v82h-8l-24 -82zM449 1513q0 92 64.5 137.5t158.5 45.5q82 0 132 -41t50 -119q0 -90 -63.5 -132t-159.5 -42q-80 0 -131 40 t-51 111zM582 1520q0 -29 16 -46.5t47 -17.5q37 0 57.5 20.5t20.5 53.5q0 72 -66 72q-35 0 -55 -20.5t-20 -61.5z" />
<glyph unicode="&#xc6;" horiz-adv-x="1599" d="M-53 0l465 1122l-95 17l21 157h1212l-41 -344h-166v162h-372l-15 -352h492v-172h-498l-18 -410h383l35 164h155v-344h-811l23 131l12 215h-414l-67 -168l96 -16l-20 -162h-377zM383 522h354l23 549l6 43h-152l-12 -43z" />
<glyph unicode="&#xc7;" horiz-adv-x="1001" d="M47 520q0 184 49 330.5t139.5 250t214 159t275.5 55.5q37 0 80 -4t85 -10.5t80 -14.5t64 -14l-59 -320h-152v166q-6 2 -22.5 4t-34.5 4t-35.5 3t-28.5 1q-102 0 -181 -43t-134 -119.5t-84 -183t-29 -235.5q0 -80 17.5 -149.5t52.5 -121t90 -80t129 -28.5q57 0 107.5 14.5 t92.5 38t74.5 51t55.5 54.5v-228q-35 -31 -121 -70.5t-223 -45.5l-8 -66q53 0 92 -34t39 -87q0 -39 -19.5 -67.5t-50.5 -48t-70.5 -29.5t-82.5 -10q-51 0 -84 6t-50 10l29 84q12 -4 39 -8t55 -4q35 0 68 13t33 48q0 53 -72 53q-16 0 -32.5 -2t-28.5 -4l40 150 q-94 12 -167.5 54t-125 110.5t-79 162t-27.5 205.5z" />
<glyph unicode="&#xc8;" horiz-adv-x="1026" d="M55 0l35 143l121 975l-92 21l20 157h893l-63 -344h-154v162h-389l-43 -352h512l-23 -172h-512l-49 -410h396l43 164h145v-344h-840zM442 1518l99 149l323 -223l-71 -70z" />
<glyph unicode="&#xc9;" horiz-adv-x="1026" d="M55 0l35 143l121 975l-92 21l20 157h893l-63 -344h-154v162h-389l-43 -352h512l-23 -172h-512l-49 -410h396l43 164h145v-344h-840zM444 1444l379 223l60 -149l-387 -144z" />
<glyph unicode="&#xca;" horiz-adv-x="1026" d="M55 0l35 143l121 975l-92 21l20 157h893l-63 -344h-154v162h-389l-43 -352h512l-23 -172h-512l-49 -410h396l43 164h145v-344h-840zM367 1462l227 172q20 16 36.5 20.5t28.5 4.5t29 -4t33 -21l186 -172l-71 -69l-197 94l-221 -94z" />
<glyph unicode="&#xcb;" horiz-adv-x="1026" d="M55 0l35 143l121 975l-92 21l20 157h893l-63 -344h-154v162h-389l-43 -352h512l-23 -172h-512l-49 -410h396l43 164h145v-344h-840zM449 1411l30 254h137l-30 -254h-137zM686 1411l31 254h135l-31 -254h-135z" />
<glyph unicode="&#xcc;" horiz-adv-x="505" d="M55 0l35 143l121 975l-92 21l20 157h310l-138 -1118l84 -16l-20 -162h-320zM135 1518l96 149l326 -223l-72 -70z" />
<glyph unicode="&#xcd;" horiz-adv-x="505" d="M55 0l35 143l121 975l-92 21l20 157h310l-138 -1118l84 -16l-20 -162h-320zM106 1444l379 223l60 -149l-387 -144z" />
<glyph unicode="&#xce;" horiz-adv-x="505" d="M55 0l35 143l121 975l-92 21l20 157h310l-138 -1118l84 -16l-20 -162h-320zM66 1462l225 172q20 16 37.5 20.5t27.5 4.5q12 0 28.5 -5t33.5 -20l186 -172l-72 -69l-196 94l-219 -94z" />
<glyph unicode="&#xcf;" horiz-adv-x="505" d="M55 0l35 143l121 975l-92 21l20 157h310l-138 -1118l84 -16l-20 -162h-320zM135 1411l31 254h139l-33 -254h-137zM375 1411l31 254h135l-31 -254h-135z" />
<glyph unicode="&#xd0;" horiz-adv-x="1161" d="M18 639l138 29l57 450l-94 21l20 157h482q256 0 376.5 -136t120.5 -392q0 -377 -160.5 -572.5t-465.5 -195.5h-437l35 143l49 398q-29 -6 -55.5 -12.5t-54.5 -10.5zM311 180h193q100 0 175 40t123 116t71.5 182.5t23.5 241.5q0 170 -67.5 262t-217.5 92h-186l-49 -401 l211 45l12 -119q-59 -12 -119.5 -24.5t-120.5 -26.5z" />
<glyph unicode="&#xd1;" horiz-adv-x="1220" d="M57 0l33 139l125 979l-96 21l20 157h377l326 -1030h10v82l74 770l-86 17l20 161h316l-35 -143l-146 -1153h-280l-318 1040h-10v-86l-76 -776l84 -16l-20 -162h-318zM399 1470l33 129q2 2 17.5 9.5t38 15.5t52 14.5t64.5 6.5q61 0 129 -18.5t139 -18.5q43 0 79 7t65 17 l-33 -125q-8 -6 -55 -25.5t-113 -19.5q-61 0 -132 17.5t-138 17.5q-47 0 -80 -8t-66 -19z" />
<glyph unicode="&#xd2;" horiz-adv-x="1159" d="M47 514q0 188 43 336.5t124 252t195.5 158t260.5 54.5q111 0 194.5 -38t139 -107.5t83 -168t27.5 -219.5q0 -186 -41 -334.5t-118.5 -252t-193.5 -158.5t-265 -55q-219 0 -334 143t-115 389zM276 535q0 -76 13.5 -143.5t44.5 -119t78 -81t114 -29.5q92 0 161 49t113 131 t66.5 190.5t22.5 225.5q0 76 -14.5 144.5t-45 119.5t-79 81t-115.5 30q-96 0 -164 -51.5t-111 -135.5t-63.5 -191t-20.5 -220zM473 1518l96 149l326 -223l-72 -70z" />
<glyph unicode="&#xd3;" horiz-adv-x="1159" d="M47 514q0 188 43 336.5t124 252t195.5 158t260.5 54.5q111 0 194.5 -38t139 -107.5t83 -168t27.5 -219.5q0 -186 -41 -334.5t-118.5 -252t-193.5 -158.5t-265 -55q-219 0 -334 143t-115 389zM276 535q0 -76 13.5 -143.5t44.5 -119t78 -81t114 -29.5q92 0 161 49t113 131 t66.5 190.5t22.5 225.5q0 76 -14.5 144.5t-45 119.5t-79 81t-115.5 30q-96 0 -164 -51.5t-111 -135.5t-63.5 -191t-20.5 -220zM477 1444l379 223l62 -149l-390 -144z" />
<glyph unicode="&#xd4;" horiz-adv-x="1159" d="M47 514q0 188 43 336.5t124 252t195.5 158t260.5 54.5q111 0 194.5 -38t139 -107.5t83 -168t27.5 -219.5q0 -186 -41 -334.5t-118.5 -252t-193.5 -158.5t-265 -55q-219 0 -334 143t-115 389zM276 535q0 -76 13.5 -143.5t44.5 -119t78 -81t114 -29.5q92 0 161 49t113 131 t66.5 190.5t22.5 225.5q0 76 -14.5 144.5t-45 119.5t-79 81t-115.5 30q-96 0 -164 -51.5t-111 -135.5t-63.5 -191t-20.5 -220zM410 1462l229 172q20 16 36.5 20.5t29.5 4.5q12 0 28.5 -4t32.5 -21l184 -172l-69 -69l-197 94l-221 -94z" />
<glyph unicode="&#xd5;" horiz-adv-x="1159" d="M47 514q0 188 43 336.5t124 252t195.5 158t260.5 54.5q111 0 194.5 -38t139 -107.5t83 -168t27.5 -219.5q0 -186 -41 -334.5t-118.5 -252t-193.5 -158.5t-265 -55q-219 0 -334 143t-115 389zM276 535q0 -76 13.5 -143.5t44.5 -119t78 -81t114 -29.5q92 0 161 49t113 131 t66.5 190.5t22.5 225.5q0 76 -14.5 144.5t-45 119.5t-79 81t-115.5 30q-96 0 -164 -51.5t-111 -135.5t-63.5 -191t-20.5 -220zM389 1487l31 115q6 4 53 22t107 18q57 0 120.5 -17t130.5 -17q41 0 73 7t61 17l-29 -112q-8 -4 -52 -22.5t-104 -18.5q-59 0 -124.5 16t-131.5 16 q-37 0 -70.5 -7t-64.5 -17z" />
<glyph unicode="&#xd6;" horiz-adv-x="1159" d="M47 514q0 188 43 336.5t124 252t195.5 158t260.5 54.5q111 0 194.5 -38t139 -107.5t83 -168t27.5 -219.5q0 -186 -41 -334.5t-118.5 -252t-193.5 -158.5t-265 -55q-219 0 -334 143t-115 389zM276 535q0 -76 13.5 -143.5t44.5 -119t78 -81t114 -29.5q92 0 161 49t113 131 t66.5 190.5t22.5 225.5q0 76 -14.5 144.5t-45 119.5t-79 81t-115.5 30q-96 0 -164 -51.5t-111 -135.5t-63.5 -191t-20.5 -220zM479 1411l31 254h137l-31 -254h-137zM717 1411l31 254h135l-31 -254h-135z" />
<glyph unicode="&#xd7;" d="M96 317l307 283l-237 281l90 80l238 -283l307 287l73 -88l-311 -281l246 -289l-90 -84l-242 289l-309 -283z" />
<glyph unicode="&#xd8;" horiz-adv-x="1159" d="M2 -82l154 219q-109 139 -109 377q0 188 43 336.5t124 252t195.5 158t260.5 54.5q78 0 141 -21.5t115 -56.5l88 123h108l-129 -184q59 -70 90 -169.5t31 -224.5q0 -186 -41 -334.5t-118.5 -252t-193.5 -158.5t-265 -55q-86 0 -156 23.5t-123 66.5l-108 -154h-107z M276 535q0 -53 5.5 -101.5t17.5 -89.5l504 717q-61 72 -168 72q-96 0 -164 -51.5t-111 -135.5t-63.5 -191.5t-20.5 -219.5zM342 252q63 -90 184 -90q92 0 161 49t113 131t66.5 190.5t22.5 225.5q0 61 -8.5 116.5t-26.5 102.5z" />
<glyph unicode="&#xd9;" horiz-adv-x="1153" d="M106 346q0 49 7 98l84 676l-86 19l20 157h303l-104 -841q-6 -49 -6 -88q0 -102 44 -150.5t158 -48.5q133 0 195.5 72.5t79.5 214.5l82 663l-84 17l20 161h301l-104 -852q-29 -242 -148.5 -352t-355.5 -110q-406 0 -406 364zM477 1518l98 149l326 -223l-72 -70z" />
<glyph unicode="&#xda;" horiz-adv-x="1153" d="M106 346q0 45 7 98l84 676l-86 19l20 157h303l-104 -841q-6 -49 -6 -88q0 -102 44 -150.5t158 -48.5q133 0 195.5 72.5t79.5 214.5l82 663l-84 17l20 161h301l-104 -852q-29 -242 -148.5 -352t-355.5 -110q-406 0 -406 364zM473 1444l379 223l61 -149l-389 -144z" />
<glyph unicode="&#xdb;" horiz-adv-x="1153" d="M106 346q0 45 7 98l84 676l-86 19l20 157h303l-104 -841q-6 -49 -6 -88q0 -102 44 -150.5t158 -48.5q133 0 195.5 72.5t79.5 214.5l82 663l-84 17l20 161h301l-104 -852q-29 -242 -148.5 -352t-355.5 -110q-406 0 -406 364zM401 1462l230 172q20 16 36.5 20.5t28.5 4.5 t28.5 -4t33.5 -21l184 -172l-70 -69l-196 94l-221 -94z" />
<glyph unicode="&#xdc;" horiz-adv-x="1153" d="M106 346q0 45 7 98l84 676l-86 19l20 157h303l-104 -841q-6 -49 -6 -88q0 -102 44 -150.5t158 -48.5q133 0 195.5 72.5t79.5 214.5l82 663l-84 17l20 161h301l-104 -852q-29 -242 -148.5 -352t-355.5 -110q-406 0 -406 364zM481 1411l31 254h137l-31 -254h-137zM721 1411 l31 254h135l-31 -254h-135z" />
<glyph unicode="&#xdd;" horiz-adv-x="989" d="M70 1139l20 157h238l145 -559l10 -73h11l16 75l215 381l-72 15l21 161h379l-480 -821l-57 -475h-299l21 162l79 14l35 299l-202 645zM397 1444l377 223l62 -149l-387 -144z" />
<glyph unicode="&#xde;" horiz-adv-x="1052" d="M55 0l35 145l123 973l-94 21l20 157h310l-25 -192h203q186 0 293.5 -90t107.5 -271q0 -117 -38 -199.5t-103.5 -134t-154.5 -75t-189 -23.5h-215l-17 -131l101 -18l-21 -162h-336zM348 492h184q59 0 110.5 12t88.5 40.5t57.5 75t20.5 113.5q0 104 -62.5 147.5 t-171.5 43.5h-174z" />
<glyph unicode="&#xdf;" horiz-adv-x="1032" d="M47 0l33 145l82 670h-113l21 146l112 16l4 47q16 184 124 280.5t288 96.5q70 0 132.5 -21.5t109.5 -60.5t74.5 -94.5t27.5 -122.5q0 -96 -42 -158.5t-105 -120.5l-60 -55l-2 -10l66 -86q25 -33 51.5 -69t47 -77t33.5 -87t13 -99q0 -92 -35 -159.5t-92 -111.5t-132 -65.5 t-155 -21.5q-39 0 -91 5t-81 13l54 166q23 -6 55.5 -11t60.5 -5q39 0 78 11t67.5 33.5t47 59.5t18.5 86q0 41 -15 79t-40 73.5t-55.5 72.5t-61.5 74q-23 29 -38 55.5t-15 55.5q0 39 23.5 66.5t62.5 62.5q61 59 100 105t39 112q0 63 -43 104t-110 41q-92 0 -139.5 -56.5 t-61.5 -170.5l-125 -1014h-213z" />
<glyph unicode="&#xe0;" horiz-adv-x="976" d="M20 344q0 152 42 272.5t121 204.5t189.5 129t250.5 45q111 0 183.5 -6t104.5 -10l-34 -158l-80 -661l82 -13l-19 -145q-18 -6 -50 -14t-62 -8q-59 0 -93 28.5t-39 75.5l-6 59h-8q-12 -18 -34.5 -45.5t-57.5 -53.5t-84 -44t-113 -18q-72 0 -127 27.5t-92 75.5t-55.5 114.5 t-18.5 144.5zM221 362q0 -43 8.5 -82.5t25.5 -69.5t46 -47.5t70 -17.5q70 0 120 38t84.5 103.5t55 154.5t33.5 194l20 188q-14 0 -29 2q-12 2 -27.5 3t-31.5 1q-92 0 -161.5 -34.5t-117 -96t-72 -147.5t-24.5 -189zM358 1241l99 150l323 -224l-69 -69z" />
<glyph unicode="&#xe1;" horiz-adv-x="976" d="M20 344q0 152 42 272.5t121 204.5t189.5 129t250.5 45q111 0 183.5 -6t104.5 -10l-34 -158l-80 -661l82 -13l-19 -145q-18 -6 -50 -14t-62 -8q-59 0 -93 28.5t-39 75.5l-6 59h-8q-12 -18 -34.5 -45.5t-57.5 -53.5t-84 -44t-113 -18q-72 0 -127 27.5t-92 75.5t-55.5 114.5 t-18.5 144.5zM221 362q0 -43 8.5 -82.5t25.5 -69.5t46 -47.5t70 -17.5q70 0 120 38t84.5 103.5t55 154.5t33.5 194l20 188q-14 0 -29 2q-12 2 -27.5 3t-31.5 1q-92 0 -161.5 -34.5t-117 -96t-72 -147.5t-24.5 -189zM393 1167l377 224l61 -150l-385 -143z" />
<glyph unicode="&#xe2;" horiz-adv-x="976" d="M20 344q0 152 42 272.5t121 204.5t189.5 129t250.5 45q111 0 183.5 -6t104.5 -10l-34 -158l-80 -661l82 -13l-19 -145q-18 -6 -50 -14t-62 -8q-59 0 -93 28.5t-39 75.5l-6 59h-8q-12 -18 -34.5 -45.5t-57.5 -53.5t-84 -44t-113 -18q-72 0 -127 27.5t-92 75.5t-55.5 114.5 t-18.5 144.5zM221 362q0 -43 8.5 -82.5t25.5 -69.5t46 -47.5t70 -17.5q70 0 120 38t84.5 103.5t55 154.5t33.5 194l20 188q-14 0 -29 2q-12 2 -27.5 3t-31.5 1q-92 0 -161.5 -34.5t-117 -96t-72 -147.5t-24.5 -189zM305 1194l227 172q18 14 36 19.5t30 5.5q10 0 27.5 -4.5 t33.5 -20.5l187 -172l-72 -70l-196 95l-222 -95z" />
<glyph unicode="&#xe3;" horiz-adv-x="976" d="M20 344q0 152 42 272.5t121 204.5t189.5 129t250.5 45q111 0 183.5 -6t104.5 -10l-34 -158l-80 -661l82 -13l-19 -145q-18 -6 -50 -14t-62 -8q-59 0 -93 28.5t-39 75.5l-6 59h-8q-12 -18 -34.5 -45.5t-57.5 -53.5t-84 -44t-113 -18q-72 0 -127 27.5t-92 75.5t-55.5 114.5 t-18.5 144.5zM221 362q0 -43 8.5 -82.5t25.5 -69.5t46 -47.5t70 -17.5q70 0 120 38t84.5 103.5t55 154.5t33.5 194l20 188q-14 0 -29 2q-12 2 -27.5 3t-31.5 1q-92 0 -161.5 -34.5t-117 -96t-72 -147.5t-24.5 -189zM283 1190l34 129q2 2 17.5 9t38 15.5t52.5 14.5t64 6 q59 0 128 -18.5t141 -18.5q45 0 78.5 7t62.5 18l-29 -125q-10 -6 -57 -25.5t-113 -19.5q-63 0 -132.5 17.5t-139.5 17.5q-45 0 -78 -8.5t-67 -18.5z" />
<glyph unicode="&#xe4;" horiz-adv-x="976" d="M20 344q0 152 42 272.5t121 204.5t189.5 129t250.5 45q111 0 183.5 -6t104.5 -10l-34 -158l-80 -661l82 -13l-19 -145q-18 -6 -50 -14t-62 -8q-59 0 -93 28.5t-39 75.5l-6 59h-8q-12 -18 -34.5 -45.5t-57.5 -53.5t-84 -44t-113 -18q-72 0 -127 27.5t-92 75.5t-55.5 114.5 t-18.5 144.5zM221 362q0 -43 8.5 -82.5t25.5 -69.5t46 -47.5t70 -17.5q70 0 120 38t84.5 103.5t55 154.5t33.5 194l20 188q-14 0 -29 2q-12 2 -27.5 3t-31.5 1q-92 0 -161.5 -34.5t-117 -96t-72 -147.5t-24.5 -189zM381 1133l31 253h135l-31 -253h-135zM618 1133l31 253h135 l-30 -253h-136z" />
<glyph unicode="&#xe5;" horiz-adv-x="976" d="M20 344q0 152 42 272.5t121 204.5t189.5 129t250.5 45q111 0 183.5 -6t104.5 -10l-34 -158l-80 -661l82 -13l-19 -145q-18 -6 -50 -14t-62 -8q-59 0 -93 28.5t-39 75.5l-6 59h-8q-12 -18 -34.5 -45.5t-57.5 -53.5t-84 -44t-113 -18q-72 0 -127 27.5t-92 75.5t-55.5 114.5 t-18.5 144.5zM221 362q0 -43 8.5 -82.5t25.5 -69.5t46 -47.5t70 -17.5q70 0 120 38t84.5 103.5t55 154.5t33.5 194l20 188q-14 0 -29 2q-12 2 -27.5 3t-31.5 1q-92 0 -161.5 -34.5t-117 -96t-72 -147.5t-24.5 -189zM393 1227q0 92 64.5 137t158.5 45q82 0 132.5 -41 t50.5 -119q0 -90 -63.5 -132t-160.5 -42q-80 0 -131 40t-51 112zM526 1233q0 -29 16.5 -46.5t47.5 -17.5q37 0 57.5 20.5t20.5 53.5q0 72 -66 72q-35 0 -55.5 -20.5t-20.5 -61.5z" />
<glyph unicode="&#xe6;" horiz-adv-x="1476" d="M-6 254q0 92 42 159.5t115.5 114.5t173 75t214.5 40l114 12q59 152 179 246t298 94q154 0 234 -76.5t80 -191.5q0 -90 -40 -157.5t-108.5 -115.5t-162 -77t-197.5 -39l-125 -14q8 -98 73.5 -138.5t168.5 -40.5q35 0 60.5 5.5t45.5 11.5l37 121h135v-248 q-25 -10 -61.5 -19.5t-80.5 -16.5t-92 -12t-98 -5q-266 0 -350 165h-12q-55 -74 -145.5 -119.5t-200.5 -45.5q-141 0 -219 71.5t-78 200.5zM209 272q0 -61 32.5 -97t102.5 -36q59 0 106.5 28t83 78t59 118.5t36.5 148.5l-78 -8q-166 -16 -254 -71.5t-88 -160.5zM809 465 l78 8q166 16 254 71.5t88 160.5q0 61 -33 97t-102 36q-59 0 -106.5 -28t-83.5 -78t-59.5 -118.5t-35.5 -148.5z" />
<glyph unicode="&#xe7;" horiz-adv-x="800" d="M25 391q0 137 39.5 249t112.5 190.5t174.5 121.5t226.5 43q80 0 146.5 -12t92.5 -20l-55 -283h-146v145q-8 4 -28.5 5t-38.5 1q-78 -2 -138.5 -34.5t-101.5 -90t-62.5 -134t-21.5 -164.5q0 -111 51.5 -188t161.5 -77q92 0 160 40t107 81v-196q-20 -18 -94 -48t-183 -36 l-8 -66q53 0 92 -34t39 -87q0 -39 -19.5 -67.5t-50 -48t-70.5 -29.5t-83 -10q-51 0 -84 6t-49 10l28 84q12 -4 39 -8t55 -4q35 0 68 13t33 48q0 53 -72 53q-16 0 -32.5 -2t-28.5 -4l41 150q-145 23 -223 127t-78 276z" />
<glyph unicode="&#xe8;" horiz-adv-x="919" d="M25 399q0 119 37.5 227.5t107.5 190.5t168 130t219 48q147 0 237.5 -68.5t90.5 -187.5q0 -88 -43 -147.5t-115 -98t-163 -60t-189 -30.5l-146 -14q0 -244 256 -244q35 0 66 5.5t51 11.5l37 121h135v-248q-25 -10 -61.5 -19.5t-79.5 -16.5t-91 -12t-98 -5 q-209 0 -314 112.5t-105 304.5zM242 526l145 19q123 16 195.5 54t83.5 118q0 53 -34 87t-104 34q-53 0 -99 -22.5t-84 -63.5t-64.5 -98.5t-38.5 -127.5zM358 1241l99 150l323 -224l-69 -69z" />
<glyph unicode="&#xe9;" horiz-adv-x="919" d="M25 399q0 119 37.5 227.5t107.5 190.5t168 130t219 48q147 0 237.5 -68.5t90.5 -187.5q0 -88 -43 -147.5t-115 -98t-163 -60t-189 -30.5l-146 -14q0 -244 256 -244q35 0 66 5.5t51 11.5l37 121h135v-248q-25 -10 -61.5 -19.5t-79.5 -16.5t-91 -12t-98 -5 q-209 0 -314 112.5t-105 304.5zM242 526l145 19q123 16 195.5 54t83.5 118q0 53 -34 87t-104 34q-53 0 -99 -22.5t-84 -63.5t-64.5 -98.5t-38.5 -127.5zM352 1167l377 224l62 -150l-385 -143z" />
<glyph unicode="&#xea;" horiz-adv-x="919" d="M25 399q0 119 37.5 227.5t107.5 190.5t168 130t219 48q147 0 237.5 -68.5t90.5 -187.5q0 -88 -43 -147.5t-115 -98t-163 -60t-189 -30.5l-146 -14q0 -244 256 -244q35 0 66 5.5t51 11.5l37 121h135v-248q-25 -10 -61.5 -19.5t-79.5 -16.5t-91 -12t-98 -5 q-209 0 -314 112.5t-105 304.5zM242 526l145 19q123 16 195.5 54t83.5 118q0 53 -34 87t-104 34q-53 0 -99 -22.5t-84 -63.5t-64.5 -98.5t-38.5 -127.5zM293 1194l227 172q18 14 35.5 19.5t30.5 5.5q10 0 27.5 -4.5t33.5 -20.5l187 -172l-74 -70l-195 95l-221 -95z" />
<glyph unicode="&#xeb;" horiz-adv-x="919" d="M25 399q0 119 37.5 227.5t107.5 190.5t168 130t219 48q147 0 237.5 -68.5t90.5 -187.5q0 -88 -43 -147.5t-115 -98t-163 -60t-189 -30.5l-146 -14q0 -244 256 -244q35 0 66 5.5t51 11.5l37 121h135v-248q-25 -10 -61.5 -19.5t-79.5 -16.5t-91 -12t-98 -5 q-209 0 -314 112.5t-105 304.5zM242 526l145 19q123 16 195.5 54t83.5 118q0 53 -34 87t-104 34q-53 0 -99 -22.5t-84 -63.5t-64.5 -98.5t-38.5 -127.5zM362 1133l31 253h137l-30 -253h-138zM602 1133l31 253h135l-31 -253h-135z" />
<glyph unicode="&#xec;" horiz-adv-x="454" d="M68 831l16 136l291 20l-101 -827l86 -13l-18 -145q-16 -6 -54 -14t-69 -8q-82 0 -114.5 33.5t-32.5 101.5q0 10 1 22.5t3 26.5l84 651zM70 1241l98 150l324 -224l-70 -69z" />
<glyph unicode="&#xed;" horiz-adv-x="454" d="M45 1167l379 224l59 -150l-385 -143zM68 831l16 136l291 20l-101 -827l86 -13l-18 -145q-16 -6 -54 -14t-69 -8q-82 0 -114.5 33.5t-32.5 101.5q0 10 1 22.5t3 26.5l84 651z" />
<glyph unicode="&#xee;" horiz-adv-x="454" d="M6 1194l227 172q18 14 36 19.5t30 5.5q10 0 27.5 -4.5t33.5 -20.5l187 -172l-74 -70l-194 95l-222 -95zM68 831l16 136l291 20l-101 -827l86 -13l-18 -145q-16 -6 -54 -14t-69 -8q-82 0 -114.5 33.5t-32.5 101.5q0 10 1 22.5t3 26.5l84 651z" />
<glyph unicode="&#xef;" horiz-adv-x="454" d="M68 831l16 136l291 20l-101 -827l86 -13l-18 -145q-16 -6 -54 -14t-69 -8q-82 0 -114.5 33.5t-32.5 101.5q0 10 1 22.5t3 26.5l84 651zM84 1133l31 253h135l-31 -253h-135zM322 1133l30 253h135l-30 -253h-135z" />
<glyph unicode="&#xf0;" horiz-adv-x="956" d="M25 389q0 109 32.5 201t91 158.5t138.5 104.5t174 42h37.5t31.5 -2l35 -19l6 7l-98 186l-174 -39l-12 121l131 29l-92 176l209 49l94 -180l174 39l8 -119l-131 -31q6 -12 29.5 -61.5t51 -110.5t54.5 -122.5t39 -98.5q14 -47 23.5 -101.5t9.5 -119.5q0 -246 -127 -381 t-357 -135q-94 0 -164.5 31.5t-118.5 86t-71.5 129t-23.5 160.5zM223 399q0 -51 12.5 -97t38 -82t65.5 -56.5t95 -20.5q68 0 116 27t77.5 73t43 108.5t13.5 131.5q0 51 -10 96.5t-33 79t-61.5 54t-94.5 20.5q-68 0 -118 -25.5t-81.5 -70.5t-47 -106.5t-15.5 -131.5z" />
<glyph unicode="&#xf1;" horiz-adv-x="1003" d="M45 0l105 817l-82 12l16 146q20 6 55 14t66 8q59 0 85.5 -28.5t31.5 -75.5l4 -45h8q49 61 118.5 104t168.5 43q133 0 199.5 -69.5t66.5 -194.5q0 -16 -1 -31.5t-3 -31.5l-64 -510l88 -11l-18 -145q-16 -6 -55 -14t-70 -8q-82 0 -115 33.5t-33 101.5q0 10 1 22.5t4 26.5 l61 493q2 10 2 18.5v18.5q0 63 -31.5 100t-97.5 37q-61 0 -105 -26.5t-74 -72.5t-47.5 -106.5t-25.5 -127.5l-61 -498h-197zM272 1190l35 129q2 2 16.5 9t37 15.5t52 14.5t64.5 6q61 0 130 -18.5t141 -18.5q43 0 76.5 7t64.5 18l-31 -125q-10 -6 -57 -25.5t-113 -19.5 q-61 0 -132 17.5t-138 17.5q-45 0 -79 -8.5t-67 -18.5z" />
<glyph unicode="&#xf2;" horiz-adv-x="952" d="M27 391q0 133 32.5 245t96 191.5t154.5 123.5t208 44q92 0 163 -29.5t118 -83t70.5 -128t23.5 -166.5q0 -137 -33 -249t-95.5 -191.5t-154.5 -122.5t-211 -43q-184 0 -278 112.5t-94 296.5zM225 399q0 -109 45 -182.5t148 -73.5q72 0 124 34t86 92.5t50 136t16 167.5 q0 55 -11 102.5t-34.5 82.5t-61.5 54t-89 19q-74 0 -126.5 -35.5t-84 -95t-47 -137.5t-15.5 -164zM350 1241l99 150l323 -224l-70 -69z" />
<glyph unicode="&#xf3;" horiz-adv-x="952" d="M27 391q0 133 32.5 245t96 191.5t154.5 123.5t208 44q92 0 163 -29.5t118 -83t70.5 -128t23.5 -166.5q0 -137 -33 -249t-95.5 -191.5t-154.5 -122.5t-211 -43q-184 0 -278 112.5t-94 296.5zM225 399q0 -109 45 -182.5t148 -73.5q72 0 124 34t86 92.5t50 136t16 167.5 q0 55 -11 102.5t-34.5 82.5t-61.5 54t-89 19q-74 0 -126.5 -35.5t-84 -95t-47 -137.5t-15.5 -164zM332 1167l379 224l59 -150l-385 -143z" />
<glyph unicode="&#xf4;" horiz-adv-x="952" d="M27 391q0 133 32.5 245t96 191.5t154.5 123.5t208 44q92 0 163 -29.5t118 -83t70.5 -128t23.5 -166.5q0 -137 -33 -249t-95.5 -191.5t-154.5 -122.5t-211 -43q-184 0 -278 112.5t-94 296.5zM225 399q0 -109 45 -182.5t148 -73.5q72 0 124 34t86 92.5t50 136t16 167.5 q0 55 -11 102.5t-34.5 82.5t-61.5 54t-89 19q-74 0 -126.5 -35.5t-84 -95t-47 -137.5t-15.5 -164zM274 1194l228 172q18 14 35.5 19.5t29.5 5.5q10 0 27.5 -4.5t34.5 -20.5l186 -172l-74 -70l-194 95l-221 -95z" />
<glyph unicode="&#xf5;" horiz-adv-x="952" d="M27 391q0 133 32.5 245t96 191.5t154.5 123.5t208 44q92 0 163 -29.5t118 -83t70.5 -128t23.5 -166.5q0 -137 -33 -249t-95.5 -191.5t-154.5 -122.5t-211 -43q-184 0 -278 112.5t-94 296.5zM225 399q0 -109 45 -182.5t148 -73.5q72 0 124 34t86 92.5t50 136t16 167.5 q0 55 -11 102.5t-34.5 82.5t-61.5 54t-89 19q-74 0 -126.5 -35.5t-84 -95t-47 -137.5t-15.5 -164zM258 1190l35 129q2 2 17.5 9t38 15.5t52 14.5t62.5 6q61 0 130 -18.5t140 -18.5q43 0 78 7t63 18l-30 -125q-8 -6 -55.5 -25.5t-112.5 -19.5q-63 0 -133 17.5t-140 17.5 q-45 0 -77.5 -8.5t-67.5 -18.5z" />
<glyph unicode="&#xf6;" horiz-adv-x="952" d="M27 391q0 133 32.5 245t96 191.5t154.5 123.5t208 44q92 0 163 -29.5t118 -83t70.5 -128t23.5 -166.5q0 -137 -33 -249t-95.5 -191.5t-154.5 -122.5t-211 -43q-184 0 -278 112.5t-94 296.5zM225 399q0 -109 45 -182.5t148 -73.5q72 0 124 34t86 92.5t50 136t16 167.5 q0 55 -11 102.5t-34.5 82.5t-61.5 54t-89 19q-74 0 -126.5 -35.5t-84 -95t-47 -137.5t-15.5 -164zM360 1133l31 253h135l-30 -253h-136zM598 1133l31 253h135l-31 -253h-135z" />
<glyph unicode="&#xf7;" d="M82 522l14 115h787l-15 -115h-786zM334 238q0 57 33.5 86.5t83.5 29.5q41 0 67.5 -28.5t26.5 -75.5t-30 -81t-83 -34q-45 0 -71.5 29t-26.5 74zM416 895q0 59 33.5 88t82.5 29q41 0 68 -29t27 -76t-30 -80.5t-83 -33.5q-45 0 -71.5 28.5t-26.5 73.5z" />
<glyph unicode="&#xf8;" horiz-adv-x="952" d="M-2 -82l125 170q-96 109 -96 303q0 133 33.5 245t96 191.5t154.5 123.5t209 44q59 0 111.5 -12t91.5 -35l84 115h98l-119 -166q106 -111 107 -309q0 -137 -33 -249t-95.5 -191.5t-154.5 -122.5t-211 -43q-63 0 -119.5 14t-97.5 41l-88 -119h-96zM225 399q0 -78 19 -135 l372 531q-47 37 -118 36q-74 0 -126.5 -35.5t-84 -95t-47 -137.5t-15.5 -164zM291 193q23 -23 54.5 -36.5t72.5 -13.5q72 0 124 34t86 92.5t50 136t16 167.5q0 43 -6 82t-20 72z" />
<glyph unicode="&#xf9;" horiz-adv-x="1005" d="M66 829l16 146q18 6 57 14t70 8q82 0 114.5 -34.5t32.5 -100.5q0 -10 -1 -22.5t-3 -26.5l-63 -494q-2 -10 -2 -19v-19q0 -57 27.5 -96.5t97.5 -39.5q61 0 104 26t74 71t48 106.5t26 130.5l41 334l-87 16l19 148h287l-101 -817l82 -13l-18 -145q-18 -6 -53 -14t-66 -8 q-59 0 -86 28.5t-31 75.5l-4 45h-8q-47 -59 -118.5 -103t-176.5 -44q-129 0 -196.5 66.5t-67.5 189.5q0 35 6 71l66 510zM348 1241l98 150l324 -224l-70 -69z" />
<glyph unicode="&#xfa;" horiz-adv-x="1005" d="M66 829l16 146q18 6 57 14t70 8q82 0 114.5 -34.5t32.5 -100.5q0 -10 -1 -22.5t-3 -26.5l-63 -494q-2 -10 -2 -19v-19q0 -57 27.5 -96.5t97.5 -39.5q61 0 104 26t74 71t48 106.5t26 130.5l41 334l-87 16l19 148h287l-101 -817l82 -13l-18 -145q-18 -6 -53 -14t-66 -8 q-59 0 -86 28.5t-31 75.5l-4 45h-8q-47 -59 -118.5 -103t-176.5 -44q-129 0 -196.5 66.5t-67.5 189.5q0 35 6 71l66 510zM352 1167l377 224l62 -150l-385 -143z" />
<glyph unicode="&#xfb;" horiz-adv-x="1005" d="M66 829l16 146q18 6 57 14t70 8q82 0 114.5 -34.5t32.5 -100.5q0 -10 -1 -22.5t-3 -26.5l-63 -494q-2 -10 -2 -19v-19q0 -57 27.5 -96.5t97.5 -39.5q61 0 104 26t74 71t48 106.5t26 130.5l41 334l-87 16l19 148h287l-101 -817l82 -13l-18 -145q-18 -6 -53 -14t-66 -8 q-59 0 -86 28.5t-31 75.5l-4 45h-8q-47 -59 -118.5 -103t-176.5 -44q-129 0 -196.5 66.5t-67.5 189.5q0 35 6 71l66 510zM299 1194l225 172q20 16 38 20.5t28 4.5q12 0 29.5 -4.5t33.5 -20.5l185 -172l-72 -70l-197 95l-219 -95z" />
<glyph unicode="&#xfc;" horiz-adv-x="1005" d="M66 829l16 146q18 6 57 14t70 8q82 0 114.5 -34.5t32.5 -100.5q0 -10 -1 -22.5t-3 -26.5l-63 -494q-2 -10 -2 -19v-19q0 -57 27.5 -96.5t97.5 -39.5q61 0 104 26t74 71t48 106.5t26 130.5l41 334l-87 16l19 148h287l-101 -817l82 -13l-18 -145q-18 -6 -53 -14t-66 -8 q-59 0 -86 28.5t-31 75.5l-4 45h-8q-47 -59 -118.5 -103t-176.5 -44q-129 0 -196.5 66.5t-67.5 189.5q0 35 6 71l66 510zM371 1133l30 253h138l-31 -253h-137zM610 1133l31 253h135l-31 -253h-135z" />
<glyph unicode="&#xfd;" horiz-adv-x="876" d="M-47 -184q10 -2 33.5 -4t33.5 -2q84 0 151 54t114 136l45 82h-99l-129 737l-69 12l16 136l232 20l112 -698v-78h10q41 78 80 167t71 173t54.5 153.5t30.5 110.5l-6 162q25 10 54.5 15t51.5 5q66 0 94.5 -34.5t28.5 -88.5q0 -78 -40 -193.5t-97 -240.5t-118.5 -241.5 t-106.5 -196.5q-45 -78 -94.5 -144.5t-107.5 -113.5t-127 -73.5t-151 -26.5q-10 0 -33.5 2t-33.5 4v166zM309 1167l379 224l62 -150l-388 -143z" />
<glyph unicode="&#xfe;" d="M-10 -350l30 145l175 1417l-82 13l16 145q20 6 58 14.5t69 8.5q70 0 105.5 -32t35.5 -89q0 -10 -1 -22.5t-3 -26.5l-43 -355l8 -2q14 20 39 43t57.5 42.5t72.5 31.5t87 12q74 0 130.5 -27.5t96.5 -76.5t60.5 -116.5t20.5 -149.5q0 -154 -42 -270.5t-121 -195.5 t-190.5 -119t-251.5 -40h-75l-23 -178l98 -19l-16 -133zM260 162q12 -2 25 -4q10 -2 23.5 -2h29.5q90 0 160.5 32.5t120 93t75 143.5t25.5 185q0 96 -37 158.5t-121 62.5q-70 0 -118 -39.5t-80.5 -107.5t-51 -157t-30.5 -187z" />
<glyph unicode="&#xff;" horiz-adv-x="876" d="M-47 -184q10 -2 33.5 -4t33.5 -2q84 0 151 54t114 136l45 82h-99l-129 737l-69 12l16 136l232 20l112 -698v-78h10q41 78 80 167t71 173t54.5 153.5t30.5 110.5l-6 162q25 10 54.5 15t51.5 5q66 0 94.5 -34.5t28.5 -88.5q0 -78 -40 -193.5t-97 -240.5t-118.5 -241.5 t-106.5 -196.5q-45 -78 -94.5 -144.5t-107.5 -113.5t-127 -73.5t-151 -26.5q-10 0 -33.5 2t-33.5 4v166zM319 1133l31 253h137l-30 -253h-138zM559 1133l31 253h133l-31 -253h-133z" />
<glyph unicode="&#x152;" horiz-adv-x="1640" d="M47 514q0 195 48 341t136 244.5t212 147.5t274 49h923l-61 -344h-154v162h-374l-43 -352h499l-22 -172h-500l-49 -410h383l45 164h141v-344h-991q-233 0 -350 134t-117 380zM274 528q0 -76 15.5 -140t48.5 -110.5t85 -73t128 -26.5h168l115 940h-134q-111 0 -191.5 -43 t-132.5 -120.5t-77 -186.5t-25 -240z" />
<glyph unicode="&#x153;" horiz-adv-x="1527" d="M31 381q0 135 30.5 247.5t90 194.5t149.5 127t207 45q111 0 191.5 -41t117.5 -114h14q59 72 143.5 113.5t194.5 41.5q70 0 129.5 -17t102.5 -50t67.5 -80t24.5 -105q0 -88 -42 -148t-110.5 -99t-158.5 -60.5t-189 -32.5l-137 -14q0 -125 59.5 -184.5t188.5 -59.5 q29 0 57.5 5.5t48.5 11.5l37 121h135v-248q-25 -10 -61.5 -19.5t-79.5 -16.5t-91 -12t-97 -5q-127 0 -207 39.5t-125 115.5h-12q-59 -74 -136 -114.5t-188 -40.5q-92 0 -159.5 28.5t-110.5 80.5t-63.5 126t-20.5 164zM225 391q0 -53 9.5 -98t30 -78t54 -52.5t82.5 -19.5 q72 0 124.5 35t85 94.5t48 140.5t15.5 171q0 51 -9.5 97t-31 79t-55 52t-84.5 19q-74 0 -125.5 -35.5t-83 -96t-46 -140.5t-14.5 -168zM864 526l137 17q117 14 193 57t76 125q0 49 -35 81t-92 32q-104 0 -179 -84t-100 -228z" />
<glyph unicode="&#x178;" horiz-adv-x="989" d="M70 1139l20 157h238l145 -559l10 -73h11l16 75l215 381l-72 15l21 161h379l-480 -821l-57 -475h-299l21 162l79 14l35 299l-202 645zM389 1411l31 254h137l-31 -254h-137zM629 1411l30 254h136l-31 -254h-135z" />
<glyph unicode="&#x2c6;" horiz-adv-x="1003" d="M303 1196l227 172q20 16 38 20.5t28 4.5q29 0 61 -27l187 -170l-72 -70l-197 95l-219 -95z" />
<glyph unicode="&#x2dc;" horiz-adv-x="1003" d="M272 1190l35 129q2 2 17.5 9t38 15.5t52 14.5t62.5 6q61 0 130 -18.5t141 -18.5q43 0 76.5 7t64.5 18l-31 -125q-10 -6 -56 -25.5t-112 -19.5q-63 0 -134 17.5t-138 17.5q-45 0 -79 -8.5t-67 -18.5z" />
<glyph unicode="&#x2000;" horiz-adv-x="848" />
<glyph unicode="&#x2001;" horiz-adv-x="1696" />
<glyph unicode="&#x2002;" horiz-adv-x="848" />
<glyph unicode="&#x2003;" horiz-adv-x="1696" />
<glyph unicode="&#x2004;" horiz-adv-x="565" />
<glyph unicode="&#x2005;" horiz-adv-x="424" />
<glyph unicode="&#x2006;" horiz-adv-x="282" />
<glyph unicode="&#x2007;" horiz-adv-x="282" />
<glyph unicode="&#x2008;" horiz-adv-x="212" />
<glyph unicode="&#x2009;" horiz-adv-x="339" />
<glyph unicode="&#x200a;" horiz-adv-x="94" />
<glyph unicode="&#x2010;" horiz-adv-x="657" d="M78 436l14 113h457l-14 -113h-457z" />
<glyph unicode="&#x2011;" horiz-adv-x="657" d="M78 436l14 113h457l-14 -113h-457z" />
<glyph unicode="&#x2012;" horiz-adv-x="657" d="M78 436l14 113h457l-14 -113h-457z" />
<glyph unicode="&#x2013;" horiz-adv-x="1026" d="M-20 436l14 115h1024l-14 -115h-1024z" />
<glyph unicode="&#x2014;" horiz-adv-x="2050" d="M-20 436l14 115h2048l-14 -115h-2048z" />
<glyph unicode="&#x2018;" horiz-adv-x="378" d="M137 1059q0 45 15.5 77.5t42.5 69.5l96 135l78 -8l-82 -164q27 -8 43 -32.5t16 -57.5q0 -47 -30.5 -85t-84.5 -38q-45 0 -69.5 29t-24.5 74z" />
<glyph unicode="&#x2019;" horiz-adv-x="378" d="M125 821l82 164q-27 8 -43.5 32.5t-16.5 57.5q0 47 31 85t84 38q45 0 69.5 -28.5t24.5 -73.5t-15 -78t-42 -70l-96 -135z" />
<glyph unicode="&#x201a;" horiz-adv-x="378" d="M4 -168l82 164q-27 8 -43 32.5t-16 57.5q0 47 30.5 85t83.5 38q45 0 70 -28.5t25 -74.5q0 -45 -15.5 -77.5t-42.5 -69.5l-96 -135z" />
<glyph unicode="&#x201c;" horiz-adv-x="704" d="M137 1059q0 45 15.5 77.5t42.5 69.5l96 135l78 -8l-82 -164q27 -8 43 -32.5t16 -57.5q0 -47 -30.5 -85t-84.5 -38q-45 0 -69.5 29t-24.5 74zM465 1059q0 45 15.5 77.5t41.5 69.5l96 135l78 -8l-82 -164q27 -8 43.5 -32.5t16.5 -57.5q0 -47 -31 -85t-84 -38 q-45 0 -69.5 29t-24.5 74z" />
<glyph unicode="&#x201d;" horiz-adv-x="704" d="M127 819l82 164q-27 8 -43 32.5t-16 57.5q0 47 30.5 85t83.5 38q45 0 69.5 -28.5t24.5 -73.5t-15 -78t-42 -70l-96 -135zM453 819l82 164q-27 8 -43.5 32.5t-16.5 57.5q0 47 31 85t84 38q45 0 69.5 -28.5t24.5 -73.5t-15.5 -78t-41.5 -70l-97 -135z" />
<glyph unicode="&#x201e;" horiz-adv-x="704" d="M4 -168l82 164q-27 8 -43 32.5t-16 57.5q0 47 30.5 85t83.5 38q45 0 70 -28.5t25 -74.5q0 -45 -15.5 -77.5t-42.5 -69.5l-96 -135zM330 -168l82 164q-27 8 -43.5 32.5t-16.5 57.5q0 47 31 85t84 38q45 0 69.5 -28.5t24.5 -74.5q0 -45 -15.5 -77.5t-41.5 -69.5l-96 -135z " />
<glyph unicode="&#x2022;" horiz-adv-x="583" d="M102 571q6 86 59.5 135.5t137.5 49.5q78 0 124 -48.5t46 -127.5q0 -94 -54.5 -146.5t-140.5 -52.5q-80 0 -126 49t-46 141z" />
<glyph unicode="&#x2026;" horiz-adv-x="1030" d="M29 84q0 59 33.5 88t82.5 29q41 0 68 -29t27 -76t-30 -80.5t-83 -33.5q-45 0 -71.5 28.5t-26.5 73.5zM352 84q0 59 34 88t83 29q41 0 67.5 -29t26.5 -76t-29.5 -80.5t-82.5 -33.5q-45 0 -72 28.5t-27 73.5zM680 84q0 59 34 88t83 29q41 0 67.5 -29t26.5 -76t-30 -80.5 t-83 -33.5q-45 0 -71.5 28.5t-26.5 73.5z" />
<glyph unicode="&#x202f;" horiz-adv-x="339" />
<glyph unicode="&#x2039;" horiz-adv-x="643" d="M76 553l456 448l72 -88l-373 -360l285 -375l-96 -78z" />
<glyph unicode="&#x203a;" horiz-adv-x="643" d="M18 186l377 367l-284 369l96 79l344 -448l-457 -455z" />
<glyph unicode="&#x2044;" horiz-adv-x="301" d="M-252 0l756 1190h104l-758 -1190h-102z" />
<glyph unicode="&#x205f;" horiz-adv-x="424" />
<glyph unicode="&#x2070;" horiz-adv-x="555" d="M68 823q0 176 72.5 276.5t207.5 100.5q102 0 153.5 -65.5t51.5 -176.5q0 -178 -72.5 -275t-208.5 -97q-102 0 -153 63t-51 174zM178 836q0 -66 23.5 -113t83.5 -47q39 0 68.5 23.5t49 62.5t29.5 88t10 98q0 66 -23.5 113t-80.5 47q-43 0 -74 -23.5t-50 -62.5t-27.5 -88 t-8.5 -98z" />
<glyph unicode="&#x2074;" horiz-adv-x="540" d="M55 713l11 106l290 371h154l-47 -389h65l-10 -88h-65l-17 -117h-106l14 117h-289zM150 807l2 -6h202l33 272l16 33l-6 2l-219 -289z" />
<glyph unicode="&#x2075;" horiz-adv-x="495" d="M45 604l31 168h82v-90q10 -2 21 -2h24q66 0 117 24.5t51 83.5q0 57 -59.5 79t-135.5 22h-61l37 301h348l-13 -98l-73 8h-168l-17 -133q51 0 97.5 -10.5t80 -32t54 -55t20.5 -81.5q0 -53 -23.5 -91t-62.5 -62.5t-88 -35.5t-100 -11q-37 0 -79 4t-83 12z" />
<glyph unicode="&#x2076;" horiz-adv-x="532" d="M68 831q0 164 79.5 266.5t241.5 102.5q39 0 81 -5t75 -13l-31 -164h-82v88q-6 0 -21.5 1t-25.5 1q-158 0 -188 -158q27 2 47 3t41 1q102 0 168.5 -43t66.5 -129q0 -98 -65.5 -148t-165.5 -50q-115 0 -168 69.5t-53 177.5zM178 819q0 -63 24.5 -105t90.5 -42q51 0 84 26.5 t33 79.5t-41 78t-105 25q-45 0 -82 -7q-4 -16 -4 -28v-27z" />
<glyph unicode="&#x2077;" horiz-adv-x="456" d="M82 1006v184h416l-15 -107q-68 -59 -110.5 -123.5t-69.5 -128t-40 -122t-19 -105.5v-8h-113l2 8q6 55 20.5 113.5t39 119t63.5 122t96 120.5l27 15l2 6h-197l-26 -94h-76z" />
<glyph unicode="&#x2078;" horiz-adv-x="552" d="M61 733q0 59 35 99t86 63l2 8q-31 16 -52 46t-21 71q0 45 20.5 80t53 56.5t74.5 32.5t85 11q41 0 78 -10t65.5 -28.5t46 -46.5t17.5 -62q0 -59 -32 -94t-79 -56l-2 -6q39 -23 61.5 -54.5t22.5 -72.5q0 -49 -20.5 -84t-55 -57.5t-78.5 -32.5t-89 -10q-90 0 -154 38 t-64 109zM164 752q0 -37 34.5 -58.5t82.5 -21.5q47 0 87 21.5t40 68.5q0 35 -34 57.5t-77 34.5l-23 6q-43 -16 -76.5 -41.5t-33.5 -66.5zM221 1028q0 -35 31 -52.5t72 -31.5l22 -8q33 10 69 35.5t36 68.5q0 37 -34 56.5t-77 19.5t-81 -20.5t-38 -67.5z" />
<glyph unicode="&#x2079;" horiz-adv-x="532" d="M55 604l31 164h82v-88q6 0 21.5 -1t25.5 -1q156 0 186 158q-16 -2 -36.5 -4.5t-49.5 -2.5q-102 0 -168.5 43t-66.5 129q0 98 65.5 148.5t165.5 50.5q111 0 165 -70.5t54 -177.5q0 -164 -80.5 -265t-238.5 -101q-39 0 -81 5t-75 13zM190 1006q0 -53 41 -78t103 -25 q45 0 82 6q2 14 3 27.5t1 26.5q0 66 -24.5 107.5t-88.5 41.5q-51 0 -84 -27.5t-33 -78.5z" />
<glyph unicode="&#x207d;" horiz-adv-x="327" d="M94 817q0 45 6 88q16 125 66.5 227.5t112.5 188.5l61 -45q-29 -43 -57.5 -91t-51 -103.5t-36 -121t-13.5 -145.5q0 -90 19.5 -165t46.5 -134l-74 -43q-33 68 -56.5 157t-23.5 187z" />
<glyph unicode="&#x207e;" horiz-adv-x="327" d="M53 516q29 43 57.5 91t50 103.5t35 121t13.5 143.5q0 92 -17.5 167t-46.5 134l72 45q33 -72 57.5 -162t24.5 -192v-40t-4 -42q-16 -123 -67.5 -225.5t-112.5 -186.5z" />
<glyph unicode="&#x207f;" horiz-adv-x="626" d="M80 594l63 500l-49 8l10 88q12 4 33 9t41 5q35 0 50.5 -17.5t19.5 -45.5l4 -29h8q31 39 72 64.5t102 25.5q80 0 121 -42t41 -118v-17t-2 -21l-39 -314l53 -6l-10 -90q-10 -4 -34.5 -8t-43.5 -4q-49 0 -69.5 20.5t-20.5 61.5q0 6 1 16t3 20l35 283q2 12 2 21.5v15.5 q0 39 -18.5 61.5t-59.5 22.5q-39 0 -65.5 -16.5t-45 -45t-28.5 -65.5t-16 -78l-37 -305h-121z" />
<glyph unicode="&#x20ac;" d="M18 358l35 99h86q0 29 6.5 78t18.5 92h-113l35 98h104q68 178 201 277.5t328 99.5q82 0 145.5 -13.5t91.5 -23.5l-57 -154q-31 14 -82 25.5t-94 11.5q-123 0 -203 -56t-125 -167h404q-10 -25 -18.5 -49.5t-16.5 -48.5h-402q-8 -23 -16 -67t-8 -85q0 -10 2 -18h426 l-35 -99h-385q12 -102 73.5 -162.5t172.5 -60.5q86 0 156.5 29t109.5 61v-164q-14 -10 -37.5 -23t-59.5 -25.5t-83 -21.5t-111 -9q-186 0 -294.5 100t-127.5 276h-127z" />
<glyph unicode="&#x2122;" horiz-adv-x="1044" d="M109 1327l8 76h325l-8 -76h-117l-59 -469h-98l14 60l51 409h-116zM426 856l18 62l74 485h150l61 -393l-2 -29h8l6 29l156 393h152l-13 -62l-43 -485h-90l45 459h-8l-6 -33l-176 -426h-90l-70 428l4 33h-8l-70 -461h-98z" />
<glyph unicode="&#x2153;" horiz-adv-x="1146" d="M59 596l11 90h151l53 375l-6 2l-20 -35q-31 -25 -71 -38t-77 -23l-6 100q49 10 103.5 42t95.5 81h110l-69 -504h135l-12 -90h-398zM100 0l828 1190h102l-825 -1190h-105zM631 6v100q16 -6 61 -16t94 -10q20 0 48 3t52.5 13t42 28.5t17.5 49.5q0 51 -41 68.5t-96 17.5h-82 l10 76h80q57 0 103.5 20.5t46.5 75.5q0 47 -38 64.5t-87 17.5q-16 0 -31.5 -2t-28.5 -6l-26 -86h-76v162q35 8 86 14t96 6q88 0 152.5 -36t64.5 -117q0 -53 -27.5 -88t-74.5 -58v-8q37 -16 58.5 -47t21.5 -76q0 -53 -24.5 -88t-64.5 -56.5t-90.5 -30.5t-99.5 -9q-45 0 -87 7 t-60 11z" />
<glyph unicode="&#x2154;" horiz-adv-x="1159" d="M43 594l12 115q90 53 153.5 92t102.5 71.5t56.5 63.5t17.5 68q0 47 -36 72.5t-95 25.5h-21.5t-21.5 -4l-31 -103h-76v181q39 10 88.5 15t81.5 5q90 0 156 -47t66 -137q0 -49 -16.5 -88t-50.5 -76t-87 -74t-129 -82v-8h199l80 12l-13 -102h-436zM117 0l827 1190h103 l-828 -1190h-102zM631 6v100q16 -6 61 -16t94 -10q20 0 48 3t52.5 13t42 28.5t17.5 49.5q0 51 -41 68.5t-96 17.5h-82l10 76h80q57 0 103.5 20.5t46.5 75.5q0 47 -38 64.5t-87 17.5q-16 0 -31.5 -2t-28.5 -6l-26 -86h-76v162q35 8 86 14t96 6q88 0 152.5 -36t64.5 -117 q0 -53 -27.5 -88t-74.5 -58v-8q37 -16 58.5 -47t21.5 -76q0 -53 -24.5 -88t-64.5 -56.5t-90.5 -30.5t-99.5 -9q-45 0 -87 7t-60 11z" />
<glyph unicode="&#x215b;" horiz-adv-x="1146" d="M59 596l11 90h151l53 375l-6 2l-20 -35q-31 -25 -71 -38t-77 -23l-6 100q49 10 103.5 42t95.5 81h110l-69 -504h135l-12 -90h-398zM102 0l828 1190h102l-827 -1190h-103zM573 139q0 59 35 99.5t86 62.5l2 8q-31 16 -52 46t-21 71q0 45 20.5 80t53 56.5t74.5 32.5t85 11 q41 0 78 -10t65.5 -28.5t46 -46t17.5 -62.5q0 -59 -32 -94t-79 -56l-2 -6q39 -23 61.5 -54.5t22.5 -72.5q0 -49 -20.5 -84t-55 -57.5t-78.5 -32.5t-89 -10q-90 0 -154 38t-64 109zM676 158q0 -37 34.5 -58.5t82.5 -21.5q47 0 87 21.5t40 68.5q0 35 -34 57.5t-77 34.5l-23 6 q-43 -16 -76.5 -41.5t-33.5 -66.5zM733 434q0 -35 31 -52t72 -32l22 -8q33 10 69 35.5t36 68.5q0 37 -34 56.5t-77 19.5t-81 -20.5t-38 -67.5z" />
<glyph unicode="&#x215c;" horiz-adv-x="1138" d="M57 604v101q16 -6 61.5 -16.5t94.5 -10.5q20 0 48 3t52.5 13.5t42 28.5t17.5 49q0 51 -41 68.5t-96 17.5h-82l10 76h80q57 0 103 20.5t46 75.5q0 47 -38 64.5t-87 17.5q-16 0 -31.5 -2t-27.5 -6l-27 -86h-76v162q35 8 86.5 14t96.5 6q88 0 152.5 -36t64.5 -117 q0 -53 -27.5 -88t-75.5 -58v-8q37 -16 58.5 -47t21.5 -76q0 -53 -24.5 -88t-64.5 -56.5t-90 -30.5t-99 -9q-45 0 -87 7t-61 11zM94 0l828 1190h104l-829 -1190h-103zM563 139q0 59 35 99.5t86 62.5l2 8q-31 16 -52.5 46t-21.5 71q0 45 20.5 80t53.5 56.5t75 32.5t85 11 q41 0 78 -10t65.5 -28.5t46 -46t17.5 -62.5q0 -59 -32 -94t-79 -56l-2 -6q39 -23 61.5 -54.5t22.5 -72.5q0 -49 -20.5 -84t-55.5 -57.5t-79 -32.5t-89 -10q-90 0 -153.5 38t-63.5 109zM666 158q0 -37 34.5 -58.5t81.5 -21.5t87 21.5t40 68.5q0 35 -33.5 57.5t-76.5 34.5 l-23 6q-43 -16 -76.5 -41.5t-33.5 -66.5zM723 434q0 -35 30.5 -52t71.5 -32l23 -8q33 10 68.5 35.5t35.5 68.5q0 37 -33.5 56.5t-76.5 19.5t-81 -20.5t-38 -67.5z" />
<glyph unicode="&#x215d;" horiz-adv-x="1134" d="M45 604l31 168h82v-90q10 -2 21 -2h24q66 0 117 24.5t51 83.5q0 57 -59.5 79t-135.5 22h-61l37 301h348l-13 -98l-73 8h-168l-17 -133q51 0 97.5 -10.5t80 -32t54 -55t20.5 -81.5q0 -53 -23.5 -91t-62.5 -62.5t-88 -35.5t-100 -11q-37 0 -79 4t-83 12zM90 0l828 1190h102 l-827 -1190h-103zM563 139q0 59 35 99.5t86 62.5l2 8q-31 16 -52.5 46t-21.5 71q0 45 20.5 80t53.5 56.5t75 32.5t85 11q41 0 78 -10t65.5 -28.5t46 -46t17.5 -62.5q0 -59 -32 -94t-79 -56l-2 -6q39 -23 61.5 -54.5t22.5 -72.5q0 -49 -20.5 -84t-55.5 -57.5t-79 -32.5 t-89 -10q-90 0 -153.5 38t-63.5 109zM666 158q0 -37 34.5 -58.5t81.5 -21.5t87 21.5t40 68.5q0 35 -33.5 57.5t-76.5 34.5l-23 6q-43 -16 -76.5 -41.5t-33.5 -66.5zM723 434q0 -35 30.5 -52t71.5 -32l23 -8q33 10 68.5 35.5t35.5 68.5q0 37 -33.5 56.5t-76.5 19.5t-81 -20.5 t-38 -67.5z" />
<glyph unicode="&#x215e;" horiz-adv-x="1046" d="M-16 0l825 1190h102l-827 -1190h-100zM82 1006v184h416l-15 -107q-68 -59 -110.5 -123.5t-69.5 -128t-40 -122t-19 -105.5v-8h-113l2 8q6 55 20.5 113.5t39 119t63.5 122t96 120.5l27 15l2 6h-197l-26 -94h-76zM483 139q0 59 35 99.5t86 62.5l2 8q-31 16 -52.5 46 t-21.5 71q0 45 20.5 80t53.5 56.5t75 32.5t85 11q41 0 78 -10t65.5 -28.5t46 -46t17.5 -62.5q0 -59 -32 -94t-79 -56l-2 -6q39 -23 61.5 -54.5t22.5 -72.5q0 -49 -20.5 -84t-55 -57.5t-79 -32.5t-89.5 -10q-90 0 -153.5 38t-63.5 109zM586 158q0 -37 34.5 -58.5t81.5 -21.5 t87 21.5t40 68.5q0 35 -33.5 57.5t-76.5 34.5l-23 6q-43 -16 -76.5 -41.5t-33.5 -66.5zM643 434q0 -35 31 -52t71 -32l23 -8q33 10 68.5 35.5t35.5 68.5q0 37 -33.5 56.5t-76.5 19.5t-81 -20.5t-38 -67.5z" />
<glyph unicode="&#x2160;" horiz-adv-x="477" d="M-78 0l8 61h127l17 76l108 885h-137l8 61h486l-9 -61h-145l-117 -961h146l-8 -61h-484z" />
<glyph unicode="&#x2164;" horiz-adv-x="933" d="M-78 0l8 61h308l-148 961h-45l8 61h942l-8 -61h-47l-385 -961h315l-8 -61h-940zM303 1022l103 -786v-70h8l18 70l268 712l17 74h-414z" />
<glyph unicode="&#x2169;" horiz-adv-x="970" d="M-78 0l8 61h58l334 496l-193 465h-84l8 61h979l-8 -61h-86l-309 -465l219 -496h59l-8 -61h-977zM221 61h402l-144 330l-10 66h-8l-29 -66l-188 -276zM350 1022l121 -307l14 -66h9l26 64l166 258l21 51h-357z" />
<glyph unicode="&#x216c;" horiz-adv-x="745" d="M-78 0l8 61h129l15 64l110 897h-139l8 61h754l-8 -61h-412l-104 -856h350l-12 -105h61l-8 -61h-752z" />
<glyph unicode="&#x216d;" horiz-adv-x="870" d="M-78 0l8 61h277q-80 51 -126 148.5t-46 241.5q0 205 85 352t222 219h-297l8 61h879l-8 -61h-80l-51 -145q-37 16 -86.5 28.5t-104.5 12.5q-86 0 -152.5 -36t-112.5 -97.5t-69.5 -145.5t-23.5 -178q0 -61 13 -115.5t43 -94.5t75 -63.5t108 -23.5q49 0 89 11t74 29.5 t58.5 41t43.5 43.5l24 -176q-10 -8 -34.5 -24.5t-51.5 -27.5h121l-8 -61h-877z" />
<glyph unicode="&#x216e;" horiz-adv-x="1114" d="M-78 0l8 61h191l16 74l99 785l-89 18l11 84h-113l8 61h1127l-9 -61h-309q178 -111 178 -397q0 -215 -66.5 -355.5t-182.5 -208.5h264l-8 -61h-1125zM346 162h172q162 0 239 122t77 349q0 141 -57.5 215t-188.5 74h-150z" />
<glyph unicode="&#x216f;" horiz-adv-x="1421" d="M-78 0l8 61h105l18 64l162 897h-170l8 61h1430l-8 -61h-170l-11 -66l-55 -895h119l-8 -61h-1428zM246 61h293l-142 799v64h-10zM530 1022l123 -752v-57h11l14 57l309 752h-457zM745 61h291l70 861h-8l-17 -64z" />
<glyph unicode="&#x25fc;" horiz-adv-x="993" d="M0 0v993h993v-993h-993z" />
<glyph horiz-adv-x="2029" d="M53 539q0 170 47 312t134.5 245.5t210 161t276.5 57.5q78 0 149.5 -14.5t106.5 -26.5l-64 -356h-155v198q-18 4 -42 7t-42 3q-98 0 -172 -44t-124 -119.5t-76 -176t-26 -211.5q0 -88 19.5 -162.5t61.5 -130t107.5 -86t158.5 -30.5q86 0 168.5 16.5t150.5 42.5l135 1071 h215l-65 -534h461l65 534h229l-30 -143l-125 -983l90 -18l-19 -152h-305l72 586h-461l-61 -504q-117 -35 -261.5 -67.5t-308.5 -32.5q-127 0 -223 39.5t-162.5 112.5t-100.5 175.5t-34 229.5z" />
<glyph horiz-adv-x="1875" d="M53 539q0 170 47 312t134.5 245.5t210 161t276.5 57.5q78 0 149.5 -14.5t106.5 -26.5l-64 -356h-155v198q-18 4 -42 7t-42 3q-98 0 -172 -44t-124 -119.5t-76 -176t-26 -211.5q0 -88 19.5 -162.5t61.5 -130t107.5 -86t158.5 -30.5q86 0 168.5 16.5t150.5 42.5l143 1147 l320 21l-19 -156l-122 -23l-41 -335h10q47 53 114.5 84.5t153.5 31.5q127 0 192.5 -73.5t65.5 -194.5q0 -14 -1 -28.5t-3 -30.5l-61 -508l86 -13l-19 -145q-16 -6 -52 -14t-67 -8q-84 0 -117.5 34.5t-33.5 102.5q0 10 1 22.5t3 24.5l57 491q2 10 2 18.5v18.5q0 63 -31.5 99 t-97.5 36q-57 0 -100 -25.5t-73.5 -68.5t-49 -101.5t-26.5 -125.5l-52 -426q-113 -35 -247 -66.5t-304 -31.5q-127 0 -223 39.5t-162.5 112.5t-100.5 175.5t-34 229.5z" />
<glyph horiz-adv-x="1716" d="M29 422q0 131 37.5 236.5t106.5 180t167 115.5t221 41q66 0 127.5 -10t95.5 -20l-55 -285h-143q-2 35 -2 70.5v70.5q-16 4 -31.5 6t-32.5 2q-72 0 -125 -29.5t-90 -80.5t-55.5 -121t-18.5 -152q0 -68 15.5 -123t48.5 -95t84 -62.5t125 -22.5t148.5 15.5t129.5 38.5 l144 1175l319 21l-18 -156l-123 -23l-41 -335h10q47 53 118 84.5t150 31.5q127 0 192.5 -73.5t65.5 -194.5q0 -14 -1 -28.5t-3 -30.5l-61 -508l86 -13l-18 -145q-16 -6 -51 -14t-66 -8q-84 0 -119 33.5t-35 103.5q0 10 1 22.5t3 24.5l58 491q2 10 2 18.5v18.5q0 63 -32 99 t-97 36q-57 0 -100.5 -25.5t-74 -68.5t-49 -101.5t-26.5 -125.5l-53 -438q-29 -8 -78 -22.5t-113.5 -29t-140.5 -24.5t-156 -10q-213 0 -329.5 114.5t-116.5 325.5z" />
<glyph horiz-adv-x="1921" d="M53 539q0 170 47 312t134.5 245.5t210 161t276.5 57.5q78 0 149.5 -14.5t106.5 -26.5l-64 -356h-155v198q-18 4 -42 7t-42 3q-98 0 -172 -44t-124 -119.5t-76 -176t-26 -211.5q0 -88 19.5 -162.5t61.5 -130t107.5 -86t158.5 -30.5q86 0 165.5 16.5t147.5 42.5l106 858 h205l-55 -442h387l55 442h217l-30 -143l-101 -784l86 -17l-16 -139h-289l60 485h-387l-50 -407q-117 -35 -249 -65.5t-302 -30.5q-127 0 -223 39.5t-162.5 112.5t-100.5 175.5t-34 229.5z" />
<glyph horiz-adv-x="1814" d="M41 459q0 154 42 272.5t117.5 201.5t183.5 126t237 43q59 0 121.5 -10.5t99.5 -20.5l-56 -293h-143q-2 37 -2 73v73q-31 6 -63 6q-154 0 -241 -121t-87 -326q0 -152 71.5 -244t223.5 -92q76 0 148.5 17.5t133.5 44.5l109 874h203l-56 -442h390l55 442h217l-29 -133 l-102 -794l84 -19l-17 -137h-286l59 485h-389l-49 -407q-104 -35 -238.5 -64.5t-275.5 -29.5q-109 0 -195 33.5t-145.5 96t-90 149.5t-30.5 196z" />
<glyph horiz-adv-x="991" d="M-53 0l401 920l-84 18l19 145h432l145 -925l68 -13l-19 -145h-256v133l-22 141h-361l-47 -116l68 -13l-19 -145h-325zM338 430h274l-63 449v67h-10l-17 -67z" />
<glyph horiz-adv-x="991" d="M-53 0l401 920l-84 18l19 145h432l145 -925l68 -13l-19 -145h-270l14 133l-22 141h-361l-47 -116l68 -13l-19 -145h-325zM332 1237l381 223l61 -149l-389 -144zM338 430h274l-63 449v67h-10l-17 -67z" />
<glyph horiz-adv-x="991" d="M-53 0l401 920l-84 18l19 145h432l145 -925l68 -13l-19 -145h-270l14 133l-22 141h-361l-47 -116l68 -13l-19 -145h-325zM274 1260l228 172q20 16 37.5 20t27.5 4q29 0 62 -26l186 -170l-72 -70l-196 94l-219 -94zM338 430h274l-63 449v67h-10l-17 -67z" />
<glyph horiz-adv-x="991" d="M-53 0l401 920l-84 18l19 145h432l145 -925l68 -13l-19 -145h-270l14 133l-22 141h-361l-47 -116l68 -13l-19 -145h-325zM338 430h274l-63 449v67h-10l-17 -67zM358 1196l31 254h133l-26 -254h-138zM596 1196l31 254h135l-31 -254h-135z" />
<glyph horiz-adv-x="1368" d="M-53 0l389 915l-82 17l18 151h1047l-33 -280h-147v123h-287l-10 -293h415v-152h-421l-13 -323h295l25 116h141v-274h-688l29 135l6 139h-363l-47 -116l70 -13l-19 -145h-325zM334 430h299l22 514h-116q-33 -80 -59.5 -146.5t-50 -127t-47.5 -118.5t-48 -122z" />
<glyph horiz-adv-x="991" d="M-53 0l401 920l-84 18l19 145h432l145 -925l68 -13l-19 -145h-270l14 133l-22 141h-361l-47 -116l68 -13l-19 -145h-325zM338 430h274l-63 449v67h-10l-17 -67zM342 1311l98 149l324 -223l-70 -70z" />
<glyph horiz-adv-x="991" d="M-53 0l401 920l-84 18l19 145h432l145 -925l68 -13l-19 -145h-270l14 133l-22 141h-361l-47 -116l68 -13l-19 -145h-325zM338 430h274l-63 449v67h-10l-17 -67zM371 1309q0 92 64.5 137t158.5 45q82 0 132 -41t50 -119q0 -90 -63.5 -132t-159.5 -42q-80 0 -131 40 t-51 112zM504 1315q0 -29 16.5 -46.5t46.5 -17.5q37 0 57.5 20.5t20.5 53.5q0 72 -65 72q-35 0 -55.5 -20.5t-20.5 -61.5z" />
<glyph horiz-adv-x="991" d="M-53 0l401 920l-84 18l19 145h432l145 -925l68 -13l-19 -145h-270l14 133l-22 141h-361l-47 -116l68 -13l-19 -145h-325zM262 1243l35 129q2 2 17.5 9.5t38 15.5t52 14t62.5 6q61 0 129 -18.5t139 -18.5q43 0 77 7.5t67 17.5l-33 -125q-6 -6 -53.5 -25.5t-112.5 -19.5 q-63 0 -133 17.5t-139 17.5q-45 0 -78 -8.5t-68 -18.5zM338 430h274l-63 449v67h-10l-17 -67z" />
<glyph horiz-adv-x="999" d="M53 0l31 135l98 785l-88 18l19 145h528q63 0 116.5 -16t93.5 -48t62.5 -80t22.5 -112q0 -100 -46 -167.5t-118 -98.5l-2 -8q57 -35 91 -90t34 -139t-27.5 -144.5t-77 -100.5t-116 -59.5t-146.5 -19.5h-475zM291 158h186q98 0 154.5 36.5t56.5 137.5q0 72 -40 113.5 t-126 41.5h-190zM346 618h195q80 0 131 41t51 127q0 68 -35 105t-117 37h-186z" />
<glyph horiz-adv-x="874" d="M37 436q0 156 41 279t116.5 209t183 132t238.5 46q63 0 136 -9.5t129 -25.5l-56 -291h-147v148q-12 4 -37 7t-43 3q-82 0 -147.5 -35t-110.5 -98.5t-69.5 -151.5t-24.5 -192q0 -63 13 -119.5t43 -97.5t75 -65.5t108 -24.5q94 0 169 32.5t108 73.5v-197q-35 -25 -112 -51 t-206 -26q-190 0 -298.5 120.5t-108.5 333.5z" />
<glyph horiz-adv-x="874" d="M37 436q0 156 41 279t116.5 209t183 132t238.5 46q63 0 136 -9.5t129 -25.5l-56 -291h-147v148q-12 4 -37 7t-43 3q-82 0 -147.5 -35t-110.5 -98.5t-69.5 -151.5t-24.5 -192q0 -63 13 -119.5t43 -97.5t75 -65.5t108 -24.5q94 0 165 33.5t104 74.5l8 -197 q-33 -23 -102.5 -47t-186.5 -30l-8 -66q53 0 92 -34t39 -87q0 -39 -19.5 -67.5t-50 -48t-70.5 -29.5t-83 -10q-51 0 -84 6t-49 10l28 84q12 -4 39 -8t55 -4q35 0 68 13t33 48q0 53 -72 53q-16 0 -32.5 -2t-28.5 -4l41 148q-154 20 -244 138t-90 312z" />
<glyph horiz-adv-x="1032" d="M55 0l31 135l98 785l-88 18l19 145h446q215 0 321.5 -117.5t106.5 -340.5q0 -311 -136 -468t-364 -157h-434zM295 162h172q162 0 238.5 122t76.5 349q0 141 -57 215t-188 74h-150z" />
<glyph horiz-adv-x="903" d="M53 0l33 143l96 777l-88 18l19 145h768l-56 -278h-139v121h-303l-35 -289h438l-18 -156h-438l-41 -323h315l35 118h129v-276h-715z" />
<glyph horiz-adv-x="903" d="M53 0l33 143l96 777l-88 18l19 145h768l-56 -278h-139v121h-303l-35 -289h438l-18 -156h-438l-41 -323h315l35 118h129v-276h-715zM332 1237l381 223l61 -149l-389 -144z" />
<glyph horiz-adv-x="903" d="M53 0l33 143l96 777l-88 18l19 145h768l-56 -278h-139v121h-303l-35 -289h438l-18 -156h-438l-41 -323h315l35 118h129v-276h-715zM281 1260l227 172q20 16 37.5 20t27.5 4q29 0 62 -26l186 -170l-71 -70l-197 94l-219 -94z" />
<glyph horiz-adv-x="903" d="M53 0l33 143l96 777l-88 18l19 145h768l-56 -278h-139v121h-303l-35 -289h438l-18 -156h-438l-41 -323h315l35 118h129v-276h-715zM362 1196l31 254h137l-30 -254h-138zM600 1196l31 254h135l-31 -254h-135z" />
<glyph horiz-adv-x="903" d="M53 0l33 143l96 777l-88 18l19 145h768l-56 -278h-139v121h-303l-35 -289h438l-18 -156h-438l-41 -323h315l35 118h129v-276h-715zM342 1311l98 149l324 -223l-70 -70z" />
<glyph horiz-adv-x="1032" d="M12 549l129 26l43 345l-88 18l19 145h446q215 0 321.5 -117.5t106.5 -340.5q0 -311 -136 -468t-364 -157h-434l31 135l39 318l-105 -23zM295 162h172q162 0 238.5 122t76.5 349q0 141 -57 215t-188 74h-150l-37 -304l178 37l13 -114l-205 -45z" />
<glyph horiz-adv-x="851" d="M53 0l29 135l100 785l-88 18l19 145h747l-55 -278h-137v121h-285l-37 -308h410l-19 -155h-409l-37 -301l86 -17l-19 -145h-305z" />
<glyph horiz-adv-x="1005" d="M37 442q0 150 41 272t118.5 208t192.5 133t260 47q66 0 151 -10.5t150 -32.5l-53 -273h-143v134q-29 10 -62 14t-65 4q-102 0 -175 -39t-119 -106.5t-67.5 -159.5t-21.5 -199q0 -61 11 -115.5t37.5 -94.5t72 -63.5t114.5 -23.5q47 0 93 11.5t81 27.5l31 262h-188l18 146 h375l-64 -510q-66 -35 -156.5 -63.5t-219.5 -28.5q-92 0 -168 28.5t-130.5 86t-84 143.5t-29.5 202z" />
<glyph horiz-adv-x="1077" d="M53 0l29 137l100 783l-88 18l19 145h290l-55 -444h387l56 444h217l-29 -137l-100 -784l86 -17l-19 -145h-289l60 483h-387l-39 -321l84 -17l-19 -145h-303z" />
<glyph horiz-adv-x="471" d="M53 0l29 137l100 783l-88 16l19 147h290l-114 -925l69 -13l-18 -145h-287z" />
<glyph horiz-adv-x="471" d="M53 0l29 137l100 783l-88 16l19 147h290l-114 -925l69 -13l-18 -145h-287zM84 1237l379 223l61 -149l-387 -144z" />
<glyph horiz-adv-x="471" d="M20 1260l228 172q20 16 37.5 20t27.5 4q29 0 62 -26l186 -170l-72 -70l-196 94l-219 -94zM53 0l29 137l100 783l-88 16l19 147h290l-114 -925l69 -13l-18 -145h-287z" />
<glyph horiz-adv-x="471" d="M53 0l29 137l100 783l-88 16l19 147h290l-114 -925l69 -13l-18 -145h-287zM96 1196l31 254h137l-31 -254h-137zM334 1196l31 254h135l-31 -254h-135z" />
<glyph horiz-adv-x="471" d="M53 0l29 137l100 783l-88 16l19 147h290l-114 -925l69 -13l-18 -145h-287zM90 1311l98 149l322 -223l-70 -70z" />
<glyph horiz-adv-x="618" d="M-27 -12v157q10 -2 33 -3t31 -1q193 0 217 205l72 578l-228 16l19 143h442l-29 -127l-79 -645q-23 -174 -119 -251.5t-258 -77.5q-10 0 -25.5 1l-31 2t-29 2t-15.5 1z" />
<glyph d="M53 0l31 137l98 783l-88 18l19 145h290l-55 -442h8l25 59l340 383h254l-393 -424l233 -497l88 -17l-18 -145h-223l-224 494h-8l-115 -127l-24 -205l84 -17l-19 -145h-303z" />
<glyph horiz-adv-x="768" d="M53 0l29 135l100 785l-88 18l19 145h290l-114 -925h233l37 145h133v-303h-639z" />
<glyph horiz-adv-x="1460" d="M43 0l33 135l137 785l-82 18l19 145h395l143 -766v-59h10l17 59l336 766h313l-25 -137l-63 -786l82 -15l-19 -145h-282l88 883h-10l-19 -62l-362 -821h-181l-159 823v62h-11l-118 -723l84 -17l-19 -145h-307z" />
<glyph horiz-adv-x="1091" d="M53 0l31 133l98 791l-88 18l19 141h352l254 -854h8v70l61 623l-86 16l19 145h297l-29 -135l-117 -948h-258l-258 866h-8v-69l-63 -635l88 -17l-19 -145h-301z" />
<glyph horiz-adv-x="1091" d="M53 0l31 133l98 791l-88 18l19 141h352l254 -854h8v70l61 623l-86 16l19 145h297l-29 -135l-117 -948h-258l-258 866h-8v-69l-63 -635l88 -17l-19 -145h-301zM315 1241l35 129q2 2 17.5 9t38 15.5t52 14.5t64.5 6q59 0 127 -18.5t139 -18.5q45 0 79 7.5t65 17.5l-31 -125 q-8 -6 -55 -25.5t-113 -19.5q-63 0 -133 17.5t-139 17.5q-45 0 -78 -8.5t-68 -18.5z" />
<glyph horiz-adv-x="1028" d="M39 436q0 154 38 278t107.5 210t170 132t223.5 46q197 0 295 -126t98 -337q0 -156 -38 -277.5t-107.5 -206.5t-169 -129t-224.5 -44q-199 0 -296 120.5t-97 333.5zM248 442q0 -61 11 -115.5t35.5 -94t63.5 -63.5t95 -24q80 0 137 41t96 110t57.5 157t18.5 180 q0 63 -12.5 118.5t-38 96.5t-65.5 65.5t-95 24.5q-80 0 -137.5 -43t-94 -113.5t-54 -160t-17.5 -179.5z" />
<glyph horiz-adv-x="1028" d="M39 436q0 154 38 278t107.5 210t170 132t223.5 46q197 0 295 -126t98 -337q0 -156 -38 -277.5t-107.5 -206.5t-169 -129t-224.5 -44q-199 0 -296 120.5t-97 333.5zM248 442q0 -61 11 -115.5t35.5 -94t63.5 -63.5t95 -24q80 0 137 41t96 110t57.5 157t18.5 180 q0 63 -12.5 118.5t-38 96.5t-65.5 65.5t-95 24.5q-80 0 -137.5 -43t-94 -113.5t-54 -160t-17.5 -179.5zM373 1237l381 223l61 -149l-387 -144z" />
<glyph horiz-adv-x="1028" d="M39 436q0 154 38 278t107.5 210t170 132t223.5 46q197 0 295 -126t98 -337q0 -156 -38 -277.5t-107.5 -206.5t-169 -129t-224.5 -44q-199 0 -296 120.5t-97 333.5zM248 442q0 -61 11 -115.5t35.5 -94t63.5 -63.5t95 -24q80 0 137 41t96 110t57.5 157t18.5 180 q0 63 -12.5 118.5t-38 96.5t-65.5 65.5t-95 24.5q-80 0 -137.5 -43t-94 -113.5t-54 -160t-17.5 -179.5zM326 1260l227 172q20 16 37.5 20t27.5 4q29 0 62 -26l186 -170l-71 -70l-197 94l-219 -94z" />
<glyph horiz-adv-x="1028" d="M39 436q0 154 38 278t107.5 210t170 132t223.5 46q197 0 295 -126t98 -337q0 -156 -38 -277.5t-107.5 -206.5t-169 -129t-224.5 -44q-199 0 -296 120.5t-97 333.5zM248 442q0 -61 11 -115.5t35.5 -94t63.5 -63.5t95 -24q80 0 137 41t96 110t57.5 157t18.5 180 q0 63 -12.5 118.5t-38 96.5t-65.5 65.5t-95 24.5q-80 0 -137.5 -43t-94 -113.5t-54 -160t-17.5 -179.5zM403 1196l31 254h137l-30 -254h-138zM641 1196l31 254h135l-31 -254h-135z" />
<glyph horiz-adv-x="1441" d="M37 424q0 162 38 286t109.5 206.5t173 124.5t228.5 42h827l-49 -278h-139v121h-312l-34 -293h442l-18 -144h-443l-41 -331h318l34 118h134v-276h-865q-193 2 -298 110.5t-105 313.5zM244 434q0 -123 52 -199.5t179 -76.5h141l95 768h-115q-92 0 -158.5 -37t-109.5 -101.5 t-63.5 -155.5t-20.5 -198z" />
<glyph horiz-adv-x="1028" d="M39 436q0 154 38 278t107.5 210t170 132t223.5 46q197 0 295 -126t98 -337q0 -156 -38 -277.5t-107.5 -206.5t-169 -129t-224.5 -44q-199 0 -296 120.5t-97 333.5zM248 442q0 -61 11 -115.5t35.5 -94t63.5 -63.5t95 -24q80 0 137 41t96 110t57.5 157t18.5 180 q0 63 -12.5 118.5t-38 96.5t-65.5 65.5t-95 24.5q-80 0 -137.5 -43t-94 -113.5t-54 -160t-17.5 -179.5zM410 1311l98 149l323 -223l-69 -70z" />
<glyph horiz-adv-x="1028" d="M0 -82l133 191q-94 115 -94 327q0 154 38 278t107.5 210t170 132t223.5 46t213 -55l88 124h104l-125 -180q113 -125 113 -352q0 -156 -38 -277.5t-107.5 -206.5t-169 -129t-224.5 -44q-74 0 -132 17t-105 50q-31 -43 -54.5 -75.5t-38.5 -55.5h-102zM248 442 q0 -82 18 -145l414 592q-53 49 -129 49q-80 0 -137.5 -43t-94 -113.5t-54 -160t-17.5 -179.5zM307 211q25 -31 60.5 -48.5t85.5 -17.5q80 0 137 41t96 110t57.5 157t18.5 180q0 49 -7 95t-24 83z" />
<glyph horiz-adv-x="1028" d="M39 436q0 154 38 278t107.5 210t170 132t223.5 46q197 0 295 -126t98 -337q0 -156 -38 -277.5t-107.5 -206.5t-169 -129t-224.5 -44q-199 0 -296 120.5t-97 333.5zM248 442q0 -61 11 -115.5t35.5 -94t63.5 -63.5t95 -24q80 0 137 41t96 110t57.5 157t18.5 180 q0 63 -12.5 118.5t-38 96.5t-65.5 65.5t-95 24.5q-80 0 -137.5 -43t-94 -113.5t-54 -160t-17.5 -179.5zM303 1243l33 129q2 2 17.5 9.5t38 15.5t52 14t64.5 6q61 0 129 -18.5t139 -18.5q43 0 79 7.5t65 17.5l-33 -125q-8 -6 -55.5 -25.5t-112.5 -19.5q-61 0 -132 17.5 t-141 17.5q-45 0 -77.5 -8.5t-65.5 -18.5z" />
<glyph horiz-adv-x="950" d="M55 0l27 135l100 785l-88 18l19 145h481q160 0 247 -75.5t87 -227.5q0 -98 -30 -168.5t-82 -114.5t-123.5 -65.5t-155.5 -21.5h-218l-30 -246l96 -21l-18 -143h-312zM338 565h151q98 0 166 47t68 156q0 86 -50 123t-141 37h-149z" />
<glyph horiz-adv-x="1028" d="M39 436q0 154 38 277t108.5 210t169 133t220.5 46q98 0 172 -33t124.5 -93.5t75 -144t24.5 -186.5q0 -129 -26.5 -237.5t-78 -192.5t-126 -140.5t-171.5 -80.5l-2 -10l70 -183h-182l-60 183q-176 10 -266 133t-90 319zM250 442q0 -61 11 -115.5t36 -94t63.5 -63.5 t94.5 -24q80 0 137 41t95 110t56.5 157t18.5 180q0 63 -12.5 118.5t-38 96.5t-65.5 65.5t-95 24.5q-80 0 -137.5 -43t-94 -113.5t-53 -160t-16.5 -179.5z" />
<glyph horiz-adv-x="1005" d="M53 0l29 135l100 785l-88 18l19 145h514q145 0 231 -68.5t86 -209.5q0 -121 -62.5 -191.5t-148.5 -99.5l-2 -8q25 -12 42.5 -27.5t29.5 -39t19 -58.5t12 -86l12 -137l67 -13l-18 -145h-240l-30 289q-6 49 -17.5 79.5t-32 47t-51 21.5t-75.5 5h-127l-35 -284l73 -13 l-18 -145h-289zM340 592h178q39 0 78 10t69.5 31.5t49 56.5t18.5 86q0 72 -39 112t-125 40h-186z" />
<glyph horiz-adv-x="876" d="M-2 23l53 286h146v-159q20 -4 52 -8.5t56 -4.5q45 0 88 8.5t76 26.5t53.5 48t20.5 75q0 43 -33 73.5t-81 58.5t-104.5 55.5t-104.5 65.5t-81 89t-33 125q0 92 40 156.5t105.5 105.5t147.5 59.5t168 18.5q66 0 146 -10.5t137 -26.5l-57 -289h-148v162q-16 4 -35.5 6 t-42.5 2q-43 0 -87 -7t-79.5 -24.5t-58.5 -47t-23 -74.5t33 -76t82 -58.5t105.5 -55.5t105.5 -64.5t82 -88t33 -124.5q0 -92 -39 -158t-102.5 -108t-147.5 -60t-172 -18q-33 0 -74 3t-82 9t-79.5 13t-65.5 16z" />
<glyph horiz-adv-x="837" d="M55 780v303h819l-45 -303h-143v146h-129l-113 -926h-213l25 137l96 789h-133l-35 -146h-129z" />
<glyph horiz-adv-x="950" d="M51 0l21 92l108 828l-86 18l19 145h288l-20 -161h190q160 0 249 -74t89 -225q0 -98 -28.5 -170t-80.5 -117t-124 -66.5t-158 -21.5h-219l-10 -86l84 -17l-19 -145h-303zM317 406h154q121 0 175 49t54 155q0 86 -50 122t-140 36h-148z" />
<glyph horiz-adv-x="1046" d="M86 938l18 145h287l-86 -698q-2 -18 -3 -32.5t-1 -28.5q0 -90 39 -135.5t131 -45.5q113 0 163 63.5t66 182.5l66 533l-82 16l18 145h287l-90 -718q-25 -201 -131 -292t-313 -91q-174 0 -267.5 78.5t-93.5 238.5q0 16 1 36.5t3 35.5l72 549z" />
<glyph horiz-adv-x="1046" d="M86 938l18 145h287l-86 -698q-2 -18 -3 -32.5t-1 -28.5q0 -90 39 -135.5t131 -45.5q113 0 163 63.5t66 182.5l66 533l-82 16l18 145h287l-90 -718q-25 -201 -131 -292t-313 -91q-174 0 -267.5 78.5t-93.5 238.5q0 16 1 36.5t3 35.5l72 549zM391 1237l381 223l62 -149 l-390 -144z" />
<glyph horiz-adv-x="1046" d="M86 938l18 145h287l-86 -698q-2 -18 -3 -32.5t-1 -28.5q0 -90 39 -135.5t131 -45.5q113 0 163 63.5t66 182.5l66 533l-82 16l18 145h287l-90 -718q-25 -201 -131 -292t-313 -91q-174 0 -267.5 78.5t-93.5 238.5q0 16 1 36.5t3 35.5l72 549zM326 1260l227 172 q20 16 37.5 20t27.5 4q29 0 62 -26l186 -170l-71 -70l-197 94l-219 -94z" />
<glyph horiz-adv-x="1046" d="M86 938l18 145h287l-86 -698q-2 -18 -3 -32.5t-1 -28.5q0 -90 39 -135.5t131 -45.5q113 0 163 63.5t66 182.5l66 533l-82 16l18 145h287l-90 -718q-25 -201 -131 -292t-313 -91q-174 0 -267.5 78.5t-93.5 238.5q0 16 1 36.5t3 35.5l72 549zM412 1196l30 254h138l-31 -254 h-137zM649 1196l31 254h135l-31 -254h-135z" />
<glyph horiz-adv-x="1046" d="M86 938l18 145h287l-86 -698q-2 -18 -3 -32.5t-1 -28.5q0 -90 39 -135.5t131 -45.5q113 0 163 63.5t66 182.5l66 533l-82 16l18 145h287l-90 -718q-25 -201 -131 -292t-313 -91q-174 0 -267.5 78.5t-93.5 238.5q0 16 1 36.5t3 35.5l72 549zM391 1311l98 149l324 -223 l-70 -70z" />
<glyph horiz-adv-x="913" d="M45 938l18 145h234l84 -850v-67h8l19 70l272 690l-59 12l18 145h311l-442 -1083h-287l-119 926z" />
<glyph horiz-adv-x="1476" d="M51 938l19 145h241l58 -909h10l6 70l240 696l24 143h266l66 -839l-8 -70h8l268 752l-57 12l18 145h303l-403 -1083h-272l-66 793v75h-10l-19 -75l-280 -793h-270l-89 926z" />
<glyph horiz-adv-x="935" d="M-61 0l366 559l-145 359l-90 20l18 145h229l136 -348l14 -65h8l29 63l147 219l60 131h247l-344 -524l152 -399l88 -17l-18 -143h-230l-141 399l-12 66h-9l-28 -66l-150 -241l68 -13l-19 -145h-376z" />
<glyph horiz-adv-x="880" d="M45 938l18 145h228l117 -446l6 -68h8l18 68l174 289l-61 12l18 145h347l-424 -688l-50 -395h-272l18 145l68 13l31 237l-158 525z" />
<glyph horiz-adv-x="880" d="M45 938l18 145h228l117 -446l6 -68h8l18 68l174 289l-61 12l18 145h347l-424 -688l-50 -395h-272l18 145l68 13l31 237l-158 525zM299 1237l377 223l61 -149l-385 -144z" />
<glyph horiz-adv-x="880" d="M45 938l18 145h228l117 -446l6 -68h8l18 68l174 289l-61 12l18 145h347l-424 -688l-50 -395h-272l18 145l68 13l31 237l-158 525zM305 1196l31 254h137l-31 -254h-137zM545 1196l30 254h136l-31 -254h-135z" />
<glyph horiz-adv-x="851" d="M-23 0l23 182l565 701l49 32l-2 11h-338l-32 -121h-136v278h738l-23 -180l-567 -702l-53 -33v-10h370l39 118h131v-276h-764z" />
<glyph horiz-adv-x="591" d="M49 805q0 186 98.5 291.5t268.5 105.5q68 0 112.5 -4t65.5 -6l-21 -96l-49 -406l49 -6l-10 -88q-10 -4 -29.5 -9t-41.5 -5q-74 0 -78 63l-2 37h-9q-6 -12 -19 -29.5t-34.5 -33t-51.5 -25.5t-69 -10q-90 0 -135 61.5t-45 159.5zM170 815q0 -53 21.5 -93t72.5 -40 q43 0 73 23.5t51.5 63.5t34.5 94.5t19 117.5l13 117q-10 0 -19 2q-8 0 -16 1t-19 1q-113 0 -172 -80t-59 -207z" />
<glyph horiz-adv-x="610" d="M72 598l22 88l92 748l185 12l-11 -94l-65 -11l-27 -217h8q6 8 18.5 21.5t32 27t47 22.5t64.5 9q88 0 134 -60.5t46 -154.5q0 -186 -96 -295.5t-284 -109.5q-35 0 -86.5 5t-79.5 9zM213 690q8 -2 16 -2q10 -2 37 -2q55 0 98.5 21.5t72 60.5t43 90t14.5 111q0 57 -22.5 96 t-76.5 39q-39 0 -67.5 -23.5t-48 -63.5t-31.5 -94.5t-21 -117.5z" />
<glyph horiz-adv-x="487" d="M49 844q0 168 92 263t246 95q49 0 89 -8t56 -12l-32 -172h-90v90q-4 2 -16.5 2h-24.5q-96 -2 -146.5 -70.5t-50.5 -177.5q0 -74 33 -123t102 -49q53 0 93 22.5t65 49.5v-119q-14 -12 -64.5 -31.5t-117.5 -19.5q-111 0 -172.5 71.5t-61.5 188.5z" />
<glyph horiz-adv-x="591" d="M49 815q0 182 99.5 285.5t271.5 103.5h47l14 137l-59 11l8 82l193 14l-21 -96l-80 -658l51 -6l-12 -90q-10 -4 -31.5 -8t-40.5 -4q-72 0 -75 65l-2 35h-9q-6 -12 -19 -28.5t-34.5 -33t-51.5 -27.5t-69 -11q-90 0 -135 65.5t-45 163.5zM172 825q0 -57 21.5 -98t74.5 -41 q43 0 72 22.5t49.5 62.5t31.5 94.5t19 117.5l15 115q-8 0 -17 2q-20 4 -35 4q-111 0 -171 -77t-60 -202z" />
<glyph horiz-adv-x="567" d="M49 838q0 74 22.5 139t65.5 115.5t103.5 80t134.5 29.5q90 0 145 -42t55 -113q0 -53 -26.5 -90t-69.5 -61t-99 -37t-116 -19l-90 -9q0 -150 158 -149q23 0 41 3t30 7l23 74h82v-152q-31 -10 -87 -21t-116 -11q-127 0 -191.5 68.5t-64.5 187.5zM182 915l88 11 q76 10 121 33.5t51 72.5q0 33 -21.5 53.5t-62.5 20.5q-66 0 -112.5 -52.5t-63.5 -138.5z" />
<glyph horiz-adv-x="284" d="M90 1106l10 84l179 12l-62 -510l53 -6l-12 -92q-10 -4 -32.5 -8t-41.5 -4q-51 0 -71.5 20.5t-20.5 61.5v15t2 17l51 402zM147 1372l97 86l71 -86l-94 -86z" />
<glyph horiz-adv-x="278" d="M92 666v14t2 16l84 650l-59 10l10 84l180 10l-92 -756l53 -8l-10 -88q-10 -4 -33.5 -9t-42.5 -5q-49 0 -70.5 20.5t-21.5 61.5z" />
<glyph horiz-adv-x="942" d="M80 594l63 500l-49 8l10 88q12 4 34 9t40 5q35 0 50.5 -18.5t19.5 -46.5l4 -27h8q27 35 67 62.5t101 27.5q57 0 98 -25.5t54 -68.5h8q29 39 69.5 66.5t102.5 27.5q72 0 112.5 -39t40.5 -110q0 -8 -1 -16.5t-1 -18.5l-41 -328l54 -4l-13 -90q-10 -4 -32.5 -9t-42.5 -5 q-47 0 -67.5 21.5t-20.5 62.5v14t2 20l36 295q2 8 2 15.5v13.5q0 80 -73 80q-70 0 -102.5 -56.5t-43.5 -148.5l-39 -305h-120l49 395q2 10 2 19.5v15.5q0 37 -17.5 58.5t-56.5 21.5q-70 0 -103.5 -55.5t-45.5 -149.5l-37 -305h-121z" />
<glyph horiz-adv-x="569" d="M49 834q0 82 21.5 149.5t61.5 116.5t96.5 75.5t127.5 26.5q115 0 168.5 -68.5t53.5 -179.5q0 -168 -81 -269t-229 -101q-113 0 -166 68.5t-53 181.5zM170 840q0 -66 25.5 -112t89.5 -46q43 0 75.5 20.5t54 56.5t32 84t10.5 101q0 68 -25.5 113t-91.5 45q-45 0 -77 -21.5 t-52.5 -58.5t-30.5 -84t-10 -98z" />
<glyph horiz-adv-x="399" d="M80 594l61 500l-49 8l10 88q12 4 34 9t40 5q37 0 53.5 -17.5t18.5 -45.5l2 -27h8q68 88 186 88v-121q-10 2 -22 4t-21 2q-43 0 -72.5 -15t-48 -41.5t-28.5 -63.5t-16 -80l-25 -197l49 -6l-12 -90h-168z" />
<glyph horiz-adv-x="485" d="M29 608l34 172h87v-94q10 -4 30.5 -6t34.5 -2q47 0 89 14.5t46 61.5q0 35 -42 56t-92 47t-92 62.5t-42 102.5q0 49 23.5 84t62.5 56.5t87 30.5t97 9q41 0 88 -5t82 -15l-35 -170h-90v88q-10 2 -30.5 4t-30.5 2q-45 0 -84 -14.5t-43 -55.5q0 -37 42 -59.5t92 -47t92 -59 t42 -98.5q0 -55 -24.5 -92t-64.5 -58.5t-91 -30.5t-104 -9q-47 0 -96.5 9t-67.5 17z" />
<glyph horiz-adv-x="339" d="M72 1092l12 90l72 10l28 131l119 63l-24 -194h127l-13 -100h-125l-37 -297q-2 -14 -2 -22.5v-14.5q0 -78 86 -78h15.5t17.5 4l-29 -90q-4 -4 -22 -8t-43 -4q-78 0 -115 41t-37 112q0 10 1 23.5t3 23.5l39 310h-73z" />
<glyph horiz-adv-x="555" d="M-35 -12q0 176 73 276.5t208 100.5q102 0 153.5 -66t51.5 -176q0 -178 -73 -275.5t-208 -97.5q-102 0 -153.5 63.5t-51.5 174.5zM76 0q0 -66 23.5 -113t82.5 -47q39 0 69 23.5t49 62.5t29.5 88t10.5 99q0 66 -23.5 112.5t-80.5 46.5q-43 0 -74 -23.5t-50.5 -62.5 t-27.5 -88t-8 -98z" />
<glyph horiz-adv-x="495" d="M-43 -240l10 90h152l53 375l-6 2l-21 -34q-31 -25 -70.5 -38.5t-76.5 -23.5l-6 100q49 10 103.5 42t94.5 81h111l-70 -504h136l-13 -90h-397z" />
<glyph horiz-adv-x="512" d="M-57 -240l12 115q90 53 153.5 92t102.5 72t56.5 63.5t17.5 67.5q0 47 -36 72.5t-95 25.5h-21.5t-21.5 -4l-31 -102h-76v180q39 10 88 15t82 5q90 0 155.5 -47t65.5 -137q0 -49 -16.5 -88t-50 -76t-87 -73.5t-128.5 -81.5v-9h198l80 13l-12 -103h-436z" />
<glyph horiz-adv-x="518" d="M-43 -131q16 -6 61 -16.5t95 -10.5q20 0 47.5 3t52.5 13.5t42 29t17 49.5q0 51 -41 68.5t-96 17.5h-82l10 75h80q57 0 103.5 20.5t46.5 76.5q0 47 -38 64t-87 17q-16 0 -31.5 -2t-27.5 -6l-27 -86h-76v162q35 8 86 14.5t96 6.5q88 0 153 -36t65 -118q0 -53 -28 -88 t-75 -57v-9q37 -16 58.5 -46.5t21.5 -76.5q0 -53 -24.5 -87.5t-64.5 -56t-90 -31t-100 -9.5q-45 0 -87 7t-60 12v100z" />
<glyph horiz-adv-x="540" d="M-49 -125l10 107l291 370h154l-48 -389h66l-10 -88h-66l-16 -117h-107l15 117h-289zM45 -31l2 -6h203l33 273l16 32l-6 2l-219 -288z" />
<glyph horiz-adv-x="495" d="M-57 -236l30 168h78v-90q10 -2 23.5 -2h25.5q66 0 117 24.5t51 84.5q0 57 -59 78.5t-135 21.5h-62l37 301h348l-12 -98l-74 8h-168l-16 -133q51 0 97 -10.5t80 -32t54.5 -55t20.5 -80.5q0 -53 -23.5 -91t-62.5 -62.5t-88 -36t-101 -11.5q-37 0 -78.5 4t-82.5 12z" />
<glyph horiz-adv-x="532" d="M-35 -4q0 164 80 266.5t242 102.5q39 0 81 -5.5t74 -13.5l-30 -164h-82v88q-6 0 -21.5 1t-25.5 1q-158 0 -189 -157q27 2 47.5 3t40.5 1q102 0 169 -43t67 -129q0 -98 -65.5 -148.5t-166.5 -50.5q-115 0 -168 69.5t-53 178.5zM76 -16q0 -63 24.5 -105.5t89.5 -42.5 q51 0 84 27t33 80t-41 77.5t-104 24.5q-23 0 -43.5 -2t-38.5 -4q-2 -16 -3 -28.5t-1 -26.5z" />
<glyph horiz-adv-x="456" d="M-20 166v184h413l-14 -106q-68 -59 -111 -124t-69.5 -128.5t-40 -121.5t-19.5 -106v-8h-112l2 8q6 55 20 114t39 119t63.5 121.5t96.5 121.5l26 14l2 6h-196l-27 -94h-73z" />
<glyph horiz-adv-x="552" d="M-41 -106q0 59 35 99t86 62l2 8q-31 16 -52.5 46t-21.5 71q0 45 20.5 80t53.5 56.5t75 32.5t85 11q41 0 77.5 -10t65.5 -28.5t46.5 -46t17.5 -62.5q0 -59 -32 -94t-79 -56l-2 -6q39 -23 61.5 -54.5t22.5 -72.5q0 -49 -20.5 -83.5t-55.5 -57t-79 -33t-89 -10.5 q-90 0 -153.5 38t-63.5 110zM61 -88q0 -37 35 -58.5t82 -21.5t87 21.5t40 68.5q0 35 -33.5 57.5t-76.5 34.5l-23 6q-43 -16 -77 -41.5t-34 -66.5zM119 188q0 -35 30.5 -52t71.5 -32l23 -8q33 10 68.5 36t35.5 69q0 37 -33.5 56t-76.5 19t-81 -20t-38 -68z" />
<glyph horiz-adv-x="532" d="M-45 -231l31 163h82v-88q6 0 21 -1t26 -1q156 0 186 158q-16 -2 -36.5 -4t-49.5 -2q-102 0 -168.5 43t-66.5 129q0 98 66.5 148.5t166.5 50.5q111 0 164 -71t53 -177q0 -164 -81 -265.5t-238 -101.5q-39 0 -81 5t-75 14zM90 170q0 -53 41 -77.5t102 -24.5q45 0 82 6 q2 14 3 27.5t1 25.5q0 66 -24.5 107.5t-87.5 41.5q-51 0 -84 -27.5t-33 -78.5z" />
<glyph horiz-adv-x="327" d="M8 96q0 45 6 88q16 125 66.5 227.5t112.5 188.5l61 -45q-29 -43 -57.5 -91t-51 -103.5t-36 -121t-13.5 -145.5q0 -90 19.5 -164.5t46.5 -134.5l-74 -43q-33 68 -56.5 157t-23.5 187z" />
<glyph horiz-adv-x="327" d="M-33 -203q29 43 57.5 91.5t51 103.5t36 120.5t13.5 145.5q0 90 -19.5 165t-46.5 134l74 43q33 -68 56.5 -157t23.5 -187q0 -45 -6 -88q-16 -125 -66.5 -227.5t-111.5 -188.5z" />
<glyph horiz-adv-x="980" d="M37 414q0 160 33.5 286.5t99.5 216t160 137.5t217 48q188 0 282.5 -118t94.5 -322q0 -324 -133.5 -502t-380.5 -178q-186 0 -279.5 114.5t-93.5 317.5zM240 436q0 -59 10 -112.5t32.5 -93.5t58.5 -62.5t89 -22.5q74 0 128 43t90 114t54.5 160t18.5 181q0 61 -10.5 114.5 t-33 93.5t-59 62.5t-90.5 22.5q-80 0 -135 -44t-89 -114.5t-49 -160t-15 -181.5z" />
<glyph horiz-adv-x="841" d="M4 0l21 166h276l92 690l-6 2l-43 -63q-57 -43 -127 -72t-137 -47l-12 184q90 20 187 75.5t175 147.5h203l-129 -917h246l-21 -166h-725z" />
<glyph horiz-adv-x="911" d="M-2 0l22 199q166 96 281 168.5t186.5 135t103.5 121t32 126.5q0 84 -63.5 132t-174.5 48q-16 0 -39.5 -1t-40.5 -5l-57 -189h-135v328q35 8 75.5 16t82.5 12.5t81 7.5t68 3q84 0 157.5 -21.5t129 -63.5t88 -105.5t32.5 -147.5q0 -90 -30.5 -162t-96 -138.5t-166 -135 t-237.5 -150.5l2 -12h375l143 12l-22 -178h-797z" />
<glyph horiz-adv-x="907" d="M18 14v183q14 -6 45 -14.5t70 -15.5t83 -13.5t89 -6.5q39 0 90 6.5t96.5 25t76 53t30.5 90.5q0 45 -20.5 75.5t-54.5 48t-80 24.5t-95 7h-149l16 139h147q51 0 100.5 8.5t87.5 28t61.5 53t23.5 85.5q0 43 -19.5 72.5t-51.5 46t-72.5 23.5t-85.5 7q-27 0 -53.5 -4 t-55.5 -8l-47 -158h-139v295q63 14 156 25.5t177 11.5q80 0 152 -15.5t126 -49t86 -87t32 -127.5q0 -98 -49.5 -162.5t-139.5 -103.5v-8q68 -29 108 -85t40 -147q0 -96 -45 -159.5t-118 -103.5t-164 -56t-183 -16q-80 0 -158 11t-113 21z" />
<glyph horiz-adv-x="942" d="M-10 211l20 197l527 675h280l-88 -712h121l-19 -160h-120l-27 -211h-197l27 211h-524zM164 371h368l62 495l27 64h-11l-397 -522l-49 -29v-8z" />
<glyph horiz-adv-x="882" d="M-8 12l55 305h150v-161q39 -6 84 -6q59 0 114.5 10t98.5 33.5t68.5 61.5t25.5 93q0 53 -30 88t-79 56.5t-113.5 30.5t-132.5 9h-112l67 551h637l-22 -178l-137 13h-306l-30 -242q94 0 177 -18.5t146.5 -58.5t100.5 -101.5t37 -147.5q0 -98 -43 -168.5t-114 -114.5 t-161 -64.5t-184 -20.5q-70 0 -146.5 7t-150.5 23z" />
<glyph horiz-adv-x="940" d="M37 432q0 150 32.5 273.5t100.5 212t173.5 136.5t250.5 48q70 0 150.5 -11.5t140.5 -27.5l-58 -295h-147v160q-12 2 -43 5t-53 3q-145 0 -220 -74t-100 -215q49 4 90 7t76 3q92 0 171 -19.5t136.5 -58t89 -98t31.5 -137.5q0 -88 -31.5 -155.5t-88 -113.5t-133.5 -69.5 t-165 -23.5q-102 0 -178 33.5t-126 94t-74.5 143.5t-24.5 179zM238 412q0 -117 48 -194t167 -77q92 0 148 50.5t56 144.5q0 98 -74.5 141t-187.5 43q-43 0 -79.5 -3t-71.5 -7q-6 -53 -6 -98z" />
<glyph horiz-adv-x="800" d="M68 748v335h755l-24 -192q-123 -111 -203 -228.5t-129 -233.5t-72.5 -221.5t-34.5 -191.5l-2 -16h-202l2 16q12 98 37.5 206t71.5 218.5t117 222t173 220.5l51 26l2 11h-358l-49 -172h-135z" />
<glyph horiz-adv-x="970" d="M27 250q0 106 65.5 181t159.5 118v8q-57 29 -96 85t-39 132q0 84 36.5 145.5t97 102.5t136.5 60.5t156 19.5q74 0 142.5 -17.5t120.5 -52.5t83 -85t31 -116q0 -104 -58.5 -170.5t-144.5 -103.5l-2 -8q72 -39 111.5 -98.5t39.5 -133.5q0 -90 -37.5 -153.5t-99 -104.5 t-141.5 -59t-164 -18q-82 0 -153.5 17t-126 51t-86 84t-31.5 116zM215 285q0 -70 62.5 -108t148.5 -38q43 0 85 9.5t74.5 30t53 50t20.5 72.5q0 33 -16 58.5t-44 45t-63.5 36t-74.5 28.5l-45 14q-39 -14 -76 -32.5t-64.5 -43t-44 -55t-16.5 -67.5zM319 788q0 -33 15.5 -56 t41 -40.5t58.5 -31t70 -25.5l43 -14q29 8 62.5 24.5t61 40t46 54t18.5 69.5q0 33 -16.5 59.5t-44 44t-63.5 26.5t-74 9q-41 0 -80 -9t-70 -28.5t-49.5 -50.5t-18.5 -72z" />
<glyph horiz-adv-x="940" d="M35 20l57 295h148v-159q12 -2 42.5 -5.5t53.5 -3.5q145 0 220 74t99 215q-49 -4 -90 -7t-76 -3q-92 0 -170.5 19.5t-136 58.5t-89.5 98.5t-32 136.5q0 88 32 156t88.5 114t133 69.5t164.5 23.5q102 0 178 -34t126.5 -94.5t75 -143t24.5 -179.5q0 -150 -33 -273.5 t-100.5 -211.5t-173 -136t-250.5 -48q-70 0 -151 11t-140 27zM262 748q0 -98 75 -141.5t187 -43.5q43 0 80 3t72 7q6 51 6 99q0 117 -48 193.5t-167 76.5q-92 0 -148.5 -50t-56.5 -144z" />
<glyph horiz-adv-x="555" d="M-35 172q0 176 73 276.5t208 100.5q102 0 153.5 -65.5t51.5 -176.5q0 -178 -73 -275.5t-208 -97.5q-102 0 -153.5 63.5t-51.5 174.5zM76 184q0 -66 23.5 -112.5t82.5 -46.5q39 0 69 23.5t49 62.5t29.5 88t10.5 98q0 66 -23.5 113t-80.5 47q-43 0 -74 -23.5t-50.5 -62.5 t-27.5 -88.5t-8 -98.5z" />
<glyph horiz-adv-x="495" d="M-43 -55l10 90h152l53 375l-6 2l-21 -35q-31 -25 -70.5 -38t-76.5 -24l-6 101q49 10 103.5 41.5t94.5 81.5h111l-70 -504h136l-13 -90h-397z" />
<glyph horiz-adv-x="512" d="M-57 -55l12 114q90 53 153.5 92t102.5 72t56.5 63.5t17.5 67.5q0 47 -36 73t-95 26h-21.5t-21.5 -4l-31 -103h-76v180q39 10 88 15.5t82 5.5q90 0 155.5 -47t65.5 -138q0 -49 -16.5 -87.5t-50 -75.5t-87 -74t-128.5 -82v-8h198l80 12l-12 -102h-436z" />
<glyph horiz-adv-x="518" d="M-43 -47v100q16 -6 61 -16t95 -10q20 0 47.5 3t52.5 13t42 28.5t17 49.5q0 51 -41 68.5t-96 17.5h-82l10 76h80q57 0 103.5 20.5t46.5 75.5q0 47 -38 64.5t-87 17.5q-16 0 -31.5 -2t-27.5 -6l-27 -86h-76v161q35 8 86 14.5t96 6.5q88 0 153 -36t65 -118q0 -53 -28 -88 t-75 -57v-8q37 -16 58.5 -47t21.5 -76q0 -53 -24.5 -88t-64.5 -56.5t-90 -31t-100 -9.5q-45 0 -87 7.5t-60 11.5z" />
<glyph horiz-adv-x="540" d="M-49 59l10 107l291 371h154l-48 -390h66l-10 -88h-66l-16 -116h-107l15 116h-289zM45 154l2 -7h203l33 273l16 33l-6 2l-219 -289z" />
<glyph horiz-adv-x="495" d="M-57 -51l30 168h78v-90q10 -2 23.5 -2h25.5q66 0 117 24.5t51 83.5q0 57 -59 78.5t-135 21.5h-62l37 302h348l-12 -99l-74 8h-168l-16 -133q51 0 97 -10t80 -31.5t54.5 -55.5t20.5 -81q0 -53 -23.5 -91t-62.5 -62.5t-88 -36t-101 -11.5q-37 0 -78.5 4.5t-82.5 12.5z" />
<glyph horiz-adv-x="532" d="M-35 180q0 164 80 266.5t242 102.5q39 0 81 -5t74 -14l-30 -163h-82v88q-6 0 -21.5 1t-25.5 1q-158 0 -189 -158q27 2 47.5 3t40.5 1q102 0 169 -43t67 -129q0 -98 -65.5 -148.5t-166.5 -50.5q-115 0 -168 70t-53 178zM76 168q0 -63 24.5 -105.5t89.5 -42.5q51 0 84 27 t33 80t-41 77.5t-104 24.5q-23 0 -43.5 -2t-38.5 -4q-2 -16 -3 -28.5t-1 -26.5z" />
<glyph horiz-adv-x="456" d="M-20 350v185h413l-14 -107q-68 -59 -111 -123.5t-69.5 -128t-40 -122t-19.5 -105.5v-8h-112l2 8q6 55 20 113.5t39 119t63.5 122t96.5 120.5l26 14l2 6h-196l-27 -94h-73z" />
<glyph horiz-adv-x="552" d="M-41 78q0 59 35 99t86 63l2 8q-31 16 -52.5 46t-21.5 71q0 45 20.5 79.5t53.5 56t75 33t85 11.5q41 0 77.5 -10.5t65.5 -29t46.5 -46t17.5 -62.5q0 -59 -32 -94t-79 -55l-2 -6q39 -23 61.5 -54.5t22.5 -72.5q0 -49 -20.5 -84t-55.5 -57.5t-79 -33t-89 -10.5 q-90 0 -153.5 38t-63.5 110zM61 96q0 -37 35 -58.5t82 -21.5t87 21.5t40 68.5q0 35 -33.5 57.5t-76.5 35.5l-23 6q-43 -16 -77 -42t-34 -67zM119 373q0 -35 30.5 -52.5t71.5 -31.5l23 -8q33 10 68.5 35.5t35.5 68.5q0 37 -33.5 56.5t-76.5 19.5t-81 -20.5t-38 -67.5z" />
<glyph horiz-adv-x="532" d="M-45 -47l31 164h82v-88q6 0 21 -1t26 -1q156 0 186 157q-16 -2 -36.5 -4t-49.5 -2q-102 0 -168.5 43t-66.5 129q0 98 66.5 148.5t166.5 50.5q111 0 164 -70.5t53 -177.5q0 -164 -81 -265.5t-238 -101.5q-39 0 -81 5.5t-75 13.5zM90 354q0 -53 41 -77.5t102 -24.5 q45 0 82 6q2 14 3 27.5t1 25.5q0 66 -24.5 108t-87.5 42q-51 0 -84 -28t-33 -79z" />
<glyph horiz-adv-x="555" d="M68 823q0 176 72.5 276.5t207.5 100.5q102 0 153.5 -65.5t51.5 -176.5q0 -178 -72.5 -275t-208.5 -97q-102 0 -153 63t-51 174zM178 836q0 -66 23.5 -113t83.5 -47q39 0 68.5 23.5t49 62.5t29.5 88t10 98q0 66 -23.5 113t-80.5 47q-43 0 -74 -23.5t-50 -62.5t-27.5 -88 t-8.5 -98z" />
<glyph horiz-adv-x="495" d="M59 596l11 90h151l53 375l-6 2l-20 -35q-31 -25 -71 -38t-77 -23l-6 100q49 10 103.5 42t95.5 81h110l-69 -504h135l-12 -90h-398z" />
<glyph horiz-adv-x="512" d="M43 594l12 115q90 53 153.5 92t102.5 71.5t56.5 63.5t17.5 68q0 47 -36 72.5t-95 25.5h-21.5t-21.5 -4l-31 -103h-74v179q39 10 87.5 16t80.5 6q90 0 156 -47t66 -137q0 -49 -16.5 -88t-50.5 -76t-87 -74t-129 -82v-8h199l80 12l-13 -102h-436z" />
<glyph horiz-adv-x="518" d="M57 604v101q16 -6 61.5 -16.5t94.5 -10.5q20 0 48 3t52.5 13.5t42 28.5t17.5 49q0 51 -41 68.5t-96 17.5h-82l10 76h80q57 0 103 20.5t46 75.5q0 47 -38 64.5t-87 17.5q-16 0 -31.5 -2t-27.5 -6l-27 -86h-76v162q35 8 86.5 14t96.5 6q88 0 152.5 -36t64.5 -117 q0 -53 -27.5 -88t-75.5 -58v-8q37 -16 58.5 -47t21.5 -76q0 -53 -24.5 -88t-64.5 -56.5t-90 -30.5t-99 -9q-45 0 -87 7t-61 11z" />
<glyph horiz-adv-x="540" d="M55 713l11 106l290 371h154l-47 -389h65l-10 -88h-65l-17 -117h-106l14 117h-289zM150 807l2 -6h202l33 272l16 33l-6 2l-219 -289z" />
<glyph horiz-adv-x="495" d="M45 604l31 168h82v-90q10 -2 21 -2h24q66 0 117 24.5t51 83.5q0 57 -59.5 79t-135.5 22h-61l37 301h348l-13 -98l-73 8h-168l-17 -133q51 0 97.5 -10.5t80 -32t54 -55t20.5 -81.5q0 -53 -23.5 -91t-62.5 -62.5t-88 -35.5t-100 -11q-37 0 -79 4t-83 12z" />
<glyph horiz-adv-x="532" d="M68 831q0 164 79.5 266.5t241.5 102.5q39 0 81 -5t75 -13l-31 -164h-82v88q-6 0 -21.5 1t-25.5 1q-158 0 -188 -158q27 2 47 3t41 1q102 0 168.5 -43t66.5 -129q0 -98 -65.5 -148t-165.5 -50q-115 0 -168 69.5t-53 177.5zM178 819q0 -63 24.5 -105t90.5 -42q51 0 84 26.5 t33 79.5t-41 78t-105 25q-45 0 -82 -7q-4 -16 -4 -28v-27z" />
<glyph horiz-adv-x="456" d="M82 1006v184h416l-15 -107q-68 -59 -110.5 -123.5t-69.5 -128t-40 -122t-19 -105.5v-8h-113l2 8q6 55 20.5 113.5t39 119t63.5 122t96 120.5l27 15l2 6h-197l-26 -94h-76z" />
<glyph horiz-adv-x="552" d="M61 733q0 59 35 99t86 63l2 8q-31 16 -52 46t-21 71q0 45 20.5 80t53 56.5t74.5 32.5t85 11q41 0 78 -10t65.5 -28.5t46 -46.5t17.5 -62q0 -59 -32 -94t-79 -56l-2 -6q39 -23 61.5 -54.5t22.5 -72.5q0 -49 -20.5 -84t-55 -57.5t-78.5 -32.5t-89 -10q-90 0 -154 38 t-64 109zM164 752q0 -37 34.5 -58.5t82.5 -21.5q47 0 87 21.5t40 68.5q0 35 -34 57.5t-77 34.5l-23 6q-43 -16 -76.5 -41.5t-33.5 -66.5zM221 1028q0 -35 31 -52.5t72 -31.5l22 -8q33 10 69 35.5t36 68.5q0 37 -34 56.5t-77 19.5t-81 -20.5t-38 -67.5z" />
<glyph horiz-adv-x="532" d="M55 604l31 164h82v-88q6 0 21.5 -1t25.5 -1q156 0 186 158q-16 -2 -36.5 -4.5t-49.5 -2.5q-102 0 -168.5 43t-66.5 129q0 98 65.5 148.5t165.5 50.5q111 0 165 -70.5t54 -177.5q0 -164 -80.5 -265t-238.5 -101q-39 0 -81 5t-75 13zM190 1006q0 -53 41 -78t103 -25 q45 0 82 6q2 14 3 27.5t1 26.5q0 66 -24.5 107.5t-88.5 41.5q-51 0 -84 -27.5t-33 -78.5z" />
<glyph horiz-adv-x="378" d="M166 1198q0 59 33.5 88t83.5 29q41 0 67.5 -29t26.5 -76t-30 -80.5t-83 -33.5q-45 0 -71.5 28.5t-26.5 73.5z" />
<glyph horiz-adv-x="1153" d="M35 283q0 104 49 184t135 145q-29 47 -41 91.5t-12 89.5q0 68 24.5 124t69.5 98t108.5 64.5t139.5 22.5q111 0 186.5 -50.5t79.5 -160.5h289l141 8l-41 -149h-192q-16 -135 -49 -263.5t-93 -228.5q43 -29 98.5 -57.5t96.5 -48.5l-55 -170q-43 16 -114 52t-136 79 q-66 -59 -153 -95t-195 -36q-72 0 -133.5 21.5t-106.5 60t-70.5 94t-25.5 125.5zM211 305q0 -76 50 -125t126 -49q53 0 100 16.5t88 57.5q-35 27 -73.5 61.5t-74.5 72.5t-67.5 76t-52.5 68q-43 -33 -69.5 -77t-26.5 -101zM350 799q0 -47 28 -103.5t75 -116t106 -119 t125 -110.5q45 74 69.5 181.5t39.5 218.5h-209q10 16 17 39.5t7 50.5q0 53 -29.5 80.5t-82.5 27.5q-59 0 -102.5 -39t-43.5 -110z" />
</font>
</defs>
</svg>
