<?xml version="1.0" standalone="no"?>
<!DOCTYPE svg PUBLIC "-//W3C//DTD SVG 1.1//EN" "http://www.w3.org/Graphics/SVG/1.1/DTD/svg11.dtd" >
<svg xmlns="http://www.w3.org/2000/svg">
<metadata></metadata>
<defs>
<font id="distefanoslablight" horiz-adv-x="985" >
<font-face units-per-em="2048" ascent="1536" descent="-512" />
<missing-glyph horiz-adv-x="403" />
<glyph unicode="&#xfb00;" horiz-adv-x="1060" d="M43 883v78l133 16v143q0 129 77 205t206 76q12 0 29.5 -1t29.5 -3l14 -99q-12 2 -22 3.5t-25 1.5q-98 0 -150 -42t-52 -141q0 -29 2 -53.5t6 -44.5q4 -23 10 -45h399v143q0 129 77 205t206 76q12 0 29.5 -1t29.5 -3l15 -99q-12 2 -22.5 3.5t-24.5 1.5q-98 0 -150.5 -42 t-52.5 -141q0 -29 2 -53.5t6 -44.5q4 -23 10 -45h195v-94h-207v-783l96 -14v-86h-221l12 117v766h-411v-783l96 -14v-86h-221l12 117v766h-133z" />
<glyph unicode="&#xfb01;" horiz-adv-x="989" d="M43 883v78l133 16v143q0 129 77 205t206 76q12 0 29.5 -1t29.5 -3l14 -99q-12 2 -22 3.5t-25 1.5q-98 0 -150 -42t-52 -141q0 -29 2 -53.5t6 -44.5q4 -23 10 -45h512v-977h-125l12 117v766h-411v-783l96 -14v-86h-221l12 117v766h-133zM653 1298l105 103l102 -103 l-102 -108z" />
<glyph unicode="&#xfb02;" horiz-adv-x="964" d="M43 883v78l135 16v141q0 150 93.5 216.5t246.5 66.5q39 0 86 -4t90 -8.5t77 -9.5t44 -7v-1372h-125l12 117v1173q-37 6 -93 11.5t-87 5.5q-102 0 -169.5 -40t-67.5 -147q0 -29 2 -53.5t6 -44.5q4 -23 10 -45h236v-94h-248v-783l96 -14v-86h-223l14 113v770h-135z" />
<glyph unicode="&#xfb03;" horiz-adv-x="1505" d="M43 883v78l133 16v143q0 129 77 205t206 76q12 0 29.5 -1t29.5 -3l14 -99q-12 2 -22 3.5t-25 1.5q-98 0 -150 -42t-52 -141q0 -29 2 -53.5t6 -44.5q4 -23 10 -45h399v143q0 129 77 205t206 76q12 0 29.5 -1t29.5 -3l15 -99q-12 2 -22.5 3.5t-24.5 1.5q-98 0 -150.5 -42 t-52.5 -141q0 -29 2 -53.5t6 -44.5q4 -23 10 -45h512v-977h-125l13 117v766h-412v-783l96 -14v-86h-221l12 117v766h-411v-783l96 -14v-86h-221l12 117v766h-133zM1188 1307l96 94l92 -94l-92 -99z" />
<glyph unicode="&#xfb04;" horiz-adv-x="1486" d="M43 883v78l133 16v143q0 129 77 205t206 76q12 0 29.5 -1t29.5 -3l14 -99q-12 2 -22 3.5t-25 1.5q-98 0 -150 -42t-52 -141q0 -29 2 -53.5t6 -44.5q4 -23 10 -45h399v141q0 150 93.5 216.5t246.5 66.5q39 0 86.5 -4t90.5 -8.5t76.5 -9.5t43.5 -7v-1372h-125l13 117v1177 q-37 6 -93.5 9.5t-87.5 3.5q-102 0 -169.5 -40t-67.5 -147q0 -29 2 -53.5t6 -44.5q4 -23 10 -45h236v-94h-248v-783l96 -14v-86h-223l14 113v770h-411v-783l96 -14v-86h-221l12 117v766h-133z" />
<glyph horiz-adv-x="0" />
<glyph unicode="&#xd;" horiz-adv-x="403" />
<glyph unicode=" "  horiz-adv-x="403" />
<glyph unicode="&#x09;" horiz-adv-x="403" />
<glyph unicode="&#xa0;" horiz-adv-x="403" />
<glyph unicode="!" horiz-adv-x="481" d="M168 63q0 37 19.5 58.5t50.5 21.5q33 0 51 -21.5t18 -58.5q1 -81 -69 -81q-31 0 -50.5 21.5t-19.5 59.5zM195 297l36 999h119l-53 -999h-102z" />
<glyph unicode="&#x22;" horiz-adv-x="550" d="M127 731v459h78v-459h-78zM348 731v459h78v-459h-78z" />
<glyph unicode="#" d="M80 313v60h170l80 401h-213v60h223l70 356h69l-69 -356h249l70 356h70l-70 -356h178v-60h-188l-78 -401h231v-60h-241l-60 -313h-71l59 313h-248l-59 -313h-72l60 313h-160zM322 373h247l80 401h-250z" />
<glyph unicode="$" d="M158 10v244h92l24 -166q33 -4 72 -8t82 -4q53 0 104.5 10t92.5 32.5t66.5 58.5t25.5 87q0 47 -20.5 81t-55.5 60.5t-83 50t-105 48.5q-53 25 -104.5 52.5t-91.5 62t-64.5 82t-24.5 112.5q0 66 24.5 115t65.5 84t97.5 55t119.5 29v200h68v-194h14q72 0 127 -6t129 -23 v-246h-92l-25 166q-27 4 -63.5 9.5t-73.5 5.5q-51 0 -100 -9.5t-87 -31t-61.5 -57.5t-23.5 -87q0 -41 18.5 -72.5t49 -58t70.5 -47t83 -41.5q59 -27 117.5 -55.5t105.5 -66.5t76 -87t29 -119q0 -66 -24 -114.5t-65.5 -84.5t-97 -57.5t-117.5 -29.5v-203h-67v195h-31 q-80 0 -146.5 7t-129.5 21z" />
<glyph unicode="%" horiz-adv-x="1134" d="M68 895q0 141 65.5 223t177.5 82q111 0 167.5 -82t56.5 -223t-67 -225t-177 -84q-111 0 -167 84t-56 225zM147 895q0 -47 7.5 -91t25 -78t46 -54.5t69.5 -20.5q39 0 69.5 20.5t50 54.5t30 78t10.5 91q0 45 -8.5 89t-26 78t-46 54.5t-69.5 20.5q-43 0 -72.5 -20.5 t-49 -54.5t-28 -78t-8.5 -89zM176 0l707 1190h78l-707 -1190h-78zM598 299q0 141 65.5 223t178.5 82q111 0 167 -82t56 -223t-66.5 -225t-177.5 -84t-167 84t-56 225zM678 299q0 -47 7 -91t24.5 -78t46 -54.5t69.5 -20.5q39 0 70 20.5t50.5 54.5t29.5 78t10 91q0 45 -8 89 t-25.5 78t-46 54.5t-69.5 20.5q-43 0 -73 -20.5t-49.5 -54.5t-27.5 -78t-8 -89z" />
<glyph unicode="&#x26;" horiz-adv-x="1271" d="M104 336q0 111 44.5 188.5t121.5 143.5q-53 72 -71.5 127t-18.5 114q0 61 23.5 115.5t65.5 95.5t101.5 64.5t133.5 23.5q61 0 113.5 -13t90 -42t60.5 -72t23 -104h366l119 8l-27 -106h-219q0 -193 -23.5 -356t-84.5 -294q76 -47 132 -75.5t103 -51.5l-31 -120 q-43 16 -117.5 56t-154.5 91q-59 -68 -149.5 -107.5t-206.5 -39.5q-82 0 -154 23.5t-125 69.5t-84 111.5t-31 149.5zM225 350q0 -55 21.5 -104t58.5 -85t87 -56.5t108 -20.5q150 0 256 109q-55 37 -115.5 87t-118 102t-105.5 103.5t-81 92.5q-111 -90 -111 -228zM301 909 q0 -57 43 -133t114.5 -158.5t165 -166.5t195.5 -156q27 49 44.5 115.5t27.5 143.5t13 160t3 165h-235q2 10 3 28.5t1 36.5q0 160 -174 160q-86 0 -143.5 -51.5t-57.5 -143.5z" />
<glyph unicode="'" horiz-adv-x="331" d="M127 731v459h78v-459h-78z" />
<glyph unicode="(" horiz-adv-x="477" d="M102 492q0 109 19.5 205t50.5 182t70 162.5t80 146.5l53 -35q-39 -66 -76 -139.5t-65.5 -155.5t-46 -173t-17.5 -193q0 -104 17.5 -196.5t46 -173.5t65.5 -152.5t76 -139.5l-53 -35q-41 70 -80 145.5t-70 161.5t-50.5 183.5t-19.5 206.5z" />
<glyph unicode=")" horiz-adv-x="477" d="M102 -170q39 68 76 139.5t65.5 152.5t46 173t17.5 197q0 102 -17.5 193t-46 173t-65.5 155.5t-76 139.5l54 35q41 -70 79.5 -146.5t69.5 -162.5t50.5 -182.5t19.5 -204.5q0 -109 -19.5 -206.5t-50.5 -183.5t-69.5 -161.5t-79.5 -145.5z" />
<glyph unicode="*" horiz-adv-x="763" d="M84 774l233 137l-233 136l31 49l233 -135v272h58v-272l235 135l29 -49l-240 -136l240 -137l-29 -47l-235 133v-270h-58v270l-233 -133z" />
<glyph unicode="+" d="M94 565v62h363v358h67v-358h367v-62h-367v-381h-67v381h-363z" />
<glyph unicode="," horiz-adv-x="368" d="M102 -166l70 168q-25 6 -36 28.5t-11 51.5q0 35 18.5 58.5t53.5 23.5t51 -22.5t16 -59.5q0 -29 -7 -57.5t-26 -63.5l-73 -131z" />
<glyph unicode="-" horiz-adv-x="702" d="M137 461v61h428v-61h-428z" />
<glyph unicode="." horiz-adv-x="368" d="M125 63q0 37 19.5 58.5t50.5 21.5q33 0 51 -21.5t18 -58.5q1 -81 -69 -81q-31 0 -50.5 21.5t-19.5 59.5z" />
<glyph unicode="/" horiz-adv-x="665" d="M39 0l516 1190h72l-514 -1190h-74z" />
<glyph unicode="0" d="M72 586q0 141 28.5 255.5t85 195.5t138.5 126t188 45q104 0 180 -41t125 -118.5t72.5 -189t23.5 -253.5q0 -141 -28.5 -255.5t-85 -196.5t-138 -127t-186.5 -45q-104 0 -181 42t-126 119.5t-72.5 189.5t-23.5 253zM186 586q0 -98 14.5 -189.5t49.5 -161t91 -111.5 t140 -42q80 0 140.5 45t99.5 118.5t58.5 168t19.5 192.5t-16.5 189.5t-51.5 161t-92 111.5t-139 42q-84 0 -143.5 -45t-97.5 -119t-55.5 -168t-17.5 -192z" />
<glyph unicode="1" d="M137 961q90 23 176 79t158 150h139l-28 -1092h290v-98h-706v98h301l20 961h-10l-37 -70q-66 -53 -131 -86t-143 -57z" />
<glyph unicode="2" d="M115 0v154q147 111 256.5 203t182.5 173.5t107.5 158.5t34.5 159q0 113 -74.5 184.5t-232.5 71.5q-70 0 -137 -12l-25 -183h-98v262q63 16 131 26.5t139 10.5q94 0 171 -23.5t131.5 -68.5t84 -112.5t29.5 -155.5q0 -90 -35 -175t-105.5 -173t-180 -184.5t-258.5 -206.5 l2 -11h530l115 11v-109h-768z" />
<glyph unicode="3" d="M111 127q41 -14 86 -25q39 -10 87 -16t101 -6q66 0 129.5 13t112.5 42t78.5 76t29.5 113t-29.5 109.5t-77.5 70t-108.5 38t-122.5 11.5h-137v100h117q59 0 117.5 11.5t105.5 38t76 69.5t29 107q0 123 -83 177t-206 54q-41 0 -83 -5t-81 -13l-25 -183h-98v265 q45 10 123 22t164 12q82 0 155.5 -18.5t130 -57t89 -102t32.5 -151.5q0 -98 -49 -164t-141 -101v-8q98 -35 159.5 -104.5t61.5 -186.5q0 -90 -41 -152.5t-106.5 -103.5t-147.5 -59t-166 -18q-90 0 -161.5 11t-100.5 17z" />
<glyph unicode="4" d="M86 252v131l518 807h160v-840h131v-98h-129v-252h-113v252h-567zM176 350h473v674l15 63h-11l-432 -696l-45 -31v-10z" />
<glyph unicode="5" d="M121 12v275h98l25 -193q35 -6 71.5 -10t73.5 -4q68 0 129.5 15.5t107.5 48t72.5 82.5t26.5 118q0 82 -40 134t-102.5 83t-140 42t-151.5 11h-111v576h608v-107l-114 11h-379v-379q111 0 211 -19.5t175 -62.5t119 -113.5t44 -175.5q0 -90 -35 -157.5t-95.5 -113.5 t-140 -68.5t-170.5 -22.5q-98 0 -163.5 9t-118.5 21z" />
<glyph unicode="6" d="M106 582q0 135 29 249.5t88.5 198.5t152.5 131t220 47q59 0 123.5 -8t132.5 -31v-264h-98l-25 189q-29 6 -63.5 10t-65.5 4q-174 0 -269 -115.5t-104 -314.5q55 10 120 17t112 7q96 0 179 -18t143.5 -59t94 -107.5t33.5 -163.5q0 -84 -29.5 -152.5t-82 -117.5t-124 -75.5 t-153.5 -26.5q-115 0 -193.5 43t-127.5 121.5t-71 189t-22 246.5zM223 580q2 -94 13.5 -183.5t43 -160t91 -113.5t157.5 -43q55 0 104.5 20.5t84.5 55t55.5 84t20.5 108.5q0 74 -27 124t-74 79t-109.5 41t-136.5 12q-61 0 -116.5 -7t-106.5 -17z" />
<glyph unicode="7" d="M111 907v283h747v-148q-129 -141 -207 -278t-120 -267t-55 -251t-13 -228v-18h-115v18q0 104 14.5 225.5t54.5 252.5t111.5 270t188.5 281l53 34v11h-537l-24 -185h-98z" />
<glyph unicode="8" d="M100 297q0 104 60.5 184t152.5 127v8q-86 39 -136 110t-50 159q0 78 30.5 138t85 101t126 62.5t151.5 21.5q78 0 144.5 -21.5t114.5 -61.5t76 -99t28 -133q0 -98 -58.5 -171t-140.5 -110v-8q98 -53 155.5 -124.5t57.5 -172.5q0 -82 -34 -143.5t-91 -101t-131 -60 t-154 -20.5q-84 0 -155.5 21.5t-122.5 61t-80 99t-29 133.5zM219 301q0 -104 76 -161.5t192 -57.5q55 0 107.5 13.5t91.5 41t62.5 69.5t23.5 97q0 51 -22.5 90t-59.5 69t-87 50t-105 37l-56 16q-92 -37 -157.5 -98t-65.5 -166zM248 901q0 -53 20.5 -90t54 -63.5t78.5 -44 t93 -31.5l53 -17q37 10 76 31t70.5 50.5t52 69.5t20.5 89q0 51 -20.5 90t-55.5 65.5t-81 41t-97 14.5q-49 0 -96 -13.5t-84 -39t-60.5 -63.5t-23.5 -89z" />
<glyph unicode="9" d="M76 836q0 82 30.5 150.5t84 117.5t125 76.5t155.5 27.5q115 0 192.5 -43t126 -121.5t69 -189.5t20.5 -246t-29 -249.5t-89.5 -198.5t-152.5 -131t-219 -47q-59 0 -123.5 8t-132.5 30v265h98l25 -189q29 -6 63.5 -10t65.5 -4q174 0 269.5 115.5t103.5 314.5 q-55 -10 -120 -17.5t-112 -7.5q-96 0 -179 18.5t-143.5 59.5t-94 107.5t-33.5 163.5zM193 842q0 -74 26.5 -124t73.5 -79t109.5 -41t136.5 -12q61 0 116.5 7t106.5 17q-2 94 -12.5 183.5t-41 160t-89 113.5t-156.5 43q-55 0 -104.5 -20.5t-86 -55.5t-58 -85t-21.5 -107z" />
<glyph unicode=":" horiz-adv-x="368" d="M125 63q0 37 19.5 58.5t50.5 21.5q33 0 51 -21.5t18 -58.5q1 -81 -69 -81q-31 0 -50.5 21.5t-19.5 59.5zM125 729q0 80 70 80q31 0 50 -20.5t19 -59.5q0 -37 -19 -58.5t-50 -21.5q-33 0 -51.5 21.5t-18.5 58.5z" />
<glyph unicode=";" horiz-adv-x="368" d="M102 -166l70 168q-25 6 -36 28.5t-11 51.5q0 35 18.5 58.5t53.5 23.5t51 -22.5t16 -59.5q0 -29 -7 -57.5t-26 -63.5l-73 -131zM125 731q0 37 19.5 58.5t50.5 21.5q33 0 51 -21.5t18 -58.5q1 -82 -69 -82q-31 0 -50.5 21.5t-19.5 60.5z" />
<glyph unicode="&#x3c;" d="M193 600l561 442l37 -53l-492 -389l498 -383l-41 -53z" />
<glyph unicode="=" d="M98 410v63h791v-63h-791zM98 680v63h791v-63h-791z" />
<glyph unicode="&#x3e;" d="M188 217l498 383l-491 389l36 53l562 -442l-564 -436z" />
<glyph unicode="?" horiz-adv-x="876" d="M98 1006v262q29 10 103.5 28.5t173.5 18.5q90 0 166.5 -23.5t134 -69.5t89.5 -116t32 -160q0 -82 -30 -151.5t-82 -125t-121.5 -96.5t-147.5 -61l-17 -215h-98v293q72 12 138.5 39.5t118.5 70.5t84 102.5t32 135.5q0 135 -84 204.5t-225 69.5q-41 0 -78 -5t-70 -13 l-24 -188h-95zM274 63q0 37 19.5 58.5t50.5 21.5q33 0 51.5 -21.5t18.5 -58.5q0 -81 -70 -81q-31 0 -50.5 21.5t-19.5 59.5z" />
<glyph unicode="@" horiz-adv-x="1177" d="M82 352q0 137 39 255t111.5 204t173 135t223.5 49q113 0 201 -36.5t149 -103.5t93 -160t32 -208q0 -88 -21.5 -173t-62.5 -152.5t-101.5 -111.5t-138.5 -50l-35 137h-8q-6 -16 -17 -39.5t-32.5 -45t-53.5 -37t-77 -15.5q-49 0 -87 23.5t-63.5 63.5t-39 93t-13.5 113 q0 82 19.5 154.5t58.5 128t96.5 87t135.5 31.5q35 0 70.5 -3t70.5 -7l-12 -109v-387l26 -118q113 41 165 152.5t52 264.5q0 98 -24.5 181.5t-75.5 143.5t-128 93t-181 33q-119 0 -208 -48t-149.5 -129t-90 -188.5t-29.5 -224.5q0 -109 22.5 -215t75.5 -190t141 -136.5 t221 -52.5q111 0 194 23.5t154 56.5v-61q-72 -33 -153.5 -54.5t-196.5 -21.5q-133 0 -231 50t-164 138t-98.5 208t-32.5 259zM420 295q0 -100 32.5 -170t108.5 -70q51 0 84 32t52.5 85t26.5 121.5t7 144.5v195l-20 4t-23.5 3t-28.5 1q-66 0 -110.5 -29.5t-73.5 -78t-42 -111 t-13 -127.5z" />
<glyph unicode="A" horiz-adv-x="1120" d="M39 0l426 1178l-125 20v98h338l350 -1187l88 -11v-98h-223v111l-76 264h-514l-96 -266l74 -11v-98h-242zM338 477h450l-184 633l-14 80h-10l-19 -80z" />
<glyph unicode="B" horiz-adv-x="1155" d="M82 1204v92h575q76 0 140.5 -20.5t111.5 -62.5t75 -104t28 -144q0 -98 -40 -172t-124 -115v-10q98 -47 144 -129t46 -189q0 -176 -105.5 -263t-277.5 -87h-469l15 119v1063zM319 102h304q152 0 224.5 57.5t72.5 192.5q0 121 -73 189.5t-220 68.5h-308v-508zM319 713h318 q125 0 189.5 62.5t64.5 178.5q0 117 -65.5 178.5t-194.5 61.5h-312v-481z" />
<glyph unicode="C" horiz-adv-x="1028" d="M100 596q0 160 35 292t106.5 227t181 147.5t257.5 52.5q59 0 136 -13.5t134 -35.5v-279h-98l-27 201q-29 12 -74.5 19t-80.5 7q-117 0 -202 -47t-140.5 -129t-81 -192.5t-25.5 -237.5q0 -104 22.5 -199.5t69.5 -168t120 -115.5t175 -43q61 0 113.5 17.5t94.5 43t73 56 t47 55.5l31 -125q-10 -12 -38 -36.5t-74 -49.5t-109.5 -43t-145.5 -18q-121 0 -214 43t-156.5 122.5t-96.5 193.5t-33 255z" />
<glyph unicode="D" horiz-adv-x="1226" d="M82 1204v92h502q285 0 413.5 -171t128.5 -500q0 -145 -35.5 -261t-104 -197t-167 -124t-221.5 -43h-412l15 119v1063zM319 102h265q106 0 186 40t132 111t78 167t26 209q0 274 -97.5 419.5t-314.5 145.5h-275v-1092z" />
<glyph unicode="E" horiz-adv-x="1071" d="M82 1204v92h881v-278h-99l-24 176h-521v-477h582v-103h-582v-512h533l25 179h98v-281h-789l15 119v1063z" />
<glyph unicode="F" horiz-adv-x="968" d="M82 1204v92h821v-280h-98l-25 178h-461v-500h529v-102h-529v-486l117 -14v-92h-250l15 119v1063z" />
<glyph unicode="G" horiz-adv-x="1187" d="M100 600q0 154 36 285t111 226t187.5 149.5t265.5 54.5q78 0 158 -13.5t152 -35.5v-279h-99l-24 193q-41 14 -90 24t-105 10q-117 0 -206 -43t-147 -121.5t-88 -190t-30 -247.5q0 -106 21.5 -202.5t70.5 -169t127 -115.5t189 -43q86 0 157.5 20.5t118.5 49.5v411h-307 v103h426v-580q-25 -12 -63.5 -30.5t-91 -35t-118 -27.5t-141.5 -11q-111 0 -204 36.5t-161.5 113.5t-106.5 193.5t-38 274.5z" />
<glyph unicode="H" horiz-adv-x="1247" d="M82 1204v92h237v-567h623v567h131l-12 -116v-1067l119 -21v-92h-238v629h-623v-514l105 -23v-92h-238l15 119v1063z" />
<glyph unicode="I" horiz-adv-x="520" d="M82 1204v92h237v-1181l119 -23v-92h-252l15 119v1063z" />
<glyph unicode="J" horiz-adv-x="681" d="M20 92q8 -2 23.5 -3t31 -1h27h13.5q135 0 203.5 72.5t68.5 208.5v819l-326 14v94h457l-12 -118v-807q0 -98 -27.5 -171t-77 -121t-116 -71.5t-146.5 -23.5q-6 0 -21.5 1t-32.5 2t-31.5 2t-18.5 1z" />
<glyph unicode="K" horiz-adv-x="1101" d="M82 1204v92h237v-692h11l37 74l483 618h149l-417 -528l409 -657l90 -19v-92h-168l-407 666h-8l-179 -230v-323l95 -21v-92h-228l15 121v1061z" />
<glyph unicode="L" horiz-adv-x="909" d="M82 1204v92h237v-1194h447l25 177h98v-279h-703l15 119v1063z" />
<glyph unicode="M" horiz-adv-x="1644" d="M117 1204v92h307l375 -1089l12 -68h10l15 68l407 1089h195l-13 -118l31 -1063l121 -23v-92h-238l-26 1178h-13l-12 -84l-409 -1094h-123l-383 1098l-15 82h-10l-49 -1065l104 -23v-92h-245l18 119l60 1063z" />
<glyph unicode="N" horiz-adv-x="1261" d="M82 1204v92h301l563 -1169h12l-12 84v971l-104 22v92h235l-14 -116v-1180h-184l-560 1169h-12l12 -84v-970l105 -23v-92h-238l15 113v1069z" />
<glyph unicode="O" horiz-adv-x="1220" d="M100 637q0 154 35 278.5t102.5 214t166 137.5t225.5 48q121 0 213 -47t153.5 -133t93 -207t31.5 -271q0 -154 -35.5 -277.5t-104.5 -212.5t-168 -137t-228 -48q-119 0 -209 45t-151.5 130t-92.5 205.5t-31 274.5zM221 637q0 -109 21.5 -209t66.5 -177t115 -123t168 -46 q100 0 177 47t128 126t76.5 183.5t25.5 218.5q0 111 -23.5 211.5t-70.5 177t-118.5 122.5t-168.5 46q-104 0 -178.5 -49t-123 -130t-72 -184t-23.5 -214z" />
<glyph unicode="P" horiz-adv-x="1081" d="M82 1204v92h491q102 0 185.5 -19.5t143 -64.5t91 -115.5t31.5 -172.5q0 -100 -34 -170t-92 -114t-139 -64.5t-175 -20.5h-262v-440l118 -23v-92h-252l15 119v1063zM322 657h256q160 0 242.5 60.5t82.5 208.5q0 76 -23.5 127t-66.5 82.5t-104.5 45t-137.5 13.5h-249v-537z " />
<glyph unicode="Q" horiz-adv-x="1220" d="M100 637q0 154 35 278.5t102.5 214t166 137.5t225.5 48q121 0 213 -47t153.5 -133t93 -207t31.5 -271q0 -250 -93 -419.5t-269 -229.5l88 -241h-125l-78 219q-16 -2 -29.5 -3t-29.5 -1q-119 0 -209 45t-151.5 130t-92.5 205.5t-31 274.5zM221 637q0 -109 21.5 -209 t66.5 -177t115 -123t168 -46h16l-84 235h125l74 -211q68 27 120 81.5t87 127t52 160.5t17 182q0 111 -23.5 211.5t-70.5 177t-118.5 122.5t-168.5 46q-104 0 -178.5 -49t-123 -130t-72 -184t-23.5 -214z" />
<glyph unicode="R" horiz-adv-x="1163" d="M82 1204v92h526q94 0 173 -19.5t134.5 -62.5t86 -109.5t30.5 -158.5q0 -133 -62.5 -213t-160.5 -108v-9q33 -16 55.5 -38.5t39 -56.5t30.5 -81t33 -114l53 -215l106 -19v-92h-206l-89 354q-20 74 -43.5 118t-58.5 67.5t-84 32t-119 8.5h-207v-465l105 -23v-92h-238 l15 119v1063zM319 684h283q145 0 223 67.5t78 186.5q0 123 -71.5 187.5t-210.5 64.5h-302v-506z" />
<glyph unicode="S" horiz-adv-x="1042" d="M137 16v267h99l24 -179q25 -8 71 -14t93 -6q61 0 123.5 15.5t114 45t84 74.5t32.5 105q0 57 -23.5 99t-65.5 74.5t-98 60.5t-122 58q-59 29 -116.5 59t-102.5 69.5t-72.5 94t-27.5 128.5q0 92 36.5 157.5t98 108.5t143.5 62.5t174 19.5q90 0 165 -11.5t112 -21.5v-266 h-99l-26 178q-33 6 -79 11t-85 5q-61 0 -117.5 -13t-100.5 -41t-70 -72t-26 -105q0 -51 21.5 -89t56.5 -66.5t82 -53.5t101 -49q66 -31 131 -64.5t118.5 -77.5t86 -104.5t32.5 -142.5q0 -94 -42 -161t-111.5 -109t-159.5 -61t-184 -19q-68 0 -143 9t-128 25z" />
<glyph unicode="T" horiz-adv-x="872" d="M31 1018v278h811v-278h-99l-24 176h-223v-1194h-134l15 119v1075h-223l-25 -176h-98z" />
<glyph unicode="U" horiz-adv-x="1218" d="M72 1204v92h225v-852q0 -88 14.5 -154.5t49 -112.5t93 -69.5t144.5 -23.5q178 0 258 93t80 267v738l-119 22v92h238v-860q0 -225 -119 -339.5t-344 -114.5q-113 0 -191.5 28.5t-128 86t-72 142.5t-22.5 197v748z" />
<glyph unicode="V" horiz-adv-x="1050" d="M6 1204v92h193l305 -1089l14 -94h10l15 94l303 979l-80 18v92h246l-414 -1296h-149l-349 1188z" />
<glyph unicode="W" horiz-adv-x="1738" d="M6 1204v92h199l295 -1169h10v90l250 950v129h227l238 -1075v-90h10l305 1055l-102 18v92h262l-383 -1296h-152l-260 1124l-14 93h-12l-15 -93l-297 -1124h-151l-314 1186z" />
<glyph unicode="X" horiz-adv-x="1091" d="M18 0l431 670l-314 516l-104 18v92h182l289 -479l30 -78h11l28 76l244 377l45 104h162l-397 -626l348 -561l100 -17v-92h-174l-328 524l-30 86h-9l-28 -86l-275 -415l103 -17v-92h-314z" />
<glyph unicode="Y" d="M6 1204v92h168l289 -616l14 -66h12l17 66l254 510l-84 14v92h270l-403 -798v-498h-238v92l119 23v383l-332 690z" />
<glyph unicode="Z" horiz-adv-x="1015" d="M86 0v143l672 992l59 49l-2 10h-588l-24 -178h-99v280h807v-141l-671 -991l-50 -51l3 -11h614l24 177h99v-279h-844z" />
<glyph unicode="[" horiz-adv-x="479" d="M172 -211v1401h244v-62h-176v-1278h176v-61h-244z" />
<glyph unicode="\" horiz-adv-x="622" d="M29 1190h71l496 -1190h-74z" />
<glyph unicode="]" horiz-adv-x="479" d="M63 -150h177v1278h-177v62h244v-1401h-244v61z" />
<glyph unicode="^" d="M53 362l443 644l436 -646l-55 -41l-381 578l-385 -573z" />
<glyph unicode="_" horiz-adv-x="1120" d="M0 -295h1120v-63h-1120v63z" />
<glyph unicode="`" horiz-adv-x="1034" d="M319 1272l64 114l334 -221l-41 -45z" />
<glyph unicode="a" horiz-adv-x="997" d="M92 262q0 98 40 162.5t106.5 101.5t154.5 51.5t187 14.5h141q0 78 -12.5 136t-43 96t-82 57.5t-128.5 19.5q-35 0 -90.5 -7t-90.5 -17l-24 -166h-92v245q18 6 51 12.5t74 12.5t84 10t84 4q193 0 288 -90t95 -293v-512l112 -14v-86h-194l-33 147h-8q-51 -78 -130 -121.5 t-190 -43.5q-137 0 -218 74.5t-81 205.5zM205 266q0 -90 53 -141t141 -51q86 0 146.5 29.5t98.5 85t56.5 134t20.5 175.5h-115q-78 0 -150.5 -7.5t-128 -32t-89 -70.5t-33.5 -122z" />
<glyph unicode="b" horiz-adv-x="1024" d="M164 4l10 111v1267h229v-86l-116 -18v-451h8q6 10 25.5 38t55.5 56.5t90 51t130 22.5q86 0 150.5 -30.5t107.5 -88t65.5 -136t22.5 -173.5q0 -281 -134 -433t-415 -152q-55 0 -121.5 7t-107.5 15zM285 269.5q0 -27.5 1 -60.5t2 -65t1 -52q16 -4 51 -10t70 -6 q113 0 192.5 35.5t129.5 100t72.5 154t22.5 195.5q0 66 -13 127.5t-42 108.5t-75 75.5t-111 28.5q-84 0 -141.5 -43t-93.5 -121t-51 -186.5t-15 -239.5v-41.5z" />
<glyph unicode="c" horiz-adv-x="847" d="M92 459q0 117 31 215t91 169.5t148.5 111.5t204.5 40q55 0 113.5 -8t114.5 -20v-244h-93l-24 164q-29 6 -57.5 10t-59.5 4q-92 0 -159.5 -35t-111.5 -94t-64.5 -141t-20.5 -174q0 -74 19.5 -142.5t58.5 -122t94 -86t129 -32.5q102 0 170.5 38t109.5 83l27 -107 q-6 -6 -30.5 -23.5t-63.5 -36t-93.5 -32.5t-117.5 -14q-98 0 -175 33.5t-131.5 96t-82 150.5t-27.5 197z" />
<glyph unicode="d" horiz-adv-x="1017" d="M92 412q0 279 140.5 431t418.5 152h97v283l-117 18v86h239l-10 -114v-1168l113 -14v-86h-195l-35 150h-8q-6 -10 -24.5 -37t-55.5 -56.5t-93 -52t-134 -22.5q-82 0 -144.5 32.5t-105.5 90t-64.5 136t-21.5 171.5zM209 418q0 -63 12 -125t40 -110t72 -77.5t107 -29.5 q92 0 151.5 44t95.5 123t50.5 187.5t14.5 237.5v42.5t-1 61.5t-2 64.5t-1 54.5q-16 2 -35 4q-16 2 -37 4t-43 2q-111 0 -192 -35t-132 -98t-75.5 -152.5t-24.5 -197.5z" />
<glyph unicode="e" horiz-adv-x="972" d="M92 467q0 111 29 207t83 167.5t133 112.5t181 41t172 -34.5t112 -95t60.5 -143.5t18.5 -181v-74h-566l-108 -10q0 -176 85 -277.5t255 -101.5q43 0 99 8t83 20l23 154h86v-217q-25 -12 -62 -23.5t-77 -19.5t-80.5 -13t-71.5 -5q-223 0 -339 129t-116 356zM209 561h545 l10 10q0 150 -56.5 240t-187.5 90q-129 0 -210 -90t-101 -250z" />
<glyph unicode="f" horiz-adv-x="538" d="M43 883v78l133 16v143q0 129 77 205t206 76q12 0 29.5 -1t29.5 -3l14 -99q-12 2 -22 3.5t-25 1.5q-98 0 -150 -42t-52 -141q0 -29 2 -53.5t6 -44.5q4 -23 10 -45h195v-94h-207v-783l96 -14v-86h-221l12 117v766h-133z" />
<glyph unicode="g" horiz-adv-x="1058" d="M111 -113q0 106 80.5 180t214.5 117v107q-129 25 -204 103.5t-75 221.5q0 182 107.5 280.5t330.5 98.5q49 0 104.5 -2t110 -6t104.5 -8t87 -8v-90l-137 -13v-14q23 -37 44 -88t21 -143q0 -158 -100.5 -248t-274.5 -92v-76l140 -43q123 -37 192.5 -101.5t69.5 -162.5 q0 -68 -37 -116t-96.5 -80t-134 -47t-152.5 -15q-80 0 -151.5 14t-126 45t-86 77t-31.5 109zM231 -96q0 -41 21.5 -72t58.5 -51.5t87.5 -30.5t107.5 -10t111.5 10t95.5 31.5t66.5 51.5t25.5 71q0 59 -49 101t-148 71l-176 53q-102 -47 -151.5 -104.5t-49.5 -120.5zM246 616 q0 -102 63.5 -170.5t202.5 -68.5q49 0 97 11t87 39t62.5 76t23.5 120q0 147 -62.5 211.5t-195.5 64.5q-147 0 -212.5 -74t-65.5 -209z" />
<glyph unicode="h" horiz-adv-x="1032" d="M162 0v1382h227v-86l-115 -18v-442h9q39 66 113.5 112.5t178.5 46.5q156 0 231 -89t75 -244v-562l110 -14v-86h-223v670q0 104 -48 167.5t-151 63.5q-82 0 -138 -33.5t-91 -91t-50.5 -131.5t-15.5 -156v-489h-112z" />
<glyph unicode="i" horiz-adv-x="436" d="M55 891v86h221v-977h-124l12 117v760zM100 1298l105 103l102 -103l-102 -108z" />
<glyph unicode="j" horiz-adv-x="485" d="M-6 -258q12 -2 25.5 -3t23.5 -1q86 0 126 48t40 138v944l-189 21v88h312l-10 -117v-934q0 -135 -64.5 -211.5t-191.5 -76.5q-27 0 -48 4zM119 1298l104 103l103 -103l-103 -108z" />
<glyph unicode="k" horiz-adv-x="960" d="M57 1296v86h224v-880l10 -2l31 53l399 424h149l-329 -350l319 -529l80 -12v-86h-158l-315 545h-8l-178 -191v-252l94 -16v-86h-217l10 115v1165z" />
<glyph unicode="l" horiz-adv-x="417" d="M55 1296v86h211v-1382h-125l13 117v1165z" />
<glyph unicode="m" horiz-adv-x="1589" d="M55 889v88h195l31 -137h10q35 63 105.5 109t174.5 46q102 0 170 -46t93 -115h8q45 68 115.5 114.5t181.5 46.5q135 0 211.5 -73.5t76.5 -221.5v-600l111 -14v-86h-223v674q0 111 -43 169t-146 58q-72 0 -124 -29.5t-85.5 -84t-49 -130t-15.5 -168.5v-489h-113v674 q0 106 -41 166.5t-147 60.5q-72 0 -124 -29.5t-86 -84t-49.5 -130t-15.5 -168.5v-489h-112v874z" />
<glyph unicode="n" horiz-adv-x="1044" d="M55 891v86h195l22 -141h9q39 66 115.5 112.5t181.5 46.5q156 0 230.5 -89t74.5 -244v-562l110 -14v-86h-223v670q0 104 -48 167.5t-151 63.5q-82 0 -138 -33.5t-91 -91t-50.5 -131.5t-15.5 -156v-489h-112v877z" />
<glyph unicode="o" horiz-adv-x="1011" d="M92 477q0 113 29 208t84 164t135 107.5t182 38.5t177 -35.5t124 -100t73 -157t24 -204.5q0 -113 -30 -208t-85 -164t-135 -106.5t-183 -37.5q-102 0 -176.5 34.5t-123 99t-72 156.5t-23.5 205zM205 477q0 -82 14 -154.5t48 -128t88.5 -87t136.5 -31.5t142 33.5t98 91 t56.5 134.5t18.5 163q0 82 -15.5 154.5t-50 128t-90 88t-137.5 32.5q-84 0 -142.5 -33.5t-95 -91t-54 -135.5t-17.5 -164z" />
<glyph unicode="p" horiz-adv-x="1024" d="M55 891v86h195l33 -150h10q4 8 22.5 36t53 57.5t88 52t131.5 22.5q82 0 145.5 -30.5t107.5 -86t67.5 -132t23.5 -166.5q0 -283 -138.5 -431.5t-420.5 -148.5h-97v-236l115 -18v-86h-239l12 115v1102zM272 269.5q0 -25.5 1 -55.5l2 -60t1 -50q16 -4 35 -6q16 -2 37 -3 t43 -1q111 0 192 34t132 97.5t75.5 151.5t24.5 196q0 63 -14.5 122t-43 105t-73.5 73.5t-109 27.5q-92 0 -150 -47t-92 -128t-47.5 -188.5t-13.5 -228.5v-39.5z" />
<glyph unicode="q" horiz-adv-x="1024" d="M92 395q0 139 34 251t101.5 189.5t171 118.5t242.5 41q55 0 115.5 -5t117.5 -13l-14 -111v-1208h-237v86l125 18v388h-9q-6 -10 -25.5 -38t-55 -56.5t-90 -51t-130.5 -22.5q-166 0 -256 113.5t-90 299.5zM207 401q0 -66 13 -125t42 -103t75 -70.5t112 -26.5q84 0 141 43 t93 120.5t51.5 186.5t15.5 240v42.5t-1 62.5t-2.5 65.5t-1.5 54.5q-16 2 -36 4q-16 2 -39 4t-45 2q-115 0 -194 -38t-129 -105.5t-72.5 -158.5t-22.5 -198z" />
<glyph unicode="r" horiz-adv-x="659" d="M55 891v86h195l26 -141h9q59 96 146 127.5t190 31.5l18 -121q-16 4 -38.5 5.5t-37.5 1.5q-84 0 -138 -30t-88 -83t-47.5 -125t-13.5 -154v-387l109 -16v-86h-221v877z" />
<glyph unicode="s" horiz-adv-x="847" d="M102 20v244h93l24 -164q23 -8 64 -15t88 -7q51 0 99 8t85 27.5t58.5 51.5t21.5 79q0 37 -19.5 64.5t-54.5 52t-81 47t-99 47.5q-51 25 -101.5 49t-89 56t-63.5 73t-25 96q0 74 33 125t87 83t124 45t146 13q51 0 118.5 -7t120.5 -21v-244h-92l-25 160q-23 6 -57.5 11 t-73.5 5q-47 0 -93 -7t-85 -23.5t-62.5 -47t-23.5 -76.5q0 -41 19.5 -67.5t51.5 -48t71.5 -39t80.5 -35.5q55 -25 109.5 -52.5t99.5 -61t73 -78t28 -101.5q0 -72 -30 -124t-81 -87t-121.5 -52t-152.5 -17q-37 0 -77 4t-76 10t-65.5 12t-46.5 12z" />
<glyph unicode="t" horiz-adv-x="563" d="M43 883v82l125 16l18 213l103 102v-319h221v-94h-221v-600q0 -109 46 -157t154 -48q8 0 24.5 1t21.5 3l-21 -96q-10 -2 -24.5 -3t-30.5 -1q-137 0 -210 67.5t-73 214.5v619h-133z" />
<glyph unicode="u" horiz-adv-x="1044" d="M51 891v86h223v-670q0 -104 48.5 -167.5t150.5 -63.5q82 0 138.5 33.5t91 90t50 131.5t15.5 156v387l-100 17v86h213v-877l108 -14v-86h-194l-23 141h-8q-39 -66 -116 -112.5t-181 -46.5q-156 0 -230.5 89t-74.5 244v559z" />
<glyph unicode="v" horiz-adv-x="892" d="M6 891v86h168l244 -744l20 -81h8l21 79l244 648l-72 12v86h229l-372 -977h-107l-303 881z" />
<glyph unicode="w" horiz-adv-x="1482" d="M6 891v86h168l248 -823h10v57l232 659v107h145l242 -766v-57h8l244 725l-82 12v86h237l-346 -977h-106l-238 774l-12 74h-8l-15 -74l-262 -774h-106l-285 881z" />
<glyph unicode="x" horiz-adv-x="931" d="M39 0l352 512l-254 365l-96 14v86h164l219 -330l33 -61h10l33 61l155 213l60 117h149l-332 -465l271 -414l100 -12v-86h-168l-239 381l-29 61h-10l-29 -61l-192 -283l81 -12v-86h-278z" />
<glyph unicode="y" horiz-adv-x="892" d="M6 891v86h158l252 -744l18 -83h8l19 81l237 650l-69 10v86h229l-385 -1020q-31 -84 -59.5 -143.5t-63.5 -97.5t-83 -55t-117 -17q-14 0 -34 1t-30 3l-16 96q12 -2 28.5 -3t26.5 -1q59 0 96 14.5t63.5 45t46 76.5t42.5 108l8 22l-307 875z" />
<glyph unicode="z" horiz-adv-x="851" d="M82 0v111l516 718l49 43l-2 9h-434l-25 -152h-92v248h660v-115l-514 -712l-54 -46l4 -8h461l27 158h92v-254h-688z" />
<glyph unicode="{" horiz-adv-x="473" d="M78 485v9l69 73q27 29 33 49.5t6 51.5v395q0 59 39 93t97 34h88v-60h-68q-51 0 -69.5 -22.5t-18.5 -67.5v-372q0 -41 -4 -62.5t-33 -52.5l-59 -64l59 -63q29 -31 33 -52.5t4 -62.5v-372q0 -45 18.5 -68t69.5 -23h68v-59h-88q-57 0 -96.5 34t-39.5 93v395q0 31 -5 51.5 t-34 49.5z" />
<glyph unicode="|" horiz-adv-x="387" d="M158 -264v1454h67v-1454h-67z" />
<glyph unicode="}" horiz-adv-x="473" d="M63 -152h68q51 0 69.5 23t18.5 68v372q0 41 4 62.5t33 52.5l59 63l-59 64q-29 31 -33 52.5t-4 62.5v372q0 45 -18.5 67.5t-69.5 22.5h-68v60h89q57 0 96 -34t39 -93v-395q0 -31 6 -51.5t33 -49.5l69 -73v-9l-69 -73q-29 -29 -34 -49.5t-5 -51.5v-395q0 -59 -39 -93 t-96 -34h-89v59z" />
<glyph unicode="~" horiz-adv-x="989" d="M119 559v68q25 14 53 26q25 10 57.5 18.5t73.5 8.5q49 0 98.5 -15.5t98.5 -33t98 -32.5t96 -15q41 0 90.5 14t85.5 37v-68q-25 -16 -53 -26q-25 -10 -58.5 -17.5t-72.5 -7.5q-49 0 -98 15.5t-99.5 33t-99.5 32.5t-98 15q-41 0 -89 -15t-83 -38z" />
<glyph unicode="&#xa1;" horiz-adv-x="481" d="M131 -319l53 999h103l-37 -999h-119zM174 913q0 82 70 82q31 0 50 -21.5t19 -60.5q0 -37 -19.5 -58t-49.5 -21q-33 0 -51.5 21.5t-18.5 57.5z" />
<glyph unicode="&#xa2;" d="M152 496q0 121 25.5 225t75.5 182t127 128t181 65v200h68v-194h20q59 0 125 -12.5t113 -24.5v-244h-92l-25 168q-61 18 -129 19q-98 0 -170 -38t-117 -104.5t-66.5 -159t-21.5 -200.5q0 -86 20.5 -165t60.5 -137.5t100.5 -93t142.5 -34.5q51 0 96 12t81 29.5t62.5 39 t40.5 40.5l29 -107q-8 -8 -28.5 -24.5t-55.5 -34t-84 -31.5t-110 -18v-195h-68v195q-190 10 -295.5 147t-105.5 367z" />
<glyph unicode="&#xa3;" d="M100 524l11 64h151v157q0 188 98.5 272.5t294.5 84.5q86 0 146.5 -9.5t97.5 -17.5v-268h-92l-27 188q-29 4 -59.5 7.5t-63.5 3.5q-141 0 -210.5 -56.5t-69.5 -197.5v-164h452l-8 -64h-444v-430h385l143 15v-109h-780l6 78l131 24v422h-162z" />
<glyph unicode="&#xa4;" d="M135 905l39 41l121 -121q43 37 95 54.5t106 17.5q49 0 103 -17.5t95 -52.5l125 125l39 -39l-127 -122q35 -41 53.5 -93.5t18.5 -105.5q0 -51 -17.5 -102.5t-52.5 -92.5l115 -121l-43 -40l-113 118q-41 -35 -93 -52t-103 -17t-104.5 17t-94.5 52l-113 -116l-43 43l117 116 q-35 43 -52.5 92.5t-17.5 102.5q0 49 17.5 102.5t52.5 93.5zM256 594q0 -49 18.5 -93t50 -78t76 -53.5t95.5 -19.5t95 19.5t76.5 52.5t51 78t18.5 94t-19.5 93t-52 76t-76.5 50t-93 18t-93.5 -18t-77 -50t-51 -76t-18.5 -93z" />
<glyph unicode="&#xa5;" d="M84 369l8 63h332l-113 215h-227l8 64h187l-191 372h125l252 -503l20 -58h11l18 60l201 395l39 106h137l-193 -372h187l-13 -64h-206l-109 -215h328l-13 -63h-323v-369h-117v369h-348z" />
<glyph unicode="&#xa6;" horiz-adv-x="387" d="M158 -264v612h67v-612h-67zM158 580v610h67v-610h-67z" />
<glyph unicode="&#xa7;" horiz-adv-x="741" d="M82 537q0 84 46 151.5t105 116.5q-43 35 -64.5 81t-21.5 93q0 57 25 101t67 72t96 42t116 14q41 0 89 -5t83 -11v-207h-50l-18 162q-23 4 -51.5 7t-57.5 3q-47 0 -88 -10t-73.5 -30.5t-51 -54.5t-18.5 -79q0 -37 11.5 -64.5t36 -52t62 -49t91.5 -57.5q53 -33 99 -65.5 t80 -68.5t52.5 -79t18.5 -98q0 -86 -45.5 -155t-104.5 -118q84 -72 84 -174q0 -59 -24.5 -102t-65.5 -71t-95.5 -42t-115.5 -14q-20 0 -45 1t-47.5 4t-42 5t-29.5 6v207h49l17 -162q51 -10 100 -10q45 0 87 10t75 30.5t51 53.5t18 80q0 37 -12 64.5t-36.5 52t-62.5 49 t-89 57.5q-53 33 -99.5 64.5t-80 68.5t-52 81t-18.5 102zM145 539q0 -41 11.5 -75t38 -64.5t70.5 -62.5t108 -71l98 -59q59 51 95 109.5t36 129.5q0 39 -10 71t-36 61.5t-69 60.5t-106 72l-105 63q-59 -51 -95 -107.5t-36 -127.5z" />
<glyph unicode="&#xa8;" horiz-adv-x="1034" d="M369 1153v231h98v-231h-98zM567 1153v231h101v-231h-101z" />
<glyph unicode="&#xa9;" horiz-adv-x="1105" d="M57 899q0 104 39 195.5t106.5 159t158 106.5t192.5 39t192.5 -39t158 -106.5t106.5 -158.5t39 -196q0 -104 -39 -194.5t-106.5 -158t-158 -106.5t-192.5 -39t-192.5 39t-158 106.5t-106.5 158t-39 194.5zM121 899q0 -90 33.5 -170t92 -139.5t137.5 -93t169 -33.5 t169 33.5t137.5 93t92 139.5t33.5 170t-33.5 170t-92 139.5t-137.5 93t-169 33.5t-169 -33.5t-137.5 -93t-92 -139.5t-33.5 -170zM346 872q0 141 65.5 224.5t192.5 83.5q41 0 113 -19v-131h-47l-15 84q-27 10 -55 10q-100 0 -144 -68.5t-44 -176.5q0 -41 9 -79t27.5 -66.5 t48 -46t70.5 -17.5q53 0 90 22.5t52 40.5l16 -65q-8 -8 -49 -31t-113 -23q-98 0 -157.5 70t-59.5 188z" />
<glyph unicode="&#xaa;" horiz-adv-x="602" d="M47 754q0 61 23.5 100t64.5 61.5t95.5 30.5t113.5 8h78q0 100 -36 140.5t-138 40.5q-20 0 -45 -3.5t-39 -7.5l-14 -90h-62v150q37 6 76 11t82 5q135 0 193.5 -54t58.5 -192v-292l61 -9v-57h-113l-14 90h-8q-63 -102 -197 -102q-82 0 -131 46t-49 124zM125 756 q0 -53 30.5 -80t77.5 -27q104 0 145.5 63.5t43.5 176.5h-62q-47 0 -90 -4t-75.5 -18.5t-51 -41t-18.5 -69.5z" />
<glyph unicode="&#xab;" horiz-adv-x="1036" d="M119 553l399 434l47 -47l-354 -387l356 -391l-53 -47zM489 553l398 432l51 -47l-356 -385l356 -393l-49 -47z" />
<glyph unicode="&#xac;" d="M94 705v65h746v-350h-68v285h-678z" />
<glyph unicode="&#xad;" horiz-adv-x="702" d="M137 461v61h428v-61h-428z" />
<glyph unicode="&#xae;" horiz-adv-x="1105" d="M57 899q0 104 39 195.5t106.5 159t158 106.5t192.5 39t192.5 -39t158 -106.5t106.5 -158.5t39 -196q0 -104 -39 -194.5t-106.5 -158t-158 -106.5t-192.5 -39t-192.5 39t-158 106.5t-106.5 158t-39 194.5zM121 899q0 -90 33.5 -170t92 -139.5t137.5 -93t169 -33.5 t169 33.5t137.5 93t92 139.5t33.5 170t-33.5 170t-92 139.5t-137.5 93t-169 33.5t-169 -33.5t-137.5 -93t-92 -139.5t-33.5 -170zM330 1118v51h241q78 0 127.5 -34.5t49.5 -112.5q0 -59 -25 -89t-66 -46v-8q27 -16 37.5 -37t26.5 -76l22 -86l35 -4v-47h-90l-37 147 q-14 55 -40.5 69.5t-86.5 14.5h-73v-231h-72l6 49v432zM451 918h110q117 0 117 100t-111 100h-116v-200z" />
<glyph unicode="&#xaf;" horiz-adv-x="1034" d="M268 1253v97h498v-97h-498z" />
<glyph unicode="&#xb0;" horiz-adv-x="520" d="M39 930q0 121 59.5 195.5t169.5 74.5q111 0 162 -74.5t51 -195.5q0 -123 -60.5 -197t-170.5 -74q-111 0 -161 74t-50 197zM106 930q0 -41 8.5 -80t25 -68.5t44 -47t68.5 -17.5q84 0 123 62.5t39 150.5q0 39 -8.5 78t-26 67.5t-46 47t-69.5 18.5q-84 0 -121 -62.5 t-37 -148.5zM182 532l72 74l70 -74l-70 -75z" />
<glyph unicode="&#xb1;" d="M92 0v63h803v-63h-803zM96 653v64h361v358h67v-358h371v-64h-371v-377h-67v377h-361z" />
<glyph unicode="&#xb2;" horiz-adv-x="516" d="M59 594v84q82 55 142.5 97t100.5 79t58.5 73t18.5 79q0 66 -45 101.5t-129 35.5q-37 0 -70 -6l-14 -99h-53v146q31 10 72.5 14t70.5 4q47 0 90 -13t75 -38t50 -61.5t18 -83.5q0 -49 -17 -89t-55 -79t-97.5 -82t-141.5 -99v-8h285l63 6v-61h-422z" />
<glyph unicode="&#xb3;" horiz-adv-x="526" d="M53 659q25 -6 51 -12q23 -4 50.5 -8t52.5 -4q37 0 71.5 5t60.5 18.5t42 36t16 55.5q0 35 -16 57t-42 36.5t-59.5 19.5t-66.5 5h-78v54h76q33 0 63.5 5t54 17t38 33.5t14.5 54.5q0 63 -47 89t-115 26q-23 0 -45 -3t-43 -7l-14 -103h-56v148q23 4 70 11t88 7q45 0 86 -9 t73 -28.5t50 -51.5t18 -77q0 -94 -94 -133v-8q53 -18 82 -56t29 -94q0 -45 -21.5 -75.5t-57.5 -50t-81 -27.5t-92 -8q-43 0 -86 7t-59 11z" />
<glyph unicode="&#xb4;" horiz-adv-x="1034" d="M319 1165l334 221l64 -114l-357 -152z" />
<glyph unicode="&#xb5;" horiz-adv-x="1048" d="M55 891v86h224v-670q0 -104 48 -167.5t150 -63.5q82 0 138.5 33.5t91 90t50 131.5t15.5 156v387l-102 17v86h215v-877l108 -14v-86h-194l-27 141h-8q-39 -66 -114 -112.5t-179 -46.5q-121 0 -192 53v-377h-125l12 117v1099z" />
<glyph unicode="&#xb6;" horiz-adv-x="950" d="M94 829q0 147 96.5 232.5t260.5 85.5h432v-49l-121 -15v-1441h-68v1443h-182v-1443h-193v49l125 14v791q-180 0 -265 84t-85 249z" />
<glyph unicode="&#xb7;" horiz-adv-x="393" d="M127 575q0 37 19.5 58.5t50.5 21.5q33 0 51 -21.5t18 -58.5q1 -81 -69 -81q-31 0 -50.5 21.5t-19.5 59.5z" />
<glyph unicode="&#xb8;" horiz-adv-x="1034" d="M352 -342l13 68q16 -4 43.5 -9.5t62.5 -5.5q45 0 73.5 15.5t28.5 50.5q0 29 -23.5 43t-62.5 14q-14 0 -30.5 -1t-26.5 -3l23 170h71v-98q55 0 105.5 -30t50.5 -93q0 -35 -17.5 -61.5t-46 -43t-65.5 -24.5t-74 -8q-43 0 -75.5 6t-49.5 10z" />
<glyph unicode="&#xb9;" horiz-adv-x="503" d="M68 1065q47 12 95 43t87 82h76l-19 -543h152v-51h-379v51h166l12 467h-8l-19 -33q-35 -29 -72.5 -47t-78.5 -33z" />
<glyph unicode="&#xba;" horiz-adv-x="587" d="M43 887q0 137 68.5 225t193.5 88q123 0 181.5 -82t58.5 -221q0 -135 -69.5 -223t-192.5 -88q-125 0 -182.5 82t-57.5 219zM119 887q0 -47 8 -89t28.5 -75t52.5 -52.5t79 -19.5q45 0 79.5 20.5t56 54.5t33 78t11.5 93q0 47 -9 90t-28.5 76t-52.5 52.5t-78 19.5 q-47 0 -81 -20.5t-56.5 -54.5t-32.5 -79t-10 -94z" />
<glyph unicode="&#xbb;" horiz-adv-x="1036" d="M96 160l357 393l-357 385l51 47l398 -432l-400 -440zM467 162l356 391l-354 387l47 47l399 -434l-395 -438z" />
<glyph unicode="&#xbc;" horiz-adv-x="1142" d="M68 1065q47 12 95 43t87 82h76l-19 -543h152v-51h-379v51h166l12 467h-8l-19 -33q-35 -29 -72.5 -47t-78.5 -33zM180 0l707 1190h69l-706 -1190h-70zM631 125v68l282 401h91v-414h71v-55h-71v-125h-62v125h-311zM682 180h258v330l12 33h-8l-237 -340l-25 -15v-8z" />
<glyph unicode="&#xbd;" horiz-adv-x="1138" d="M68 1065q47 12 95 43t87 82h76l-19 -543h152v-51h-379v51h166l12 467h-8l-19 -33q-35 -29 -72.5 -47t-78.5 -33zM180 0l707 1190h69l-706 -1190h-70zM657 0v84q82 55 142.5 97t100.5 79t58.5 73t18.5 79q0 66 -45 101.5t-129 35.5q-37 0 -70 -6l-14 -99h-53v146 q31 10 72.5 14t70.5 4q47 0 90 -13t75 -38t50 -61.5t18 -83.5q0 -49 -17 -89t-55 -79t-97.5 -82t-141.5 -99v-8h285l63 6v-61h-422z" />
<glyph unicode="&#xbe;" horiz-adv-x="1101" d="M53 659q25 -6 51 -12q23 -4 50.5 -8t52.5 -4q37 0 71.5 5t60.5 18.5t42 36t16 55.5q0 35 -16 57t-42 36.5t-59.5 19.5t-66.5 5h-78v54h76q33 0 63.5 5t54 17t38 33.5t14.5 54.5q0 63 -47 89t-115 26q-23 0 -45 -3t-43 -7l-14 -103h-56v148q23 4 70 11t88 7q45 0 86 -9 t73 -28.5t50 -51.5t18 -77q0 -94 -94 -133v-8q53 -18 82 -56t29 -94q0 -45 -21.5 -75.5t-57.5 -50t-81 -27.5t-92 -8q-43 0 -86 7t-59 11zM180 0l707 1190h69l-706 -1190h-70zM590 125v68l282 401h91v-414h71v-55h-71v-125h-62v125h-311zM641 180h258v330l12 33h-8 l-237 -340l-25 -15v-8z" />
<glyph unicode="&#xbf;" horiz-adv-x="876" d="M80 31q0 82 29.5 151.5t82 124.5t122 95t147.5 63l16 215h98v-293q-72 -12 -138 -40t-118.5 -71t-84 -102t-31.5 -135q0 -135 84 -205t225 -70q41 0 78 5.5t69 13.5l25 188h94v-262q-29 -10 -103.5 -28.5t-172.5 -18.5q-90 0 -167 23.5t-134.5 69.5t-89 116t-31.5 160z M463 913q-1 82 69 82q31 0 50.5 -21.5t19.5 -60.5q0 -37 -19.5 -58t-50.5 -21q-33 0 -51 21.5t-18 57.5z" />
<glyph unicode="&#xc0;" horiz-adv-x="1120" d="M39 0l426 1178l-125 20v98h338l350 -1187l88 -11v-98h-223v111l-76 264h-514l-96 -266l74 -11v-98h-242zM338 477h450l-184 633l-14 80h-10l-19 -80zM344 1550l64 115l333 -221l-41 -45z" />
<glyph unicode="&#xc1;" horiz-adv-x="1120" d="M39 0l426 1178l-125 20v98h338l350 -1187l88 -11v-98h-223v111l-76 264h-514l-96 -266l74 -11v-98h-242zM338 477h450l-184 633l-14 80h-10l-19 -80zM344 1444l334 221l63 -115l-356 -151z" />
<glyph unicode="&#xc2;" horiz-adv-x="1120" d="M39 0l426 1178l-125 20v98h338l350 -1187l88 -11v-98h-223v111l-76 264h-514l-96 -266l74 -11v-98h-242zM283 1450l215 188q18 16 34.5 18.5t22.5 2.5t22.5 -2t34.5 -19l215 -188l-41 -45l-231 131l-231 -131zM338 477h450l-184 633l-14 80h-10l-19 -80z" />
<glyph unicode="&#xc3;" horiz-adv-x="1120" d="M39 0l426 1178l-125 20v98h338l350 -1187l88 -11v-98h-223v111l-76 264h-514l-96 -266l74 -11v-98h-242zM285 1507l14 84q23 12 45 23q20 8 46 15t54 7q66 0 133.5 -20.5t145.5 -20.5q49 0 108 27l-14 -84q-20 -14 -43 -22q-20 -10 -44.5 -16.5t-53.5 -6.5 q-70 0 -138.5 20.5t-142.5 20.5q-25 0 -50.5 -7t-59.5 -20zM338 477h450l-184 633l-14 80h-10l-19 -80z" />
<glyph unicode="&#xc4;" horiz-adv-x="1120" d="M39 0l426 1178l-125 20v98h338l350 -1187l88 -11v-98h-223v111l-76 264h-514l-96 -266l74 -11v-98h-242zM338 477h450l-184 633l-14 80h-10l-19 -80zM414 1430v231h98v-231h-98zM612 1430v231h101v-231h-101z" />
<glyph unicode="&#xc5;" horiz-adv-x="1120" d="M39 0l426 1178l-125 20v98h338l350 -1187l88 -11v-98h-223v111l-76 264h-514l-96 -266l74 -11v-98h-242zM338 477h450l-184 633l-14 80h-10l-19 -80zM375 1526q0 43 16.5 74.5t44 52t63.5 31t74 10.5q37 0 73 -10.5t63.5 -31t44 -52t16.5 -74.5t-17.5 -73t-45 -50.5 t-63.5 -29.5t-73 -9q-39 0 -73.5 9t-62 29.5t-44 50.5t-16.5 73zM475 1526q0 -47 28.5 -65.5t69.5 -18.5t70 18.5t29 65.5t-29 68.5t-70 21.5t-69.5 -21.5t-28.5 -68.5z" />
<glyph unicode="&#xc6;" horiz-adv-x="1630" d="M39 0l397 1186l-114 18v92h1140l27 -278h-98l-39 176h-475l43 -477h536l10 -103h-538l41 -512h491l8 179h101l22 -281h-745v111l-17 243h-544l-80 -243l94 -13v-98h-260zM319 457h500l-61 737h-203z" />
<glyph unicode="&#xc7;" horiz-adv-x="1028" d="M100 596q0 160 35 292t106.5 227t181 147.5t257.5 52.5q59 0 136 -13.5t134 -35.5v-279h-98l-27 201q-29 12 -74.5 19t-80.5 7q-117 0 -202 -47t-140.5 -129t-81 -192.5t-25.5 -237.5q0 -104 22.5 -199.5t69.5 -168t120 -115.5t175 -43q61 0 113.5 17.5t94.5 43t73 56 t47 55.5l31 -125q-10 -12 -38 -36.5t-73 -49.5t-108.5 -43t-143.5 -18v-80q55 0 105.5 -30t50.5 -93q0 -35 -17.5 -61.5t-46 -43t-65.5 -24.5t-74 -8q-43 0 -75.5 6t-49.5 10l12 68q16 -4 44 -9.5t63 -5.5q45 0 73.5 15.5t28.5 50.5q0 29 -23.5 43t-62.5 14q-14 0 -30.5 -1 t-26.5 -3l20 156q-209 23 -319.5 185.5t-110.5 424.5z" />
<glyph unicode="&#xc8;" horiz-adv-x="1071" d="M82 1204v92h881v-278h-99l-24 176h-521v-477h582v-103h-582v-512h533l25 179h98v-281h-789l15 119v1063zM356 1550l64 115l334 -221l-41 -45z" />
<glyph unicode="&#xc9;" horiz-adv-x="1071" d="M82 1204v92h881v-278h-99l-24 176h-521v-477h582v-103h-582v-512h533l25 179h98v-281h-789l15 119v1063zM371 1444l334 221l63 -115l-356 -151z" />
<glyph unicode="&#xca;" horiz-adv-x="1071" d="M82 1204v92h881v-278h-99l-24 176h-521v-477h582v-103h-582v-512h533l25 179h98v-281h-789l15 119v1063zM285 1450l215 188q18 16 34.5 18.5t22.5 2.5t22.5 -2t34.5 -19l215 -188l-41 -45l-231 131l-231 -131z" />
<glyph unicode="&#xcb;" horiz-adv-x="1071" d="M82 1204v92h881v-278h-99l-24 176h-521v-477h582v-103h-582v-512h533l25 179h98v-281h-789l15 119v1063zM406 1434v231h98v-231h-98zM604 1434v231h101v-231h-101z" />
<glyph unicode="&#xcc;" horiz-adv-x="520" d="M16 1552l64 115l334 -221l-41 -45zM82 1204v92h237v-1181l119 -23v-92h-252l15 119v1063z" />
<glyph unicode="&#xcd;" horiz-adv-x="520" d="M12 1446l334 221l64 -115l-357 -151zM82 1204v92h237v-1181l119 -23v-92h-252l15 119v1063z" />
<glyph unicode="&#xce;" horiz-adv-x="520" d="M-51 1452l215 188q18 16 34.5 18.5t22.5 2.5t22.5 -2t35.5 -19l215 -188l-41 -45l-232 131l-231 -131zM82 1204v92h237v-1181l119 -23v-92h-252l15 119v1063z" />
<glyph unicode="&#xcf;" horiz-adv-x="520" d="M76 1434v231h98v-231h-98zM82 1204v92h237v-1181l119 -23v-92h-252l15 119v1063zM274 1434v231h101v-231h-101z" />
<glyph unicode="&#xd0;" horiz-adv-x="1226" d="M55 633l146 29v520l-119 22v92h502q285 0 413.5 -171t128.5 -500q0 -145 -35.5 -261t-104 -197t-167 -124t-221.5 -43h-412l15 119v448l-125 -26zM319 102h265q106 0 186 40t132 111t78 167t26 209q0 274 -97.5 419.5t-314.5 145.5h-275v-508l273 57l18 -90l-291 -61 v-490z" />
<glyph unicode="&#xd1;" horiz-adv-x="1261" d="M82 1204v92h301l563 -1169h12l-12 84v971l-104 22v92h235l-14 -116v-1180h-184l-560 1169h-12l12 -84v-970l105 -23v-92h-238l15 113v1069zM338 1516l14 83q23 12 45 23q20 8 46 15.5t55 7.5q66 0 133 -20.5t145 -20.5q49 0 109 26l-15 -84q-20 -14 -43 -22 q-20 -10 -44.5 -16.5t-53.5 -6.5q-70 0 -138.5 20.5t-141.5 20.5q-25 0 -50.5 -7t-60.5 -19z" />
<glyph unicode="&#xd2;" horiz-adv-x="1222" d="M102 637q0 154 35 278.5t102.5 214t166 137.5t225.5 48q121 0 213 -47t153.5 -133t93 -207t31.5 -271q0 -154 -35.5 -277.5t-104.5 -212.5t-168 -137t-228 -48q-119 0 -209 45t-151.5 130t-92.5 205.5t-31 274.5zM223 637q0 -109 21.5 -209t66.5 -177t115 -123t168 -46 q100 0 177 47t128 126t76.5 183.5t25.5 218.5q0 111 -23.5 211.5t-70.5 177t-118.5 122.5t-167.5 46q-104 0 -179 -49t-123.5 -130t-72 -184t-23.5 -214zM406 1552l63 115l334 -221l-41 -45z" />
<glyph unicode="&#xd3;" horiz-adv-x="1220" d="M100 637q0 154 35 278.5t102.5 214t166 137.5t225.5 48q121 0 213 -47t153.5 -133t93 -207t31.5 -271q0 -154 -35.5 -277.5t-104.5 -212.5t-168 -137t-228 -48q-119 0 -209 45t-151.5 130t-92.5 205.5t-31 274.5zM221 637q0 -109 21.5 -209t66.5 -177t115 -123t168 -46 q100 0 177 47t128 126t76.5 183.5t25.5 218.5q0 111 -23.5 211.5t-70.5 177t-118.5 122.5t-168.5 46q-104 0 -178.5 -49t-123 -130t-72 -184t-23.5 -214zM403 1446l334 221l64 -115l-357 -151z" />
<glyph unicode="&#xd4;" horiz-adv-x="1220" d="M100 637q0 154 35 278.5t102.5 214t166 137.5t225.5 48q121 0 213 -47t153.5 -133t93 -207t31.5 -271q0 -154 -35.5 -277.5t-104.5 -212.5t-168 -137t-228 -48q-119 0 -209 45t-151.5 130t-92.5 205.5t-31 274.5zM221 637q0 -109 21.5 -209t66.5 -177t115 -123t168 -46 q100 0 177 47t128 126t76.5 183.5t25.5 218.5q0 111 -23.5 211.5t-70.5 177t-118.5 122.5t-168.5 46q-104 0 -178.5 -49t-123 -130t-72 -184t-23.5 -214zM330 1450l215 188q18 16 34.5 18.5t22.5 2.5t22.5 -2t34.5 -19l215 -188l-40 -45l-232 131l-231 -131z" />
<glyph unicode="&#xd5;" horiz-adv-x="1220" d="M100 637q0 154 35 278.5t102.5 214t166 137.5t225.5 48q121 0 213 -47t153.5 -133t93 -207t31.5 -271q0 -154 -35.5 -277.5t-104.5 -212.5t-168 -137t-228 -48q-119 0 -209 45t-151.5 130t-92.5 205.5t-31 274.5zM221 637q0 -109 21.5 -209t66.5 -177t115 -123t168 -46 q100 0 177 47t128 126t76.5 183.5t25.5 218.5q0 111 -23.5 211.5t-70.5 177t-118.5 122.5t-168.5 46q-104 0 -178.5 -49t-123 -130t-72 -184t-23.5 -214zM338 1516l14 83q23 12 45 23q20 8 46 15.5t55 7.5q66 0 133 -20.5t145 -20.5q49 0 109 26l-15 -84q-20 -14 -43 -22 q-20 -10 -44.5 -16.5t-53.5 -6.5q-70 0 -138.5 20.5t-141.5 20.5q-25 0 -50.5 -7t-60.5 -19z" />
<glyph unicode="&#xd6;" horiz-adv-x="1220" d="M100 637q0 154 35 278.5t102.5 214t166 137.5t225.5 48q121 0 213 -47t153.5 -133t93 -207t31.5 -271q0 -154 -35.5 -277.5t-104.5 -212.5t-168 -137t-228 -48q-119 0 -209 45t-151.5 130t-92.5 205.5t-31 274.5zM221 637q0 -109 21.5 -209t66.5 -177t115 -123t168 -46 q100 0 177 47t128 126t76.5 183.5t25.5 218.5q0 111 -23.5 211.5t-70.5 177t-118.5 122.5t-168.5 46q-104 0 -178.5 -49t-123 -130t-72 -184t-23.5 -214zM463 1434v231h98v-231h-98zM662 1434v231h100v-231h-100z" />
<glyph unicode="&#xd7;" d="M141 289l299 303l-297 299l47 47l299 -303l304 307l47 -47l-305 -303l309 -311l-45 -50l-310 312l-303 -303z" />
<glyph unicode="&#xd8;" horiz-adv-x="1220" d="M100 637q0 154 35 278.5t102.5 214t166 137.5t225.5 48q80 0 147.5 -20.5t120.5 -59.5l76 125h102l-110 -186q78 -86 116.5 -218.5t38.5 -298.5q0 -154 -35.5 -277.5t-104.5 -212.5t-168 -137t-228 -48q-168 0 -281 88l-90 -152h-100l129 215q-72 86 -107 212t-35 292z M221 637q0 -111 20.5 -211t67.5 -178l527 882q-90 84 -218 84q-104 0 -178.5 -49t-123 -130t-72 -184t-23.5 -214zM367 174q41 -43 97 -67.5t128 -24.5q100 0 177 47t128 126t76.5 183.5t25.5 218.5q0 117 -25.5 221.5t-78.5 182.5z" />
<glyph unicode="&#xd9;" horiz-adv-x="1218" d="M72 1204v92h225v-852q0 -88 14.5 -154.5t49 -112.5t93 -69.5t144.5 -23.5q178 0 258 93t80 267v738l-119 22v92h238v-860q0 -225 -119 -339.5t-344 -114.5q-113 0 -191.5 28.5t-128 86t-72 142.5t-22.5 197v748zM397 1552l64 115l334 -221l-41 -45z" />
<glyph unicode="&#xda;" horiz-adv-x="1218" d="M72 1204v92h225v-852q0 -88 14.5 -154.5t49 -112.5t93 -69.5t144.5 -23.5q178 0 258 93t80 267v738l-119 22v92h238v-860q0 -225 -119 -339.5t-344 -114.5q-113 0 -191.5 28.5t-128 86t-72 142.5t-22.5 197v748zM397 1446l334 221l64 -115l-357 -151z" />
<glyph unicode="&#xdb;" horiz-adv-x="1218" d="M72 1204v92h225v-852q0 -88 14.5 -154.5t49 -112.5t93 -69.5t144.5 -23.5q178 0 258 93t80 267v738l-119 22v92h238v-860q0 -225 -119 -339.5t-344 -114.5q-113 0 -191.5 28.5t-128 86t-72 142.5t-22.5 197v748zM330 1450l215 188q18 16 34.5 18.5t22.5 2.5t22.5 -2 t34.5 -19l215 -188l-40 -45l-232 131l-231 -131z" />
<glyph unicode="&#xdc;" horiz-adv-x="1218" d="M72 1204v92h225v-852q0 -88 14.5 -154.5t49 -112.5t93 -69.5t144.5 -23.5q178 0 258 93t80 267v738l-119 22v92h238v-860q0 -225 -119 -339.5t-344 -114.5q-113 0 -191.5 28.5t-128 86t-72 142.5t-22.5 197v748zM451 1434v231h98v-231h-98zM649 1434v231h101v-231h-101z " />
<glyph unicode="&#xdd;" d="M6 1204v92h168l289 -616l14 -66h12l17 66l254 510l-84 14v92h270l-403 -798v-498h-238v92l119 23v383l-332 690zM291 1446l334 221l63 -115l-356 -151z" />
<glyph unicode="&#xde;" horiz-adv-x="1079" d="M82 1204v92h237v-213h244q102 0 186.5 -20.5t144.5 -65.5t94 -116.5t34 -173.5q0 -100 -34 -170t-92 -113t-139 -62.5t-175 -19.5h-263v-227l119 -23v-92h-252l15 119v1063zM319 444h256q160 0 243 58.5t83 206.5q0 78 -24.5 130t-69.5 83.5t-107.5 45t-138.5 13.5h-242 v-537z" />
<glyph unicode="&#xdf;" horiz-adv-x="1042" d="M33 883v78l143 16v59q0 174 86 270.5t260 96.5q70 0 131.5 -21.5t106.5 -61.5t71.5 -96.5t26.5 -125.5q0 -88 -38 -146.5t-99 -115.5l-68 -62v-12l99 -107q33 -35 68.5 -72.5t66.5 -81.5t51 -95.5t20 -110.5q0 -80 -27.5 -139.5t-75.5 -97.5t-114.5 -57t-142.5 -19 q-47 0 -99.5 7t-80.5 17l26 94q23 -10 67 -17t91 -7q45 0 88 12t77 38t53.5 66.5t19.5 100.5q0 47 -24.5 94t-62.5 94t-83 91t-86 85q-29 29 -44.5 50.5t-15.5 52.5q0 29 17.5 49t42.5 43q43 37 72.5 65.5t49 56t27.5 58.5t8 70q0 92 -61.5 149.5t-155.5 57.5 q-117 0 -176 -66.5t-59 -208.5v-1034h-125l12 117v766h-143z" />
<glyph unicode="&#xe0;" horiz-adv-x="997" d="M92 262q0 98 40 162.5t106.5 101.5t154.5 51.5t187 14.5h141q0 78 -12.5 136t-43 96t-82 57.5t-128.5 19.5q-35 0 -90.5 -7t-90.5 -17l-24 -166h-92v245q18 6 51 12.5t74 12.5t84 10t84 4q193 0 288 -90t95 -293v-512l112 -14v-86h-194l-33 147h-8q-51 -78 -130 -121.5 t-190 -43.5q-137 0 -218 74.5t-81 205.5zM205 266q0 -90 53 -141t141 -51q86 0 146.5 29.5t98.5 85t56.5 134t20.5 175.5h-115q-78 0 -150.5 -7.5t-128 -32t-89 -70.5t-33.5 -122zM305 1272l64 114l333 -221l-40 -45z" />
<glyph unicode="&#xe1;" horiz-adv-x="997" d="M92 262q0 98 40 162.5t106.5 101.5t154.5 51.5t187 14.5h141q0 78 -12.5 136t-43 96t-82 57.5t-128.5 19.5q-35 0 -90.5 -7t-90.5 -17l-24 -166h-92v245q18 6 51 12.5t74 12.5t84 10t84 4q193 0 288 -90t95 -293v-512l112 -14v-86h-194l-33 147h-8q-51 -78 -130 -121.5 t-190 -43.5q-137 0 -218 74.5t-81 205.5zM205 266q0 -90 53 -141t141 -51q86 0 146.5 29.5t98.5 85t56.5 134t20.5 175.5h-115q-78 0 -150.5 -7.5t-128 -32t-89 -70.5t-33.5 -122zM291 1165l334 221l63 -114l-356 -152z" />
<glyph unicode="&#xe2;" horiz-adv-x="997" d="M92 262q0 98 40 162.5t106.5 101.5t154.5 51.5t187 14.5h141q0 78 -12.5 136t-43 96t-82 57.5t-128.5 19.5q-35 0 -90.5 -7t-90.5 -17l-24 -166h-92v245q18 6 51 12.5t74 12.5t84 10t84 4q193 0 288 -90t95 -293v-512l112 -14v-86h-194l-33 147h-8q-51 -78 -130 -121.5 t-190 -43.5q-137 0 -218 74.5t-81 205.5zM205 266q0 -90 53 -141t141 -51q86 0 146.5 29.5t98.5 85t56.5 134t20.5 175.5h-115q-78 0 -150.5 -7.5t-128 -32t-89 -70.5t-33.5 -122zM209 1182l215 188q18 16 34.5 18.5t22.5 2.5t22.5 -2.5t35.5 -18.5l215 -188l-41 -45 l-232 131l-231 -131z" />
<glyph unicode="&#xe3;" horiz-adv-x="997" d="M92 262q0 98 40 162.5t106.5 101.5t154.5 51.5t187 14.5h141q0 78 -12.5 136t-43 96t-82 57.5t-128.5 19.5q-35 0 -90.5 -7t-90.5 -17l-24 -166h-92v245q18 6 51 12.5t74 12.5t84 10t84 4q193 0 288 -90t95 -293v-512l112 -14v-86h-194l-33 147h-8q-51 -78 -130 -121.5 t-190 -43.5q-137 0 -218 74.5t-81 205.5zM205 266q0 -90 53 -141t141 -51q86 0 146.5 29.5t98.5 85t56.5 134t20.5 175.5h-115q-78 0 -150.5 -7.5t-128 -32t-89 -70.5t-33.5 -122zM229 1235l15 84q23 12 45 22q20 8 45.5 15.5t54.5 7.5q66 0 133.5 -20.5t145.5 -20.5 q49 0 108 27l-14 -84q-20 -14 -43 -23q-20 -10 -45 -16t-53 -6q-70 0 -138.5 20.5t-142.5 20.5q-25 0 -50.5 -7.5t-60.5 -19.5z" />
<glyph unicode="&#xe4;" horiz-adv-x="997" d="M92 262q0 98 40 162.5t106.5 101.5t154.5 51.5t187 14.5h141q0 78 -12.5 136t-43 96t-82 57.5t-128.5 19.5q-35 0 -90.5 -7t-90.5 -17l-24 -166h-92v245q18 6 51 12.5t74 12.5t84 10t84 4q193 0 288 -90t95 -293v-512l112 -14v-86h-194l-33 147h-8q-51 -78 -130 -121.5 t-190 -43.5q-137 0 -218 74.5t-81 205.5zM205 266q0 -90 53 -141t141 -51q86 0 146.5 29.5t98.5 85t56.5 134t20.5 175.5h-115q-78 0 -150.5 -7.5t-128 -32t-89 -70.5t-33.5 -122zM348 1153v231h98v-231h-98zM547 1153v231h100v-231h-100z" />
<glyph unicode="&#xe5;" horiz-adv-x="997" d="M92 262q0 98 40 162.5t106.5 101.5t154.5 51.5t187 14.5h141q0 78 -12.5 136t-43 96t-82 57.5t-128.5 19.5q-35 0 -90.5 -7t-90.5 -17l-24 -166h-92v245q18 6 51 12.5t74 12.5t84 10t84 4q193 0 288 -90t95 -293v-512l112 -14v-86h-194l-33 147h-8q-51 -78 -130 -121.5 t-190 -43.5q-137 0 -218 74.5t-81 205.5zM205 266q0 -90 53 -141t141 -51q86 0 146.5 29.5t98.5 85t56.5 134t20.5 175.5h-115q-78 0 -150.5 -7.5t-128 -32t-89 -70.5t-33.5 -122zM317 1241q0 43 16.5 75t44.5 52.5t63.5 30.5t74.5 10q37 0 73 -10t63.5 -30.5t44 -52.5 t16.5 -75t-17.5 -72.5t-45 -50t-63.5 -30t-73 -9.5q-39 0 -73.5 9.5t-62.5 30t-44.5 50t-16.5 72.5zM418 1241q0 -47 28.5 -65.5t69.5 -18.5t69.5 18.5t28.5 65.5t-28.5 68.5t-69.5 21.5t-69.5 -21.5t-28.5 -68.5z" />
<glyph unicode="&#xe6;" horiz-adv-x="1554" d="M92 262q0 98 43 161.5t113.5 98.5t162 48.5t189.5 13.5h121q0 164 -66.5 240.5t-230.5 76.5q-68 0 -150 -16l-24 -164h-92v246q10 2 37.5 6t64.5 9t78 9t82 4q143 0 240.5 -44t138.5 -140h12q59 96 145 140t197 44q137 0 223 -74.5t86 -205.5q0 -98 -43 -162 t-113.5 -98.5t-161.5 -48t-190 -13.5h-120q0 -160 68.5 -237.5t227.5 -77.5q47 0 87 8t71 20l23 154h86v-217q-10 -6 -38 -17.5t-66 -20.5t-82 -16t-87 -7q-272 0 -366 184h-13q-59 -96 -146 -140t-198 -44q-137 0 -223 74.5t-86 205.5zM205 266q0 -90 58.5 -141t146.5 -51 q80 0 138 30.5t96 85t56.5 131t20.5 168.5h-94q-78 0 -154 -6t-135 -29.5t-96 -67.5t-37 -120zM834 487h94q78 0 153.5 6.5t135 30t96.5 67.5t37 120q0 90 -58.5 141t-146.5 51q-80 0 -138.5 -30.5t-96.5 -85t-56 -131t-20 -169.5z" />
<glyph unicode="&#xe7;" horiz-adv-x="847" d="M92 459q0 117 31 215t91 169.5t148.5 111.5t204.5 40q55 0 113.5 -8t114.5 -20v-244h-93l-24 164q-29 6 -57.5 10t-59.5 4q-92 0 -159.5 -35t-111.5 -94t-64.5 -141t-20.5 -174q0 -74 19.5 -142.5t58.5 -122t94 -86t129 -32.5q102 0 170.5 38t109.5 83l27 -107 q-6 -6 -28.5 -22.5t-59.5 -35t-87 -32.5t-112 -16v-80q55 0 105.5 -30t50.5 -93q0 -35 -17.5 -61.5t-46 -43t-65.5 -24.5t-74 -8q-43 0 -75.5 6t-49.5 10l13 68q16 -4 43.5 -9.5t62.5 -5.5q45 0 73.5 15.5t28.5 50.5q0 29 -23.5 43t-62.5 14q-14 0 -30.5 -1t-26.5 -3l21 156 q-172 16 -266.5 144t-94.5 329z" />
<glyph unicode="&#xe8;" horiz-adv-x="972" d="M92 467q0 111 29 207t83 167.5t133 112.5t181 41t172 -34.5t112 -95t60.5 -143.5t18.5 -181v-74h-566l-108 -10q0 -176 85 -277.5t255 -101.5q43 0 99 8t83 20l23 154h86v-217q-25 -12 -62 -23.5t-77 -19.5t-80.5 -13t-71.5 -5q-223 0 -339 129t-116 356zM209 561h545 l10 10q0 150 -56.5 240t-187.5 90q-129 0 -210 -90t-101 -250zM311 1272l64 114l334 -221l-41 -45z" />
<glyph unicode="&#xe9;" horiz-adv-x="972" d="M92 467q0 111 29 207t83 167.5t133 112.5t181 41t172 -34.5t112 -95t60.5 -143.5t18.5 -181v-74h-566l-108 -10q0 -176 85 -277.5t255 -101.5q43 0 99 8t83 20l23 154h86v-217q-25 -12 -62 -23.5t-77 -19.5t-80.5 -13t-71.5 -5q-223 0 -339 129t-116 356zM209 561h545 l10 10q0 150 -56.5 240t-187.5 90q-129 0 -210 -90t-101 -250zM317 1165l334 221l64 -114l-357 -152z" />
<glyph unicode="&#xea;" horiz-adv-x="972" d="M92 467q0 111 29 207t83 167.5t133 112.5t181 41t172 -34.5t112 -95t60.5 -143.5t18.5 -181v-74h-566l-108 -10q0 -176 85 -277.5t255 -101.5q43 0 99 8t83 20l23 154h86v-217q-25 -12 -62 -23.5t-77 -19.5t-80.5 -13t-71.5 -5q-223 0 -339 129t-116 356zM209 561h545 l10 10q0 150 -56.5 240t-187.5 90q-129 0 -210 -90t-101 -250zM236 1182l215 188q18 16 34.5 18.5t22.5 2.5t22.5 -2.5t34.5 -18.5l215 -188l-41 -45l-231 131l-232 -131z" />
<glyph unicode="&#xeb;" horiz-adv-x="972" d="M92 467q0 111 29 207t83 167.5t133 112.5t181 41t172 -34.5t112 -95t60.5 -143.5t18.5 -181v-74h-566l-108 -10q0 -176 85 -277.5t255 -101.5q43 0 99 8t83 20l23 154h86v-217q-25 -12 -62 -23.5t-77 -19.5t-80.5 -13t-71.5 -5q-223 0 -339 129t-116 356zM209 561h545 l10 10q0 150 -56.5 240t-187.5 90q-129 0 -210 -90t-101 -250zM344 1153v231h98v-231h-98zM543 1153v231h100v-231h-100z" />
<glyph unicode="&#xec;" horiz-adv-x="436" d="M-2 1272l63 114l334 -221l-41 -45zM55 891v86h221v-977h-124l12 117v760z" />
<glyph unicode="&#xed;" horiz-adv-x="436" d="M4 1165l334 221l63 -114l-356 -152zM55 891v86h221v-977h-124l12 117v760z" />
<glyph unicode="&#xee;" horiz-adv-x="436" d="M-72 1182l215 188q18 16 35 18.5t23 2.5t22.5 -2.5t34.5 -18.5l215 -188l-41 -45l-231 131l-232 -131zM55 891v86h221v-977h-124l12 117v760z" />
<glyph unicode="&#xef;" horiz-adv-x="436" d="M41 1153v231h98v-231h-98zM55 891v86h221v-977h-124l12 117v760zM240 1153v231h100v-231h-100z" />
<glyph unicode="&#xf0;" horiz-adv-x="1015" d="M92 432q0 98 29 183t82 147.5t130 98.5t173 36q20 0 47 -2t39 -6l39 -23l6 6l-174 240l-174 -39l-17 70l148 33l-137 198l110 27l142 -199l172 37l14 -68l-146 -32q70 -98 127 -183q25 -37 49.5 -73.5t46 -69.5t38 -59.5t24.5 -40.5q29 -63 46.5 -128t17.5 -145 q0 -100 -27 -184t-79 -145.5t-130 -95t-180 -33.5q-100 0 -177 33.5t-130.5 94t-81 142.5t-27.5 180zM207 432q0 -70 18.5 -134.5t55 -113.5t95 -78.5t138.5 -29.5t135.5 27.5t91 75.5t51 113.5t15.5 139.5q0 76 -16.5 143.5t-51 116.5t-92 78t-139.5 29q-80 0 -137.5 -29 t-93 -79t-53 -116.5t-17.5 -142.5z" />
<glyph unicode="&#xf1;" horiz-adv-x="1044" d="M55 891v86h195l22 -141h9q39 66 115.5 112.5t181.5 46.5q156 0 230.5 -89t74.5 -244v-562l110 -14v-86h-223v670q0 104 -48 167.5t-151 63.5q-82 0 -138 -33.5t-91 -91t-50.5 -131.5t-15.5 -156v-489h-112v877zM244 1235l14 84q23 12 45 22q20 8 46 15.5t54 7.5 q66 0 133.5 -20.5t145.5 -20.5q49 0 109 27l-15 -84q-20 -14 -43 -23q-20 -10 -44.5 -16t-53.5 -6q-70 0 -138.5 20.5t-142.5 20.5q-25 0 -50 -7.5t-60 -19.5z" />
<glyph unicode="&#xf2;" horiz-adv-x="1011" d="M92 477q0 113 29 208t84 164t135 107.5t182 38.5t177 -35.5t124 -100t73 -157t24 -204.5q0 -113 -30 -208t-85 -164t-135 -106.5t-183 -37.5q-102 0 -176.5 34.5t-123 99t-72 156.5t-23.5 205zM205 477q0 -82 14 -154.5t48 -128t88.5 -87t136.5 -31.5t142 33.5t98 91 t56.5 134.5t18.5 163q0 82 -15.5 154.5t-50 128t-90 88t-137.5 32.5q-84 0 -142.5 -33.5t-95 -91t-54 -135.5t-17.5 -164zM291 1272l63 114l334 -221l-41 -45z" />
<glyph unicode="&#xf3;" horiz-adv-x="1011" d="M92 477q0 113 29 208t84 164t135 107.5t182 38.5t177 -35.5t124 -100t73 -157t24 -204.5q0 -113 -30 -208t-85 -164t-135 -106.5t-183 -37.5q-102 0 -176.5 34.5t-123 99t-72 156.5t-23.5 205zM205 477q0 -82 14 -154.5t48 -128t88.5 -87t136.5 -31.5t142 33.5t98 91 t56.5 134.5t18.5 163q0 82 -15.5 154.5t-50 128t-90 88t-137.5 32.5q-84 0 -142.5 -33.5t-95 -91t-54 -135.5t-17.5 -164zM295 1165l334 221l63 -114l-356 -152z" />
<glyph unicode="&#xf4;" horiz-adv-x="1011" d="M92 477q0 113 29 208t84 164t135 107.5t182 38.5t177 -35.5t124 -100t73 -157t24 -204.5q0 -113 -30 -208t-85 -164t-135 -106.5t-183 -37.5q-102 0 -176.5 34.5t-123 99t-72 156.5t-23.5 205zM205 477q0 -82 14 -154.5t48 -128t88.5 -87t136.5 -31.5t142 33.5t98 91 t56.5 134.5t18.5 163q0 82 -15.5 154.5t-50 128t-90 88t-137.5 32.5q-84 0 -142.5 -33.5t-95 -91t-54 -135.5t-17.5 -164zM223 1182l215 188q18 16 34.5 18.5t23.5 2.5q6 0 22.5 -2.5t34.5 -18.5l215 -188l-41 -45l-231 131l-232 -131z" />
<glyph unicode="&#xf5;" horiz-adv-x="1011" d="M92 477q0 113 29 208t84 164t135 107.5t182 38.5t177 -35.5t124 -100t73 -157t24 -204.5q0 -113 -30 -208t-85 -164t-135 -106.5t-183 -37.5q-102 0 -176.5 34.5t-123 99t-72 156.5t-23.5 205zM205 477q0 -82 14 -154.5t48 -128t88.5 -87t136.5 -31.5t142 33.5t98 91 t56.5 134.5t18.5 163q0 82 -15.5 154.5t-50 128t-90 88t-137.5 32.5q-84 0 -142.5 -33.5t-95 -91t-54 -135.5t-17.5 -164zM231 1235l15 84q23 12 45 22q20 8 45.5 15.5t54.5 7.5q66 0 133.5 -20.5t145.5 -20.5q49 0 108 27l-14 -84q-20 -14 -43 -23q-20 -10 -45 -16t-53 -6 q-70 0 -138.5 20.5t-142.5 20.5q-25 0 -50.5 -7.5t-60.5 -19.5z" />
<glyph unicode="&#xf6;" horiz-adv-x="1011" d="M92 477q0 113 29 208t84 164t135 107.5t182 38.5t177 -35.5t124 -100t73 -157t24 -204.5q0 -113 -30 -208t-85 -164t-135 -106.5t-183 -37.5q-102 0 -176.5 34.5t-123 99t-72 156.5t-23.5 205zM205 477q0 -82 14 -154.5t48 -128t88.5 -87t136.5 -31.5t142 33.5t98 91 t56.5 134.5t18.5 163q0 82 -15.5 154.5t-50 128t-90 88t-137.5 32.5q-84 0 -142.5 -33.5t-95 -91t-54 -135.5t-17.5 -164zM338 1153v231h98v-231h-98zM537 1153v231h100v-231h-100z" />
<glyph unicode="&#xf7;" d="M92 549v63h803v-63h-803zM422 250q0 37 20.5 57.5t49.5 20.5q72 0 71 -78q1 -82 -71 -82q-29 0 -49.5 21.5t-20.5 60.5zM422 897q0 37 20.5 57.5t49.5 20.5q72 0 71 -78q1 -80 -71 -80q-29 0 -49.5 20.5t-20.5 59.5z" />
<glyph unicode="&#xf8;" horiz-adv-x="1011" d="M92 477q0 113 29 208t84 164t135 107.5t182 38.5q59 0 110.5 -13t92.5 -36l70 117h79l-94 -158q72 -66 106 -169t34 -238q0 -113 -30 -208t-85 -164t-135 -106.5t-183 -37.5q-70 0 -125 16t-100 45l-76 -127h-77l102 172q-59 66 -89 164t-30 225zM205 477 q0 -86 15.5 -160.5t49.5 -130.5l400 670q-63 45 -156 45q-84 0 -142.5 -33.5t-95 -91t-54 -135.5t-17.5 -164zM317 133q68 -57 175 -57q82 0 142 33.5t98 91t56.5 134.5t18.5 163q0 92 -19.5 173t-66.5 136z" />
<glyph unicode="&#xf9;" horiz-adv-x="1044" d="M51 891v86h223v-670q0 -104 48.5 -167.5t150.5 -63.5q82 0 138.5 33.5t91 90t50 131.5t15.5 156v387l-100 17v86h213v-877l108 -14v-86h-194l-23 141h-8q-39 -66 -116 -112.5t-181 -46.5q-156 0 -230.5 89t-74.5 244v559zM315 1272l64 114l334 -221l-41 -45z" />
<glyph unicode="&#xfa;" horiz-adv-x="1044" d="M51 891v86h223v-670q0 -104 48.5 -167.5t150.5 -63.5q82 0 138.5 33.5t91 90t50 131.5t15.5 156v387l-100 17v86h213v-877l108 -14v-86h-194l-23 141h-8q-39 -66 -116 -112.5t-181 -46.5q-156 0 -230.5 89t-74.5 244v559zM324 1165l333 221l64 -114l-356 -152z" />
<glyph unicode="&#xfb;" horiz-adv-x="1044" d="M51 891v86h223v-670q0 -104 48.5 -167.5t150.5 -63.5q82 0 138.5 33.5t91 90t50 131.5t15.5 156v387l-100 17v86h213v-877l108 -14v-86h-194l-23 141h-8q-39 -66 -116 -112.5t-181 -46.5q-156 0 -230.5 89t-74.5 244v559zM229 1182l215 188q18 16 35 18.5t23 2.5 t22.5 -2.5t34.5 -18.5l215 -188l-41 -45l-231 131l-232 -131z" />
<glyph unicode="&#xfc;" horiz-adv-x="1044" d="M51 891v86h223v-670q0 -104 48.5 -167.5t150.5 -63.5q82 0 138.5 33.5t91 90t50 131.5t15.5 156v387l-100 17v86h213v-877l108 -14v-86h-194l-23 141h-8q-39 -66 -116 -112.5t-181 -46.5q-156 0 -230.5 89t-74.5 244v559zM367 1153v231h98v-231h-98zM565 1153v231h101 v-231h-101z" />
<glyph unicode="&#xfd;" horiz-adv-x="892" d="M6 891v86h158l252 -744l18 -83h8l19 81l237 650l-69 10v86h229l-385 -1020q-31 -84 -59.5 -143.5t-63.5 -97.5t-83 -55t-117 -17q-14 0 -34 1t-30 3l-16 96q12 -2 28.5 -3t26.5 -1q59 0 96 14.5t63.5 45t46 76.5t42.5 108l8 22l-307 875zM250 1165l334 221l63 -114 l-356 -152z" />
<glyph unicode="&#xfe;" horiz-adv-x="1024" d="M55 1296v86h221v-557h9q6 8 24.5 37t55 57.5t91 52t132.5 23.5q82 0 145.5 -30.5t107.5 -86t67.5 -132t23.5 -166.5q0 -283 -138.5 -431.5t-420.5 -148.5h-97v-236l115 -18v-86h-239l12 115v1507zM272 269.5q0 -25.5 1 -55.5l2 -60t1 -50q16 -4 35 -6q16 -2 37 -3t43 -1 q111 0 192 34t132 97.5t75.5 151.5t24.5 196q0 63 -14.5 122t-43 105t-73.5 73.5t-109 27.5q-92 0 -150 -47t-92 -128t-47.5 -188.5t-13.5 -228.5v-39.5z" />
<glyph unicode="&#xff;" horiz-adv-x="892" d="M6 891v86h158l252 -744l18 -83h8l19 81l237 650l-69 10v86h229l-385 -1020q-31 -84 -59.5 -143.5t-63.5 -97.5t-83 -55t-117 -17q-14 0 -34 1t-30 3l-16 96q12 -2 28.5 -3t26.5 -1q59 0 96 14.5t63.5 45t46 76.5t42.5 108l8 22l-307 875zM293 1153v231h98v-231h-98z M492 1153v231h100v-231h-100z" />
<glyph unicode="&#x152;" horiz-adv-x="1675" d="M100 627q0 328 151.5 498.5t426.5 170.5h889v-278h-99l-24 176h-477v-477h538v-103h-538v-512h489l25 179h98v-281h-961q-258 0 -388 157.5t-130 469.5zM221 627q0 -115 20.5 -211.5t68.5 -166t125 -109.5t192 -40h221v1096h-164q-127 0 -215 -42t-143.5 -116.5t-80 -180 t-24.5 -230.5z" />
<glyph unicode="&#x153;" horiz-adv-x="1630" d="M92 477q0 113 29 208t84 164t135 107.5t182 38.5q121 0 203 -49t129 -137h12q61 94 151.5 140t201.5 46q68 0 126 -19.5t101 -55t67.5 -88t24.5 -117.5q0 -98 -43 -162t-113.5 -98.5t-162 -48t-189.5 -13.5h-121q0 -145 77 -231t231 -86q47 0 96 10t71 20l23 154h86v-217 q-57 -25 -135 -43t-148 -18q-131 0 -225 49t-139 135h-12q-55 -86 -142.5 -135t-204.5 -49q-102 0 -176.5 34.5t-123 99t-72 157t-23.5 204.5zM205 477q0 -82 14 -154.5t48 -128t88.5 -87t136.5 -31.5t141 33.5t97 91t55.5 134.5t17.5 163q0 82 -14.5 154.5t-48 128t-89 88 t-137.5 32.5q-84 0 -142.5 -33.5t-95 -91t-54 -135.5t-17.5 -164zM909 487h95q78 0 153.5 6.5t135 30t96 67.5t36.5 120q0 90 -63.5 140t-151.5 50q-74 0 -129 -30.5t-93 -86t-57.5 -131t-21.5 -166.5z" />
<glyph unicode="&#x178;" d="M6 1204v92h168l289 -616l14 -66h12l17 66l254 510l-84 14v92h270l-403 -798v-498h-238v92l119 23v383l-332 690zM334 1434v231h98v-231h-98zM532 1434v231h101v-231h-101z" />
<glyph unicode="&#x2c6;" horiz-adv-x="1034" d="M244 1182l215 188q18 16 34.5 18.5t22.5 2.5t22.5 -2.5t34.5 -18.5l215 -188l-40 -45l-232 131l-231 -131z" />
<glyph unicode="&#x2dc;" horiz-adv-x="1034" d="M244 1235l14 84q23 12 45 22q20 8 46 15.5t54 7.5q66 0 133.5 -20.5t145.5 -20.5q49 0 109 27l-15 -84q-20 -14 -43 -23q-20 -10 -44.5 -16t-53.5 -6q-70 0 -138.5 20.5t-142.5 20.5q-25 0 -50 -7.5t-60 -19.5z" />
<glyph unicode="&#x2000;" horiz-adv-x="847" />
<glyph unicode="&#x2001;" horiz-adv-x="1694" />
<glyph unicode="&#x2002;" horiz-adv-x="847" />
<glyph unicode="&#x2003;" horiz-adv-x="1694" />
<glyph unicode="&#x2004;" horiz-adv-x="564" />
<glyph unicode="&#x2005;" horiz-adv-x="423" />
<glyph unicode="&#x2006;" horiz-adv-x="282" />
<glyph unicode="&#x2007;" horiz-adv-x="282" />
<glyph unicode="&#x2008;" horiz-adv-x="211" />
<glyph unicode="&#x2009;" horiz-adv-x="338" />
<glyph unicode="&#x200a;" horiz-adv-x="94" />
<glyph unicode="&#x2010;" horiz-adv-x="702" d="M137 461v61h428v-61h-428z" />
<glyph unicode="&#x2011;" horiz-adv-x="702" d="M137 461v61h428v-61h-428z" />
<glyph unicode="&#x2012;" horiz-adv-x="702" d="M137 461v61h428v-61h-428z" />
<glyph unicode="&#x2013;" horiz-adv-x="1024" d="M0 461v65h1024v-65h-1024z" />
<glyph unicode="&#x2014;" horiz-adv-x="2048" d="M0 461v65h2048v-65h-2048z" />
<glyph unicode="&#x2018;" horiz-adv-x="368" d="M102 1059q0 29 7.5 57.5t25.5 63.5l74 131l55 -4l-69 -168q25 -6 36 -29t11 -51q0 -35 -18.5 -58.5t-53.5 -23.5t-51.5 22.5t-16.5 59.5z" />
<glyph unicode="&#x2019;" horiz-adv-x="368" d="M102 819l70 168q-25 6 -36 28.5t-11 51.5q0 35 18.5 58.5t53.5 23.5t51 -22.5t16 -59.5q0 -29 -7 -57.5t-26 -63.5l-73 -131z" />
<glyph unicode="&#x201a;" horiz-adv-x="368" d="M102 -166l70 168q-25 6 -36 28.5t-11 51.5q0 35 18.5 58.5t53.5 23.5t51 -22.5t16 -59.5q0 -29 -7 -57.5t-26 -63.5l-73 -131z" />
<glyph unicode="&#x201c;" horiz-adv-x="655" d="M102 1059q0 29 7.5 57.5t25.5 63.5l74 131l55 -4l-69 -168q25 -6 36 -29t11 -51q0 -35 -18.5 -58.5t-53.5 -23.5t-51.5 22.5t-16.5 59.5zM389 1059q0 29 7 57.5t26 63.5l74 131l55 -4l-70 -168q25 -6 36 -29t11 -51q0 -35 -18 -58.5t-53 -23.5t-51.5 22.5t-16.5 59.5z " />
<glyph unicode="&#x201d;" horiz-adv-x="655" d="M102 819l70 168q-25 6 -36 28.5t-11 51.5q0 35 18.5 58.5t53.5 23.5t51 -22.5t16 -59.5q0 -29 -7 -57.5t-26 -63.5l-73 -131zM389 819l70 168q-25 6 -36 28.5t-11 51.5q0 35 18.5 58.5t52.5 23.5q35 0 51.5 -22.5t16.5 -59.5q0 -29 -7 -57.5t-26 -63.5l-74 -131z" />
<glyph unicode="&#x201e;" horiz-adv-x="655" d="M102 -166l70 168q-25 6 -36 28.5t-11 51.5q0 35 18.5 58.5t53.5 23.5t51 -22.5t16 -59.5q0 -29 -7 -57.5t-26 -63.5l-73 -131zM389 -166l70 168q-25 6 -36 28.5t-11 51.5q0 35 18.5 58.5t52.5 23.5q35 0 51.5 -22.5t16.5 -59.5q0 -29 -7 -57.5t-26 -63.5l-74 -131z" />
<glyph unicode="&#x2022;" horiz-adv-x="624" d="M152 567q0 78 43.5 124t115.5 46t117 -46t45 -124t-45 -123t-117 -45t-115.5 45t-43.5 123z" />
<glyph unicode="&#x2026;" horiz-adv-x="944" d="M127 63q0 37 19.5 58.5t50.5 21.5q33 0 51 -21.5t18 -58.5q1 -81 -69 -81q-31 0 -50.5 21.5t-19.5 59.5zM414 63q0 37 19.5 58.5t49.5 21.5q33 0 51.5 -21.5t18.5 -58.5q0 -81 -70 -81q-31 0 -50 21.5t-19 59.5zM700 63q0 37 19.5 58.5t50.5 21.5q33 0 51.5 -21.5 t18.5 -58.5q0 -81 -70 -81q-31 0 -50.5 21.5t-19.5 59.5z" />
<glyph unicode="&#x202f;" horiz-adv-x="338" />
<glyph unicode="&#x2039;" horiz-adv-x="663" d="M119 553l399 434l47 -47l-354 -387l356 -391l-53 -47z" />
<glyph unicode="&#x203a;" horiz-adv-x="663" d="M96 160l357 393l-357 385l51 47l398 -432l-400 -440z" />
<glyph unicode="&#x2044;" horiz-adv-x="296" d="M-193 0l662 1190h76l-662 -1190h-76z" />
<glyph unicode="&#x205f;" horiz-adv-x="423" />
<glyph unicode="&#x2070;" horiz-adv-x="557" d="M49 887q0 141 64.5 227t179.5 86q111 0 165 -81t54 -222t-64.5 -226t-177.5 -85q-111 0 -166 80t-55 221zM113 887q0 -49 8 -95.5t26.5 -80t49 -54t75.5 -20.5q43 0 76 22.5t55.5 58.5t34 83t11.5 96t-9.5 95t-29 81t-51 55.5t-74.5 20.5q-47 0 -79 -22.5t-53.5 -59.5 t-30.5 -84t-9 -96z" />
<glyph unicode="&#x2074;" horiz-adv-x="550" d="M61 721v67l283 402h90v-414h72v-55h-72v-125h-61v125h-312zM113 776h258v330l12 33h-8l-238 -340l-24 -15v-8z" />
<glyph unicode="&#x2075;" horiz-adv-x="505" d="M59 602v150h54l14 -105q31 -8 74 -8q37 0 71.5 7t60 22.5t42 41t16.5 60.5q0 41 -23.5 67.5t-59.5 41t-77 19.5t-75 5h-58v287h328v-60l-64 7h-202v-181q59 0 113.5 -9t95.5 -31.5t64.5 -58.5t23.5 -91q0 -47 -20.5 -81t-54.5 -55.5t-79 -32.5t-94 -11q-35 0 -72 3 t-78 13z" />
<glyph unicode="&#x2076;" horiz-adv-x="530" d="M47 889q0 137 65.5 224t206.5 87q35 0 71 -5t65 -13v-146h-54l-16 105q-12 2 -27.5 3t-33.5 1q-98 0 -151.5 -54.5t-57.5 -150.5q41 4 68.5 6t54.5 2q104 0 176.5 -45t72.5 -139q0 -84 -59 -131t-145 -47q-127 0 -181.5 86t-54.5 217zM111 889q2 -51 10 -96t27.5 -79 t52 -53.5t84.5 -19.5q61 0 100 32t39 89q0 76 -54.5 105.5t-138.5 29.5q-35 0 -63.5 -2t-56.5 -6z" />
<glyph unicode="&#x2077;" horiz-adv-x="454" d="M23 1034v156h391v-74q-72 -72 -113 -139.5t-63.5 -132t-28.5 -123.5t-6 -113v-12h-62v12q0 51 6.5 111.5t27 125t59 133.5t102.5 140l29 10v9h-275l-12 -103h-55z" />
<glyph unicode="&#x2078;" horiz-adv-x="563" d="M68 745q0 53 31.5 91t80.5 61v8q-47 20 -72.5 55t-25.5 78q0 78 63.5 121t151.5 43q86 0 143.5 -42t57.5 -116q0 -47 -30 -82.5t-77 -54.5v-8q111 -47 111 -147q0 -41 -18.5 -72t-49.5 -51.5t-70.5 -30.5t-82.5 -10q-94 0 -153.5 42t-59.5 115zM133 748q0 -53 42 -80 t106 -27q61 0 108 26.5t47 80.5q0 53 -43 78.5t-104 41.5l-29 9q-51 -18 -89 -47t-38 -82zM147 1047q0 -27 11.5 -44.5t30 -31t43 -21.5t51.5 -16l28 -8q41 10 81 39.5t40 81.5q0 49 -41 75.5t-98 26.5q-53 0 -99.5 -25.5t-46.5 -76.5z" />
<glyph unicode="&#x2079;" horiz-adv-x="530" d="M39 1022q0 84 59.5 131t147.5 47q125 0 180 -86t55 -217q0 -137 -66.5 -225t-205.5 -88q-82 0 -139 20v146h55l12 -107q14 -2 31.5 -3t36.5 -1q98 0 151.5 54.5t57.5 150.5q-41 -4 -69 -5t-54 -1q-109 0 -180.5 45t-71.5 139zM104 1022q0 -74 54.5 -104.5t138.5 -30.5 q35 0 62.5 3t56.5 7q-2 51 -10.5 96t-28 79t-52 53.5t-83.5 19.5q-61 0 -99.5 -33t-38.5 -90z" />
<glyph unicode="&#x207d;" horiz-adv-x="358" d="M86 895q0 133 42 235.5t91 186.5l47 -19q-47 -80 -86 -179t-39 -224q0 -127 39 -223.5t86 -177.5l-47 -19q-49 84 -91 186.5t-42 233.5z" />
<glyph unicode="&#x207e;" horiz-adv-x="358" d="M92 494q47 82 86 178t39 223q0 125 -39 224.5t-86 178.5l47 19q49 -84 91 -186.5t42 -235.5q0 -131 -42 -233.5t-91 -186.5z" />
<glyph unicode="&#x207f;" horiz-adv-x="624" d="M29 1135v55h118l13 -86h8q23 41 69 69.5t107 28.5q96 0 141 -54t45 -149v-337l66 -9v-57h-141v397q0 63 -29 102.5t-86 39.5q-49 0 -82 -20.5t-53.5 -54.5t-28.5 -78t-8 -89v-297h-74v528z" />
<glyph unicode="&#x20ac;" horiz-adv-x="983" d="M57 375l15 65h100q-2 12 -3 30.5t-1 35.5q0 41 2 71.5t8 67.5h-121l15 66h116q43 184 169 287.5t325 103.5q76 0 134 -11.5t85 -19.5l-27 -100q-39 18 -93 27.5t-107 9.5q-154 0 -245 -76t-126 -221h481l-14 -66h-477q-4 -35 -7 -62.5t-3 -66.5q0 -23 1 -40t5 -36h495 l-14 -65h-473q25 -129 108.5 -214t227.5 -85q104 0 175 30.5t103 65.5l29 -104q-8 -6 -32.5 -20.5t-63.5 -29t-92.5 -25.5t-120.5 -11q-186 0 -305 103t-148 290h-121z" />
<glyph unicode="&#x2122;" horiz-adv-x="1105" d="M23 1239v164h366v-164h-61l-15 98h-71v-415l59 -11v-55h-141l8 49v432h-74l-12 -98h-59zM430 856l8 49l27 498h123l135 -420l4 -29h8l4 29l140 420h127l-5 -49l25 -430l64 -13v-55h-136l-22 487h-8l-4 -34l-150 -453h-76l-151 455l-2 35h-9l-20 -424l55 -11v-55h-137z " />
<glyph unicode="&#x2153;" horiz-adv-x="1144" d="M68 1065q47 12 95 43t87 82h76l-19 -543h152v-51h-379v51h166l12 467h-8l-19 -33q-35 -29 -72.5 -47t-78.5 -33zM178 0l707 1190h69l-706 -1190h-70zM666 70q25 -6 51 -13q23 -4 50.5 -8t51.5 -4q37 0 72 5t60.5 18.5t42 36t16.5 55.5q0 35 -16.5 57.5t-42 36.5 t-59.5 19.5t-67 5.5h-77v53h75q33 0 64 5t54.5 17.5t37.5 34t14 53.5q0 63 -47 89t-115 26q-23 0 -45 -3t-43 -7l-14 -103h-55v148q23 4 70 11t87 7q45 0 86 -9t73 -28.5t50.5 -51.5t18.5 -77q0 -94 -94 -133v-8q53 -18 81.5 -56t28.5 -93q0 -45 -21.5 -76t-57 -50.5 t-81 -27.5t-92.5 -8q-43 0 -86 7t-59 11z" />
<glyph unicode="&#x2154;" horiz-adv-x="1142" d="M59 594v84q82 55 142.5 97t100.5 79t58.5 73t18.5 79q0 66 -45 101.5t-129 35.5q-37 0 -70 -6l-14 -99h-53v146q31 10 72.5 14t70.5 4q47 0 90 -13t75 -38t50 -61.5t18 -83.5q0 -49 -17 -89t-55 -79t-97.5 -82t-141.5 -99v-8h285l63 6v-61h-422zM178 0l707 1190h69 l-706 -1190h-70zM666 70q25 -6 51 -13q23 -4 50.5 -8t51.5 -4q37 0 72 5t60.5 18.5t42 36t16.5 55.5q0 35 -16.5 57.5t-42 36.5t-59.5 19.5t-67 5.5h-77v53h75q33 0 64 5t54.5 17.5t37.5 34t14 53.5q0 63 -47 89t-115 26q-23 0 -45 -3t-43 -7l-14 -103h-55v148q23 4 70 11 t87 7q45 0 86 -9t73 -28.5t50.5 -51.5t18.5 -77q0 -94 -94 -133v-8q53 -18 81.5 -56t28.5 -93q0 -45 -21.5 -76t-57 -50.5t-81 -27.5t-92.5 -8q-43 0 -86 7t-59 11z" />
<glyph unicode="&#x215b;" horiz-adv-x="1142" d="M68 1065q47 12 95 43t87 82h76l-19 -543h152v-51h-379v51h166l12 467h-8l-19 -33q-35 -29 -72.5 -47t-78.5 -33zM180 0l707 1190h69l-706 -1190h-70zM629 150q0 53 31.5 91t80.5 60v8q-47 20 -72.5 55t-25.5 78q0 78 63.5 121t151.5 43q86 0 143.5 -42t57.5 -115 q0 -47 -30 -83t-77 -55v-8q111 -47 111 -147q0 -41 -18.5 -72t-49 -51.5t-70.5 -30.5t-83 -10q-94 0 -153.5 42t-59.5 116zM694 152q0 -53 42 -80t106 -27q61 0 108 26.5t47 80.5q0 53 -43 78.5t-104 41.5l-29 9q-51 -18 -89 -47t-38 -82zM709 451q0 -27 11 -44.5t29.5 -31 t43 -21.5t51.5 -16l28 -8q41 10 81 39.5t40 81.5q0 49 -41 75.5t-98 26.5q-53 0 -99 -25.5t-46 -76.5z" />
<glyph unicode="&#x215c;" horiz-adv-x="1142" d="M53 659q25 -6 51 -12q23 -4 50.5 -8t52.5 -4q37 0 71.5 5t60.5 18.5t42 36t16 55.5q0 35 -16 57t-42 36.5t-59.5 19.5t-66.5 5h-78v54h76q33 0 63.5 5t54 17t38 33.5t14.5 54.5q0 63 -47 89t-115 26q-23 0 -45 -3t-43 -7l-14 -103h-56v148q23 4 70 11t88 7q45 0 86 -9 t73 -28.5t50 -51.5t18 -77q0 -94 -94 -133v-8q53 -18 82 -56t29 -94q0 -45 -21.5 -75.5t-57.5 -50t-81 -27.5t-92 -8q-43 0 -86 7t-59 11zM180 0l707 1190h69l-706 -1190h-70zM629 150q0 53 31.5 91t80.5 60v8q-47 20 -72.5 55t-25.5 78q0 78 63.5 121t151.5 43 q86 0 143.5 -42t57.5 -115q0 -47 -30 -83t-77 -55v-8q111 -47 111 -147q0 -41 -18.5 -72t-49 -51.5t-70.5 -30.5t-83 -10q-94 0 -153.5 42t-59.5 116zM694 152q0 -53 42 -80t106 -27q61 0 108 26.5t47 80.5q0 53 -43 78.5t-104 41.5l-29 9q-51 -18 -89 -47t-38 -82zM709 451 q0 -27 11 -44.5t29.5 -31t43 -21.5t51.5 -16l28 -8q41 10 81 39.5t40 81.5q0 49 -41 75.5t-98 26.5q-53 0 -99 -25.5t-46 -76.5z" />
<glyph unicode="&#x215d;" horiz-adv-x="1142" d="M59 602v150h54l14 -105q31 -8 74 -8q37 0 71.5 7t60 22.5t42 41t16.5 60.5q0 41 -23.5 67.5t-59.5 41t-77 19.5t-75 5h-58v287h328v-60l-64 7h-202v-181q59 0 113.5 -9t95.5 -31.5t64.5 -58.5t23.5 -91q0 -47 -20.5 -81t-54.5 -55.5t-79 -32.5t-94 -11q-35 0 -72 3 t-78 13zM180 0l707 1190h69l-706 -1190h-70zM629 150q0 53 31.5 91t80.5 60v8q-47 20 -72.5 55t-25.5 78q0 78 63.5 121t151.5 43q86 0 143.5 -42t57.5 -115q0 -47 -30 -83t-77 -55v-8q111 -47 111 -147q0 -41 -18.5 -72t-49 -51.5t-70.5 -30.5t-83 -10q-94 0 -153.5 42 t-59.5 116zM694 152q0 -53 42 -80t106 -27q61 0 108 26.5t47 80.5q0 53 -43 78.5t-104 41.5l-29 9q-51 -18 -89 -47t-38 -82zM709 451q0 -27 11 -44.5t29.5 -31t43 -21.5t51.5 -16l28 -8q41 10 81 39.5t40 81.5q0 49 -41 75.5t-98 26.5q-53 0 -99 -25.5t-46 -76.5z" />
<glyph unicode="&#x215e;" horiz-adv-x="1060" d="M23 1034v156h391v-74q-72 -72 -113 -139.5t-63.5 -132t-28.5 -123.5t-6 -113v-12h-62v12q0 51 6.5 111.5t27 125t59 133.5t102.5 140l29 10v9h-275l-12 -103h-55zM68 0l706 1190h70l-707 -1190h-69zM567 150q0 53 32 91t81 60v8q-47 20 -72.5 55t-25.5 78q0 78 63.5 121 t151.5 43q86 0 143 -42t57 -115q0 -47 -29.5 -83t-76.5 -55v-8q111 -47 110 -147q0 -41 -18 -72t-49 -51.5t-71 -30.5t-83 -10q-94 0 -153.5 42t-59.5 116zM633 152q0 -53 42 -80t105 -27q61 0 108.5 26.5t47.5 80.5q0 53 -43 78.5t-105 41.5l-28 9q-51 -18 -89 -47t-38 -82 zM647 451q0 -27 11.5 -44.5t30 -31t43 -21.5t50.5 -16l29 -8q41 10 81 39.5t40 81.5q0 49 -41 75.5t-98 26.5q-53 0 -99.5 -25.5t-46.5 -76.5z" />
<glyph unicode="&#x2160;" horiz-adv-x="444" d="M-4 0v49h154l8 68v917h-162v49h453v-49h-179v-985h179v-49h-453z" />
<glyph unicode="&#x2164;" horiz-adv-x="874" d="M-4 0v49h350l-311 985h-39v49h883v-49h-39l-314 -985h353v-49h-883zM158 1034l262 -860l12 -68h8l13 68l243 797l11 63h-549z" />
<glyph unicode="&#x2169;" horiz-adv-x="946" d="M-4 0v49h72l315 510l-287 475h-100v49h954v-49h-102l-287 -475l318 -510h71v-49h-954zM211 49h532l-239 391l-29 72h-8l-25 -72l-213 -348zM231 1034l209 -352l29 -66h8l27 64l186 317l15 37h-474z" />
<glyph unicode="&#x216c;" horiz-adv-x="735" d="M-4 0v49h154l6 49v936h-160v49h743v-49h-469v-938h402v-47h67v-49h-743z" />
<glyph unicode="&#x216d;" horiz-adv-x="847" d="M-4 0v49h301q-111 41 -175.5 161t-64.5 286q0 94 17.5 178t51.5 153.5t83 123t110 83.5h-323v49h856v-49h-82l-27 -88q-39 18 -89 30.5t-103 12.5q-96 0 -168 -35.5t-118 -100.5t-68.5 -153t-22.5 -194q0 -84 19.5 -159t60.5 -131t101.5 -89t144.5 -33q51 0 96 12.5 t80 32t60.5 41t39.5 39.5l33 -113q-8 -8 -31.5 -24t-60.5 -33h135v-49h-856z" />
<glyph unicode="&#x216e;" horiz-adv-x="1187" d="M-4 0v49h248l6 49v883l-117 16v37h-137v49h1200v-49h-367q117 -59 172.5 -188t55.5 -326q0 -174 -56.5 -294t-158.5 -177h354v-49h-1200zM365 94h256q84 0 144 32t98 89t56.5 136t18.5 173q0 227 -80 346t-268 119h-225v-895z" />
<glyph unicode="&#x216f;" horiz-adv-x="1423" d="M-4 0v49h143l8 49l56 936h-207v49h1431v-49h-206v-49l57 -936h149v-49h-1431zM262 49h369l-299 893l-13 68h-8zM406 1034l288 -872l11 -58h10l10 58l293 872h-612zM791 49h368l-49 959h-8l-12 -70z" />
<glyph unicode="&#x25fc;" horiz-adv-x="972" d="M0 0v973h973v-973h-973z" />
<glyph horiz-adv-x="2101" d="M100 627q0 147 34 273t104.5 218t179 144.5t256.5 52.5q72 0 143.5 -15.5t112.5 -27.5v-279h-99l-24 199q-35 10 -72 15t-71 5q-117 0 -201 -45t-138.5 -123.5t-79 -183t-24.5 -221.5q0 -115 26.5 -216t82 -176t139.5 -118t201 -43q104 0 206.5 21.5t180.5 50.5v1138h119 v-567h622v567h131l-12 -116v-1067l117 -21v-92h-236v629h-622v-545q-41 -16 -99.5 -33.5t-126 -33t-141.5 -25.5t-147 -10q-141 0 -247 47t-175.5 132t-104.5 203.5t-35 262.5z" />
<glyph horiz-adv-x="1927" d="M100 627q0 145 34 271t103.5 218t177 145.5t253.5 53.5q70 0 137 -11.5t125 -29.5v-279h-99l-24 199q-68 18 -150 18q-115 0 -197.5 -45t-136 -123.5t-78 -183t-24.5 -221.5t26.5 -218.5t82 -175t141.5 -116.5t203 -43q49 0 102 5t103.5 15.5t95.5 22.5t82 29v1224h227 v-86l-115 -18v-442h9q41 63 112.5 111t179.5 48q158 0 232 -88t74 -245v-562l110 -14v-86h-223v670q0 102 -47 166.5t-152 64.5q-82 0 -138 -33.5t-91 -91t-50.5 -131.5t-15.5 -156v-405q-90 -35 -220 -68.5t-283 -33.5q-141 0 -248 46t-177.5 130t-105.5 202.5t-35 266.5z " />
<glyph horiz-adv-x="1755" d="M82 489q0 113 29.5 206t86 160t140.5 103.5t194 36.5q59 0 117 -8t111 -24v-242h-92l-25 166q-27 6 -53.5 10t-57.5 4q-88 0 -151.5 -30.5t-105.5 -85t-61 -130t-19 -168.5q0 -186 88 -298.5t270 -112.5q41 0 87 5t90 14t84 20.5t71 23.5v1243h227v-86l-115 -18v-442h9 q41 63 112.5 111t179.5 48q154 0 230 -88t76 -245v-562l110 -14v-86h-223v670q0 102 -46 166.5t-151 64.5q-84 0 -140 -33.5t-91 -91t-50.5 -131.5t-15.5 -156v-415q-14 -6 -57 -21.5t-105.5 -31t-136 -27.5t-149.5 -12q-238 0 -352.5 135t-114.5 372z" />
<glyph horiz-adv-x="1992" d="M100 627q0 145 34 271t103.5 218t177 145.5t253.5 53.5q59 0 130.5 -11.5t131.5 -29.5v-279h-99l-24 197q-68 18 -150 18q-115 0 -197.5 -45t-136 -122.5t-78 -182t-24.5 -221.5t31 -218.5t90 -176t148.5 -116.5t203.5 -42q49 0 100.5 6t98.5 16.5t90 22.5t74 27v925h114 v-469h523v469h127l-13 -116v-867l117 -14v-86h-231v520h-523v-438q-92 -35 -218 -67.5t-267 -32.5q-145 0 -254.5 47t-183.5 131t-111 202.5t-37 264.5z" />
<glyph horiz-adv-x="1878" d="M100 526q0 276 124 426t374 150q55 0 112.5 -9.5t104.5 -23.5v-244h-92l-25 170q-53 12 -108 13q-199 0 -287 -122t-88 -349q0 -96 24.5 -179.5t72.5 -145.5t120 -98t168 -36q90 0 181 20.5t161 53.5v931h115v-469h522v469h127l-12 -116v-867l116 -14v-86h-231v520h-522 v-432q-92 -43 -208 -74.5t-255 -31.5q-121 0 -212 39.5t-154.5 112.5t-95.5 172.5t-32 219.5z" />
<glyph horiz-adv-x="991" d="M39 0l369 981l-101 16v86h287l313 -987l80 -10v-86h-203v92l-65 221h-445l-79 -217l63 -10v-86h-219zM309 408h381l-153 512l-15 65h-8l-14 -65z" />
<glyph horiz-adv-x="991" d="M39 0l369 981l-101 16v86h287l313 -987l80 -10v-86h-203v92l-65 221h-445l-79 -217l63 -10v-86h-219zM258 1235l334 221l63 -115l-356 -151zM309 408h381l-153 512l-15 65h-8l-14 -65z" />
<glyph horiz-adv-x="991" d="M39 0l369 981l-101 16v86h287l313 -987l80 -10v-86h-203v92l-65 221h-445l-79 -217l63 -10v-86h-219zM211 1243l215 189q18 16 34.5 18t22.5 2t22.5 -2t35.5 -18l215 -189l-41 -45l-232 131l-231 -131zM309 408h381l-153 512l-15 65h-8l-14 -65z" />
<glyph horiz-adv-x="991" d="M39 0l369 981l-101 16v86h287l313 -987l80 -10v-86h-203v92l-65 221h-445l-79 -217l63 -10v-86h-219zM309 408h381l-153 512l-15 65h-8l-14 -65zM346 1219v231h98v-231h-98zM545 1219v231h100v-231h-100z" />
<glyph horiz-adv-x="1415" d="M39 0l330 983l-90 14v86h999l20 -233h-86l-32 139h-402l35 -389h477l8 -94h-477l35 -412h418l10 142h82l20 -236h-647v92l-16 182h-469l-59 -178l63 -10v-86h-219zM283 369h434l-47 620h-189z" />
<glyph horiz-adv-x="991" d="M39 0l369 981l-101 16v86h287l313 -987l80 -10v-86h-203v92l-65 221h-445l-79 -217l63 -10v-86h-219zM274 1341l64 115l334 -221l-41 -45zM309 408h381l-153 512l-15 65h-8l-14 -65z" />
<glyph horiz-adv-x="991" d="M39 0l369 981l-101 16v86h287l313 -987l80 -10v-86h-203v92l-65 221h-445l-79 -217l63 -10v-86h-219zM301 1323q0 43 16.5 75t44 52t63.5 30.5t75 10.5q37 0 72.5 -10.5t63.5 -30.5t44 -52t16 -75t-17 -72.5t-45 -50t-63.5 -30t-72.5 -9.5q-39 0 -74 9.5t-62.5 30t-44 50 t-16.5 72.5zM309 408h381l-153 512l-15 65h-8l-14 -65zM401 1323q0 -47 29 -65.5t70 -18.5t69.5 18.5t28.5 65.5t-28.5 68.5t-69.5 21.5t-70 -21.5t-29 -68.5z" />
<glyph horiz-adv-x="991" d="M39 0l369 981l-101 16v86h287l313 -987l80 -10v-86h-203v92l-65 221h-445l-79 -217l63 -10v-86h-219zM219 1286l14 84q23 12 46 23q20 8 45.5 15t54.5 7q66 0 133.5 -20.5t144.5 -20.5q51 0 109 27l-14 -84q-20 -14 -43 -23q-20 -10 -45 -16t-54 -6q-70 0 -138.5 20.5 t-141.5 20.5q-53 0 -111 -27zM309 408h381l-153 512l-15 65h-8l-14 -65z" />
<glyph horiz-adv-x="1048" d="M82 997v86h510q63 0 121.5 -16t101.5 -50t68.5 -85t25.5 -121q0 -86 -32.5 -147.5t-104.5 -96.5v-10q82 -37 121 -107.5t39 -158.5q0 -143 -90 -217t-234 -74h-422l13 98v883zM313 94h254q123 0 185.5 46t62.5 153q0 100 -60.5 156.5t-183.5 56.5h-258v-412zM313 600h258 q104 0 162 49t58 148q0 193 -230 192h-248v-389z" />
<glyph horiz-adv-x="911" d="M100 496q0 137 33 248.5t97.5 191.5t159.5 123t220 43q61 0 119.5 -11.5t106.5 -25.5v-244h-93l-24 168q-55 18 -117 19q-98 0 -172 -36t-121 -102.5t-70.5 -159t-23.5 -204.5q0 -86 18.5 -165t58.5 -137.5t100.5 -93t146.5 -34.5q51 0 96 13t81 32.5t62.5 42t40.5 41.5 l31 -117q-8 -6 -32.5 -23.5t-64.5 -36t-95.5 -32.5t-125.5 -14q-98 0 -178 35.5t-136 103t-87 163t-31 212.5z" />
<glyph horiz-adv-x="911" d="M100 496q0 137 33 248.5t97.5 191.5t159.5 123t220 43q111 0 226 -37v-244h-93l-24 168q-55 18 -117 19q-98 0 -172 -36t-121 -102.5t-70.5 -159t-23.5 -204.5q0 -86 18.5 -165t58.5 -137.5t100.5 -93t146.5 -34.5q51 0 96 13t81 32.5t62.5 42t40.5 41.5l31 -117 q-8 -6 -29.5 -22.5t-57.5 -33t-85 -30.5t-111 -18v-76q55 0 105.5 -30t50.5 -93q0 -35 -18.5 -61.5t-48 -43t-65.5 -24.5t-71 -8q-43 0 -76.5 6t-50.5 10l10 68q10 -4 43 -9.5t68 -5.5q45 0 72.5 14.5t27.5 51.5q0 29 -22.5 43t-61.5 14q-14 0 -29.5 -1t-27.5 -3l21 148 q-90 6 -163 45t-124 105.5t-79 157.5t-28 204z" />
<glyph horiz-adv-x="1105" d="M82 997v86h465q238 0 348.5 -142t110.5 -421q0 -121 -29 -217t-82 -163.5t-129 -103.5t-168 -36h-412l13 98v883zM313 94h256q84 0 144.5 32t98.5 89t56.5 136t18.5 173q0 227 -80 346t-268 119h-226v-895z" />
<glyph horiz-adv-x="925" d="M82 997v86h733v-233h-86l-20 139h-396v-389h475v-94h-475v-412h410l20 139h86v-233h-645l15 111v870z" />
<glyph horiz-adv-x="925" d="M82 997v86h733v-233h-86l-20 139h-396v-389h475v-94h-475v-412h410l20 139h86v-233h-645l15 111v870zM301 1237l334 221l63 -115l-356 -151z" />
<glyph horiz-adv-x="925" d="M82 997v86h733v-233h-86l-20 139h-396v-389h475v-94h-475v-412h410l20 139h86v-233h-645l15 111v870zM215 1241l215 189q18 16 34.5 18t22.5 2t22.5 -2t35.5 -18l215 -189l-41 -45l-232 131l-231 -131z" />
<glyph horiz-adv-x="925" d="M82 997v86h733v-233h-86l-20 139h-396v-389h475v-94h-475v-412h410l20 139h86v-233h-645l15 111v870zM344 1219v231h98v-231h-98zM543 1219v231h100v-231h-100z" />
<glyph horiz-adv-x="925" d="M82 997v86h733v-233h-86l-20 139h-396v-389h475v-94h-475v-412h410l20 139h86v-233h-645l15 111v870zM293 1341l63 115l334 -221l-41 -45z" />
<glyph horiz-adv-x="1105" d="M68 551l131 27v403l-117 16v86h465q238 0 348.5 -142t110.5 -421q0 -121 -29 -217t-82 -163.5t-129 -103.5t-168 -36h-412l13 98v398l-117 -25zM313 94h256q84 0 144.5 32t98.5 89t56.5 136t18.5 173q0 227 -80 346t-268 119h-226v-387l236 49l16 -78l-252 -53v-426z" />
<glyph horiz-adv-x="866" d="M82 997v86h719v-233h-86l-21 139h-381v-418h459v-94h-459v-377l103 -14v-86h-230l13 98v883z" />
<glyph horiz-adv-x="1060" d="M100 502q0 129 31 239.5t95.5 191.5t161.5 126t230 45q66 0 134.5 -12.5t132.5 -30.5v-221h-86l-23 145q-72 23 -164 23q-98 0 -171.5 -36t-123 -101.5t-74 -155.5t-24.5 -201q0 -88 17.5 -168t56.5 -140.5t103.5 -96t156.5 -35.5q76 0 139.5 18.5t98.5 40.5v338h-242v94 h348v-495q-20 -10 -54 -25.5t-79 -30t-102.5 -23.5t-122.5 -9q-96 0 -176 31.5t-138.5 96t-91.5 162t-33 230.5z" />
<glyph horiz-adv-x="1134" d="M82 997v86h231v-469h523v469h125l-11 -98v-885l117 -14v-86h-231v520h-523v-420l103 -14v-86h-230l13 100v881z" />
<glyph horiz-adv-x="512" d="M82 997v86h231v-983l117 -14v-86h-244l13 100v881z" />
<glyph horiz-adv-x="512" d="M25 1235l333 221l64 -115l-356 -151zM82 997v86h231v-983l117 -14v-86h-244l13 100v881z" />
<glyph horiz-adv-x="512" d="M-47 1243l215 189q18 16 34.5 18t22.5 2t22.5 -2t35.5 -18l215 -189l-41 -45l-232 131l-231 -131zM82 997v86h231v-983l117 -14v-86h-244l13 100v881z" />
<glyph horiz-adv-x="512" d="M70 1219v231h98v-231h-98zM82 997v86h231v-983l117 -14v-86h-244l13 100v881zM268 1219v231h101v-231h-101z" />
<glyph horiz-adv-x="512" d="M6 1341l64 115l333 -221l-41 -45zM82 997v86h231v-983l117 -14v-86h-244l13 100v881z" />
<glyph horiz-adv-x="620" d="M16 80q6 0 19.5 -1t29 -2t28.5 -1h16q117 0 170 56t53 173v684l-277 15v79h402l-11 -100v-678q0 -168 -83.5 -245.5t-237.5 -77.5q-23 0 -53.5 2t-38.5 4z" />
<glyph horiz-adv-x="1015" d="M82 997v86h231v-573h9l30 61l416 512h141l-360 -436l346 -547l100 -14v-86h-172l-344 551h-10l-156 -189v-262l103 -14v-86h-230l13 100v881z" />
<glyph horiz-adv-x="817" d="M82 997v86h231v-989h377l21 139h86v-233h-611l13 98v883z" />
<glyph horiz-adv-x="1484" d="M117 997v86h305l315 -909l11 -59h10l10 59l326 909h192l-6 -98l20 -885l117 -14v-86h-231l-15 993h-8l-14 -69l-334 -924h-125l-328 928l-12 67h-8l-33 -895l103 -14v-86h-236l17 98l38 883z" />
<glyph horiz-adv-x="1159" d="M82 997v86h299l467 -977h8l-8 70v807l-98 14v86h225l-12 -98v-985h-185l-465 977h-8l8 -70v-809l99 -12v-86h-226l13 94v887z" />
<glyph horiz-adv-x="1159" d="M82 997v86h299l467 -977h8l-8 70v807l-98 14v86h225l-12 -98v-985h-185l-465 977h-8l8 -70v-809l99 -12v-86h-226l13 94v887zM287 1284l14 84q23 12 45 23q20 8 46 15t54 7q66 0 133.5 -20.5t145.5 -20.5q51 0 109 27l-15 -84q-20 -14 -43 -23q-20 -10 -44.5 -16 t-53.5 -6q-70 0 -138.5 20.5t-142.5 20.5q-53 0 -110 -27z" />
<glyph horiz-adv-x="1079" d="M100 530q0 129 30 234.5t87 180.5t142 116t196 41q106 0 186 -39t132.5 -111.5t79 -174t26.5 -226.5q0 -129 -29.5 -233.5t-88 -179.5t-144.5 -115.5t-199 -40.5q-213 0 -315.5 146t-102.5 402zM219 530q0 -92 16.5 -174t52.5 -144t94 -99t142 -37q86 0 149.5 38 t105.5 103.5t61.5 151.5t19.5 182q0 92 -17.5 175t-55 145.5t-97 99.5t-143.5 37q-90 0 -151.5 -40t-101.5 -106.5t-57.5 -153t-17.5 -178.5z" />
<glyph horiz-adv-x="1079" d="M100 530q0 129 30 234.5t87 180.5t142 116t196 41q106 0 186 -39t132.5 -111.5t79 -174t26.5 -226.5q0 -129 -29.5 -233.5t-88 -179.5t-144.5 -115.5t-199 -40.5q-213 0 -315.5 146t-102.5 402zM219 530q0 -92 16.5 -174t52.5 -144t94 -99t142 -37q86 0 149.5 38 t105.5 103.5t61.5 151.5t19.5 182q0 92 -17.5 175t-55 145.5t-97 99.5t-143.5 37q-90 0 -151.5 -40t-101.5 -106.5t-57.5 -153t-17.5 -178.5zM342 1235l334 221l63 -115l-356 -151z" />
<glyph horiz-adv-x="1079" d="M100 530q0 129 30 234.5t87 180.5t142 116t196 41q106 0 186 -39t132.5 -111.5t79 -174t26.5 -226.5q0 -129 -29.5 -233.5t-88 -179.5t-144.5 -115.5t-199 -40.5q-213 0 -315.5 146t-102.5 402zM219 530q0 -92 16.5 -174t52.5 -144t94 -99t142 -37q86 0 149.5 38 t105.5 103.5t61.5 151.5t19.5 182q0 92 -17.5 175t-55 145.5t-97 99.5t-143.5 37q-90 0 -151.5 -40t-101.5 -106.5t-57.5 -153t-17.5 -178.5zM258 1243l215 189q18 16 34.5 18t22.5 2t22.5 -2t35.5 -18l215 -189l-41 -45l-232 131l-231 -131z" />
<glyph horiz-adv-x="1079" d="M100 530q0 129 30 234.5t87 180.5t142 116t196 41q106 0 186 -39t132.5 -111.5t79 -174t26.5 -226.5q0 -129 -29.5 -233.5t-88 -179.5t-144.5 -115.5t-199 -40.5q-213 0 -315.5 146t-102.5 402zM219 530q0 -92 16.5 -174t52.5 -144t94 -99t142 -37q86 0 149.5 38 t105.5 103.5t61.5 151.5t19.5 182q0 92 -17.5 175t-55 145.5t-97 99.5t-143.5 37q-90 0 -151.5 -40t-101.5 -106.5t-57.5 -153t-17.5 -178.5zM381 1219v231h98v-231h-98zM580 1219v231h100v-231h-100z" />
<glyph horiz-adv-x="1511" d="M100 524q0 274 129 416.5t359 142.5h811v-2l2 2v-233h-86l-21 139h-422v-389h498v-92h-498v-414h437l20 139h86v-233h-878q-215 0 -326 131t-111 393zM217 524q0 -96 17.5 -175t57.5 -136t104.5 -89t160.5 -32h201v899h-154q-104 0 -178 -33.5t-120 -95t-67.5 -147.5 t-21.5 -191z" />
<glyph horiz-adv-x="1079" d="M100 530q0 129 30 234.5t87 180.5t142 116t196 41q106 0 186 -39t132.5 -111.5t79 -174t26.5 -226.5q0 -129 -29.5 -233.5t-88 -179.5t-144.5 -115.5t-199 -40.5q-213 0 -315.5 146t-102.5 402zM219 530q0 -92 16.5 -174t52.5 -144t94 -99t142 -37q86 0 149.5 38 t105.5 103.5t61.5 151.5t19.5 182q0 92 -17.5 175t-55 145.5t-97 99.5t-143.5 37q-90 0 -151.5 -40t-101.5 -106.5t-57.5 -153t-17.5 -178.5zM369 1341l63 115l334 -221l-41 -45z" />
<glyph horiz-adv-x="1079" d="M100 530q0 129 30 234.5t87 180.5t142 116t196 41q129 0 225 -62l78 131h100l-112 -188q66 -72 99.5 -181.5t33.5 -250.5q0 -129 -29.5 -233.5t-88 -179.5t-144.5 -115.5t-199 -40.5q-135 0 -229 63l-76 -127h-100l108 184q-61 72 -91 179.5t-30 248.5zM219 530 q0 -92 16.5 -174t51.5 -145l438 735q-74 61 -178 62q-90 0 -151.5 -40t-101.5 -106.5t-57.5 -152.5t-17.5 -179zM344 139q70 -63 180 -63q86 0 149.5 38t105.5 103.5t61.5 151.5t19.5 182q0 94 -18.5 178t-59.5 148z" />
<glyph horiz-adv-x="1079" d="M100 530q0 129 30 234.5t87 180.5t142 116t196 41q106 0 186 -39t132.5 -111.5t79 -174t26.5 -226.5q0 -129 -29.5 -233.5t-88 -179.5t-144.5 -115.5t-199 -40.5q-213 0 -315.5 146t-102.5 402zM219 530q0 -92 16.5 -174t52.5 -144t94 -99t142 -37q86 0 149.5 38 t105.5 103.5t61.5 151.5t19.5 182q0 92 -17.5 175t-55 145.5t-97 99.5t-143.5 37q-90 0 -151.5 -40t-101.5 -106.5t-57.5 -153t-17.5 -178.5zM252 1286l14 84q23 12 45 23q20 8 46 15t55 7q66 0 133 -20.5t145 -20.5q51 0 109 27l-15 -84q-20 -14 -43 -23q-20 -10 -44.5 -16 t-53.5 -6q-70 0 -138.5 20.5t-142.5 20.5q-53 0 -110 -27z" />
<glyph horiz-adv-x="974" d="M82 997v86h455q86 0 156.5 -18t119.5 -57t77 -100.5t28 -147.5q0 -84 -28 -142.5t-77 -96.5t-116.5 -55t-147.5 -17h-236v-349l103 -14v-86h-228l11 98v883zM313 543h213q135 0 204 48t69 171q0 66 -19.5 109.5t-56.5 69.5t-89 37t-116 11h-205v-446z" />
<glyph horiz-adv-x="1079" d="M100 532q0 264 118 417t339 153q100 0 179 -39t133.5 -111.5t82 -174t27.5 -226.5q0 -221 -81 -361.5t-234 -187.5l73 -203h-102l-68 185q-12 0 -24.5 -1t-24.5 -1q-201 0 -309.5 145t-108.5 405zM219 532q0 -92 17.5 -175t54.5 -145t94 -99t139 -37h15l-70 196h102 l64 -178q119 45 172 170t53 287q0 92 -18.5 175t-56 145.5t-97 99.5t-139.5 37q-90 0 -152.5 -39t-102.5 -103.5t-57.5 -151.5t-17.5 -182z" />
<glyph horiz-adv-x="1040" d="M82 997v86h489q78 0 143.5 -17t112.5 -53t74 -92.5t27 -134.5q0 -113 -50.5 -178t-132.5 -94v-10q29 -14 46.5 -31.5t31 -43.5t23.5 -63.5t26 -93.5l50 -176l82 -10v-86h-181l-80 297q-16 61 -36.5 97t-49 54.5t-69.5 23.5t-101 5h-174v-377l103 -14v-86h-230l13 98v883z M313 571h244q121 0 184.5 55.5t63.5 153.5q0 104 -60.5 156.5t-177.5 52.5h-254v-418z" />
<glyph horiz-adv-x="952" d="M137 10v242h92l23 -160q23 -4 64.5 -9t89.5 -5q53 0 104 10t92 32.5t66.5 59.5t25.5 90q0 45 -20.5 78t-56 59.5t-84 49t-101.5 47.5t-104.5 50.5t-91 61t-64.5 81.5t-25 112q0 78 34 133t90.5 91t128 52.5t149.5 16.5q57 0 121.5 -8.5t122.5 -22.5v-244h-93l-24 168 q-27 4 -65 8.5t-72 4.5q-51 0 -100.5 -10.5t-87.5 -33t-61.5 -58.5t-23.5 -87q0 -43 17.5 -73.5t47 -55t69.5 -45t87 -41.5q61 -29 120 -57.5t105 -65.5t74.5 -85t28.5 -115q0 -80 -37 -136.5t-96 -93.5t-135 -53t-156 -16q-51 0 -116.5 6t-137.5 22z" />
<glyph horiz-adv-x="794" d="M31 850v233h733v-233h-86l-21 139h-202v-989h-127l12 100v889h-203l-20 -139h-86z" />
<glyph horiz-adv-x="960" d="M82 997v86h217v-178h223q86 0 156 -17.5t120 -56t77.5 -99t27.5 -146.5q0 -84 -27.5 -143.5t-76.5 -98.5t-116 -56.5t-146 -17.5h-238v-170l102 -14v-86h-229l12 98v883zM299 365h215q133 0 201.5 50t68.5 173q0 66 -20.5 108.5t-57 68.5t-89 36t-115.5 10h-203v-446z " />
<glyph horiz-adv-x="1116" d="M72 997v86h231v-706q0 -145 55.5 -223t200.5 -78q150 0 214.5 80t64.5 227v600l-111 14v86h225v-714q0 -188 -104.5 -287.5t-292.5 -99.5q-190 0 -278.5 96t-88.5 284v619z" />
<glyph horiz-adv-x="1116" d="M72 997v86h231v-706q0 -145 55.5 -223t200.5 -78q150 0 214.5 80t64.5 227v600l-111 14v86h225v-714q0 -188 -104.5 -287.5t-292.5 -99.5q-190 0 -278.5 96t-88.5 284v619zM362 1235l334 221l64 -115l-357 -151z" />
<glyph horiz-adv-x="1116" d="M72 997v86h231v-706q0 -145 55.5 -223t200.5 -78q150 0 214.5 80t64.5 227v600l-111 14v86h225v-714q0 -188 -104.5 -287.5t-292.5 -99.5q-190 0 -278.5 96t-88.5 284v619zM289 1243l215 189q18 16 34.5 18t22.5 2t22.5 -2t34.5 -18l216 -189l-41 -45l-232 131l-231 -131 z" />
<glyph horiz-adv-x="1116" d="M72 997v86h231v-706q0 -145 55.5 -223t200.5 -78q150 0 214.5 80t64.5 227v600l-111 14v86h225v-714q0 -188 -104.5 -287.5t-292.5 -99.5q-190 0 -278.5 96t-88.5 284v619zM412 1219v231h98v-231h-98zM610 1219v231h101v-231h-101z" />
<glyph horiz-adv-x="1116" d="M72 997v86h231v-706q0 -145 55.5 -223t200.5 -78q150 0 214.5 80t64.5 227v600l-111 14v86h225v-714q0 -188 -104.5 -287.5t-292.5 -99.5q-190 0 -278.5 96t-88.5 284v619zM328 1341l63 115l334 -221l-41 -45z" />
<glyph horiz-adv-x="915" d="M6 997v86h172l250 -909l12 -68h9l12 68l260 809l-76 14v86h232l-355 -1083h-153l-287 987z" />
<glyph horiz-adv-x="1503" d="M6 997v86h172l250 -968h10v63l207 797l12 108h187l219 -905v-63h8l244 868l-96 14v86h245l-313 -1083h-152l-227 920l-10 75h-8l-13 -75l-243 -920h-152l-268 987z" />
<glyph horiz-adv-x="960" d="M18 0l367 559l-252 424l-104 14v86h182l231 -401l29 -66h10l25 64l217 317l41 86h147l-348 -524l273 -461l106 -12v-86h-182l-254 440l-29 72h-8l-25 -72l-229 -342l107 -12v-86h-304z" />
<glyph horiz-adv-x="884" d="M6 997v86h172l234 -503l16 -68h10l15 70l217 395l2 8l-82 12v86h256l-354 -667v-416h-220v86l103 12v318l-273 569z" />
<glyph horiz-adv-x="884" d="M6 997v86h172l234 -503l16 -68h10l15 70l217 395l2 8l-82 12v86h256l-354 -667v-416h-220v86l103 12v318l-273 569zM248 1235l334 221l63 -115l-356 -151z" />
<glyph horiz-adv-x="884" d="M6 997v86h172l234 -503l16 -68h10l15 70l217 395l2 8l-82 12v86h256l-354 -667v-416h-220v86l103 12v318l-273 569zM281 1219v231h98v-231h-98zM479 1219v231h101v-231h-101z" />
<glyph horiz-adv-x="886" d="M86 0v121l545 819l51 39l-4 10h-469l-21 -139h-86v233h680v-118l-544 -820l-48 -43l3 -8h501l21 139h86v-233h-715z" />
<glyph horiz-adv-x="579" d="M41 754q0 61 23.5 100t64.5 61.5t95.5 30.5t113.5 8h78q0 98 -33 141.5t-131 43.5q-16 0 -47 -4.5t-47 -8.5l-15 -92h-61v150q29 6 78 13t92 7q135 0 187.5 -56t52.5 -194v-292l61 -9v-57h-113l-16 86h-8q-61 -98 -195 -98q-82 0 -131 46t-49 124zM119 756 q0 -53 30.5 -80t77.5 -27q104 0 145.5 63.5t43.5 176.5h-62q-47 0 -90 -4t-75.5 -18.5t-51 -41t-18.5 -69.5z" />
<glyph horiz-adv-x="587" d="M74 596l6 68v772h147v-58l-71 -12v-266h8q2 6 13 22.5t30.5 34t51.5 30.5t77 13q102 0 156.5 -68.5t54.5 -181.5q0 -172 -82 -268t-252 -96q-35 0 -69.5 3t-69.5 7zM156 730.5q0 -19.5 1 -40.5t1 -33q12 -2 22 -4t21.5 -2h21.5q70 0 117 22.5t75.5 62.5t41 94.5 t12.5 115.5q0 37 -8 71t-24.5 59.5t-43 42t-63.5 16.5q-47 0 -81 -26t-54.5 -71t-29.5 -108.5t-9 -138.5v-23.5v-37z" />
<glyph horiz-adv-x="489" d="M39 879q0 141 73.5 232t215.5 91q53 0 89 -7t50 -11v-156h-57l-15 100q-10 4 -31.5 6.5t-39.5 2.5q-53 0 -92 -20.5t-66 -56.5t-39 -83t-12 -100q0 -41 11 -82t32.5 -74t54.5 -52.5t74 -19.5q61 0 102 23.5t66 52.5l18 -74q-4 -4 -18.5 -14t-38 -21.5t-56 -20.5t-71.5 -9 q-121 0 -185.5 79.5t-64.5 213.5z" />
<glyph horiz-adv-x="612" d="M41 836q0 172 83 268t247 96h61v170l-76 10v58h158l-8 -72v-707l67 -8v-55h-118l-21 90h-8q-4 -6 -14.5 -22.5t-32 -34t-55 -30.5t-80.5 -13q-98 0 -150.5 68.5t-52.5 181.5zM119 840q0 -35 7 -69t23.5 -60.5t41 -43t59.5 -16.5q53 0 88 25.5t56.5 71t30.5 108t9 137.5 v25.5t-1 38t-1 40v31.5q-10 0 -20 2t-21.5 3.5t-21.5 1.5q-68 0 -115 -22.5t-77 -61.5t-44 -93.5t-14 -117.5z" />
<glyph horiz-adv-x="563" d="M41 881q0 68 17.5 126t50 101t81 68.5t109.5 25.5t104 -21.5t70 -58.5t38 -88t11 -110v-45h-405q0 -123 53 -176.5t166 -53.5q23 0 49.5 3t40.5 10l14 88h54v-146q-14 -4 -38 -8t-47.5 -7t-45 -4t-33.5 -1q-289 0 -289 297zM121 940h313l6 6q0 92 -33.5 141.5 t-105.5 49.5q-156 0 -180 -197z" />
<glyph horiz-adv-x="237" d="M29 1135v57h141v-596h-84l6 72v458zM63 1407l58 57l55 -57l-55 -57z" />
<glyph horiz-adv-x="243" d="M29 1382v56h139v-840h-84l8 72v702z" />
<glyph horiz-adv-x="954" d="M29 1135v55h118l19 -82h8q20 37 61 65.5t107 28.5q61 0 102 -28.5t58 -69.5h8q29 41 68.5 69.5t107.5 28.5q84 0 130 -44t46 -136v-360l66 -9v-57h-146v399q0 70 -23.5 106t-80.5 36q-88 0 -125 -68t-37 -174v-299h-78v399q0 66 -22.5 104t-79.5 38q-90 0 -127 -68 t-37 -174v-299h-78v528z" />
<glyph horiz-adv-x="587" d="M41 887q0 137 69.5 225t194.5 88t183.5 -82t58.5 -221q0 -135 -69.5 -223t-194.5 -88t-183.5 82t-58.5 219zM125 887q0 -45 8 -87t27.5 -74t50.5 -51.5t76 -19.5t78.5 19.5t55 53.5t32 78t10.5 91q0 45 -8.5 88t-27.5 75t-51 51t-77 19t-78 -19t-54.5 -53t-31.5 -78 t-10 -93z" />
<glyph horiz-adv-x="389" d="M31 1135v55h116l13 -86h8q37 59 91 77.5t108 18.5l14 -82q-20 4 -41 4q-51 0 -84 -18.5t-52.5 -50t-27.5 -74.5t-8 -92v-230l53 -8v-53h-129v528z" />
<glyph horiz-adv-x="479" d="M49 604v148h60l14 -97q14 -4 35.5 -5t38.5 -1q31 0 59.5 4t51 16.5t35.5 32t13 50.5q0 45 -44 70.5t-101 49.5q-31 14 -60.5 28.5t-52 34t-36 44.5t-13.5 59q0 45 18.5 76t50.5 50.5t73.5 27.5t87.5 8q25 0 66.5 -3t76.5 -9v-150h-62l-14 95q-16 4 -35.5 5t-36.5 1 q-57 0 -102 -18.5t-45 -73.5q0 -41 38 -63.5t87 -45.5q33 -14 65.5 -30.5t58 -38t42 -49t16.5 -64.5q0 -49 -19.5 -81t-51 -52.5t-75.5 -28.5t-93 -8q-14 0 -34 2t-41.5 4t-40 5t-30.5 7z" />
<glyph horiz-adv-x="337" d="M20 1124v56l78 12l13 131l67 61v-194h131v-66h-131v-356q0 -66 25.5 -91.5t87.5 -25.5q10 0 19 1t14 3l-13 -67q-4 -2 -16 -3t-21 -1q-86 0 -129 41t-43 131v368h-82z" />
<glyph horiz-adv-x="557" d="M49 51q0 141 64.5 227.5t179.5 86.5q111 0 165 -81t54 -223q0 -141 -64.5 -226t-177.5 -85q-111 0 -166 80t-55 221zM113 51q0 -49 8 -95t26.5 -80t49 -54.5t75.5 -20.5q43 0 76 22.5t55.5 58.5t34 83t11.5 96t-9.5 95.5t-29 81t-51 55t-74.5 20.5q-47 0 -79 -22.5 t-53.5 -59t-30.5 -84t-9 -96.5z" />
<glyph horiz-adv-x="503" d="M68 229q47 12 95 43t87 82h76l-19 -542h152v-52h-379v52h166l12 467h-8l-19 -33q-35 -29 -72.5 -47.5t-78.5 -32.5z" />
<glyph horiz-adv-x="516" d="M59 -156q82 55 142.5 97.5t100.5 79t58.5 72.5t18.5 79q0 66 -45 101.5t-129 35.5q-37 0 -70 -6l-14 -98h-53v145q31 10 72.5 14.5t70.5 4.5q47 0 90 -13.5t75 -38t50 -61.5t18 -84q0 -49 -17 -89t-55 -79t-97.5 -82t-141.5 -98v-8h285l63 6v-62h-422v84z" />
<glyph horiz-adv-x="526" d="M51 -174q25 -6 51 -12q23 -4 50.5 -8.5t52.5 -4.5q37 0 71.5 5.5t60 18.5t42 35.5t16.5 55.5q0 35 -16.5 57.5t-42 37t-59 19.5t-66.5 5h-78v53h76q33 0 63.5 5t54 17.5t38 34t14.5 54.5q0 63 -47 88.5t-115 25.5q-23 0 -45 -3t-43 -7l-14 -102h-56v147q23 4 70 11.5 t88 7.5q45 0 86 -9.5t73 -29t50 -51t18 -76.5q0 -94 -94 -133v-9q53 -18 82 -56t29 -93q0 -45 -21.5 -76t-57.5 -50.5t-81 -27.5t-92 -8q-43 0 -86 7t-60 12z" />
<glyph horiz-adv-x="550" d="M61 -49l283 401h90v-413h72v-56h-72v-125h-61v125h-312v68zM113 -53v-8h258v329l12 33h-8l-238 -340z" />
<glyph horiz-adv-x="505" d="M59 -84h54l14 -104q31 -8 74 -9q37 0 71.5 7.5t60 22.5t42 41t16.5 60q0 41 -23.5 68t-59.5 41t-77 19.5t-75 5.5h-58v286h328v-59l-64 6h-202v-180q59 0 113.5 -9.5t95.5 -32t64.5 -58t23.5 -91.5q0 -47 -20.5 -80.5t-54.5 -55t-79 -33t-94 -11.5q-35 0 -72 3t-78 14 v149z" />
<glyph horiz-adv-x="530" d="M47 53q0 137 65.5 224.5t206.5 87.5q35 0 71 -5.5t65 -13.5v-145h-54l-16 104q-12 2 -27.5 3t-33.5 1q-98 0 -151.5 -54t-57.5 -151q41 4 68.5 6.5t54.5 2.5q104 0 176.5 -45t72.5 -140q0 -84 -59 -131t-145 -47q-127 0 -181.5 86t-54.5 217zM111 53q2 -51 10 -96 t27.5 -79t52 -53.5t84.5 -19.5q61 0 100 32t39 89q0 76 -54.5 105.5t-138.5 29.5q-35 0 -63.5 -2t-56.5 -6z" />
<glyph horiz-adv-x="454" d="M23 195v155h391v-74q-72 -72 -113 -139t-63.5 -131.5t-28.5 -124t-6 -112.5v-13h-62v13q0 51 6.5 111.5t27 125t59 133t102.5 140.5l29 10v8h-275l-12 -102h-55z" />
<glyph horiz-adv-x="563" d="M68 -94q0 53 31.5 91t80.5 60v9q-47 20 -72.5 55t-25.5 78q0 78 63.5 120.5t151.5 42.5q86 0 143.5 -41.5t57.5 -115.5q0 -47 -30 -83t-77 -54v-9q111 -47 111 -147q0 -41 -18.5 -71.5t-49.5 -51t-70.5 -31t-82.5 -10.5q-94 0 -153.5 42t-59.5 116zM133 -92q0 -53 42 -80 t106 -27q61 0 108 27t47 80t-43 78.5t-104 42.5l-29 8q-51 -18 -89 -47t-38 -82zM147 207q0 -27 11.5 -44.5t30 -30.5t43 -21.5t51.5 -16.5l28 -8q41 10 81 40t40 81q0 49 -41 75.5t-98 26.5q-53 0 -99.5 -25.5t-46.5 -76.5z" />
<glyph horiz-adv-x="530" d="M39 188q0 84 59.5 131.5t147.5 47.5q125 0 180 -86t55 -218q0 -137 -66.5 -225t-205.5 -88q-82 0 -139 21v145h55l12 -106q14 -2 31.5 -3.5t36.5 -1.5q98 0 151.5 54.5t57.5 150.5q-41 -4 -69 -5t-54 -1q-109 0 -180.5 45t-71.5 139zM104 188q0 -74 54.5 -104.5 t138.5 -30.5q35 0 62.5 3t56.5 7q-2 51 -10.5 96.5t-28 79t-52 53t-83.5 19.5q-61 0 -99.5 -33t-38.5 -90z" />
<glyph horiz-adv-x="358" d="M86 178q0 133 42 235.5t91 186.5l47 -18q-47 -80 -86 -179.5t-39 -224.5q0 -127 39 -223t86 -178l-47 -19q-49 84 -91 186.5t-42 233.5z" />
<glyph horiz-adv-x="358" d="M92 -223q47 82 86 178t39 223q0 125 -39 224.5t-86 179.5l47 18q49 -84 91 -186.5t42 -235.5q0 -131 -42 -233.5t-91 -186.5z" />
<glyph horiz-adv-x="980" d="M70 532q0 127 30.5 232.5t87 180.5t138.5 116t184 41q100 0 176 -38t126 -108.5t74.5 -173t24.5 -229.5q0 -129 -30.5 -233.5t-88 -180.5t-138.5 -116.5t-181 -40.5q-201 0 -302 147t-101 403zM184 532q0 -90 15.5 -173t50.5 -146t91 -100t138 -37q76 0 135.5 41 t99.5 107.5t61.5 152.5t21.5 176q0 88 -16.5 171t-53.5 145.5t-93 100.5t-136 38q-84 0 -143.5 -41t-97.5 -107.5t-55.5 -153t-17.5 -174.5z" />
<glyph horiz-adv-x="829" d="M70 854q90 23 176 79t157 150h140l-35 -987h272v-96h-688v96h301l25 848h-10l-39 -59q-61 -53 -130 -87t-147 -59z" />
<glyph horiz-adv-x="909" d="M88 0v147q150 100 260.5 177t181 145t105.5 132.5t35 141.5q0 119 -83 185.5t-233 66.5q-68 0 -129 -12l-24 -178h-99v262q29 8 63 14t69.5 11.5t69.5 7.5t61 2q86 0 163.5 -23.5t135 -68.5t91 -113t33.5 -154q0 -90 -32.5 -162.5t-101 -143t-176 -149.5t-257.5 -179 l2 -11h518l115 13v-111h-768z" />
<glyph horiz-adv-x="921" d="M78 125q45 -14 94 -23q41 -10 89 -16t95 -6q66 0 128.5 10t110.5 33.5t76.5 63.5t28.5 100q0 63 -28.5 104t-75.5 65.5t-106.5 35t-120.5 10.5h-144v94h140q59 0 114.5 10t97 33t67.5 61.5t26 98.5q0 55 -22.5 95t-62.5 64.5t-93.5 36t-114.5 11.5q-41 0 -82 -6.5 t-78 -14.5l-24 -182h-99v264q20 4 53 10t72 11.5t80 9.5t78 4q82 0 156.5 -16.5t131 -52.5t90 -92t33.5 -138q0 -84 -39.5 -145.5t-127.5 -98.5v-10q94 -35 146 -103.5t52 -169.5q0 -82 -40 -138t-104.5 -91t-145 -50t-164.5 -15q-41 0 -82 4t-77 9t-64.5 10t-43.5 9z" />
<glyph horiz-adv-x="927" d="M39 229v121l512 733h166v-755h131v-99h-129v-229h-113v229h-567zM131 328h471v604l16 59h-10l-430 -622l-47 -31v-10z" />
<glyph horiz-adv-x="890" d="M92 10v275h98l25 -193q61 -12 133 -12q68 0 131.5 13t111.5 42t76.5 74t28.5 108q0 76 -43 123t-107.5 74t-139 36t-140.5 9h-104v524h598v-108l-115 12h-369v-330q109 0 207.5 -17t172 -57t116.5 -106.5t43 -165.5q0 -84 -37 -146.5t-98.5 -103.5t-142 -60t-170.5 -19 q-66 0 -132.5 6t-142.5 22z" />
<glyph horiz-adv-x="944" d="M76 535q0 125 29.5 228t90 179t153.5 118t220 42q68 0 133.5 -10.5t118.5 -24.5v-264h-98l-27 190q-25 4 -55.5 7.5t-65.5 3.5q-178 0 -273 -100.5t-103 -274.5q72 8 124 11t99 3q96 0 180 -20.5t145.5 -62.5t96.5 -105.5t35 -147.5q0 -76 -29 -136t-79 -102 t-119.5 -64.5t-149.5 -22.5q-115 0 -196 42t-132 115.5t-74.5 175t-23.5 220.5zM193 532q2 -92 17 -174t50 -144t95.5 -98t154.5 -36q113 0 182.5 59.5t69.5 163.5q0 68 -26.5 115t-74 75.5t-112 42t-139.5 13.5q-61 0 -113.5 -4t-103.5 -13z" />
<glyph horiz-adv-x="792" d="M39 801v282h713v-135q-129 -129 -204 -253t-115 -240.5t-51 -225t-11 -206.5v-23h-115v23q0 96 12.5 204.5t49 226t106.5 243.5t186 255l54 27v10h-502l-25 -188h-98z" />
<glyph horiz-adv-x="980" d="M100 268q0 96 60.5 169t152.5 116v8q-86 35 -136 99.5t-50 144.5q0 72 30.5 127t85 93t126 57.5t151.5 19.5q78 0 144.5 -19.5t114.5 -57.5t76 -91t28 -121q0 -84 -56.5 -152.5t-142.5 -103.5v-8q102 -45 155.5 -111.5t53.5 -158.5q0 -76 -34 -131.5t-89 -92.5t-129 -55 t-154 -18q-84 0 -155.5 19t-122.5 56t-80 90.5t-29 120.5zM219 272q0 -94 76 -144t192 -50q55 0 107.5 12t91.5 37t62.5 61.5t23.5 85.5q0 47 -21.5 82t-57.5 60.5t-85 44t-104 33.5l-53 14q-47 -16 -88 -37.5t-74 -49.5t-51.5 -65t-18.5 -84zM248 819q0 -47 20.5 -80.5 t54 -56.5t77.5 -39t92 -29l53 -16q37 10 75.5 28.5t71.5 46t53.5 63.5t20.5 83q0 43 -20.5 78t-55.5 59.5t-81 37t-97 12.5q-49 0 -96 -11.5t-84 -35t-60.5 -58.5t-23.5 -82z" />
<glyph horiz-adv-x="944" d="M66 776q0 76 28.5 136.5t78.5 102.5t119.5 64.5t149.5 22.5q115 0 196 -42t132 -116t74.5 -175t23.5 -220q0 -125 -29.5 -229.5t-90 -179t-153.5 -116.5t-220 -42q-70 0 -137.5 9t-114.5 25v265h98l25 -191q57 -10 123 -10q178 0 273 100.5t103 274.5q-72 -8 -124 -11.5 t-99 -3.5q-96 0 -180 20.5t-145.5 62.5t-96 105.5t-34.5 147.5zM182 780q0 -68 27 -115t74 -75.5t111.5 -41.5t140.5 -13q61 0 113 4t104 12q-4 92 -18.5 174t-49.5 144.5t-95.5 98.5t-154.5 36q-113 0 -182.5 -60t-69.5 -164z" />
<glyph horiz-adv-x="557" d="M49 236q0 141 64.5 227t179.5 86q111 0 165 -81t54 -222t-64.5 -226.5t-177.5 -85.5q-111 0 -166 80.5t-55 221.5zM113 236q0 -49 8 -95.5t26.5 -80t49 -54t75.5 -20.5q43 0 76 22.5t55.5 58t34 83t11.5 96.5t-9.5 95t-29 81t-51 55.5t-74.5 20.5q-47 0 -79 -22.5 t-53.5 -59.5t-30.5 -84t-9 -96z" />
<glyph horiz-adv-x="503" d="M68 414q47 12 95 42.5t87 82.5h76l-19 -543h152v-51h-379v51h166l12 467h-8l-19 -33q-35 -29 -72.5 -47t-78.5 -33z" />
<glyph horiz-adv-x="516" d="M59 29q82 55 142.5 97t100.5 79t58.5 72.5t18.5 78.5q0 66 -45 102t-129 36q-37 0 -70 -7l-14 -98h-53v146q31 10 72.5 14t70.5 4q47 0 90 -13.5t75 -38t50 -61.5t18 -84q0 -49 -17 -89t-55 -78.5t-97.5 -82t-141.5 -98.5v-8h285l63 6v-61h-422v84z" />
<glyph horiz-adv-x="526" d="M51 10q25 -6 51 -12q23 -4 50.5 -8t52.5 -4q37 0 71.5 5t60 18.5t42 36t16.5 54.5q0 35 -16.5 57.5t-42 37t-59 19.5t-66.5 5h-78v53h76q33 0 63.5 5.5t54 17.5t38 33.5t14.5 54.5q0 63 -47 89t-115 26q-23 0 -45 -3t-43 -8l-14 -102h-56v147q23 4 70 11.5t88 7.5 q45 0 86 -9.5t73 -28.5t50 -51t18 -77q0 -94 -94 -133v-8q53 -18 82 -56t29 -94q0 -45 -21.5 -75.5t-57.5 -50t-81 -28t-92 -8.5q-43 0 -86 7.5t-60 11.5z" />
<glyph horiz-adv-x="550" d="M61 68v67l283 402h90v-414h72v-55h-72v-125h-61v125h-312zM113 123h258v330l12 32h-8l-238 -340l-24 -14v-8z" />
<glyph horiz-adv-x="505" d="M59 -49v149h54l14 -104q31 -8 74 -8q37 0 71.5 7t60 22.5t42 41t16.5 60.5q0 41 -23.5 67.5t-59.5 41t-77 19.5t-75 5h-58v287h328v-60l-64 6h-202v-180q59 0 113.5 -9t95.5 -31.5t64.5 -58.5t23.5 -91q0 -47 -20.5 -81t-54.5 -55.5t-79 -33t-94 -11.5q-35 0 -72 3.5 t-78 13.5z" />
<glyph horiz-adv-x="530" d="M47 238q0 137 65.5 224t206.5 87q35 0 71 -5t65 -14v-145h-54l-16 104q-12 2 -27.5 3.5t-33.5 1.5q-98 0 -151.5 -54.5t-57.5 -150.5q41 4 68.5 6t54.5 2q104 0 176.5 -45t72.5 -139q0 -84 -59 -131.5t-145 -47.5q-127 0 -181.5 86t-54.5 218zM111 238q2 -51 10 -96.5 t27.5 -79t52 -53t84.5 -19.5q61 0 100 32t39 89q0 76 -54.5 105.5t-138.5 29.5q-35 0 -63.5 -2t-56.5 -6z" />
<glyph horiz-adv-x="454" d="M23 379v156h391v-74q-72 -72 -113 -139.5t-63.5 -132t-28.5 -124t-6 -112.5v-12h-62v12q0 51 6.5 111.5t27 125t59 133t102.5 140.5l29 10v8h-275l-12 -102h-55z" />
<glyph horiz-adv-x="563" d="M68 90q0 53 31.5 91t80.5 61v8q-47 20 -72.5 55t-25.5 78q0 78 63.5 121t151.5 43q86 0 143.5 -42t57.5 -116q0 -47 -30 -83t-77 -54v-8q111 -47 111 -148q0 -41 -18.5 -71.5t-49.5 -51t-70.5 -31t-82.5 -10.5q-94 0 -153.5 42t-59.5 116zM133 92q0 -53 42 -79.5 t106 -26.5q61 0 108 26.5t47 79.5t-43 79t-104 42l-29 8q-51 -18 -89 -47t-38 -82zM147 391q0 -27 11.5 -44t30 -30.5t43 -21.5t51.5 -16l28 -9q41 10 81 40t40 81q0 49 -41 76t-98 27q-53 0 -99.5 -26t-46.5 -77z" />
<glyph horiz-adv-x="530" d="M39 373q0 84 59.5 131t147.5 47q125 0 180 -86t55 -217q0 -137 -66.5 -225.5t-205.5 -88.5q-82 0 -139 21v145h55l12 -106q14 -2 31.5 -3t36.5 -1q98 0 151.5 54t57.5 151q-41 -4 -69 -5.5t-54 -1.5q-109 0 -180.5 45.5t-71.5 139.5zM104 373q0 -74 54.5 -104.5 t138.5 -30.5q35 0 62.5 3t56.5 7q-2 51 -10.5 96t-28 79t-52 53.5t-83.5 19.5q-61 0 -99.5 -33t-38.5 -90z" />
<glyph horiz-adv-x="557" d="M49 887q0 141 64.5 227t179.5 86q111 0 165 -81t54 -222t-64.5 -226t-177.5 -85q-111 0 -166 80t-55 221zM113 887q0 -49 8 -95.5t26.5 -80t49 -54t75.5 -20.5q43 0 76 22.5t55.5 58.5t34 83t11.5 96t-9.5 95t-29 81t-51 55.5t-74.5 20.5q-47 0 -79 -22.5t-53.5 -59.5 t-30.5 -84t-9 -96z" />
<glyph horiz-adv-x="503" d="M68 1065q47 12 95 43t87 82h76l-19 -543h152v-51h-379v51h166l12 467h-8l-19 -33q-35 -29 -72.5 -47t-78.5 -33z" />
<glyph horiz-adv-x="516" d="M59 594v84q82 55 142.5 97t100.5 79t58.5 73t18.5 79q0 66 -45 101.5t-129 35.5q-37 0 -70 -6l-14 -99h-53v146q31 10 72.5 14t70.5 4q47 0 90 -13t75 -38t50 -61.5t18 -83.5q0 -49 -17 -89t-55 -79t-97.5 -82t-141.5 -99v-8h285l63 6v-61h-422z" />
<glyph horiz-adv-x="526" d="M53 659q25 -6 51 -12q23 -4 50.5 -8t52.5 -4q37 0 71.5 5t60.5 18.5t42 36t16 55.5q0 35 -16 57t-42 36.5t-59.5 19.5t-66.5 5h-78v54h76q33 0 63.5 5t54 17t38 33.5t14.5 54.5q0 63 -47 89t-115 26q-23 0 -45 -3t-43 -7l-14 -103h-56v148q23 4 70 11t88 7q45 0 86 -9 t73 -28.5t50 -51.5t18 -77q0 -94 -94 -133v-8q53 -18 82 -56t29 -94q0 -45 -21.5 -75.5t-57.5 -50t-81 -27.5t-92 -8q-43 0 -86 7t-59 11z" />
<glyph horiz-adv-x="550" d="M61 721v67l283 402h90v-414h72v-55h-72v-125h-61v125h-312zM113 776h258v330l12 33h-8l-238 -340l-24 -15v-8z" />
<glyph horiz-adv-x="505" d="M59 602v150h54l14 -105q31 -8 74 -8q37 0 71.5 7t60 22.5t42 41t16.5 60.5q0 41 -23.5 67.5t-59.5 41t-77 19.5t-75 5h-58v287h328v-60l-64 7h-202v-181q59 0 113.5 -9t95.5 -31.5t64.5 -58.5t23.5 -91q0 -47 -20.5 -81t-54.5 -55.5t-79 -32.5t-94 -11q-35 0 -72 3 t-78 13z" />
<glyph horiz-adv-x="530" d="M47 889q0 137 65.5 224t206.5 87q35 0 71 -5t65 -13v-146h-54l-16 105q-12 2 -27.5 3t-33.5 1q-98 0 -151.5 -54.5t-57.5 -150.5q41 4 68.5 6t54.5 2q104 0 176.5 -45t72.5 -139q0 -84 -59 -131t-145 -47q-127 0 -181.5 86t-54.5 217zM111 889q2 -51 10 -96t27.5 -79 t52 -53.5t84.5 -19.5q61 0 100 32t39 89q0 76 -54.5 105.5t-138.5 29.5q-35 0 -63.5 -2t-56.5 -6z" />
<glyph horiz-adv-x="454" d="M23 1034v156h391v-74q-72 -72 -113 -139.5t-63.5 -132t-28.5 -123.5t-6 -113v-12h-62v12q0 51 6.5 111.5t27 125t59 133.5t102.5 140l29 10v9h-275l-12 -103h-55z" />
<glyph horiz-adv-x="563" d="M68 745q0 53 31.5 91t80.5 61v8q-47 20 -72.5 55t-25.5 78q0 78 63.5 121t151.5 43q86 0 143.5 -42t57.5 -116q0 -47 -30 -82.5t-77 -54.5v-8q111 -47 111 -147q0 -41 -18.5 -72t-49.5 -51.5t-70.5 -30.5t-82.5 -10q-94 0 -153.5 42t-59.5 115zM133 748q0 -53 42 -80 t106 -27q61 0 108 26.5t47 80.5q0 53 -43 78.5t-104 41.5l-29 9q-51 -18 -89 -47t-38 -82zM147 1047q0 -27 11.5 -44.5t30 -31t43 -21.5t51.5 -16l28 -8q41 10 81 39.5t40 81.5q0 49 -41 75.5t-98 26.5q-53 0 -99.5 -25.5t-46.5 -76.5z" />
<glyph horiz-adv-x="530" d="M39 1022q0 84 59.5 131t147.5 47q125 0 180 -86t55 -217q0 -137 -66.5 -225t-205.5 -88q-82 0 -139 20v146h55l12 -107q14 -2 31.5 -3t36.5 -1q98 0 151.5 54.5t57.5 150.5q-41 -4 -69 -5t-54 -1q-109 0 -180.5 45t-71.5 139zM104 1022q0 -74 54.5 -104.5t138.5 -30.5 q35 0 62.5 3t56.5 7q-2 51 -10.5 96t-28 79t-52 53.5t-83.5 19.5q-61 0 -99.5 -33t-38.5 -90z" />
<glyph horiz-adv-x="368" d="M125 1235q0 37 19.5 58.5t50.5 21.5q33 0 51 -21.5t18 -58.5q1 -82 -69 -82q-31 0 -50.5 21.5t-19.5 60.5z" />
<glyph horiz-adv-x="1173" d="M104 305q0 102 40 173t112 132q-47 66 -64.5 115t-17.5 104t21.5 105.5t60.5 87.5t93 58.5t122 21.5q111 0 186.5 -50.5t75.5 -160.5h336l109 6l-15 -96h-211q-4 -164 -21.5 -316.5t-78.5 -275.5q49 -35 109.5 -66.5t105.5 -52.5l-27 -108q-41 16 -108.5 52t-140.5 83 q-53 -61 -136.5 -98t-189.5 -37q-74 0 -139.5 22.5t-114.5 63.5t-78 101t-29 136zM215 319q0 -51 19.5 -96t54.5 -77.5t80 -51t98 -18.5q137 0 233 98q-51 35 -106 80t-107.5 93t-96.5 95t-75 84q-100 -80 -100 -207zM285 829q0 -53 38.5 -122.5t105.5 -144.5t153 -151.5 t178 -142.5q25 49 41 111.5t24.5 131.5t11.5 142.5t3 147.5h-217q2 12 3 27.5t1 31.5q0 147 -158 148q-78 0 -131 -46.5t-53 -132.5z" />
</font>
</defs>
</svg>
