<?xml version="1.0" standalone="no"?>
<!DOCTYPE svg PUBLIC "-//W3C//DTD SVG 1.1//EN" "http://www.w3.org/Graphics/SVG/1.1/DTD/svg11.dtd" >
<svg xmlns="http://www.w3.org/2000/svg">
<metadata></metadata>
<defs>
<font id="distefanoslablight_italic" horiz-adv-x="964" >
<font-face units-per-em="2048" ascent="1536" descent="-512" />
<missing-glyph horiz-adv-x="395" />
<glyph unicode="&#xfb00;" horiz-adv-x="1019" d="M-170 -254q20 -4 49 -4q90 0 144.5 45t64.5 137l117 959h-129l10 73l129 21l16 135q16 135 100.5 212t223.5 77q12 0 29.5 -1t27.5 -3v-99q-10 2 -26.5 3.5t-32.5 1.5q-219 0 -219 -252v-29.5t2 -24.5q0 -10 2 -20h358l17 135q16 135 100 212t223 77q12 0 29.5 -1 t28.5 -3v-99q-10 2 -26.5 3.5t-33.5 1.5q-219 0 -219 -252v-29.5t2 -24.5q0 -10 2 -20h211l-10 -94h-223l-119 -975q-16 -127 -103.5 -196.5t-216.5 -69.5q-12 0 -26.5 1t-20.5 3v100q20 -4 49 -4q90 0 144.5 45t64.5 137l117 959h-371l-118 -975q-16 -127 -103.5 -196.5 t-216.5 -69.5q-12 0 -26.5 1t-20.5 3v100z" />
<glyph unicode="&#xfb01;" horiz-adv-x="913" d="M-170 -254q20 -4 49 -4q90 0 144.5 45t64.5 137l117 959h-129l10 73l129 21l16 135q16 135 100.5 212t223.5 77q12 0 29.5 -1t27.5 -3v-99q-10 2 -26.5 3.5t-32.5 1.5q-219 0 -219 -252v-29.5t2 -24.5q0 -10 2 -20h471l-109 -877l99 -14l-11 -86q-14 -4 -39.5 -12 t-56.5 -8q-59 0 -79.5 33.5t-20.5 88.5q0 12 4 51.5t10 96.5t14.5 125.5t18.5 140.5q23 164 49 367h-373l-118 -975q-16 -127 -103.5 -196.5t-216.5 -69.5q-12 0 -26.5 1t-20.5 3v100zM678 1298l113 103l88 -103l-115 -108z" />
<glyph unicode="&#xfb02;" horiz-adv-x="913" d="M-170 -254q20 -4 49 -4q90 0 144.5 45t64.5 137l117 959h-129l10 73l129 21l16 135q16 135 108.5 212t256.5 77q78 0 137.5 -9.5t124.5 -19.5l-156 -1272l99 -14l-10 -86q-14 -4 -40 -12t-57 -8q-59 0 -79.5 33.5t-20.5 88.5q0 12 6 68.5t16.5 142.5t22.5 192.5t27 215.5 q31 256 71 573q-27 4 -59.5 7.5t-95.5 3.5q-248 0 -248 -254v-29.5t2 -24.5q0 -10 2 -20h211l-10 -94h-224l-118 -975q-16 -127 -103.5 -196.5t-216.5 -69.5q-12 0 -26.5 1t-20.5 3v100z" />
<glyph unicode="&#xfb03;" horiz-adv-x="1388" d="M-170 -254q20 -4 49 -4q90 0 144.5 45t64.5 137l117 959h-129l10 73l129 21l16 135q16 135 100.5 212t223.5 77q12 0 29.5 -1t27.5 -3v-99q-10 2 -26.5 3.5t-32.5 1.5q-219 0 -219 -252v-29.5t2 -24.5q0 -10 2 -20h360l17 135q16 135 100 212t223 77q12 0 29.5 -1 t28.5 -3v-99q-10 2 -26.5 3.5t-33.5 1.5q-219 0 -219 -252v-29.5t2 -24.5q0 -10 2 -20h463l-108 -877l98 -14l-10 -86q-14 -4 -40 -12t-57 -8q-59 0 -79.5 33.5t-20.5 88.5q0 12 4 51.5t10 96.5t14.5 125.5t18.5 140.5q23 164 49 367h-364l-119 -975q-16 -127 -103.5 -196.5 t-216.5 -69.5q-12 0 -26.5 1t-20.5 3v100q20 -4 49 -4q90 0 144.5 45t64.5 137l117 959h-373l-118 -975q-16 -127 -103.5 -196.5t-216.5 -69.5q-12 0 -26.5 1t-20.5 3v100zM1151 1298l115 103l88 -103l-115 -108z" />
<glyph unicode="&#xfb04;" horiz-adv-x="1388" d="M-170 -254q20 -4 49 -4q90 0 144.5 45t64.5 137l117 959h-129l10 73l129 21l16 135q16 135 100.5 212t223.5 77q12 0 29.5 -1t27.5 -3v-99q-10 2 -26.5 3.5t-32.5 1.5q-219 0 -219 -252v-29.5t2 -24.5q0 -10 2 -20h360l17 135q16 135 104 212t252 77q78 0 137.5 -9.5 t124.5 -19.5l-155 -1272l98 -14l-10 -86q-14 -4 -40 -12t-57 -8q-59 0 -79.5 33.5t-20.5 88.5q0 12 6 68.5t16.5 142.5t22.5 192.5t27 215.5q31 256 71 573q-27 4 -59.5 7.5t-95.5 3.5q-123 0 -181.5 -62.5t-58.5 -191.5v-29.5t2 -24.5q0 -10 2 -20h211l-10 -94h-223 l-119 -975q-16 -127 -103.5 -196.5t-216.5 -69.5q-12 0 -26.5 1t-20.5 3v100q20 -4 49 -4q90 0 144.5 45t64.5 137l117 959h-373l-118 -975q-16 -127 -103.5 -196.5t-216.5 -69.5q-12 0 -26.5 1t-20.5 3v100z" />
<glyph horiz-adv-x="0" />
<glyph unicode="&#xd;" horiz-adv-x="395" />
<glyph unicode=" "  horiz-adv-x="395" />
<glyph unicode="&#x09;" horiz-adv-x="395" />
<glyph unicode="&#xa0;" horiz-adv-x="395" />
<glyph unicode="!" horiz-adv-x="471" d="M96 53q0 43 21.5 66.5t54.5 23.5q29 0 45 -19.5t16 -49.5q0 -37 -16 -64.5t-57 -27.5q-29 0 -46.5 19t-17.5 52zM152 297l157 999h117l-174 -999h-100z" />
<glyph unicode="&#x22;" horiz-adv-x="540" d="M139 731l56 459h75l-55 -459h-76zM356 731l56 459h75l-55 -459h-76z" />
<glyph unicode="#" d="M41 313l6 60h168l127 401h-209l8 60h219l111 356h68l-111 -356h246l110 356h68l-111 -356h174l-8 -60h-184l-123 -401h223l-6 -60h-235l-99 -313h-69l98 313h-244l-96 -313h-72l99 313h-158zM285 373h243l127 401h-245z" />
<glyph unicode="$" d="M72 14l43 246h86v-168q33 -6 70.5 -11t80.5 -5q53 0 107.5 10t98.5 34.5t71.5 63.5t27.5 97q0 57 -34.5 96t-88 69.5t-114 60.5t-113.5 68.5t-88 90t-35 129.5q0 74 29 128t77 91t108.5 58.5t123.5 27.5l25 196h67l-22 -192h14q72 0 135.5 -11.5t118.5 -23.5l-43 -244 h-86v168q-27 4 -63.5 9.5t-71.5 5.5q-53 0 -105.5 -9.5t-93.5 -33t-67.5 -62.5t-26.5 -96t36 -96t88 -70t114.5 -59.5t115 -65.5t88 -88t35.5 -127t-27.5 -130t-74.5 -92t-107.5 -59.5t-126.5 -31.5l-24 -201h-68l25 195h-29q-78 0 -146.5 9t-129.5 23z" />
<glyph unicode="%" horiz-adv-x="1112" d="M94 840q0 170 75 265t196 95q94 0 145 -67.5t51 -178.5q0 -174 -72.5 -271t-193.5 -97q-96 0 -148.5 68.5t-52.5 185.5zM96 0l838 1190h78l-838 -1190h-78zM174 838q0 -76 29.5 -131.5t97.5 -55.5q45 0 79 27t57.5 68.5t34.5 95t11 108.5q0 74 -29.5 130.5t-95.5 56.5 q-49 0 -83.5 -28t-57 -71t-33 -96t-10.5 -104zM547 244q0 170 74.5 265t195.5 95q94 0 145.5 -67.5t51.5 -178.5q0 -174 -73 -271t-193 -97q-96 0 -148.5 68.5t-52.5 185.5zM627 242q0 -76 29.5 -131.5t97.5 -55.5q45 0 78.5 27t57 69t35 95t11.5 108q0 74 -29.5 130.5 t-95.5 56.5q-49 0 -84 -28t-57.5 -71t-32.5 -96t-10 -104z" />
<glyph unicode="&#x26;" horiz-adv-x="1247" d="M63 303q0 123 57.5 210t149.5 155q-35 55 -49 107t-14 99q0 72 24.5 133.5t68.5 105.5t107.5 69.5t143.5 25.5q55 0 103 -13t84 -42t57.5 -72t21.5 -104h361l118 12l-41 -110h-215q-23 -193 -62.5 -353.5t-123.5 -296.5q70 -47 121 -75.5t96 -51.5l-45 -120 q-41 16 -109.5 56t-140.5 91q-66 -68 -153.5 -107.5t-204.5 -39.5q-74 0 -138.5 22.5t-112.5 64.5t-76 101t-28 133zM186 319q0 -53 19.5 -96t52.5 -73.5t78 -48t96 -17.5q139 0 256 109q-49 37 -102.5 87t-102.5 102t-91 103.5t-68 92.5q-59 -47 -98.5 -114t-39.5 -145z M328 897q0 -61 35.5 -137t95 -156t138.5 -159.5t165 -149.5q76 117 107.5 268.5t50.5 315.5h-232q4 12 8 36.5t4 45.5q0 72 -43 107.5t-120 35.5q-84 0 -146.5 -52.5t-62.5 -154.5z" />
<glyph unicode="'" horiz-adv-x="325" d="M139 731l56 459h75l-55 -459h-76z" />
<glyph unicode="(" horiz-adv-x="466" d="M76 367q0 125 21.5 231.5t61.5 204.5t97 192.5t129 192.5l47 -35q-55 -78 -107.5 -162t-93.5 -180t-65.5 -206.5t-24.5 -239.5q0 -162 39 -293t90 -242l-57 -35q-53 117 -95 258.5t-42 313.5z" />
<glyph unicode=")" horiz-adv-x="466" d="M2 -170q55 76 107.5 161t93.5 181t65.5 206.5t24.5 239.5q0 162 -39 293t-90 242l57 35q53 -117 95 -258.5t42 -313.5q0 -125 -21.5 -231t-61 -204.5t-97 -192.5t-129.5 -193z" />
<glyph unicode="*" horiz-adv-x="749" d="M100 774l246 137l-213 136l37 49l213 -135l35 272h55l-35 -272l248 135l21 -49l-250 -136l217 -137l-33 -47l-215 133l-33 -270h-55l33 270l-246 -133z" />
<glyph unicode="+" d="M86 565l8 62h357l45 358h65l-45 -358h358l-8 -62h-358l-45 -381h-66l45 381h-356z" />
<glyph unicode="," horiz-adv-x="360" d="M4 -170l88 168q-18 4 -27.5 22.5t-9.5 40.5q0 33 18.5 66t59.5 33q29 0 45.5 -20.5t16.5 -51.5q0 -35 -13.5 -65.5t-36.5 -65.5l-88 -131z" />
<glyph unicode="-" horiz-adv-x="688" d="M94 461l8 61h439l-9 -61h-438z" />
<glyph unicode="." horiz-adv-x="360" d="M53 53q0 43 21.5 66.5t54.5 23.5q29 0 45 -19.5t16 -49.5q0 -37 -16 -64.5t-57 -27.5q-29 0 -46.5 19t-17.5 52z" />
<glyph unicode="/" horiz-adv-x="651" d="M-14 0l608 1190h70l-609 -1190h-69z" />
<glyph unicode="0" d="M55 442q0 174 35 315.5t100.5 242t158.5 154.5t208 54q176 0 261 -121.5t85 -334.5q0 -174 -34.5 -316.5t-100.5 -243t-158 -155.5t-207 -55q-176 0 -262 122.5t-86 337.5zM168 451q0 -78 13.5 -144.5t42 -117t74.5 -79t114 -28.5q92 0 162.5 58.5t117.5 151.5 t71.5 208.5t24.5 230.5q0 78 -13 147.5t-43 121t-76 81t-113 29.5q-96 0 -167 -60.5t-117 -155.5t-68.5 -212.5t-22.5 -230.5z" />
<glyph unicode="1" d="M86 0l12 98h295l131 961h-10l-43 -70q-70 -53 -140.5 -86t-148.5 -57l-12 115q92 23 183 79t171 150h138l-156 -1092h285l-13 -98h-692z" />
<glyph unicode="2" d="M37 0l18 154q166 123 290 216t205 175t122 157.5t41 161.5q0 100 -69 170t-210 70q-31 0 -67.5 -3t-71.5 -9l-27 -183h-84v262q63 16 127 26.5t135 10.5q86 0 156 -23.5t121 -68.5t78.5 -107.5t27.5 -138.5q0 -96 -40.5 -183t-123.5 -176t-210 -186.5t-297 -215.5l2 -11 h528l113 11l-13 -109h-751z" />
<glyph unicode="3" d="M57 12v111q37 -12 80 -21q37 -8 83 -14t97 -6q68 0 133.5 13.5t118 43t84 77.5t31.5 120q0 57 -25.5 99t-68.5 67.5t-97.5 38t-111.5 12.5h-135l12 100h115q61 0 123.5 11.5t112.5 40t82 76.5t32 122q0 104 -78 155.5t-188 51.5q-41 0 -85 -5t-83 -13l-25 -183h-86v265 q47 10 124 22t161 12q76 0 143.5 -18.5t119.5 -55t83 -94t31 -135.5q0 -100 -58.5 -183t-160.5 -116l-3 -6q80 -33 132.5 -103.5t52.5 -158.5q0 -100 -42 -169t-110.5 -110t-154.5 -59t-174 -18t-162 12t-103 18z" />
<glyph unicode="4" d="M39 252l16 131l607 807h157l-102 -840h127l-13 -98h-124l-31 -252h-111l31 252h-557zM141 350h465l82 674l23 63h-11l-510 -696l-49 -31v-10z" />
<glyph unicode="5" d="M49 12l51 287h84v-205q33 -6 65 -10t66 -4q70 0 134.5 17.5t114.5 52t81 90t31 129.5q0 72 -35 120t-91 75.5t-126 38.5t-139 11h-109l70 576h596l-13 -107l-112 11h-371l-45 -379q102 0 192.5 -18.5t157 -59.5t105.5 -104.5t39 -153.5q0 -102 -40 -177t-105.5 -124 t-152.5 -72.5t-180 -23.5q-98 0 -158.5 9t-109.5 21z" />
<glyph unicode="6" d="M90 459q0 168 33 306t100.5 236.5t171 152.5t244.5 54q59 0 134 -12t134 -31l-53 -260h-84v189q-27 6 -67.5 10t-71.5 4q-174 0 -270.5 -111.5t-129.5 -316.5q53 10 109.5 16t103.5 6q88 0 164 -19t131.5 -60t87 -102.5t31.5 -145.5q0 -94 -28.5 -168t-79 -124 t-121 -75.5t-154.5 -25.5q-98 0 -171 33.5t-121 96t-70.5 150.5t-22.5 197zM209 461q0 -78 13.5 -147.5t45 -122t86 -82t133.5 -29.5q113 0 184.5 77.5t71.5 204.5q0 66 -25.5 112t-68.5 75t-102.5 42t-126.5 13q-59 0 -107.5 -6t-97.5 -16q-6 -61 -6 -121z" />
<glyph unicode="7" d="M168 909v281h743l-18 -148q-143 -141 -236.5 -279t-152 -269.5t-87 -253t-40.5 -228.5v-12h-111v14q12 104 42 226t85.5 253.5t142.5 271.5t218 282l57 34v11h-532l-27 -183h-84z" />
<glyph unicode="8" d="M57 262q0 121 72 209t178 141v9q-70 35 -110.5 101t-40.5 144q0 84 34.5 148.5t93 107.5t132 64.5t153.5 21.5q72 0 132.5 -19.5t104.5 -56t68.5 -88t24.5 -114.5q0 -57 -19.5 -106.5t-52 -89.5t-75.5 -70.5t-90 -51.5l-3 -8q86 -47 132.5 -116.5t46.5 -155.5 q0 -92 -39 -157.5t-101.5 -108.5t-141.5 -63.5t-159 -20.5q-76 0 -138 19t-107.5 56t-70 88.5t-24.5 116.5zM174 279q0 -92 65.5 -144.5t170.5 -52.5q55 0 110 14.5t98.5 43t71 72.5t27.5 103q0 90 -66.5 143.5t-171.5 90.5l-51 18q-47 -18 -92 -43.5t-81 -61.5t-58.5 -81 t-22.5 -102zM274 889q0 -45 18.5 -80t48.5 -60.5t69 -44t79 -32.5l50 -17q43 14 87 38t78.5 57.5t56 75.5t21.5 96q0 90 -65.5 137t-163.5 47q-49 0 -99.5 -12.5t-90 -39t-64.5 -67.5t-25 -98z" />
<glyph unicode="9" d="M53 25l53 260h84v-189q27 -6 68 -10t72 -4q174 0 270 111.5t129 316.5q-53 -10 -109.5 -16.5t-103.5 -6.5q-88 0 -164 19.5t-131 60.5t-87 102.5t-32 145.5q0 94 29 168t79 124t120.5 75.5t154.5 25.5q98 0 171 -33.5t121 -96t70.5 -150.5t22.5 -197q0 -168 -32.5 -306 t-100 -236.5t-171 -152.5t-244.5 -54q-59 0 -134 12t-135 31zM217 827q0 -66 25.5 -111.5t68.5 -74.5t102.5 -42t127.5 -13q59 0 107 6t97 16q6 61 7 121q0 78 -13.5 147.5t-45 122t-86 82t-134.5 29.5q-113 0 -184.5 -78t-71.5 -205z" />
<glyph unicode=":" horiz-adv-x="360" d="M53 53q0 43 21.5 66.5t54.5 23.5q29 0 45 -19.5t16 -49.5q0 -37 -16 -64.5t-57 -27.5q-29 0 -46.5 19t-17.5 52zM133 719q0 43 21.5 66.5t54.5 23.5q29 0 45 -19.5t16 -50.5q0 -37 -16 -64.5t-57 -27.5q-29 0 -46.5 19.5t-17.5 52.5z" />
<glyph unicode=";" horiz-adv-x="360" d="M4 -170l88 168q-18 4 -27.5 22.5t-9.5 40.5q0 33 18.5 66t59.5 33q29 0 45.5 -20.5t16.5 -51.5q0 -35 -13.5 -65.5t-36.5 -65.5l-88 -131zM133 719q0 43 21.5 66.5t54.5 23.5q29 0 45 -19.5t16 -50.5q0 -37 -16 -64.5t-57 -27.5q-29 0 -46.5 19.5t-17.5 52.5z" />
<glyph unicode="&#x3c;" d="M221 600l602 442l31 -59l-528 -383l440 -387l-47 -49z" />
<glyph unicode="=" d="M74 410l8 63h774l-8 -63h-774zM106 680l9 63h774l-8 -63h-775z" />
<glyph unicode="&#x3e;" d="M117 221l534 379l-434 393l43 49l496 -442l-604 -436z" />
<glyph unicode="?" horiz-adv-x="858" d="M166 1006v262q29 10 102.5 28.5t171.5 18.5q80 0 149.5 -23.5t122 -67.5t82 -108.5t29.5 -144.5q0 -92 -34.5 -167t-93 -132.5t-135.5 -97t-163 -62.5l-41 -215h-94l37 293q76 12 148.5 40.5t130 74t91 109t33.5 149.5q0 117 -72.5 183t-199.5 66q-41 0 -82 -5t-76 -13 l-26 -188h-80zM201 53q0 43 21.5 66.5t53.5 23.5q29 0 45.5 -19.5t16.5 -49.5q0 -37 -16.5 -64.5t-57.5 -27.5q-29 0 -46 19t-17 52z" />
<glyph unicode="@" horiz-adv-x="1153" d="M41 236q0 162 45 301t125 240.5t192.5 159.5t247.5 58q98 0 175 -32.5t130.5 -91t81 -139.5t27.5 -175q0 -86 -20.5 -177t-64.5 -170t-113.5 -136.5t-168.5 -73.5l-26 137h-8q-8 -16 -23.5 -39.5t-40.5 -45t-57.5 -37t-75.5 -15.5q-41 0 -71.5 18.5t-51 51t-31 74.5 t-10.5 92q0 92 24.5 175t68.5 145t108.5 100t144.5 38q35 0 73 -3t69 -7l-25 -109l-47 -387l20 -118q127 43 192.5 172t65.5 311q0 82 -21.5 151.5t-65.5 122t-110.5 82t-156.5 29.5q-133 0 -233.5 -58.5t-168 -155.5t-101.5 -224t-34 -262q0 -92 20.5 -179.5t67 -155 t122 -108.5t184.5 -41q106 0 187 23.5t153 56.5v-61q-74 -33 -157 -54.5t-194 -21.5q-113 0 -196.5 42t-140 113.5t-84 170t-27.5 213.5zM367 233q0 -74 26.5 -126t85.5 -52q49 0 85 32t61.5 85t41 121.5t23.5 144.5l23 195q-8 2 -19 4q-10 2 -22.5 3t-26.5 1 q-70 0 -122 -36t-87 -94t-52 -131t-17 -147z" />
<glyph unicode="A" horiz-adv-x="1069" d="M-49 0l559 1178l-119 20l10 98h332l197 -1187l71 -11l-12 -98h-188v111l-41 264h-504l-125 -266l72 -11l-13 -98h-239zM303 477h440l-106 633v80h-10l-27 -80z" />
<glyph unicode="B" horiz-adv-x="1103" d="M90 0l31 119l131 1063l-100 22l10 92h495q76 0 143.5 -17t118 -55t79 -97.5t28.5 -141.5q0 -225 -203 -315v-8q78 -43 117 -116t39 -167q0 -98 -33 -170t-89 -118t-132 -68.5t-162 -22.5h-473zM236 102h301q55 0 111.5 13.5t102.5 45.5t74.5 84t28.5 130 q0 106 -60.5 170.5t-195.5 64.5h-301zM309 713h312q49 0 99 15t90 47t64.5 80t24.5 116q0 117 -69.5 170t-192.5 53h-268z" />
<glyph unicode="C" horiz-adv-x="983" d="M72 504q0 184 46 333.5t131 256t207 164t273 57.5q31 0 68 -4t74.5 -10.5t73.5 -15.5t63 -19l-43 -279h-86v207q-12 4 -34 7t-46.5 6t-49 5t-40.5 2q-123 0 -218.5 -53t-162 -146t-100 -219t-33.5 -274q0 -88 19 -168t59 -140t103.5 -96t149.5 -36q61 0 115.5 17.5 t98.5 43t78 56t54 55.5v-145q-12 -12 -40.5 -34t-73.5 -42.5t-105.5 -35.5t-136.5 -15q-109 0 -190.5 37.5t-139 106.5t-86 165t-28.5 213z" />
<glyph unicode="D" horiz-adv-x="1173" d="M92 0l29 119l131 1063l-100 22l10 92h469q242 0 356.5 -134t114.5 -386q0 -186 -41 -330.5t-118 -244t-185.5 -150.5t-245.5 -51h-420zM236 102h258q125 0 216 49.5t151.5 137.5t89 211t28.5 270q0 201 -83 312.5t-267 111.5h-260z" />
<glyph unicode="E" horiz-adv-x="1021" d="M90 0l31 119l131 1063l-100 22l10 92h850l-47 -278h-88v176h-508l-58 -477h570l-15 -103h-569l-61 -512h522l37 179h88v-281h-793z" />
<glyph unicode="F" horiz-adv-x="921" d="M92 0l29 119l131 1063l-100 22l10 92h803l-54 -280h-90v178h-452l-62 -500h518l-12 -102h-518l-59 -486l112 -14l-10 -92h-246z" />
<glyph unicode="G" horiz-adv-x="1136" d="M74 502q0 180 43 329.5t127 257t206.5 167t284.5 59.5q76 0 164 -13.5t156 -35.5l-43 -279h-88v205q-35 10 -91.5 16t-111.5 6q-121 0 -218 -48t-166 -138t-105.5 -218t-36.5 -288q0 -90 20.5 -170t63.5 -139t108.5 -95t155.5 -36q84 0 155.5 20.5t116.5 49.5l49 411 h-286l14 103h403l-71 -586q-29 -14 -67 -31.5t-87 -32t-108.5 -24.5t-131.5 -10q-98 0 -182 32.5t-145.5 98t-95 163t-33.5 226.5z" />
<glyph unicode="H" horiz-adv-x="1208" d="M92 0l29 119l131 1063l-100 22l10 92h219l-70 -567h611l69 567h129l-26 -116l-131 -1067l100 -21l-10 -92h-219l75 629h-610l-61 -514l98 -23l-10 -92h-234z" />
<glyph unicode="I" horiz-adv-x="473" d="M92 0l29 119l131 1063l-100 22l10 92h219l-143 -1181l98 -23l-10 -92h-234z" />
<glyph unicode="J" horiz-adv-x="636" d="M-33 -14v104q18 -4 47 -5t33 -1q119 0 192.5 74.5t90.5 210.5l100 815l-299 18l10 94h434l-30 -118l-99 -807q-12 -96 -46.5 -169t-87 -122t-120 -73.5t-143.5 -24.5q-14 0 -43 1t-39 3z" />
<glyph unicode="K" horiz-adv-x="1064" d="M92 0l29 121l131 1061l-100 22l10 92h219l-82 -682h10l41 74l545 608h152l-476 -530l318 -655l88 -19l-10 -92h-162l-318 666h-8l-203 -230l-40 -323l90 -21l-11 -92h-223z" />
<glyph unicode="L" horiz-adv-x="876" d="M90 0l31 119l131 1063l-100 22l10 92h219l-145 -1194h430l36 179h89v-281h-701z" />
<glyph unicode="M" horiz-adv-x="1609" d="M66 0l30 119l187 1063l-101 22l11 92h286l258 -1089l4 -68h11l22 68l529 1089h186l-23 -118l-75 -1063l102 -23l-10 -92h-219l92 1178h-8l-25 -84l-530 -1094h-121l-264 1098l-7 82h-10l-174 -1065l98 -23l-10 -92h-239z" />
<glyph unicode="N" horiz-adv-x="1212" d="M90 0l29 113l133 1069l-100 22l10 92h278l412 -1169h10v84l119 971l-100 22l10 92h235l-30 -116l-144 -1180h-180l-407 1169h-11v-84l-118 -970l98 -23l-10 -92h-234z" />
<glyph unicode="O" horiz-adv-x="1167" d="M76 502q0 184 42 334.5t119.5 257t188.5 164t246 57.5q104 0 183 -38t132 -107.5t81 -168t28 -217.5q0 -184 -40 -332.5t-117 -253t-186.5 -160.5t-248.5 -56q-203 0 -315.5 138t-112.5 382zM197 526q0 -90 18 -171t57 -141t98.5 -96t141.5 -36q111 0 197 57.5t145 152.5 t91 218t32 256q0 92 -19.5 173t-59.5 142.5t-101.5 97t-143.5 35.5q-117 0 -202.5 -60t-142 -158.5t-84 -221.5t-27.5 -248z" />
<glyph unicode="P" horiz-adv-x="1038" d="M90 0l29 119l131 1063l-103 22l11 92h454q92 0 168 -19.5t130.5 -60t84 -104t29.5 -151.5q0 -113 -36 -190t-97.5 -125t-145 -69.5t-180.5 -21.5h-276l-53 -440l112 -23l-10 -92h-248zM301 657h264q63 0 124 13.5t108 47.5t75.5 90t28.5 140q0 135 -82 190.5t-223 55.5 h-229z" />
<glyph unicode="Q" horiz-adv-x="1167" d="M78 500q0 186 41 336.5t116.5 257t184 164t244.5 57.5q100 0 180 -39t135 -107.5t84 -165t29 -212.5q0 -305 -107.5 -509t-306.5 -272l63 -243h-120l-58 219q-16 -2 -33.5 -3t-35.5 -1q-100 0 -177 36.5t-130.5 104t-81 164t-27.5 213.5zM197 526q0 -92 18 -174t56 -141 t97.5 -94t139.5 -35h31l-60 235h121l53 -208q78 33 137.5 97t99.5 150t60.5 188.5t20.5 211.5q0 94 -19.5 178t-59.5 146.5t-100.5 98t-140.5 35.5q-121 0 -207 -60t-141 -158.5t-80.5 -221.5t-25.5 -248z" />
<glyph unicode="R" horiz-adv-x="1120" d="M90 0l31 119l131 1063l-100 22l10 92h495q176 0 278.5 -77.5t102.5 -241.5q0 -72 -20.5 -130.5t-55 -102.5t-81.5 -74.5t-103 -44.5v-9q31 -16 49.5 -38.5t30.5 -56.5t20.5 -81t18.5 -114l31 -215l88 -19l-10 -92h-189l-49 354q-10 74 -27.5 118t-49.5 67.5t-79 32 t-116 8.5h-203l-55 -465l98 -23l-10 -92h-236zM307 684h277q55 0 112.5 16.5t105.5 50t77.5 88t29.5 130.5q0 109 -62.5 165t-189.5 56h-288z" />
<glyph unicode="S" horiz-adv-x="962" d="M37 16l45 263h86v-175q23 -8 71 -13t93 -5q63 0 129.5 15.5t121 46t88.5 77.5t34 113t-40 113t-100.5 87t-130 77.5t-130 83.5t-100.5 106.5t-40 144.5q0 98 39 168t104.5 113t150.5 63.5t177 20.5q88 0 166 -11.5t114 -21.5l-45 -264h-86v176q-31 6 -79 11t-87 5 q-61 0 -120.5 -13t-105.5 -43t-74.5 -76t-28.5 -111q0 -66 40 -112t100 -85t130 -76t130.5 -84t100 -110.5t39.5 -151.5q0 -102 -45 -173t-117.5 -114t-164.5 -61t-189 -18q-33 0 -71.5 2t-75.5 7t-71 11t-58 14z" />
<glyph unicode="T" horiz-adv-x="876" d="M92 1018v278h856l-49 -278h-86v176h-244l-145 -1194h-131l29 119l131 1075h-242l-31 -176h-88z" />
<glyph unicode="U" horiz-adv-x="1167" d="M131 338q0 45 6 98l92 748l-88 20l11 92h206l-104 -852q-6 -49 -6 -92q0 -131 62.5 -199.5t209.5 -68.5q174 0 256 93t105 267l92 738l-101 22l11 92h219l-105 -860q-14 -117 -48 -203t-93 -141t-145 -82.5t-203 -27.5q-377 0 -377 356z" />
<glyph unicode="V" horiz-adv-x="1001" d="M78 1204l10 92h168l174 -1089v-94h10l25 94l414 979l-76 18l10 92h246l-563 -1296h-146l-196 1188z" />
<glyph unicode="W" horiz-adv-x="1675" d="M78 1204l10 92h180l142 -1169h10l12 90l359 950l26 129h217l103 -1075l-9 -90h11l426 1055l-84 18l10 92h244l-535 -1296h-147l-121 1124v93h-10l-27 -93l-428 -1124h-150l-161 1186z" />
<glyph unicode="X" horiz-adv-x="1044" d="M-55 0l487 670l-235 516l-86 18l10 92h164l217 -479l20 -78h10l37 76l279 377l57 104h162l-463 -626l273 -561l81 -17l-10 -92h-157l-256 524l-21 86h-8l-39 -86l-297 -413l82 -19l-10 -92h-297z" />
<glyph unicode="Y" horiz-adv-x="937" d="M78 1204l10 92h150l208 -616l7 -66h12l20 66l310 506l-78 18l10 92h268l-491 -798l-62 -498h-219l10 92l107 23l47 383l-242 690z" />
<glyph unicode="Z" horiz-adv-x="966" d="M2 0l14 143l777 1004l63 37l-2 10h-578l-30 -176h-88v278h803l-17 -141l-772 -1003l-57 -39l2 -11h596l37 183h88v-285h-836z" />
<glyph unicode="[" horiz-adv-x="468" d="M66 -211l172 1401h239l-8 -62h-172l-156 -1278h172l-8 -61h-239z" />
<glyph unicode="\" horiz-adv-x="610" d="M98 1190h70l340 -1190h-72z" />
<glyph unicode="]" horiz-adv-x="468" d="M-39 -211l8 61h172l156 1278h-174l8 62h240l-172 -1401h-238z" />
<glyph unicode="^" d="M25 362l510 644l342 -646l-60 -41l-295 572l-442 -574z" />
<glyph unicode="_" horiz-adv-x="1097" d="M-119 -358l8 63h1096l-8 -63h-1096z" />
<glyph unicode="`" horiz-adv-x="1013" d="M397 1276l72 110l301 -221l-47 -45z" />
<glyph unicode="a" horiz-adv-x="989" d="M49 342q0 145 41 266t117 207t183.5 133t242.5 47q78 0 150.5 -6t109.5 -10l-29 -121l-94 -758l98 -14l-10 -86q-14 -4 -39.5 -12t-56.5 -8q-92 0 -92 98v100h-8q-10 -16 -33 -49t-62 -65.5t-95 -57t-130 -24.5q-72 0 -126 27.5t-91 75.5t-56.5 113.5t-19.5 143.5z M166 354q0 -53 10 -103t32.5 -89t59.5 -61.5t90 -22.5q88 0 152.5 49t109 134t72 198.5t43.5 242.5l25 189q-23 2 -45 4q-20 2 -44 4t-46 2q-106 0 -191.5 -39t-145 -110.5t-91 -172t-31.5 -225.5z" />
<glyph unicode="b" horiz-adv-x="983" d="M59 2l29 113l156 1257l225 21l-12 -86l-117 -29l-55 -451h8q6 10 28.5 38t60.5 56.5t91 51t123 22.5q74 0 131 -26.5t95 -73.5t58.5 -112.5t20.5 -145.5q0 -147 -36 -268t-109.5 -207t-187 -133t-271.5 -47q-27 0 -60.5 2t-66.5 5t-62.5 6t-48.5 7zM197 92q16 -4 55 -10 t72 -6q117 0 203.5 40t145 112.5t87 175t28.5 225.5q0 53 -11 102t-34.5 87t-61.5 60.5t-93 22.5q-82 0 -144.5 -43t-107.5 -121t-74 -186.5t-43 -239.5z" />
<glyph unicode="c" horiz-adv-x="821" d="M49 391q0 133 37 243.5t106.5 190.5t167 125t218.5 45q53 0 112.5 -8t112.5 -20l-49 -250h-82v170q-27 6 -52.5 10t-54.5 4q-96 0 -171 -39t-127 -106.5t-78.5 -158.5t-26.5 -196q0 -66 16.5 -125t48 -103t80.5 -70.5t115 -26.5q100 0 167.5 39t112.5 84v-125 q-8 -8 -31.5 -23.5t-60.5 -31t-86 -26.5t-110 -11q-86 0 -153.5 29.5t-115 84t-72 129t-24.5 166.5z" />
<glyph unicode="d" horiz-adv-x="989" d="M49 342q0 129 36 248t108.5 209t182 143t257.5 53h135l35 279l-113 12l12 86l238 21l-27 -115l-143 -1178l98 -14l-10 -86q-14 -4 -39.5 -12t-56.5 -8q-92 0 -92 98v100h-8q-10 -16 -33 -49t-62 -65.5t-95 -57t-130 -24.5q-141 0 -217 100t-76 260zM166 354 q0 -53 10 -103t32.5 -89t59.5 -61.5t90 -22.5q88 0 152.5 48t110 132t72 196.5t40.5 241.5l23 195q-18 2 -39 4q-16 2 -38 4t-44 2q-113 0 -200 -39t-147.5 -110.5t-91 -172t-30.5 -225.5z" />
<glyph unicode="e" horiz-adv-x="933" d="M55 383q0 139 41 253t110.5 193.5t161 122.5t189.5 43q61 0 114.5 -16t93.5 -48t63.5 -76t23.5 -99q0 -96 -51 -158.5t-131 -100.5t-179.5 -57.5t-195.5 -29.5l-119 -13v-8q0 -150 70.5 -230.5t230.5 -80.5q41 0 90 9t76 19l31 154h82v-229q-27 -10 -66 -18.5t-81 -15.5 t-83 -11t-71 -4q-201 0 -300.5 107.5t-99.5 293.5zM186 492l95 10q76 8 155.5 22.5t144 42t105.5 71.5t41 112q0 72 -50 112.5t-130 40.5q-72 0 -132.5 -31.5t-108.5 -88t-78.5 -131t-41.5 -160.5z" />
<glyph unicode="f" horiz-adv-x="538" d="M-170 -254q20 -4 49 -4q90 0 144.5 45t64.5 137l117 959h-129l10 73l129 21l16 135q16 135 100.5 212t223.5 77q12 0 29.5 -1t27.5 -3v-99q-10 2 -26.5 3.5t-32.5 1.5q-219 0 -219 -252v-29.5t2 -24.5q0 -10 2 -20h211l-10 -94h-224l-118 -975q-16 -127 -103.5 -196.5 t-216.5 -69.5q-12 0 -26.5 1t-20.5 3v100z" />
<glyph unicode="g" horiz-adv-x="989" d="M8 -319l47 239h82v-166q23 -6 64 -11t94 -5q168 0 255 95t103 245l19 145h-10q-10 -14 -32 -42.5t-58.5 -58.5t-90 -52.5t-125.5 -22.5q-147 0 -227 92t-80 246q0 141 43 254t119 192.5t181.5 121.5t228.5 42q35 0 73.5 -2t75.5 -6t68.5 -8t50.5 -6l-25 -115l-98 -784 q-27 -211 -143.5 -321.5t-343.5 -110.5q-43 0 -86 4t-79 10t-63.5 12t-42.5 13zM166 395q0 -104 49 -178t160 -74q82 0 143.5 42t105.5 116t70.5 177.5t40.5 226.5l21 186q-20 2 -43 4q-18 2 -42 4t-46 2q-100 0 -184.5 -35t-146 -100.5t-95 -158.5t-33.5 -212z" />
<glyph unicode="h" horiz-adv-x="1001" d="M74 0l170 1372l221 21l-12 -86l-115 -29l-53 -442h8q43 66 118.5 112.5t176.5 46.5q133 0 202.5 -73.5t69.5 -202.5q0 -16 -1 -32.5t-3 -31.5l-68 -555l99 -14l-10 -86q-14 -4 -40 -12t-57 -8q-59 0 -79.5 33.5t-20.5 88.5q0 10 3 40t7 71t11.5 91t13.5 99q14 117 35 261 q2 12 2 21v20q0 86 -47.5 141t-135.5 55q-80 0 -137 -33.5t-96 -91t-61.5 -131.5t-32.5 -156l-60 -489h-108z" />
<glyph unicode="i" horiz-adv-x="411" d="M88 879l10 88l209 20l-108 -887l98 -14l-10 -86q-14 -4 -40 -12t-57 -8q-59 0 -79.5 33.5t-20.5 88.5q0 12 4 51.5t10.5 94.5t14.5 122.5t16 137.5q20 162 47 360zM176 1298l113 103l88 -103l-113 -104z" />
<glyph unicode="j" horiz-adv-x="464" d="M-121 -260q16 -2 25.5 -2h11.5q98 0 146.5 58.5t60.5 162.5l110 901l-159 17l10 90l287 20l-25 -117l-110 -903q-20 -160 -94 -242.5t-224 -82.5q-4 0 -19.5 1t-19.5 3v94zM201 1298l114 103l88 -103l-114 -108z" />
<glyph unicode="k" horiz-adv-x="931" d="M68 0l24 115l141 1159l-96 10l13 88l210 21l-110 -891l10 -2l33 57l446 420h148l-367 -350l236 -529l84 -12l-11 -86q-14 -4 -35.5 -12t-52.5 -8q-45 0 -67.5 28.5t-38.5 69.5l-197 467h-8l-199 -191l-30 -252l94 -16l-10 -86h-217z" />
<glyph unicode="l" horiz-adv-x="409" d="M90 102q0 12 6 68.5t15.5 140.5t22.5 188.5t26 211.5q31 250 71 563l-94 12l13 86l206 19l-157 -1291l98 -14l-10 -86q-14 -4 -40 -12t-57 -8q-59 0 -79.5 33.5t-20.5 88.5z" />
<glyph unicode="m" horiz-adv-x="1538" d="M74 0l106 874l-98 15l10 86q14 4 40 12t56 8q92 0 99 -98l4 -57h10q41 63 110.5 109t174.5 46q98 0 164.5 -46t83.5 -115h8q47 63 121.5 112t173.5 49q119 0 191.5 -61.5t72.5 -183.5v-25.5t-4 -40.5l-72 -584l98 -14l-10 -86q-14 -4 -39.5 -12t-56.5 -8q-59 0 -82 32.5 t-23 89.5q0 12 3.5 43t7.5 73t11 92t13 102q16 119 37 262q2 14 3 28.5t1 26.5q0 84 -43 128t-127 44q-68 0 -121 -29.5t-91 -84t-62.5 -130t-34.5 -168.5l-59 -489h-111l82 674q2 14 3 26.5t1 24.5q0 80 -40 128t-126 48q-141 0 -218 -113.5t-97 -298.5l-60 -489h-110z" />
<glyph unicode="n" horiz-adv-x="1003" d="M74 0l106 874l-98 15l10 86q14 4 40 12t56 8q92 0 99 -98l4 -61h8q47 66 118.5 112.5t172.5 46.5q129 0 200.5 -73.5t71.5 -200.5q0 -14 -1 -28.5t-3 -30.5l-67 -562l98 -14l-10 -86q-14 -4 -40 -12t-57 -8q-59 0 -79.5 32.5t-20.5 89.5q0 12 3 42t7 71t10.5 89t12.5 97 q14 115 35 254q2 10 3 25.5t1 26.5q0 86 -46 140t-133 54q-78 0 -135 -33.5t-98 -91t-64.5 -131.5t-33.5 -156l-60 -489h-110z" />
<glyph unicode="o" horiz-adv-x="970" d="M55 377q0 141 32 254.5t92.5 194.5t148.5 125t200 44q176 0 265.5 -108.5t89.5 -290.5q0 -141 -32 -255t-92.5 -193.5t-149.5 -122.5t-201 -43q-176 0 -264.5 107.5t-88.5 287.5zM166 387q0 -66 13.5 -122t44 -98t77.5 -66.5t115 -24.5q90 0 156.5 41t111.5 109.5 t66.5 160.5t21.5 195q0 68 -14.5 126t-45 101t-79.5 67.5t-117 24.5q-90 0 -156.5 -42t-109.5 -112.5t-63.5 -164t-20.5 -195.5z" />
<glyph unicode="p" horiz-adv-x="983" d="M18 -350l27 114l135 1110l-98 15l10 86q14 4 40 12t56 8q47 0 67.5 -23.5t20.5 -72.5v-100h9q8 16 30.5 49t61.5 65.5t94 57t129 24.5q76 0 132 -28.5t94 -77.5t56.5 -114.5t18.5 -139.5q0 -145 -38 -263t-113.5 -201t-192.5 -127t-272 -44h-101l-28 -227l110 -15 l-12 -86zM197 104q14 -4 32 -6q16 -2 36 -3t42 -1q229 0 354 141.5t125 387.5q0 55 -12 106t-36.5 89t-64.5 60.5t-95 22.5q-86 0 -147.5 -47t-103.5 -128t-69 -188.5t-41 -228.5z" />
<glyph unicode="q" horiz-adv-x="983" d="M49 342q0 131 37 249t109.5 208t182 143t255.5 53q68 0 135.5 -5t122.5 -13l-27 -111l-149 -1198l-223 -20l10 86l112 28l50 388h-9q-6 -10 -27.5 -38t-59.5 -56.5t-92 -51t-128 -22.5t-129 26.5t-93 74.5t-57.5 113.5t-19.5 145.5zM166 354q0 -53 10 -103t32.5 -89 t59.5 -61.5t90 -22.5q88 0 151.5 49t108 134t72 198.5t43.5 242.5l25 189q-23 2 -45 4q-20 2 -43 4t-45 2q-106 0 -191.5 -39t-145 -110.5t-91 -172t-31.5 -225.5z" />
<glyph unicode="r" horiz-adv-x="632" d="M74 0l106 874l-98 15l10 86q14 4 40 12t56 8q92 0 99 -98l4 -61h8q72 96 157 127.5t187 31.5v-121q-16 4 -37.5 5.5t-34.5 1.5q-82 0 -139 -30t-96 -83t-60.5 -125t-31.5 -154l-47 -387l94 -16l-10 -86h-207z" />
<glyph unicode="s" horiz-adv-x="847" d="M27 18l47 244h80v-162q20 -8 65 -15t90 -7q51 0 100.5 9t88.5 30.5t62.5 55.5t23.5 85q0 47 -35 82t-86 63.5t-111.5 55t-112 62.5t-86 83t-34.5 117q0 74 32.5 126t87 85t124 48t143.5 15q25 0 61.5 -3t75.5 -7t75 -11t60 -13l-47 -244h-80v162q-16 4 -61 12t-92 8 q-45 0 -91.5 -8t-84 -26.5t-61 -49.5t-23.5 -76q0 -49 33.5 -83.5t86 -63.5t111.5 -56.5t111.5 -63.5t86 -83t33.5 -117q0 -78 -32.5 -132t-88 -90t-128 -52t-154.5 -16q-37 0 -78 4t-79 9t-68.5 11t-44.5 12z" />
<glyph unicode="t" horiz-adv-x="550" d="M66 883l10 73l123 23l43 215l112 102l-39 -319h222l-11 -94h-221l-74 -600q-2 -14 -3 -30.5t-1 -29.5q0 -80 41 -112.5t133 -32.5q8 0 28 1t24 3l-27 -90q-10 -4 -32.5 -7t-45.5 -3q-47 0 -90 12t-74.5 39.5t-50 69.5t-18.5 102q0 14 1 28.5t3 30.5l76 619h-129z" />
<glyph unicode="u" horiz-adv-x="1003" d="M74 889l10 86q14 4 40 12t56 8q59 0 80 -32.5t21 -90.5q0 -12 -3.5 -41.5t-8.5 -70.5t-11 -89t-12 -98q-14 -115 -33 -254q-2 -10 -3 -25t-1 -26q0 -86 46 -140t132 -54q78 0 135.5 33.5t98.5 90t64.5 131t33.5 156.5l47 387l-96 17l10 86h209l-107 -875l99 -14l-11 -86 q-14 -4 -39.5 -12t-56.5 -8q-92 0 -98 98l-4 61h-8q-47 -66 -119 -112.5t-172 -46.5q-129 0 -201 73.5t-72 200.5q0 14 1 28.5t3 30.5l68 561z" />
<glyph unicode="v" horiz-adv-x="870" d="M39 881l10 86l150 20l166 -762v-80h8q47 78 96 171.5t91 185.5t72 175t38 138l-31 162q14 8 33.5 14t36.5 6q47 0 68.5 -29.5t21.5 -74.5q0 -57 -35 -168t-105 -262q-31 -68 -69.5 -139.5t-77.5 -136t-70.5 -113.5t-46.5 -74h-100l-186 868z" />
<glyph unicode="w" horiz-adv-x="1400" d="M39 881l10 86l150 20l166 -762v-80h8q47 78 95 171.5t88 185.5t67.5 175t35.5 138l-30 162q14 8 33.5 14t35.5 6q47 0 68.5 -29.5t21.5 -74.5q0 -16 -3 -36.5t-7 -45.5l127 -586v-80h8q47 78 95.5 171.5t88.5 185.5t67.5 175t35.5 138l-31 162q14 8 34 14t36 6 q47 0 68.5 -29.5t21.5 -74.5q0 -57 -34.5 -168t-104.5 -262q-31 -68 -69 -139.5t-73.5 -136t-66.5 -113.5t-45 -74h-100l-121 559l8 49h-12q-12 -35 -28.5 -70.5t-33.5 -74.5q-31 -68 -68.5 -139.5t-73.5 -136t-66.5 -113.5t-45.5 -74h-100l-186 868z" />
<glyph unicode="x" horiz-adv-x="899" d="M-31 0l404 512l-201 362l-84 13l10 86q14 6 34 13t48 7q43 0 67.5 -29.5t45.5 -68.5l131 -242l25 -61h10l39 61l170 207l75 117h152l-383 -465l215 -414l84 -12l-10 -86q-14 -6 -33.5 -13t-48.5 -7q-43 0 -67.5 28.5t-45.5 69.5l-147 293l-19 61h-10l-37 -61l-213 -273 l74 -12l-10 -86h-275z" />
<glyph unicode="y" horiz-adv-x="870" d="M-92 -256q6 -2 18.5 -3t20.5 -1q57 0 99 14.5t83 52t88 104t113 171.5h-54l-167 786l-70 13l10 86l150 20l166 -762v-80h8q47 78 94 168t88 181.5t71.5 174.5t43.5 146l-31 162q14 8 33.5 14t36.5 6q47 0 68.5 -29.5t21.5 -74.5q0 -57 -37 -168t-107 -262 q-31 -68 -68.5 -141.5t-76.5 -141t-73 -124t-54 -89.5q-53 -82 -100 -143.5t-96.5 -101t-105.5 -59t-126 -19.5q-12 0 -27.5 2t-19.5 4v94z" />
<glyph unicode="z" horiz-adv-x="815" d="M-4 0l10 111l594 727l55 34v9h-432l-33 -158h-79v254h661l-14 -115l-590 -727l-59 -37l2 -8h469l43 164h92q0 -96 -15.5 -149.5t-46 -79t-74.5 -31.5t-102 -6q-39 0 -104.5 2t-136 4t-136 4t-104.5 2z" />
<glyph unicode="{" horiz-adv-x="462" d="M59 485v9l80 73q27 29 36 49.5t13 51.5l48 395q6 59 50 93t99 34h86l-6 -60h-66q-51 0 -72.5 -22.5t-25.5 -67.5l-45 -372q-4 -39 -11 -61.5t-40 -53.5l-68 -64l51 -63q16 -20 21.5 -35.5t5.5 -32.5q0 -10 -1 -21t-3 -26l-45 -372q-2 -10 -2 -27q0 -31 17.5 -47.5 t60.5 -16.5h65l-8 -59h-86q-51 0 -85 28.5t-34 80.5q0 12 2 18l47 395q2 10 2 17.5v15.5q0 16 -5 31.5t-21 36.5z" />
<glyph unicode="|" horiz-adv-x="378" d="M45 -264l178 1454h68l-178 -1454h-68z" />
<glyph unicode="}" horiz-adv-x="462" d="M-39 -211l8 59h66q47 0 68.5 23t27.5 68l45 372q8 39 12.5 61.5t36.5 53.5l68 63l-51 64q-16 18 -20.5 32.5t-6.5 30.5q0 10 2 22.5t4 29.5l45 372q0 6 1 13.5t1 11.5q0 33 -17.5 49t-57.5 16h-68l6 60h88q51 0 84 -28.5t33 -80.5q0 -4 -1 -9t-1 -9l-47 -395 q-2 -10 -2 -16.5v-14.5q0 -16 6 -31.5t22 -38.5l58 -73v-9l-78 -73q-31 -29 -39 -49.5t-12 -51.5l-47 -395q-8 -59 -50.5 -93t-97.5 -34h-86z" />
<glyph unicode="~" d="M109 559l8 68q25 14 55 26q25 10 58.5 18.5t72.5 8.5q49 0 95 -15.5t92.5 -33t92.5 -32.5t93 -15q41 0 90 14t88 37l-8 -68q-27 -16 -55 -26q-27 -10 -60 -17.5t-72 -7.5q-47 0 -94 15.5t-93 33t-93 32.5t-96 15q-39 0 -89.5 -15t-84.5 -38z" />
<glyph unicode="&#xa1;" horiz-adv-x="471" d="M14 -317l174 999h101l-158 -999h-117zM207 905q0 37 16.5 64.5t57.5 27.5q29 0 46 -19.5t17 -51.5q0 -43 -21.5 -66.5t-54.5 -23.5q-29 0 -45 19t-16 50z" />
<glyph unicode="&#xa2;" d="M129 430q0 137 34 254t95 204t150.5 141t199.5 69l25 198h65l-22 -194h20q59 0 127 -13.5t111 -25.5l-41 -238h-86v164q-29 10 -64.5 14.5t-66.5 4.5q-104 0 -185 -42t-136.5 -118t-84 -181.5t-28.5 -234.5q0 -72 16 -136.5t49 -113.5t83 -77.5t120 -28.5q51 0 98 13 t87 32.5t70 42t46 41.5v-123q-8 -8 -30.5 -23.5t-57.5 -31t-83 -28.5t-110 -17l-24 -195h-66l25 195q-164 14 -250 135t-86 313z" />
<glyph unicode="&#xa3;" d="M47 0l14 78l132 24l51 422h-156l16 64h148l18 157q23 188 131.5 272.5t300.5 84.5q70 0 135.5 -13.5t104.5 -23.5l-41 -240h-86v164q-25 6 -58.5 11.5t-64.5 5.5q-139 0 -215 -56.5t-92 -197.5l-20 -164h444l-16 -64h-437l-53 -430h381l141 15l-14 -109h-764z" />
<glyph unicode="&#xa4;" d="M98 281l131 120q-25 37 -39 81t-14 91q0 61 24.5 119t65.5 103l-98 110l41 41l98 -115q92 66 201 66q49 0 102.5 -18.5t87.5 -53.5l144 129l37 -43l-144 -127q25 -35 38 -81t13 -93q0 -59 -23.5 -115.5t-64.5 -103.5l90 -115l-47 -40l-90 112q-45 -33 -95 -48t-99 -15 t-103.5 19.5t-91.5 53.5l-129 -120zM244 578q0 -45 16 -86t45 -73t70 -50.5t88 -18.5q51 0 98 20.5t83 55.5t56.5 83t20.5 103q0 45 -17.5 85t-47 70t-69.5 47t-85 17q-49 0 -95.5 -19t-83 -53t-58 -80t-21.5 -101z" />
<glyph unicode="&#xa5;" d="M51 369l17 63h325l-84 215h-223l14 64h183l-140 372h123l183 -503l14 -58h10l27 60l243 395l50 106h137l-236 -372h183l-19 -64h-203l-131 -215h320l-21 -63h-315l-45 -369h-115l45 369h-342z" />
<glyph unicode="&#xa6;" horiz-adv-x="378" d="M45 -264l76 612h67l-75 -612h-68zM147 580l76 610h68l-76 -610h-68z" />
<glyph unicode="&#xa7;" horiz-adv-x="727" d="M12 -203l33 199h41v-158q29 -6 60.5 -10t62.5 -4q47 0 91 11t79 33.5t55.5 58.5t20.5 83q0 63 -43 106.5t-127 102.5q-90 61 -147.5 121.5t-57.5 157.5q0 98 55 179t125 134q-29 31 -45 65.5t-16 79.5q0 66 27.5 113t71.5 78t101.5 46t118.5 15q51 0 95 -6t75 -14 l-33 -203h-41v160q-25 4 -52 7t-52 3q-47 0 -91 -11t-79 -35t-55.5 -58.5t-20.5 -81.5q0 -63 43 -106.5t127 -102.5q45 -31 82 -60.5t64.5 -61.5t43 -70t15.5 -87q0 -98 -53.5 -179t-122.5 -134q29 -31 43 -65.5t14 -79.5q0 -66 -27.5 -113t-71.5 -78t-101.5 -46t-118.5 -15 q-51 0 -100.5 7t-88.5 19zM143 502q0 -68 43 -118t146 -120l86 -59q70 55 113.5 120.5t43.5 151.5q0 33 -10 61.5t-32.5 56.5t-58.5 56.5t-87 63.5l-86 59q-70 -55 -114 -120.5t-44 -151.5z" />
<glyph unicode="&#xa8;" horiz-adv-x="1013" d="M426 1153l29 231h96l-29 -231h-96zM621 1153l28 231h99l-29 -231h-98z" />
<glyph unicode="&#xa9;" horiz-adv-x="1083" d="M90 899q0 104 36 195.5t100.5 159t150.5 106.5t188 39q100 0 187.5 -39t151 -106.5t99 -158.5t35.5 -196q0 -104 -35.5 -194.5t-99 -158t-150.5 -106.5t-188 -39q-102 0 -188 39t-150.5 106.5t-100.5 158t-36 194.5zM154 899q0 -90 30.5 -170t86 -139.5t130 -93 t164.5 -33.5q88 0 163 33.5t130 93t86 139.5t31 170t-31 170t-86 139.5t-130 93t-163 33.5q-90 0 -164.5 -33.5t-130 -93t-86 -139.5t-30.5 -170zM354 850q0 154 78 242t207 88q47 0 115 -19l-17 -131h-47v84q-27 10 -61 10q-104 0 -157.5 -72.5t-53.5 -193.5q0 -74 37 -131 t108 -57q51 0 85 22.5t50 40.5v-71q-10 -8 -46 -28t-99 -20q-90 0 -144.5 64.5t-54.5 171.5z" />
<glyph unicode="&#xaa;" horiz-adv-x="589" d="M63 805q0 88 25 161.5t71 126t112.5 81t148.5 28.5q47 0 94 -3t64 -7l-19 -74l-57 -461l61 -8l-6 -53q-6 -4 -23.5 -8t-35.5 -4q-55 0 -62 59v43h-8q-4 -6 -17.5 -22.5t-36 -34t-56 -31.5t-76.5 -14q-86 0 -132.5 62.5t-46.5 158.5zM135 811q0 -33 6 -62.5t19.5 -53 t36 -38t55.5 -14.5q55 0 93 29.5t63.5 82t42 122t28.5 147.5l17 115q-12 0 -27 2q-12 2 -26.5 3t-28.5 1q-129 0 -204 -90t-75 -244z" />
<glyph unicode="&#xab;" horiz-adv-x="1015" d="M109 553l444 434l39 -49l-393 -385l299 -393l-56 -45zM471 553l442 432l45 -49l-397 -383l301 -395l-55 -45z" />
<glyph unicode="&#xac;" d="M82 705l8 65h731l-43 -350h-65l35 285h-666z" />
<glyph unicode="&#xad;" horiz-adv-x="688" d="M94 461l8 61h439l-9 -61h-438z" />
<glyph unicode="&#xae;" horiz-adv-x="1083" d="M90 899q0 104 36 195.5t100.5 159t150.5 106.5t188 39q100 0 187.5 -39t151 -106.5t99 -158.5t35.5 -196q0 -104 -35.5 -194.5t-99 -158t-150.5 -106.5t-188 -39q-102 0 -188 39t-150.5 106.5t-100.5 158t-36 194.5zM154 899q0 -90 30.5 -170t86 -139.5t130 -93 t164.5 -33.5q88 0 163 33.5t130 93t86 139.5t31 170t-31 170t-86 139.5t-130 93t-163 33.5q-90 0 -164.5 -33.5t-130 -93t-86 -139.5t-30.5 -170zM360 629l13 49l53 432l-51 8l6 51h227q72 0 118 -34.5t46 -104.5q0 -66 -32.5 -97.5t-73.5 -47.5v-8q23 -14 33 -35t16 -76 l10 -86l31 -4l-4 -47h-88l-17 147q-6 55 -30.5 69.5t-84.5 14.5h-71l-29 -231h-72zM469 918h109q43 0 83.5 24.5t40.5 89.5q0 86 -100 86h-108z" />
<glyph unicode="&#xaf;" horiz-adv-x="1013" d="M340 1253l12 97h490l-13 -97h-489z" />
<glyph unicode="&#xb0;" horiz-adv-x="630" d="M131 879q0 145 66.5 233t187.5 88q92 0 140 -61.5t48 -155.5q0 -147 -65.5 -235.5t-188.5 -88.5q-94 0 -141 62t-47 158zM199 889q0 -68 30.5 -120t98.5 -52q45 0 78.5 20.5t56 56t33 82t10.5 97.5q0 66 -33 117t-98 51q-47 0 -80 -20.5t-54.5 -55.5t-31.5 -80t-10 -96z M229 532l78 74l60 -74l-78 -75z" />
<glyph unicode="&#xb1;" d="M14 0l9 63h786l-8 -63h-787zM94 653l8 64h359l43 360h65l-43 -360h363l-8 -64h-363l-47 -383h-65l47 383h-359z" />
<glyph unicode="&#xb2;" horiz-adv-x="505" d="M53 594l10 80q92 57 159 100t110 82t64.5 76t21.5 82q0 59 -41 94t-115 35q-16 0 -35.5 -2t-36.5 -6l-16 -99h-47v146q39 10 80 14t67 4q90 0 148.5 -48t58.5 -134q0 -51 -20.5 -94t-62.5 -84t-108.5 -86t-158.5 -101l2 -6h279l63 6l-8 -59h-414z" />
<glyph unicode="&#xb3;" horiz-adv-x="516" d="M59 602v62q25 -6 52 -13q23 -4 49 -8t51 -4q37 0 71.5 5t62.5 18.5t44.5 36t16.5 59.5q0 31 -14.5 52t-38 34.5t-54.5 19.5t-61 6h-74l6 52h74q33 0 65.5 5t57 19.5t40 37t15.5 58.5q0 53 -40 79t-103 26q-20 0 -46 -3t-47 -9l-16 -97h-47v144q23 4 70 11t94 7 q84 0 142 -36t58 -117q0 -104 -108 -148v-8q41 -16 65.5 -49t24.5 -82t-23.5 -83t-60.5 -54.5t-84 -29.5t-94 -9q-43 0 -87 7t-61 11z" />
<glyph unicode="&#xb4;" horiz-adv-x="1013" d="M381 1165l354 221l58 -118l-371 -148z" />
<glyph unicode="&#xb5;" horiz-adv-x="1003" d="M12 -344l27 117l133 1101l-98 15l10 86q14 4 40 12t56 8q59 0 80 -32.5t21 -90.5q0 -12 -3.5 -41.5t-7.5 -70.5t-10 -89t-12 -98q-14 -115 -33 -254q-2 -10 -3 -28.5t-1 -28.5q0 -94 45 -141t131 -47q78 0 135.5 33.5t98.5 90t64.5 131t33.5 156.5l47 389l-96 17l10 86 h209l-107 -877l99 -14l-11 -86q-14 -4 -39.5 -12t-56.5 -8q-92 0 -98 98l-4 61h-8q-47 -66 -119 -112.5t-172 -46.5q-119 0 -193 63l-47 -377z" />
<glyph unicode="&#xb6;" horiz-adv-x="931" d="M119 778q0 174 103.5 271.5t279.5 97.5h428l-6 -49l-119 -15l-178 -1441h-68l178 1443h-178l-178 -1443h-188l6 49l125 14l98 791q-154 6 -228.5 79.5t-74.5 202.5z" />
<glyph unicode="&#xb7;" horiz-adv-x="385" d="M117 565q0 43 21.5 66.5t54.5 23.5q29 0 45 -19.5t16 -49.5q0 -37 -16.5 -64.5t-57.5 -27.5q-29 0 -46 19t-17 52z" />
<glyph unicode="&#xb8;" horiz-adv-x="1013" d="M229 -342l23 68q14 -4 40.5 -9.5t55.5 -5.5q45 0 77 14.5t32 53.5q0 25 -22.5 40t-57.5 15q-14 0 -24.5 -1t-26.5 -3l43 170h77l-12 -98q51 0 90 -29t39 -86q0 -39 -19.5 -66.5t-50 -45t-68.5 -25.5t-75 -8q-41 0 -73.5 6t-47.5 10z" />
<glyph unicode="&#xb9;" horiz-adv-x="493" d="M76 596l6 53h160l63 465h-10l-19 -33q-37 -31 -75.5 -48t-79.5 -32l-8 62q49 14 99 44t95 83h74l-78 -541h146l-5 -53h-368z" />
<glyph unicode="&#xba;" horiz-adv-x="575" d="M72 825q0 172 74.5 273.5t211.5 101.5q106 0 160.5 -65.5t54.5 -176.5q0 -172 -74.5 -272t-213.5 -100q-106 0 -159.5 64t-53.5 175zM139 831q0 -80 34 -134t118 -54q55 0 95 24.5t66.5 66.5t40 98.5t13.5 117.5q0 80 -36 136.5t-120 56.5q-55 0 -94 -25.5t-65.5 -68.5 t-39 -100t-12.5 -118z" />
<glyph unicode="&#xbb;" horiz-adv-x="1015" d="M37 162l399 391l-303 387l57 45l336 -432l-446 -440zM399 164l400 389l-301 389l53 45l338 -434l-440 -438z" />
<glyph unicode="&#xbc;" horiz-adv-x="1120" d="M76 596l6 53h160l63 465h-10l-19 -33q-37 -31 -75.5 -48t-79.5 -32l-8 62q49 14 99 44t95 83h74l-78 -541h146l-5 -53h-368zM100 0l838 1190h70l-838 -1190h-70zM539 125l8 68l323 401h91l-54 -414h72l-6 -55h-70l-14 -125h-62l15 125h-303zM602 180h244l41 324l14 33h-8 l-264 -334l-27 -15v-8z" />
<glyph unicode="&#xbd;" horiz-adv-x="1116" d="M76 596l6 53h160l63 465h-10l-19 -33q-37 -31 -75.5 -48t-79.5 -32l-8 62q49 14 99 44t95 83h74l-78 -541h146l-5 -53h-368zM100 0l838 1190h70l-838 -1190h-70zM588 0l10 80q92 57 158.5 100t109.5 82t64.5 76t21.5 82q0 59 -41 94t-114 35q-16 0 -36 -2t-36 -6l-16 -99 h-47v146q39 10 79.5 14t67.5 4q90 0 148.5 -48t58.5 -134q0 -51 -20.5 -94t-62.5 -84t-108.5 -86t-158.5 -101l2 -6h278l64 6l-9 -59h-413z" />
<glyph unicode="&#xbe;" horiz-adv-x="1079" d="M59 602v62q25 -6 52 -13q23 -4 49 -8t51 -4q37 0 71.5 5t62.5 18.5t44.5 36t16.5 59.5q0 31 -14.5 52t-38 34.5t-54.5 19.5t-61 6h-74l6 52h74q33 0 65.5 5t57 19.5t40 37t15.5 58.5q0 53 -40 79t-103 26q-20 0 -46 -3t-47 -9l-16 -97h-47v144q23 4 70 11t94 7 q84 0 142 -36t58 -117q0 -104 -108 -148v-8q41 -16 65.5 -49t24.5 -82t-23.5 -83t-60.5 -54.5t-84 -29.5t-94 -9q-43 0 -87 7t-61 11zM100 0l838 1190h70l-838 -1190h-70zM518 125l8 68l324 401h90l-53 -414h71l-6 -55h-69l-15 -125h-61l14 125h-303zM582 180h243l41 324 l15 33h-9l-264 -334l-26 -15v-8z" />
<glyph unicode="&#xbf;" horiz-adv-x="858" d="M6 6q0 92 34 167t92 132t136 97t164 63l41 215h96l-39 -293q-78 -12 -149.5 -41t-128.5 -74t-91 -108.5t-34 -149.5q0 -117 72.5 -183.5t199.5 -66.5q41 0 82 5.5t76 13.5l27 188h80v-262q-29 -10 -103 -28.5t-172 -18.5q-80 0 -149.5 23.5t-121.5 67.5t-82 108.5 t-30 144.5zM492 903q0 37 16 64.5t57 27.5q29 0 46.5 -19.5t17.5 -51.5q0 -43 -21.5 -66.5t-54.5 -23.5q-29 0 -45 19t-16 50z" />
<glyph unicode="&#xc0;" horiz-adv-x="1069" d="M-49 0l559 1178l-119 20l10 98h332l197 -1187l71 -11l-12 -98h-188v111l-41 264h-504l-125 -266l72 -11l-13 -98h-239zM303 477h440l-106 633v80h-10l-27 -80zM442 1554l72 111l301 -221l-47 -45z" />
<glyph unicode="&#xc1;" horiz-adv-x="1069" d="M-49 0l559 1178l-119 20l10 98h332l197 -1187l71 -11l-12 -98h-188v111l-41 264h-504l-125 -266l72 -11l-13 -98h-239zM303 477h440l-106 633v80h-10l-27 -80zM399 1444l355 221l57 -119l-371 -147z" />
<glyph unicode="&#xc2;" horiz-adv-x="1069" d="M-49 0l559 1178l-119 20l10 98h332l197 -1187l71 -11l-12 -98h-188v111l-41 264h-504l-125 -266l72 -11l-13 -98h-239zM303 477h440l-106 633v80h-10l-27 -80zM362 1464l234 189q18 16 34.5 18t22.5 2t21.5 -2t32.5 -18l188 -189l-45 -45l-203 131l-252 -131z" />
<glyph unicode="&#xc3;" horiz-adv-x="1069" d="M-49 0l559 1178l-119 20l10 98h332l197 -1187l71 -11l-12 -98h-188v111l-41 264h-504l-125 -266l72 -11l-13 -98h-239zM303 477h440l-106 633v80h-10l-27 -80zM375 1507l22 84q23 12 47 23q23 8 48.5 15t54.5 7q33 0 63.5 -6t63.5 -14t66.5 -14.5t72.5 -6.5 q25 0 50.5 7.5t60.5 19.5l-25 -84q-23 -14 -45 -22q-20 -10 -45 -16.5t-53 -6.5q-68 0 -133.5 20.5t-137.5 20.5q-25 0 -50 -7t-60 -20z" />
<glyph unicode="&#xc4;" horiz-adv-x="1069" d="M-49 0l559 1178l-119 20l10 98h332l197 -1187l71 -11l-12 -98h-188v111l-41 264h-504l-125 -266l72 -11l-13 -98h-239zM303 477h440l-106 633v80h-10l-27 -80zM485 1430l29 231h96l-28 -231h-97zM680 1430l29 231h98l-29 -231h-98z" />
<glyph unicode="&#xc5;" horiz-adv-x="1069" d="M-49 0l559 1178l-119 20l10 98h332l197 -1187l71 -11l-12 -98h-188v111l-41 264h-504l-125 -266l72 -11l-13 -98h-239zM303 477h440l-106 633v80h-10l-27 -80zM455 1516q0 49 18.5 82.5t48 55t67.5 31t77 9.5q78 0 129 -40t51 -112q0 -49 -18.5 -83t-48 -55.5 t-67.5 -30.5t-77 -9q-78 0 -129 40t-51 112zM553 1522q0 -41 27.5 -61.5t62.5 -20.5q49 0 77 23.5t28 72.5q0 41 -27 61.5t-62 20.5q-49 0 -77.5 -23.5t-28.5 -72.5z" />
<glyph unicode="&#xc6;" horiz-adv-x="1568" d="M-49 0l532 1186l-110 18l10 92h1118l-33 -278h-88v176h-462l-21 -477h522v-103h-528l-23 -512h488l30 179h84v-281h-733l19 111l16 264h-534l-115 -264l92 -13l-12 -98h-252zM283 477h493l33 717h-217z" />
<glyph unicode="&#xc7;" horiz-adv-x="983" d="M72 504q0 184 46 333.5t131 256t207 164t273 57.5q31 0 68 -4t74.5 -10.5t73.5 -15.5t63 -19l-43 -279h-86v207q-12 4 -34 7t-46.5 6t-49 5t-40.5 2q-123 0 -218.5 -53t-162 -146t-100 -219t-33.5 -274q0 -88 19 -168t59 -140t103.5 -96t149.5 -36q61 0 115.5 17.5 t98.5 43t78 56t54 55.5v-145q-12 -12 -39.5 -33t-69.5 -41.5t-98.5 -35.5t-127.5 -17l-11 -80q51 0 90 -29t39 -86q0 -39 -19.5 -66.5t-50 -45t-68.5 -25.5t-75 -8q-41 0 -73.5 6t-46.5 10l22 68q14 -4 41 -9.5t55 -5.5q45 0 77 14.5t32 53.5q0 25 -22.5 40t-57.5 15 q-14 0 -24.5 -1t-26.5 -3l39 156q-188 20 -286.5 159.5t-98.5 358.5z" />
<glyph unicode="&#xc8;" horiz-adv-x="1021" d="M90 0l31 119l131 1063l-100 22l10 92h850l-47 -278h-88v176h-508l-58 -477h570l-15 -103h-569l-61 -512h522l37 179h88v-281h-793zM455 1554l71 111l301 -221l-47 -45z" />
<glyph unicode="&#xc9;" horiz-adv-x="1021" d="M90 0l31 119l131 1063l-100 22l10 92h850l-47 -278h-88v176h-508l-58 -477h570l-15 -103h-569l-61 -512h522l37 179h88v-281h-793zM451 1444l354 221l57 -119l-370 -147z" />
<glyph unicode="&#xca;" horiz-adv-x="1021" d="M90 0l31 119l131 1063l-100 22l10 92h850l-47 -278h-88v176h-508l-58 -477h570l-15 -103h-569l-61 -512h522l37 179h88v-281h-793zM362 1462l234 189q18 16 34.5 18t22.5 2t21.5 -2t32.5 -18l188 -189l-45 -45l-203 131l-252 -131z" />
<glyph unicode="&#xcb;" horiz-adv-x="1021" d="M90 0l31 119l131 1063l-100 22l10 92h850l-47 -278h-88v176h-508l-58 -477h570l-15 -103h-569l-61 -512h522l37 179h88v-281h-793zM489 1434l29 231h96l-28 -231h-97zM684 1434l29 231h98l-29 -231h-98z" />
<glyph unicode="&#xcc;" horiz-adv-x="473" d="M92 0l29 119l131 1063l-100 22l10 92h219l-143 -1181l98 -23l-10 -92h-234zM111 1556l71 111l301 -221l-47 -45z" />
<glyph unicode="&#xcd;" horiz-adv-x="473" d="M92 0l29 119l131 1063l-100 22l10 92h219l-143 -1181l98 -23l-10 -92h-234zM111 1446l354 221l57 -119l-370 -147z" />
<glyph unicode="&#xce;" horiz-adv-x="473" d="M47 1462l234 189q18 16 34.5 18t22.5 2t21.5 -2t31.5 -18l189 -189l-45 -45l-203 131l-252 -131zM92 0l29 119l131 1063l-100 22l10 92h219l-143 -1181l98 -23l-10 -92h-234z" />
<glyph unicode="&#xcf;" horiz-adv-x="473" d="M92 0l29 119l131 1063l-100 22l10 92h219l-143 -1181l98 -23l-10 -92h-234zM160 1434l28 231h97l-29 -231h-96zM354 1434l29 231h98l-28 -231h-99z" />
<glyph unicode="&#xd0;" horiz-adv-x="1173" d="M39 639l147 29l66 514l-100 22l10 92h469q242 0 356.5 -134t114.5 -386q0 -186 -41 -330.5t-118 -244t-185.5 -150.5t-245.5 -51h-420l29 119l55 454l-125 -26zM236 102h258q125 0 216 49.5t151.5 137.5t89 211t28.5 270q0 201 -83 312.5t-267 111.5h-260l-64 -502 l268 58l15 -91l-293 -61z" />
<glyph unicode="&#xd1;" horiz-adv-x="1212" d="M90 0l29 113l133 1069l-100 22l10 92h278l412 -1169h10v84l119 971l-100 22l10 92h235l-30 -116l-144 -1180h-180l-407 1169h-11v-84l-118 -970l98 -23l-10 -92h-234zM428 1516l23 83q23 12 47 23q23 8 48 15.5t54 7.5q33 0 63.5 -6.5t63.5 -14.5t66.5 -14t72.5 -6 q25 0 50.5 7t60.5 19l-25 -84q-23 -14 -45 -22q-20 -10 -44.5 -16.5t-53.5 -6.5q-68 0 -133.5 20.5t-136.5 20.5q-25 0 -50.5 -7t-60.5 -19z" />
<glyph unicode="&#xd2;" horiz-adv-x="1167" d="M76 502q0 184 42 334.5t119.5 257t188.5 164t246 57.5q104 0 183 -38t132 -107.5t81 -168t28 -217.5q0 -184 -40 -332.5t-117 -253t-186.5 -160.5t-248.5 -56q-203 0 -315.5 138t-112.5 382zM197 526q0 -90 18 -171t57 -141t98.5 -96t141.5 -36q111 0 197 57.5t145 152.5 t91 218t32 256q0 92 -19.5 173t-59.5 142.5t-101.5 97t-143.5 35.5q-117 0 -202.5 -60t-142 -158.5t-84 -221.5t-27.5 -248zM506 1556l72 111l301 -221l-48 -45z" />
<glyph unicode="&#xd3;" horiz-adv-x="1167" d="M76 502q0 184 42 334.5t119.5 257t188.5 164t246 57.5q104 0 183 -38t132 -107.5t81 -168t28 -217.5q0 -184 -40 -332.5t-117 -253t-186.5 -160.5t-248.5 -56q-203 0 -315.5 138t-112.5 382zM197 526q0 -90 18 -171t57 -141t98.5 -96t141.5 -36q111 0 197 57.5t145 152.5 t91 218t32 256q0 92 -19.5 173t-59.5 142.5t-101.5 97t-143.5 35.5q-117 0 -202.5 -60t-142 -158.5t-84 -221.5t-27.5 -248zM489 1446l355 221l57 -119l-371 -147z" />
<glyph unicode="&#xd4;" horiz-adv-x="1167" d="M76 502q0 184 42 334.5t119.5 257t188.5 164t246 57.5q104 0 183 -38t132 -107.5t81 -168t28 -217.5q0 -184 -40 -332.5t-117 -253t-186.5 -160.5t-248.5 -56q-203 0 -315.5 138t-112.5 382zM197 526q0 -90 18 -171t57 -141t98.5 -96t141.5 -36q111 0 197 57.5t145 152.5 t91 218t32 256q0 92 -19.5 173t-59.5 142.5t-101.5 97t-143.5 35.5q-117 0 -202.5 -60t-142 -158.5t-84 -221.5t-27.5 -248zM408 1462l233 189q18 16 34.5 18t22.5 2t21.5 -2t32.5 -18l188 -189l-45 -45l-203 131l-252 -131z" />
<glyph unicode="&#xd5;" horiz-adv-x="1167" d="M76 502q0 184 42 334.5t119.5 257t188.5 164t246 57.5q104 0 183 -38t132 -107.5t81 -168t28 -217.5q0 -184 -40 -332.5t-117 -253t-186.5 -160.5t-248.5 -56q-203 0 -315.5 138t-112.5 382zM197 526q0 -90 18 -171t57 -141t98.5 -96t141.5 -36q111 0 197 57.5t145 152.5 t91 218t32 256q0 92 -19.5 173t-59.5 142.5t-101.5 97t-143.5 35.5q-117 0 -202.5 -60t-142 -158.5t-84 -221.5t-27.5 -248zM412 1516l22 83q23 12 47 23q23 8 48.5 15.5t54.5 7.5q33 0 63.5 -6.5t63 -14.5t66.5 -14t73 -6q25 0 50.5 7t60.5 19l-25 -84q-23 -14 -45 -22 q-20 -10 -45 -16.5t-53 -6.5q-68 0 -133.5 20.5t-137.5 20.5q-25 0 -50.5 -7t-59.5 -19z" />
<glyph unicode="&#xd6;" horiz-adv-x="1167" d="M76 502q0 184 42 334.5t119.5 257t188.5 164t246 57.5q104 0 183 -38t132 -107.5t81 -168t28 -217.5q0 -184 -40 -332.5t-117 -253t-186.5 -160.5t-248.5 -56q-203 0 -315.5 138t-112.5 382zM197 526q0 -90 18 -171t57 -141t98.5 -96t141.5 -36q111 0 197 57.5t145 152.5 t91 218t32 256q0 92 -19.5 173t-59.5 142.5t-101.5 97t-143.5 35.5q-117 0 -202.5 -60t-142 -158.5t-84 -221.5t-27.5 -248zM522 1434l29 231h96l-29 -231h-96zM717 1434l28 231h99l-29 -231h-98z" />
<glyph unicode="&#xd7;" d="M106 291l330 303l-254 299l51 47l256 -303l334 307l41 -47l-336 -303l265 -311l-52 -50l-264 312l-334 -303z" />
<glyph unicode="&#xd8;" horiz-adv-x="1167" d="M6 -82l162 229q-45 66 -68.5 155t-23.5 200q0 184 42 334.5t119.5 257t188.5 164t246 57.5q80 0 144.5 -23.5t115.5 -64.5l96 133h100l-139 -195q106 -141 107 -381q0 -184 -40 -332.5t-117 -253t-186.5 -160.5t-248.5 -56q-174 0 -283 102l-117 -166h-98zM197 526 q0 -76 12 -143.5t39 -124.5l614 868q-39 41 -91 64.5t-118 23.5q-117 0 -202.5 -60t-142 -158.5t-84 -221.5t-27.5 -248zM293 184q39 -47 93 -74.5t126 -27.5q111 0 197 57.5t145 152.5t91 218t32 256q0 82 -16.5 155.5t-49.5 133.5z" />
<glyph unicode="&#xd9;" horiz-adv-x="1167" d="M131 338q0 45 6 98l92 748l-88 20l11 92h206l-104 -852q-6 -49 -6 -92q0 -131 62.5 -199.5t209.5 -68.5q174 0 256 93t105 267l92 738l-101 22l11 92h219l-105 -860q-14 -117 -48 -203t-93 -141t-145 -82.5t-203 -27.5q-377 0 -377 356zM510 1556l72 111l301 -221 l-47 -45z" />
<glyph unicode="&#xda;" horiz-adv-x="1167" d="M131 338q0 45 6 98l92 748l-88 20l11 92h206l-104 -852q-6 -49 -6 -92q0 -131 62.5 -199.5t209.5 -68.5q174 0 256 93t105 267l92 738l-101 22l11 92h219l-105 -860q-14 -117 -48 -203t-93 -141t-145 -82.5t-203 -27.5q-377 0 -377 356zM487 1446l355 221l57 -119 l-371 -147z" />
<glyph unicode="&#xdb;" horiz-adv-x="1167" d="M131 338q0 45 6 98l92 748l-88 20l11 92h206l-104 -852q-6 -49 -6 -92q0 -131 62.5 -199.5t209.5 -68.5q174 0 256 93t105 267l92 738l-101 22l11 92h219l-105 -860q-14 -117 -48 -203t-93 -141t-145 -82.5t-203 -27.5q-377 0 -377 356zM403 1454l234 188 q18 16 34.5 18.5t22.5 2.5t21.5 -2t32.5 -19l188 -188l-45 -45l-203 131l-252 -131z" />
<glyph unicode="&#xdc;" horiz-adv-x="1167" d="M131 338q0 45 6 98l92 748l-88 20l11 92h206l-104 -852q-6 -49 -6 -92q0 -131 62.5 -199.5t209.5 -68.5q174 0 256 93t105 267l92 738l-101 22l11 92h219l-105 -860q-14 -117 -48 -203t-93 -141t-145 -82.5t-203 -27.5q-377 0 -377 356zM526 1434l29 231h96l-28 -231h-97 zM721 1434l29 231h98l-29 -231h-98z" />
<glyph unicode="&#xdd;" horiz-adv-x="937" d="M78 1204l10 92h150l208 -616l7 -66h12l20 66l310 506l-78 18l10 92h268l-491 -798l-62 -498h-219l10 92l107 23l47 383l-242 690zM399 1446l355 221l57 -119l-371 -147z" />
<glyph unicode="&#xde;" horiz-adv-x="1038" d="M94 0l29 119l131 1063l-102 22l10 92h221l-25 -213h232q92 0 168 -19.5t130 -60t83.5 -104t29.5 -151.5q0 -113 -35.5 -190t-97 -125t-145.5 -69.5t-180 -21.5h-277l-26 -227l112 -23l-10 -92h-248zM279 444h264q63 0 123.5 13.5t107.5 47.5t76 90t29 140 q0 135 -82 190.5t-224 55.5h-229z" />
<glyph unicode="&#xdf;" horiz-adv-x="1001" d="M66 883l10 73l129 21l8 59q23 174 113 270.5t262 96.5q63 0 118.5 -19.5t97.5 -56.5t65.5 -88t23.5 -113q0 -104 -48 -171.5t-122 -127.5l-74 -59l-2 -12l84 -105q29 -37 57.5 -74.5t51 -79.5t37 -88.5t14.5 -97.5q0 -88 -33 -150.5t-87 -102.5t-125 -58t-148 -18 q-45 0 -96.5 7t-77.5 17l38 96q27 -10 65 -17t85 -7q45 0 91 11t84 37t62.5 70t24.5 109q0 43 -17.5 87t-47 88t-67.5 88t-77 89q-23 27 -34 46.5t-11 44.5q0 35 20.5 58t49.5 46q49 39 84 69.5t58.5 59.5t34.5 61.5t11 75.5q0 82 -57 135.5t-143 53.5q-115 0 -176.5 -65.5 t-77.5 -207.5l-127 -1034h-123l26 117l95 766h-129z" />
<glyph unicode="&#xe0;" horiz-adv-x="989" d="M49 342q0 145 41 266t117 207t183.5 133t242.5 47q78 0 150.5 -6t109.5 -10l-29 -121l-94 -758l98 -14l-10 -86q-14 -4 -39.5 -12t-56.5 -8q-92 0 -92 98v100h-8q-10 -16 -33 -49t-62 -65.5t-95 -57t-130 -24.5q-72 0 -126 27.5t-91 75.5t-56.5 113.5t-19.5 143.5z M166 354q0 -53 10 -103t32.5 -89t59.5 -61.5t90 -22.5q88 0 152.5 49t109 134t72 198.5t43.5 242.5l25 189q-23 2 -45 4q-20 2 -44 4t-46 2q-106 0 -191.5 -39t-145 -110.5t-91 -172t-31.5 -225.5zM393 1276l72 110l301 -221l-47 -45z" />
<glyph unicode="&#xe1;" horiz-adv-x="989" d="M49 342q0 145 41 266t117 207t183.5 133t242.5 47q78 0 150.5 -6t109.5 -10l-29 -121l-94 -758l98 -14l-10 -86q-14 -4 -39.5 -12t-56.5 -8q-92 0 -92 98v100h-8q-10 -16 -33 -49t-62 -65.5t-95 -57t-130 -24.5q-72 0 -126 27.5t-91 75.5t-56.5 113.5t-19.5 143.5z M166 354q0 -53 10 -103t32.5 -89t59.5 -61.5t90 -22.5q88 0 152.5 49t109 134t72 198.5t43.5 242.5l25 189q-23 2 -45 4q-20 2 -44 4t-46 2q-106 0 -191.5 -39t-145 -110.5t-91 -172t-31.5 -225.5zM403 1165l355 221l57 -118l-371 -148z" />
<glyph unicode="&#xe2;" horiz-adv-x="989" d="M49 342q0 145 41 266t117 207t183.5 133t242.5 47q78 0 150.5 -6t109.5 -10l-29 -121l-94 -758l98 -14l-10 -86q-14 -4 -39.5 -12t-56.5 -8q-92 0 -92 98v100h-8q-10 -16 -33 -49t-62 -65.5t-95 -57t-130 -24.5q-72 0 -126 27.5t-91 75.5t-56.5 113.5t-19.5 143.5z M166 354q0 -53 10 -103t32.5 -89t59.5 -61.5t90 -22.5q88 0 152.5 49t109 134t72 198.5t43.5 242.5l25 189q-23 2 -45 4q-20 2 -44 4t-46 2q-106 0 -191.5 -39t-145 -110.5t-91 -172t-31.5 -225.5zM305 1182l234 188q18 16 34.5 18.5t22.5 2.5t21.5 -2.5t31.5 -18.5 l189 -188l-45 -45l-203 131l-252 -131z" />
<glyph unicode="&#xe3;" horiz-adv-x="989" d="M49 342q0 145 41 266t117 207t183.5 133t242.5 47q78 0 150.5 -6t109.5 -10l-29 -121l-94 -758l98 -14l-10 -86q-14 -4 -39.5 -12t-56.5 -8q-92 0 -92 98v100h-8q-10 -16 -33 -49t-62 -65.5t-95 -57t-130 -24.5q-72 0 -126 27.5t-91 75.5t-56.5 113.5t-19.5 143.5z M166 354q0 -53 10 -103t32.5 -89t59.5 -61.5t90 -22.5q88 0 152.5 49t109 134t72 198.5t43.5 242.5l25 189q-23 2 -45 4q-20 2 -44 4t-46 2q-106 0 -191.5 -39t-145 -110.5t-91 -172t-31.5 -225.5zM332 1235l22 84q23 12 47 22q23 8 48.5 15.5t54.5 7.5q33 0 63.5 -6 t63.5 -14.5t66.5 -14.5t72.5 -6q25 0 50.5 7t60.5 20l-25 -84q-23 -14 -45 -23q-20 -10 -45 -16t-53 -6q-68 0 -133.5 20.5t-137.5 20.5q-25 0 -50 -7.5t-60 -19.5z" />
<glyph unicode="&#xe4;" horiz-adv-x="989" d="M49 342q0 145 41 266t117 207t183.5 133t242.5 47q78 0 150.5 -6t109.5 -10l-29 -121l-94 -758l98 -14l-10 -86q-14 -4 -39.5 -12t-56.5 -8q-92 0 -92 98v100h-8q-10 -16 -33 -49t-62 -65.5t-95 -57t-130 -24.5q-72 0 -126 27.5t-91 75.5t-56.5 113.5t-19.5 143.5z M166 354q0 -53 10 -103t32.5 -89t59.5 -61.5t90 -22.5q88 0 152.5 49t109 134t72 198.5t43.5 242.5l25 189q-23 2 -45 4q-20 2 -44 4t-46 2q-106 0 -191.5 -39t-145 -110.5t-91 -172t-31.5 -225.5zM426 1153l29 231h96l-29 -231h-96zM621 1153l28 231h99l-29 -231h-98z" />
<glyph unicode="&#xe5;" horiz-adv-x="989" d="M49 342q0 145 41 266t117 207t183.5 133t242.5 47q78 0 150.5 -6t109.5 -10l-29 -121l-94 -758l98 -14l-10 -86q-14 -4 -39.5 -12t-56.5 -8q-92 0 -92 98v100h-8q-10 -16 -33 -49t-62 -65.5t-95 -57t-130 -24.5q-72 0 -126 27.5t-91 75.5t-56.5 113.5t-19.5 143.5z M166 354q0 -53 10 -103t32.5 -89t59.5 -61.5t90 -22.5q88 0 152.5 49t109 134t72 198.5t43.5 242.5l25 189q-23 2 -45 4q-20 2 -44 4t-46 2q-106 0 -191.5 -39t-145 -110.5t-91 -172t-31.5 -225.5zM403 1233q0 49 18.5 83t48.5 55.5t67.5 30.5t76.5 9q78 0 129.5 -39.5 t51.5 -111.5q0 -49 -18.5 -83t-48.5 -55.5t-67.5 -31t-76.5 -9.5q-78 0 -129.5 40t-51.5 112zM502 1239q0 -41 27.5 -61.5t62.5 -20.5q49 0 76.5 23.5t27.5 72.5q0 41 -26.5 61.5t-61.5 20.5q-49 0 -77.5 -23.5t-28.5 -72.5z" />
<glyph unicode="&#xe6;" horiz-adv-x="1519" d="M33 231q0 96 46 166t123 117t178 74.5t212 38.5l123 12q25 68 63.5 132.5t94 114.5t124 79.5t152.5 29.5q61 0 113.5 -15t91.5 -47t61.5 -79t22.5 -109q0 -96 -46 -165.5t-123 -116.5t-178.5 -75t-211.5 -38l-105 -10q0 -127 79 -194.5t220 -67.5q41 0 85 9t71 19l31 154 h81v-229q-27 -10 -63.5 -18.5t-76.5 -15.5t-80 -11t-70 -4q-141 0 -227.5 53t-127.5 151h-14q-70 -96 -160 -150t-200 -54q-61 0 -113.5 15t-91.5 47t-61.5 79t-22.5 108zM158 238q0 -66 48 -113t124 -47t136 37t106 99t76 147t42 182l-94 -11q-86 -8 -165 -27.5t-139.5 -54 t-97 -87t-36.5 -125.5zM780 434l94 10q86 8 165 28t139.5 54.5t97.5 87t37 125.5q0 66 -48 113t-124 47t-136.5 -37t-106.5 -99.5t-75.5 -147.5t-42.5 -181z" />
<glyph unicode="&#xe7;" horiz-adv-x="821" d="M49 391q0 133 37 243.5t106.5 190.5t167 125t218.5 45q53 0 112.5 -8t112.5 -20l-49 -250h-82v170q-27 6 -52.5 10t-54.5 4q-96 0 -171 -39t-127 -106.5t-78.5 -158.5t-26.5 -196q0 -66 16.5 -125t48 -103t80.5 -70.5t115 -26.5q100 0 167.5 39t112.5 84v-125 q-8 -8 -28.5 -21.5t-53 -28t-76.5 -26.5t-98 -14l-10 -82q51 0 90 -29t39 -86q0 -39 -19.5 -66.5t-50 -45t-68.5 -25.5t-75 -8q-41 0 -73.5 6t-47.5 10l23 68q14 -4 41 -9.5t55 -5.5q45 0 77 14.5t32 53.5q0 25 -22.5 40t-57.5 15q-14 0 -24.5 -1t-26.5 -3l39 156 q-152 16 -235 124.5t-83 280.5z" />
<glyph unicode="&#xe8;" horiz-adv-x="933" d="M55 383q0 139 41 253t110.5 193.5t161 122.5t189.5 43q61 0 114.5 -16t93.5 -48t63.5 -76t23.5 -99q0 -96 -51 -158.5t-131 -100.5t-179.5 -57.5t-195.5 -29.5l-119 -13v-8q0 -150 70.5 -230.5t230.5 -80.5q41 0 90 9t76 19l31 154h82v-229q-27 -10 -66 -18.5t-81 -15.5 t-83 -11t-71 -4q-201 0 -300.5 107.5t-99.5 293.5zM186 492l95 10q76 8 155.5 22.5t144 42t105.5 71.5t41 112q0 72 -50 112.5t-130 40.5q-72 0 -132.5 -31.5t-108.5 -88t-78.5 -131t-41.5 -160.5zM379 1276l72 110l301 -221l-47 -45z" />
<glyph unicode="&#xe9;" horiz-adv-x="933" d="M55 383q0 139 41 253t110.5 193.5t161 122.5t189.5 43q61 0 114.5 -16t93.5 -48t63.5 -76t23.5 -99q0 -96 -51 -158.5t-131 -100.5t-179.5 -57.5t-195.5 -29.5l-119 -13v-8q0 -150 70.5 -230.5t230.5 -80.5q41 0 90 9t76 19l31 154h82v-229q-27 -10 -66 -18.5t-81 -15.5 t-83 -11t-71 -4q-201 0 -300.5 107.5t-99.5 293.5zM186 492l95 10q76 8 155.5 22.5t144 42t105.5 71.5t41 112q0 72 -50 112.5t-130 40.5q-72 0 -132.5 -31.5t-108.5 -88t-78.5 -131t-41.5 -160.5zM369 1165l354 221l57 -118l-370 -148z" />
<glyph unicode="&#xea;" horiz-adv-x="933" d="M55 383q0 139 41 253t110.5 193.5t161 122.5t189.5 43q61 0 114.5 -16t93.5 -48t63.5 -76t23.5 -99q0 -96 -51 -158.5t-131 -100.5t-179.5 -57.5t-195.5 -29.5l-119 -13v-8q0 -150 70.5 -230.5t230.5 -80.5q41 0 90 9t76 19l31 154h82v-229q-27 -10 -66 -18.5t-81 -15.5 t-83 -11t-71 -4q-201 0 -300.5 107.5t-99.5 293.5zM186 492l95 10q76 8 155.5 22.5t144 42t105.5 71.5t41 112q0 72 -50 112.5t-130 40.5q-72 0 -132.5 -31.5t-108.5 -88t-78.5 -131t-41.5 -160.5zM291 1182l233 188q18 16 34.5 18.5t23.5 2.5q6 0 21 -2.5t32 -18.5 l188 -188l-45 -45l-203 131l-251 -131z" />
<glyph unicode="&#xeb;" horiz-adv-x="933" d="M55 383q0 139 41 253t110.5 193.5t161 122.5t189.5 43q61 0 114.5 -16t93.5 -48t63.5 -76t23.5 -99q0 -96 -51 -158.5t-131 -100.5t-179.5 -57.5t-195.5 -29.5l-119 -13v-8q0 -150 70.5 -230.5t230.5 -80.5q41 0 90 9t76 19l31 154h82v-229q-27 -10 -66 -18.5t-81 -15.5 t-83 -11t-71 -4q-201 0 -300.5 107.5t-99.5 293.5zM186 492l95 10q76 8 155.5 22.5t144 42t105.5 71.5t41 112q0 72 -50 112.5t-130 40.5q-72 0 -132.5 -31.5t-108.5 -88t-78.5 -131t-41.5 -160.5zM406 1153l28 231h96l-28 -231h-96zM600 1153l29 231h98l-29 -231h-98z" />
<glyph unicode="&#xec;" horiz-adv-x="411" d="M72 1276l71 110l301 -221l-47 -45zM88 879l10 88l209 20l-108 -887l98 -14l-10 -86q-14 -4 -40 -12t-57 -8q-59 0 -79.5 33.5t-20.5 88.5q0 12 4 51.5t10.5 94.5t14.5 122.5t16 137.5q20 162 47 360z" />
<glyph unicode="&#xed;" horiz-adv-x="411" d="M61 1165l355 221l57 -118l-371 -148zM88 879l10 88l209 20l-108 -887l98 -14l-10 -86q-14 -4 -40 -12t-57 -8q-59 0 -79.5 33.5t-20.5 88.5q0 12 4 51.5t10.5 94.5t14.5 122.5t16 137.5q20 162 47 360z" />
<glyph unicode="&#xee;" horiz-adv-x="411" d="M-10 1182l231 188q18 16 34.5 18.5t23.5 2.5q6 0 21 -2.5t32 -18.5l188 -188l-45 -45l-211 131l-241 -131zM88 879l10 88l209 20l-108 -887l98 -14l-10 -86q-14 -4 -40 -12t-57 -8q-59 0 -79.5 33.5t-20.5 88.5q0 12 4 51.5t10.5 94.5t14.5 122.5t16 137.5q20 162 47 360 z" />
<glyph unicode="&#xef;" horiz-adv-x="411" d="M88 879l10 88l209 20l-108 -887l98 -14l-10 -86q-14 -4 -40 -12t-57 -8q-59 0 -79.5 33.5t-20.5 88.5q0 12 4 51.5t10.5 94.5t14.5 122.5t16 137.5q20 162 47 360zM94 1153l29 231h96l-29 -231h-96zM289 1153l28 231h99l-29 -231h-98z" />
<glyph unicode="&#xf0;" horiz-adv-x="944" d="M37 377q0 113 31.5 208t92 164.5t145.5 108.5t192 39q20 0 48.5 -2t39.5 -6l39 -23l4 6l-137 242l-181 -41l-6 70l150 33l-113 198l113 29q27 -49 55.5 -100.5t56.5 -102.5l174 39l7 -68l-146 -32q39 -72 76 -139.5t66.5 -124t50 -99.5t28.5 -63q37 -98 37 -213 q0 -121 -29.5 -216.5t-88 -163t-143.5 -103t-193 -35.5q-90 0 -159 29.5t-116 81.5t-70.5 125t-23.5 159zM152 387q0 -61 15 -117.5t47 -99.5t82 -68.5t120 -25.5q84 0 146.5 33.5t102.5 91t59 132.5t19 159q0 66 -14 122t-45 97t-80 64.5t-121 23.5q-84 0 -145.5 -33 t-103 -89t-62 -131t-20.5 -159z" />
<glyph unicode="&#xf1;" horiz-adv-x="1003" d="M74 0l106 874l-98 15l10 86q14 4 40 12t56 8q92 0 99 -98l4 -61h8q47 66 118.5 112.5t172.5 46.5q129 0 200.5 -73.5t71.5 -200.5q0 -14 -1 -28.5t-3 -30.5l-67 -562l98 -14l-10 -86q-14 -4 -40 -12t-57 -8q-59 0 -79.5 32.5t-20.5 89.5q0 12 3 42t7 71t10.5 89t12.5 97 q14 115 35 254q2 10 3 25.5t1 26.5q0 86 -46 140t-133 54q-78 0 -135 -33.5t-98 -91t-64.5 -131.5t-33.5 -156l-60 -489h-110zM305 1235l23 84q23 12 47 22q23 8 48.5 15.5t53.5 7.5q33 0 63.5 -6t63.5 -14.5t67 -14.5t72 -6q25 0 50.5 7t60.5 20l-25 -84q-23 -14 -45 -23 q-20 -10 -44.5 -16t-53.5 -6q-68 0 -133.5 20.5t-136.5 20.5q-25 0 -50.5 -7.5t-60.5 -19.5z" />
<glyph unicode="&#xf2;" horiz-adv-x="970" d="M55 377q0 141 32 254.5t92.5 194.5t148.5 125t200 44q176 0 265.5 -108.5t89.5 -290.5q0 -141 -32 -255t-92.5 -193.5t-149.5 -122.5t-201 -43q-176 0 -264.5 107.5t-88.5 287.5zM166 387q0 -66 13.5 -122t44 -98t77.5 -66.5t115 -24.5q90 0 156.5 41t111.5 109.5 t66.5 160.5t21.5 195q0 68 -14.5 126t-45 101t-79.5 67.5t-117 24.5q-90 0 -156.5 -42t-109.5 -112.5t-63.5 -164t-20.5 -195.5zM373 1276l71 110l301 -221l-47 -45z" />
<glyph unicode="&#xf3;" horiz-adv-x="970" d="M55 377q0 141 32 254.5t92.5 194.5t148.5 125t200 44q176 0 265.5 -108.5t89.5 -290.5q0 -141 -32 -255t-92.5 -193.5t-149.5 -122.5t-201 -43q-176 0 -264.5 107.5t-88.5 287.5zM166 387q0 -66 13.5 -122t44 -98t77.5 -66.5t115 -24.5q90 0 156.5 41t111.5 109.5 t66.5 160.5t21.5 195q0 68 -14.5 126t-45 101t-79.5 67.5t-117 24.5q-90 0 -156.5 -42t-109.5 -112.5t-63.5 -164t-20.5 -195.5zM346 1165l354 221l58 -118l-371 -148z" />
<glyph unicode="&#xf4;" horiz-adv-x="970" d="M55 377q0 141 32 254.5t92.5 194.5t148.5 125t200 44q176 0 265.5 -108.5t89.5 -290.5q0 -141 -32 -255t-92.5 -193.5t-149.5 -122.5t-201 -43q-176 0 -264.5 107.5t-88.5 287.5zM166 387q0 -66 13.5 -122t44 -98t77.5 -66.5t115 -24.5q90 0 156.5 41t111.5 109.5 t66.5 160.5t21.5 195q0 68 -14.5 126t-45 101t-79.5 67.5t-117 24.5q-90 0 -156.5 -42t-109.5 -112.5t-63.5 -164t-20.5 -195.5zM279 1182l233 188q18 16 34.5 18.5t22.5 2.5t21.5 -2.5t32.5 -18.5l188 -188l-45 -45l-203 131l-252 -131z" />
<glyph unicode="&#xf5;" horiz-adv-x="970" d="M55 377q0 141 32 254.5t92.5 194.5t148.5 125t200 44q176 0 265.5 -108.5t89.5 -290.5q0 -141 -32 -255t-92.5 -193.5t-149.5 -122.5t-201 -43q-176 0 -264.5 107.5t-88.5 287.5zM166 387q0 -66 13.5 -122t44 -98t77.5 -66.5t115 -24.5q90 0 156.5 41t111.5 109.5 t66.5 160.5t21.5 195q0 68 -14.5 126t-45 101t-79.5 67.5t-117 24.5q-90 0 -156.5 -42t-109.5 -112.5t-63.5 -164t-20.5 -195.5zM303 1235l23 84q23 12 47 22q23 8 48 15.5t54 7.5q33 0 63.5 -6t63.5 -14.5t66.5 -14.5t72.5 -6q25 0 50.5 7t60.5 20l-25 -84q-23 -14 -45 -23 q-20 -10 -44.5 -16t-53.5 -6q-68 0 -133.5 20.5t-136.5 20.5q-25 0 -50.5 -7.5t-60.5 -19.5z" />
<glyph unicode="&#xf6;" horiz-adv-x="970" d="M55 377q0 141 32 254.5t92.5 194.5t148.5 125t200 44q176 0 265.5 -108.5t89.5 -290.5q0 -141 -32 -255t-92.5 -193.5t-149.5 -122.5t-201 -43q-176 0 -264.5 107.5t-88.5 287.5zM166 387q0 -66 13.5 -122t44 -98t77.5 -66.5t115 -24.5q90 0 156.5 41t111.5 109.5 t66.5 160.5t21.5 195q0 68 -14.5 126t-45 101t-79.5 67.5t-117 24.5q-90 0 -156.5 -42t-109.5 -112.5t-63.5 -164t-20.5 -195.5zM403 1153l29 231h96l-28 -231h-97zM598 1153l29 231h98l-29 -231h-98z" />
<glyph unicode="&#xf7;" d="M84 551l8 63h787l-9 -63h-786zM371 240q0 43 21.5 66.5t53.5 23.5q29 0 45.5 -19.5t16.5 -50.5q0 -37 -16.5 -64.5t-57.5 -27.5q-29 0 -46 19.5t-17 52.5zM451 887q0 43 21.5 66.5t53.5 23.5q29 0 45.5 -19.5t16.5 -50.5q0 -37 -16.5 -64.5t-57.5 -27.5q-29 0 -46 19.5 t-17 52.5z" />
<glyph unicode="&#xf8;" horiz-adv-x="970" d="M25 -82l120 170q-90 102 -90 289q0 141 32 254.5t92.5 194.5t148.5 125t200 44q129 0 215 -63l95 131h100l-135 -191q80 -102 80 -276q0 -141 -32 -255t-92.5 -193.5t-149.5 -122.5t-201 -43q-121 0 -203 53l-82 -117h-98zM166 387q0 -59 10 -111.5t35 -93.5l469 660 q-29 29 -70 44t-94 15q-90 0 -156.5 -42t-109.5 -112.5t-63.5 -164t-20.5 -195.5zM266 121q29 -23 66 -34t84 -11q90 0 156.5 41t111.5 109.5t66.5 160.5t21.5 195q0 111 -41 192z" />
<glyph unicode="&#xf9;" horiz-adv-x="1003" d="M74 889l10 86q14 4 40 12t56 8q59 0 80 -32.5t21 -90.5q0 -12 -3.5 -41.5t-8.5 -70.5t-11 -89t-12 -98q-14 -115 -33 -254q-2 -10 -3 -25t-1 -26q0 -86 46 -140t132 -54q78 0 135.5 33.5t98.5 90t64.5 131t33.5 156.5l47 387l-96 17l10 86h209l-107 -875l99 -14l-11 -86 q-14 -4 -39.5 -12t-56.5 -8q-92 0 -98 98l-4 61h-8q-47 -66 -119 -112.5t-172 -46.5q-129 0 -201 73.5t-72 200.5q0 14 1 28.5t3 30.5l68 561zM373 1276l71 110l301 -221l-47 -45z" />
<glyph unicode="&#xfa;" horiz-adv-x="1003" d="M74 889l10 86q14 4 40 12t56 8q59 0 80 -32.5t21 -90.5q0 -12 -3.5 -41.5t-8.5 -70.5t-11 -89t-12 -98q-14 -115 -33 -254q-2 -10 -3 -25t-1 -26q0 -86 46 -140t132 -54q78 0 135.5 33.5t98.5 90t64.5 131t33.5 156.5l47 387l-96 17l10 86h209l-107 -875l99 -14l-11 -86 q-14 -4 -39.5 -12t-56.5 -8q-92 0 -98 98l-4 61h-8q-47 -66 -119 -112.5t-172 -46.5q-129 0 -201 73.5t-72 200.5q0 14 1 28.5t3 30.5l68 561zM385 1165l354 221l58 -118l-371 -148z" />
<glyph unicode="&#xfb;" horiz-adv-x="1003" d="M74 889l10 86q14 4 40 12t56 8q59 0 80 -32.5t21 -90.5q0 -12 -3.5 -41.5t-8.5 -70.5t-11 -89t-12 -98q-14 -115 -33 -254q-2 -10 -3 -25t-1 -26q0 -86 46 -140t132 -54q78 0 135.5 33.5t98.5 90t64.5 131t33.5 156.5l47 387l-96 17l10 86h209l-107 -875l99 -14l-11 -86 q-14 -4 -39.5 -12t-56.5 -8q-92 0 -98 98l-4 61h-8q-47 -66 -119 -112.5t-172 -46.5q-129 0 -201 73.5t-72 200.5q0 14 1 28.5t3 30.5l68 561zM285 1182l233 188q18 16 34.5 18.5t22.5 2.5t21.5 -2.5t32.5 -18.5l188 -188l-45 -45l-203 131l-252 -131z" />
<glyph unicode="&#xfc;" horiz-adv-x="1003" d="M74 889l10 86q14 4 40 12t56 8q59 0 80 -32.5t21 -90.5q0 -12 -3.5 -41.5t-8.5 -70.5t-11 -89t-12 -98q-14 -115 -33 -254q-2 -10 -3 -25t-1 -26q0 -86 46 -140t132 -54q78 0 135.5 33.5t98.5 90t64.5 131t33.5 156.5l47 387l-96 17l10 86h209l-107 -875l99 -14l-11 -86 q-14 -4 -39.5 -12t-56.5 -8q-92 0 -98 98l-4 61h-8q-47 -66 -119 -112.5t-172 -46.5q-129 0 -201 73.5t-72 200.5q0 14 1 28.5t3 30.5l68 561zM393 1145l29 231h96l-29 -231h-96zM588 1145l28 231h99l-29 -231h-98z" />
<glyph unicode="&#xfd;" horiz-adv-x="870" d="M-92 -256q6 -2 18.5 -3t20.5 -1q57 0 99 14.5t83 52t88 104t113 171.5h-54l-167 786l-70 13l10 86l150 20l166 -762v-80h8q47 78 94 168t88 181.5t71.5 174.5t43.5 146l-31 162q14 8 33.5 14t36.5 6q47 0 68.5 -29.5t21.5 -74.5q0 -57 -37 -168t-107 -262 q-31 -68 -68.5 -141.5t-76.5 -141t-73 -124t-54 -89.5q-53 -82 -100 -143.5t-96.5 -101t-105.5 -59t-126 -19.5q-12 0 -27.5 2t-19.5 4v94zM303 1165l354 221l58 -118l-371 -148z" />
<glyph unicode="&#xfe;" horiz-adv-x="983" d="M18 -350l27 114l184 1508l-98 14l10 86q14 4 40 12.5t57 8.5q45 0 74.5 -21.5t29.5 -62.5q0 -16 -2 -31.5t-2 -20.5l-51 -419h10q6 8 28.5 34.5t59.5 53t89 48t122 21.5q76 0 133 -28.5t95 -77.5t57.5 -114.5t19.5 -139.5q0 -145 -38 -263t-113.5 -201t-192.5 -127 t-272 -44h-101l-28 -227l110 -15l-12 -86zM197 104q14 -4 32 -6q16 -2 36 -3t42 -1q229 0 354 141.5t125 387.5q0 55 -12 106t-36.5 89t-64.5 60.5t-95 22.5q-86 0 -148.5 -47t-105.5 -128t-69 -188.5t-38 -228.5z" />
<glyph unicode="&#xff;" horiz-adv-x="870" d="M-92 -256q6 -2 18.5 -3t20.5 -1q57 0 99 14.5t83 52t88 104t113 171.5h-54l-167 786l-70 13l10 86l150 20l166 -762v-80h8q47 78 94 168t88 181.5t71.5 174.5t43.5 146l-31 162q14 8 33.5 14t36.5 6q47 0 68.5 -29.5t21.5 -74.5q0 -57 -37 -168t-107 -262 q-31 -68 -68.5 -141.5t-76.5 -141t-73 -124t-54 -89.5q-53 -82 -100 -143.5t-96.5 -101t-105.5 -59t-126 -19.5q-12 0 -27.5 2t-19.5 4v94zM332 1153l28 231h97l-29 -231h-96zM526 1153l29 231h98l-28 -231h-99z" />
<glyph unicode="&#x152;" horiz-adv-x="1634" d="M74 496q0 201 48 351t135 249.5t209 149.5t267 50h891l-47 -278h-88v176h-485l-58 -477h547l-14 -103h-547l-62 -512h500l37 179h88v-281h-979q-221 0 -331.5 127t-110.5 369zM195 512q0 -90 18 -165t58 -130t105.5 -86t160.5 -31h217l133 1096h-162q-135 0 -234.5 -49 t-166 -138t-98 -216t-31.5 -281z" />
<glyph unicode="&#x153;" horiz-adv-x="1605" d="M55 377q0 141 30 254.5t88 194.5t145.5 125t199.5 44q123 0 202 -55t114 -154h12q72 100 171 154.5t212 54.5q61 0 114.5 -16t93.5 -48t63.5 -76t23.5 -99q0 -96 -51.5 -158.5t-131 -100.5t-179 -57.5t-195.5 -29.5l-119 -13v-8q0 -150 70.5 -230.5t230.5 -80.5 q41 0 90 9t76 19l31 154h81v-229q-27 -10 -65.5 -18.5t-80.5 -15.5t-83 -11t-72 -4q-135 0 -222 48t-132 138h-16q-59 -90 -148.5 -138t-210.5 -48q-176 0 -259 107.5t-83 287.5zM166 387q0 -66 12 -122t40 -98t74 -66.5t114 -24.5q90 0 155.5 41t107.5 109.5t62.5 160.5 t20.5 195q0 68 -12.5 126t-42 101t-77 67.5t-114.5 24.5q-90 0 -154.5 -42t-105.5 -112.5t-60.5 -164t-19.5 -195.5zM858 492l94 10q76 8 156 22.5t144.5 42t105.5 71.5t41 112q0 72 -50.5 112.5t-129.5 40.5q-72 0 -132.5 -31.5t-108.5 -88t-79 -131t-41 -160.5z" />
<glyph unicode="&#x178;" horiz-adv-x="937" d="M78 1204l10 92h150l208 -616l7 -66h12l20 66l310 506l-78 18l10 92h268l-491 -798l-62 -498h-219l10 92l107 23l47 383l-242 690zM418 1434l28 231h97l-29 -231h-96zM612 1434l29 231h98l-28 -231h-99z" />
<glyph unicode="&#x2c6;" horiz-adv-x="1013" d="M309 1182l234 188q18 16 34.5 18.5t22.5 2.5t21.5 -2.5t31.5 -18.5l189 -188l-45 -45l-203 131l-252 -131z" />
<glyph unicode="&#x2dc;" horiz-adv-x="1013" d="M315 1235l23 84q23 12 47 22q23 8 48.5 15.5t53.5 7.5q33 0 64 -6t63.5 -14.5t66.5 -14.5t73 -6q25 0 50 7t60 20l-24 -84q-23 -14 -45 -23q-20 -10 -45 -16t-54 -6q-68 0 -133 20.5t-137 20.5q-25 0 -50.5 -7.5t-60.5 -19.5z" />
<glyph unicode="&#x2000;" horiz-adv-x="847" />
<glyph unicode="&#x2001;" horiz-adv-x="1694" />
<glyph unicode="&#x2002;" horiz-adv-x="847" />
<glyph unicode="&#x2003;" horiz-adv-x="1694" />
<glyph unicode="&#x2004;" horiz-adv-x="564" />
<glyph unicode="&#x2005;" horiz-adv-x="423" />
<glyph unicode="&#x2006;" horiz-adv-x="282" />
<glyph unicode="&#x2007;" horiz-adv-x="282" />
<glyph unicode="&#x2008;" horiz-adv-x="211" />
<glyph unicode="&#x2009;" horiz-adv-x="338" />
<glyph unicode="&#x200a;" horiz-adv-x="94" />
<glyph unicode="&#x2010;" horiz-adv-x="688" d="M94 461l8 61h439l-9 -61h-438z" />
<glyph unicode="&#x2011;" horiz-adv-x="688" d="M94 461l8 61h439l-9 -61h-438z" />
<glyph unicode="&#x2012;" horiz-adv-x="688" d="M94 461l8 61h439l-9 -61h-438z" />
<glyph unicode="&#x2013;" horiz-adv-x="1026" d="M-18 461l8 65h1024l-8 -65h-1024z" />
<glyph unicode="&#x2014;" horiz-adv-x="2050" d="M-18 461l8 65h2048l-8 -65h-2048z" />
<glyph unicode="&#x2018;" horiz-adv-x="360" d="M152 1049q0 35 13 65.5t36 65.5l88 131l53 -4l-88 -168q18 -4 27.5 -22.5t9.5 -41.5q0 -33 -18.5 -65.5t-59.5 -32.5q-29 0 -45 20.5t-16 51.5z" />
<glyph unicode="&#x2019;" horiz-adv-x="360" d="M125 819l88 168q-18 4 -27.5 22.5t-9.5 41.5q0 33 18.5 65.5t59.5 32.5q29 0 45 -20.5t16 -51.5q0 -35 -13 -65.5t-36 -65.5l-88 -131z" />
<glyph unicode="&#x201a;" horiz-adv-x="360" d="M4 -170l88 168q-18 4 -27.5 22.5t-9.5 40.5q0 33 18.5 66t59.5 33q29 0 45.5 -20.5t16.5 -51.5q0 -35 -13.5 -65.5t-36.5 -65.5l-88 -131z" />
<glyph unicode="&#x201c;" horiz-adv-x="643" d="M152 1049q0 35 13 65.5t36 65.5l88 131l53 -4l-88 -168q18 -4 27.5 -22.5t9.5 -41.5q0 -33 -18.5 -65.5t-59.5 -32.5q-29 0 -45 20.5t-16 51.5zM430 1049q0 35 13.5 65.5t35.5 65.5l88 131l54 -4l-89 -168q18 -4 27.5 -22.5t9.5 -41.5q0 -33 -18.5 -65.5t-58.5 -32.5 q-29 0 -45.5 20.5t-16.5 51.5z" />
<glyph unicode="&#x201d;" horiz-adv-x="643" d="M125 819l88 168q-18 4 -27.5 22.5t-9.5 41.5q0 33 18.5 65.5t59.5 32.5q29 0 45 -20.5t16 -51.5q0 -35 -13 -65.5t-36 -65.5l-88 -131zM403 819l89 168q-18 4 -27.5 22.5t-9.5 41.5q0 33 18.5 65.5t58.5 32.5q29 0 45.5 -20.5t16.5 -51.5q0 -35 -13.5 -65.5t-35.5 -65.5 l-88 -131z" />
<glyph unicode="&#x201e;" horiz-adv-x="643" d="M4 -170l88 168q-18 4 -27.5 22.5t-9.5 40.5q0 33 18.5 66t59.5 33q29 0 45.5 -20.5t16.5 -51.5q0 -35 -13.5 -65.5t-36.5 -65.5l-88 -131zM283 -170l88 168q-18 4 -27.5 22.5t-9.5 40.5q0 33 18.5 66t59.5 33q29 0 45 -20.5t16 -51.5q0 -35 -13.5 -65.5t-35.5 -65.5 l-88 -131z" />
<glyph unicode="&#x2022;" horiz-adv-x="612" d="M141 547q0 78 42 134t130 56q63 0 103.5 -42t40.5 -113q0 -88 -50.5 -135.5t-121.5 -47.5q-61 0 -102.5 40t-41.5 108z" />
<glyph unicode="&#x2026;" horiz-adv-x="925" d="M53 53q0 43 21.5 66.5t54.5 23.5q29 0 45 -19.5t16 -49.5q0 -37 -16 -64.5t-57 -27.5q-29 0 -46.5 19t-17.5 52zM340 53q0 43 21.5 66.5t54.5 23.5q29 0 45 -19.5t16 -49.5q0 -37 -16.5 -64.5t-57.5 -27.5q-29 0 -46 19t-17 52zM627 53q0 43 21.5 66.5t53.5 23.5 q29 0 45.5 -19.5t16.5 -49.5q0 -37 -16.5 -64.5t-57.5 -27.5q-29 0 -46 19t-17 52z" />
<glyph unicode="&#x202f;" horiz-adv-x="338" />
<glyph unicode="&#x2039;" horiz-adv-x="651" d="M109 553l444 434l39 -49l-393 -385l299 -393l-56 -45z" />
<glyph unicode="&#x203a;" horiz-adv-x="651" d="M37 162l399 391l-303 387l57 45l336 -432l-446 -440z" />
<glyph unicode="&#x2044;" horiz-adv-x="280" d="M-246 0l750 1190h76l-754 -1190h-72z" />
<glyph unicode="&#x205f;" horiz-adv-x="423" />
<glyph unicode="&#x2070;" horiz-adv-x="546" d="M74 821q0 172 74.5 275.5t197.5 103.5q92 0 142.5 -65.5t50.5 -176.5q0 -174 -75 -274t-198 -100q-92 0 -142 63t-50 174zM137 823q0 -78 33 -133t106 -55q47 0 85 28.5t64 73.5t39 101.5t13 111.5q0 86 -31.5 142.5t-109.5 56.5q-49 0 -87 -29.5t-62.5 -77t-37 -106 t-12.5 -113.5z" />
<glyph unicode="&#x2074;" horiz-adv-x="540" d="M70 721l8 67l323 402h91l-54 -414h72l-6 -55h-70l-14 -125h-62l15 125h-303zM133 776h244l41 324l14 33h-8l-264 -334l-27 -15v-8z" />
<glyph unicode="&#x2075;" horiz-adv-x="495" d="M47 602l27 146h47v-101q16 -4 36.5 -6t39.5 -2q37 0 73.5 7t65.5 23.5t46 43t17 65.5t-20.5 62.5t-53 38t-70.5 19.5t-73 5h-55l35 287h323l-8 -60l-61 7h-199l-22 -181q55 0 104 -9t85 -29.5t57.5 -53.5t21.5 -80q0 -53 -21.5 -91t-58.5 -61.5t-85 -34.5t-99 -11 q-35 0 -73 3t-79 13z" />
<glyph unicode="&#x2076;" horiz-adv-x="520" d="M78 829q0 166 77.5 268.5t231.5 102.5q37 0 74 -5t65 -13l-28 -146h-45v105q-25 6 -70 6q-96 0 -154.5 -55.5t-74.5 -151.5q41 4 67.5 6t52.5 2q100 0 163 -40t63 -126q0 -98 -62.5 -148t-161.5 -50q-106 0 -152 69.5t-46 175.5zM141 831q0 -82 32 -137t116 -55 q66 0 107.5 35.5t41.5 101.5t-49 93.5t-127 27.5q-33 0 -61.5 -2t-55.5 -6q-4 -23 -4 -33v-25z" />
<glyph unicode="&#x2077;" horiz-adv-x="446" d="M80 1036v154h409l-10 -74q-86 -72 -137 -137.5t-78.5 -126.5t-38 -119.5t-16.5 -111.5l-2 -25h-72l2 25q6 53 17.5 111.5t38 120.5t73.5 130t125 139l35 8v9h-274l-19 -103h-53z" />
<glyph unicode="&#x2078;" horiz-adv-x="550" d="M78 731q0 63 38 103t97 65v8q-84 39 -84 123q0 41 18.5 73t49 53.5t70.5 32.5t85 11q78 0 133.5 -38t55.5 -107q0 -53 -34 -90t-95 -66v-8q47 -25 71.5 -56.5t24.5 -76.5t-19.5 -78t-52.5 -54.5t-73.5 -31.5t-86.5 -10q-86 0 -142 40t-56 107zM143 739q0 -47 38 -74.5 t98 -27.5q66 0 113.5 26.5t47.5 86.5q0 47 -35.5 73.5t-93.5 42.5l-26 6q-55 -16 -98.5 -45.5t-43.5 -87.5zM197 1038q0 -49 34.5 -69.5t81.5 -36.5l29 -8q20 6 44 16t44.5 25.5t32.5 36t12 49.5q0 45 -38 70.5t-93 25.5q-53 0 -100 -25.5t-47 -83.5z" />
<glyph unicode="&#x2079;" horiz-adv-x="520" d="M59 602l29 146h45v-105q25 -6 70 -6q96 0 154.5 55.5t74.5 151.5q-41 -4 -67.5 -6t-53.5 -2q-100 0 -162.5 39.5t-62.5 125.5q0 98 62.5 148.5t160.5 50.5q106 0 152.5 -69.5t46.5 -176.5q0 -166 -78 -268t-231 -102q-37 0 -74 5t-66 13zM147 1008q0 -66 49.5 -93.5 t127.5 -27.5q33 0 61.5 2t54.5 6q4 23 4 33v24q0 82 -31.5 137.5t-115.5 55.5q-66 0 -108 -35.5t-42 -101.5z" />
<glyph unicode="&#x207d;" horiz-adv-x="350" d="M113 827q0 74 12 138.5t36.5 123t59.5 115t80 113.5l47 -33q-33 -45 -63.5 -92t-55 -102.5t-39 -120t-14.5 -144.5q0 -96 23.5 -173t52.5 -144l-55 -33q-33 70 -58.5 159t-25.5 193z" />
<glyph unicode="&#x207e;" horiz-adv-x="350" d="M70 508q33 45 63.5 92t55 102.5t39 120t14.5 144.5q0 96 -23.5 173t-52.5 144l55 33q33 -70 58.5 -159t25.5 -193q0 -74 -12 -138.5t-37 -123t-59.5 -115t-79.5 -113.5z" />
<glyph unicode="&#x207f;" horiz-adv-x="614" d="M74 594l65 536l-61 9l8 53q8 4 23.5 8t33.5 4q57 0 62 -59l2 -39h8q29 41 72 69.5t102 28.5q78 0 123 -45t45 -123v-16t-2 -21l-41 -344l59 -8l-6 -53q-10 -4 -25.5 -8t-33.5 -4q-35 0 -48.5 20.5t-13.5 54.5q0 14 6.5 66.5t14.5 112.5q8 68 20 149q2 6 3.5 21.5 t1.5 21.5q0 51 -29 85t-82 34q-47 0 -83 -20.5t-60.5 -55.5t-39 -81t-20.5 -95l-37 -301h-67z" />
<glyph unicode="&#x20ac;" d="M25 375l22 65h98q0 55 5.5 106.5t15.5 98.5h-109l23 66h104q59 188 195.5 289.5t335.5 101.5q61 0 120.5 -10.5t102.5 -24.5l-39 -100q-35 16 -89 28.5t-116 12.5q-143 0 -244.5 -78t-150.5 -219h479l-22 -66h-477q-10 -47 -15.5 -98t-5.5 -107h487l-22 -65h-461 q16 -129 91 -214t210 -85q111 0 180.5 35.5t104.5 70.5l16 -110q-18 -12 -44.5 -27.5t-64.5 -29t-89.5 -23.5t-114.5 -10q-174 0 -280.5 106.5t-123.5 286.5h-122z" />
<glyph unicode="&#x2122;" horiz-adv-x="1083" d="M98 1239l21 164h358l-12 -164h-70v98h-69l-52 -415l56 -11l-6 -55h-140l15 49l53 432h-72l-24 -98h-58zM451 856l14 49l86 498h121l78 -420l2 -29h8l196 449h123l-8 -49l-29 -430l60 -13l-6 -55h-131l36 487h-8l-8 -34l-203 -453h-73l-95 455l4 35h-8l-71 -424l51 -11 l-6 -55h-133z" />
<glyph unicode="&#x2153;" horiz-adv-x="1122" d="M76 596l6 53h160l63 465h-10l-19 -33q-37 -31 -75.5 -48t-79.5 -32l-8 62q49 14 99 44t95 83h74l-78 -541h146l-5 -53h-368zM98 0l838 1190h70l-838 -1190h-70zM588 8v62q25 -6 51 -13q23 -4 49.5 -8t50.5 -4q37 0 72 5t62.5 18.5t44 36t16.5 59.5q0 31 -14.5 52.5 t-38 34.5t-54 19t-61.5 6h-74l6 52h74q33 0 65.5 5t57.5 19.5t40 37t15 59.5q0 53 -40 78.5t-103 25.5q-20 0 -46 -3t-46 -9l-17 -97h-47v144q23 4 70 11t94 7q84 0 142.5 -35.5t58.5 -117.5q0 -104 -109 -148v-8q41 -16 65.5 -49t24.5 -82t-23.5 -83t-60 -54.5t-84 -29.5 t-94.5 -9q-43 0 -87 7t-60 11z" />
<glyph unicode="&#x2154;" horiz-adv-x="1120" d="M53 594l10 80q92 57 159 100t110 82t64.5 76t21.5 82q0 59 -41 94t-115 35q-16 0 -35.5 -2t-36.5 -6l-16 -99h-47v146q39 10 80 14t67 4q90 0 148.5 -48t58.5 -134q0 -51 -20.5 -94t-62.5 -84t-108.5 -86t-158.5 -101l2 -6h279l63 6l-8 -59h-414zM98 0l838 1190h70 l-838 -1190h-70zM592 8v62q25 -6 51 -13q23 -4 49.5 -8t50.5 -4q37 0 72 5t62.5 18.5t44 36t16.5 59.5q0 31 -14.5 52.5t-38 34.5t-54 19t-61.5 6h-74l6 52h74q33 0 65.5 5t57.5 19.5t40 37t15 59.5q0 53 -40 78.5t-103 25.5q-20 0 -46 -3t-46 -9l-17 -97h-47v144 q23 4 70 11t94 7q84 0 142.5 -35.5t58.5 -117.5q0 -104 -109 -148v-8q41 -16 65.5 -49t24.5 -82t-23.5 -83t-60 -54.5t-84 -29.5t-94.5 -9q-43 0 -87 7t-60 11z" />
<glyph unicode="&#x215b;" horiz-adv-x="1120" d="M76 596l6 53h160l63 465h-10l-19 -33q-37 -31 -75.5 -48t-79.5 -32l-8 62q49 14 99 44t95 83h74l-78 -541h146l-5 -53h-368zM100 0l838 1190h70l-838 -1190h-70zM557 137q0 63 38 103.5t97 64.5v8q-84 39 -84 123q0 41 18.5 73t49.5 53.5t70.5 32.5t84.5 11 q78 0 133.5 -38t55.5 -107q0 -53 -34 -90t-95 -66v-8q47 -25 71.5 -56.5t24.5 -76.5t-19.5 -78t-52 -54.5t-73.5 -31.5t-86 -10q-86 0 -142.5 40t-56.5 107zM623 145q0 -47 37.5 -74.5t97.5 -27.5q66 0 114 26.5t48 86.5q0 47 -36 73.5t-93 42.5l-27 7q-55 -16 -98 -46 t-43 -88zM676 444q0 -49 34.5 -69.5t82.5 -36.5l28 -8q20 6 44 16t44.5 25.5t32.5 36t12 49.5q0 45 -37.5 70.5t-93.5 25.5q-53 0 -100 -25.5t-47 -83.5z" />
<glyph unicode="&#x215c;" horiz-adv-x="1120" d="M59 602v62q25 -6 52 -13q23 -4 49 -8t51 -4q37 0 71.5 5t62.5 18.5t44.5 36t16.5 59.5q0 31 -14.5 52t-38 34.5t-54.5 19.5t-61 6h-74l6 52h74q33 0 65.5 5t57 19.5t40 37t15.5 58.5q0 53 -40 79t-103 26q-20 0 -46 -3t-47 -9l-16 -97h-47v144q23 4 70 11t94 7 q84 0 142 -36t58 -117q0 -104 -108 -148v-8q41 -16 65.5 -49t24.5 -82t-23.5 -83t-60.5 -54.5t-84 -29.5t-94 -9q-43 0 -87 7t-61 11zM100 0l838 1190h70l-838 -1190h-70zM557 137q0 63 38 103.5t97 64.5v8q-84 39 -84 123q0 41 18.5 73t49.5 53.5t70.5 32.5t84.5 11 q78 0 133.5 -38t55.5 -107q0 -53 -34 -90t-95 -66v-8q47 -25 71.5 -56.5t24.5 -76.5t-19.5 -78t-52 -54.5t-73.5 -31.5t-86 -10q-86 0 -142.5 40t-56.5 107zM623 145q0 -47 37.5 -74.5t97.5 -27.5q66 0 114 26.5t48 86.5q0 47 -36 73.5t-93 42.5l-27 7q-55 -16 -98 -46 t-43 -88zM676 444q0 -49 34.5 -69.5t82.5 -36.5l28 -8q20 6 44 16t44.5 25.5t32.5 36t12 49.5q0 45 -37.5 70.5t-93.5 25.5q-53 0 -100 -25.5t-47 -83.5z" />
<glyph unicode="&#x215d;" horiz-adv-x="1120" d="M47 602l27 146h47v-101q16 -4 36.5 -6t39.5 -2q37 0 73.5 7t65.5 23.5t46 43t17 65.5t-20.5 62.5t-53 38t-70.5 19.5t-73 5h-55l35 287h323l-8 -60l-61 7h-199l-22 -181q55 0 104 -9t85 -29.5t57.5 -53.5t21.5 -80q0 -53 -21.5 -91t-58.5 -61.5t-85 -34.5t-99 -11 q-35 0 -73 3t-79 13zM100 0l838 1190h70l-838 -1190h-70zM557 137q0 63 38 103.5t97 64.5v8q-84 39 -84 123q0 41 18.5 73t49.5 53.5t70.5 32.5t84.5 11q78 0 133.5 -38t55.5 -107q0 -53 -34 -90t-95 -66v-8q47 -25 71.5 -56.5t24.5 -76.5t-19.5 -78t-52 -54.5t-73.5 -31.5 t-86 -10q-86 0 -142.5 40t-56.5 107zM623 145q0 -47 37.5 -74.5t97.5 -27.5q66 0 114 26.5t48 86.5q0 47 -36 73.5t-93 42.5l-27 7q-55 -16 -98 -46t-43 -88zM676 444q0 -49 34.5 -69.5t82.5 -36.5l28 -8q20 6 44 16t44.5 25.5t32.5 36t12 49.5q0 45 -37.5 70.5t-93.5 25.5 q-53 0 -100 -25.5t-47 -83.5z" />
<glyph unicode="&#x215e;" horiz-adv-x="1040" d="M-8 0l835 1190h70l-838 -1190h-67zM80 1036v154h409l-10 -74q-86 -72 -137 -137.5t-78.5 -126.5t-38 -119.5t-16.5 -111.5l-2 -25h-72l2 25q6 53 17.5 111.5t38 120.5t73.5 130t125 139l35 8v9h-274l-19 -103h-53zM498 137q0 63 37.5 103.5t97.5 64.5v8q-84 39 -84 123 q0 41 18.5 73t49 53.5t70.5 32.5t85 11q78 0 133.5 -38t55.5 -107q0 -53 -34 -90t-96 -66v-8q47 -25 72 -56.5t25 -76.5t-19.5 -78t-52.5 -54.5t-74 -31.5t-86 -10q-86 0 -142 40t-56 107zM563 145q0 -47 38 -74.5t97 -27.5q66 0 114 26.5t48 86.5q0 47 -36 73.5t-93 42.5 l-26 7q-55 -16 -98.5 -46t-43.5 -88zM616 444q0 -49 35 -69.5t82 -36.5l29 -8q20 6 43.5 16t44 25.5t33 36t12.5 49.5q0 45 -38 70.5t-93 25.5q-53 0 -100.5 -25.5t-47.5 -83.5z" />
<glyph unicode="&#x2160;" horiz-adv-x="436" d="M-82 0l6 49h154l14 68l113 917h-162l6 49h453l-6 -49h-181l-120 -985h180l-6 -49h-451z" />
<glyph unicode="&#x2164;" horiz-adv-x="856" d="M-82 0l6 49h346l-184 985h-43l6 49h873l-7 -49h-41l-428 -985h349l-7 -49h-870zM205 1034l151 -860l4 -68h9l20 68l336 797l18 63h-538z" />
<glyph unicode="&#x2169;" horiz-adv-x="927" d="M-82 0l6 49h74l369 510l-222 475h-102l6 49h944l-6 -49h-104l-340 -475l248 -510h75l-6 -49h-942zM137 49h522l-188 391l-20 72h-9l-30 -72l-252 -348zM279 1034l161 -352l19 -66h8l33 64l223 317l18 37h-462z" />
<glyph unicode="&#x216c;" horiz-adv-x="720" d="M-82 0l6 49h150l14 49l115 936h-160l6 49h737l-6 -49h-465l-116 -938h393l-4 -47h71l-6 -49h-735z" />
<glyph unicode="&#x216d;" horiz-adv-x="831" d="M-82 0l6 49h295q-92 49 -138 144.5t-46 230.5q0 229 83 386t232 224h-307l6 49h848l-6 -49h-90l-31 -86q-29 16 -84 27.5t-106 11.5q-205 0 -319 -144.5t-114 -412.5q0 -150 69 -242t216 -92q51 0 95 12.5t81 32t63.5 41t43.5 39.5v-112q-10 -10 -29.5 -26.5t-52.5 -33.5 h137l-6 -49h-846z" />
<glyph unicode="&#x216e;" horiz-adv-x="1136" d="M-82 0l6 49h232l12 49l108 883l-98 16l4 37h-139l6 49h1155l-6 -49h-362q92 -53 136 -153.5t44 -247.5q0 -221 -72 -369.5t-194 -214.5h327l-6 -49h-1153zM279 94h251q94 0 164 40t115 110.5t67.5 169t22.5 217.5q0 172 -69.5 265t-229.5 93h-211z" />
<glyph unicode="&#x216f;" horiz-adv-x="1394" d="M-82 0l6 49h144l14 49l168 936h-207l6 49h1411l-6 -49h-205l-8 -49l-57 -936h149l-6 -49h-1409zM186 49h363l-184 893l-5 68h-8zM449 1034l174 -872l4 -58h10l16 58l396 872h-600zM705 49h362l68 959h-9l-20 -70z" />
<glyph unicode="&#x25fc;" horiz-adv-x="993" d="M0 0v993h993v-993h-993z" />
<glyph horiz-adv-x="2048" d="M78 535q0 168 43 311t125 247.5t202.5 163t274.5 58.5q35 0 73 -4t71.5 -11.5t62 -14.5t47.5 -13l-51 -279h-97l17 199q-33 10 -73 15t-75 5q-121 0 -214 -53t-156.5 -142t-96 -207t-32.5 -247q0 -98 22.5 -185t70.5 -151.5t121.5 -102.5t176.5 -38q100 0 197.5 21.5 t177.5 50.5l139 1138h117l-70 -567h610l70 567h127l-27 -116l-131 -1067l101 -21l-11 -92h-217l76 629h-610l-66 -545q-43 -16 -100.5 -33.5t-123 -33t-137 -25.5t-143.5 -10q-123 0 -215 40.5t-153.5 114.5t-92 175.5t-30.5 222.5z" />
<glyph horiz-adv-x="1875" d="M78 532q0 166 42 309.5t124 248t200.5 165t272.5 60.5q68 0 137.5 -11.5t122.5 -29.5l-51 -279h-97l17 199q-31 10 -73 14t-81 4q-119 0 -211 -53t-154.5 -143t-95 -209t-32.5 -250q0 -98 22.5 -184t70.5 -149.5t122.5 -100.5t177.5 -37q98 0 198.5 20.5t174.5 51.5 l151 1214l223 21l-12 -86l-115 -29l-53 -442h8q41 63 113 111t178 48q135 0 206 -76.5t71 -205.5v-30.5t-4 -37.5l-68 -545l98 -14l-10 -86q-14 -4 -39.5 -12t-56.5 -8q-53 0 -77 31.5t-24 84.5q0 6 3.5 34t7.5 68t10 89l12 98q14 117 33 260q2 10 3 28.5t1 28.5 q0 92 -45 145.5t-137 53.5q-80 0 -137.5 -33.5t-95.5 -91t-60.5 -131.5t-32.5 -156l-49 -405q-92 -35 -218 -68.5t-278 -33.5q-123 0 -216 40.5t-154.5 113.5t-92 174.5t-30.5 221.5z" />
<glyph horiz-adv-x="1708" d="M47 416q0 272 133 425.5t371 153.5q57 0 119.5 -8t111.5 -20l-49 -250h-82v170q-27 6 -54.5 10t-55.5 4q-186 0 -284.5 -126t-98.5 -343q0 -76 21.5 -141.5t62.5 -112.5t100 -74.5t137 -27.5q82 0 169 19.5t149 43.5l153 1235l224 21l-13 -86l-114 -29l-56 -463h8 q41 63 113 111.5t178 48.5q135 0 206 -77t71 -206v-30.5t-4 -36.5l-68 -527l98 -14l-10 -86q-14 -4 -39.5 -12t-56.5 -8q-53 0 -77 31.5t-24 84.5q0 6 3.5 33t7.5 64.5t10 85t12 96.5q14 113 33 252q2 10 3 28.5t1 28.5q0 92 -45 145.5t-137 53.5q-80 0 -137.5 -34 t-95 -91.5t-60.5 -131t-33 -155.5l-49 -397q-14 -6 -56 -21.5t-101.5 -31t-131 -27.5t-145.5 -12q-102 0 -180 31.5t-130.5 89t-80 137t-27.5 176.5z" />
<glyph horiz-adv-x="1939" d="M78 535q0 166 43 308t124 246.5t199.5 165t272.5 60.5q59 0 132 -11.5t128 -29.5l-51 -281h-97l17 199q-31 10 -73 14t-81 4q-117 0 -209 -52t-155.5 -140t-96 -205t-32.5 -246q0 -104 23.5 -192t71.5 -152.5t124 -100.5t180 -36q98 0 199.5 21.5t167.5 50.5l114 925h113 l-57 -469h512l57 469h123l-27 -116l-106 -867l98 -14l-10 -86h-211l63 520h-512l-53 -438q-94 -35 -222 -67.5t-269 -32.5q-127 0 -221.5 40.5t-156 113.5t-92 174.5t-30.5 224.5z" />
<glyph horiz-adv-x="1826" d="M66 444q0 158 40.5 281t114.5 207t177.5 127t226.5 43q55 0 112.5 -9.5t102.5 -23.5l-45 -244h-90l10 170q-23 6 -52.5 9.5t-58.5 3.5q-96 0 -174 -38t-133 -107.5t-86 -169t-31 -224.5q0 -82 20.5 -152.5t62.5 -124t103.5 -84t145.5 -30.5q88 0 178 20.5t162 53.5 l115 931h112l-57 -469h512l57 469h123l-24 -116l-107 -867l98 -14l-10 -86h-213l64 520h-512l-54 -432q-94 -43 -208.5 -74.5t-251.5 -31.5q-104 0 -185.5 33.5t-135.5 95t-81.5 146.5t-27.5 187z" />
<glyph horiz-adv-x="944" d="M-47 0l455 981l-97 16l11 86h282l207 -987l66 -10l-11 -86h-168l-8 92l-41 203h-444l-92 -199l63 -10l-10 -86h-213zM246 389h385l-105 531l-6 65h-8l-23 -65z" />
<glyph horiz-adv-x="944" d="M-47 0l455 981l-97 16l11 86h282l207 -987l66 -10l-11 -86h-168l-8 92l-41 203h-444l-92 -199l63 -10l-10 -86h-213zM246 389h385l-105 531l-6 65h-8l-23 -65zM309 1214l355 222l57 -119l-371 -148z" />
<glyph horiz-adv-x="944" d="M-47 0l455 981l-97 16l11 86h282l207 -987l66 -10l-11 -86h-168l-8 92l-41 203h-444l-92 -199l63 -10l-10 -86h-213zM246 389h385l-105 531l-6 65h-8l-23 -65zM254 1227l235 188q20 16 36 19.5t24 3.5t22.5 -3t30.5 -20l186 -188l-45 -45l-213 131l-239 -131z" />
<glyph horiz-adv-x="944" d="M-47 0l455 981l-97 16l11 86h282l207 -987l66 -10l-11 -86h-168l-8 92l-41 203h-444l-92 -199l63 -10l-10 -86h-213zM246 389h385l-105 531l-6 65h-8l-23 -65zM371 1206l28 232h97l-29 -232h-96zM565 1206l29 232h98l-28 -232h-99z" />
<glyph horiz-adv-x="1345" d="M-49 0l442 983l-88 14l10 86h1002l-41 -233h-84v139h-397l-15 -389h465v-94h-469l-16 -412h399l31 139h86v-233h-643l16 92l8 221h-448l-98 -217l63 -10l-10 -86h-213zM248 408h414l22 581h-178z" />
<glyph horiz-adv-x="944" d="M-47 0l455 981l-97 16l11 86h282l207 -987l66 -10l-11 -86h-168l-8 92l-41 203h-444l-92 -199l63 -10l-10 -86h-213zM246 389h385l-105 531l-6 65h-8l-23 -65zM332 1321l78 115l301 -222l-47 -45z" />
<glyph horiz-adv-x="944" d="M-47 0l455 981l-97 16l11 86h282l207 -987l66 -10l-11 -86h-168l-8 92l-41 203h-444l-92 -199l63 -10l-10 -86h-213zM246 389h385l-105 531l-6 65h-8l-23 -65zM344 1300q0 49 18.5 83t48 55.5t67.5 31t77 9.5q78 0 129 -40t51 -112q0 -49 -18.5 -83t-48 -55.5 t-67.5 -30.5t-77 -9q-78 0 -129 40t-51 111zM442 1307q0 -41 28 -61.5t62 -20.5q49 0 77 23.5t28 72.5q0 41 -26.5 61.5t-61.5 20.5q-49 0 -78 -23.5t-29 -72.5z" />
<glyph horiz-adv-x="944" d="M-47 0l455 981l-97 16l11 86h282l207 -987l66 -10l-11 -86h-168l-8 92l-41 203h-444l-92 -199l63 -10l-10 -86h-213zM246 389h385l-105 531l-6 65h-8l-23 -65zM248 1264l26 84q23 12 45 22q20 8 47 15.5t56 7.5q33 0 64.5 -6.5t63.5 -14.5t66.5 -14t73.5 -6q49 0 109 26 l-25 -84q-20 -14 -43 -22q-20 -10 -46 -16.5t-54 -6.5q-68 0 -133.5 20.5t-137.5 20.5q-23 0 -53.5 -7t-58.5 -19z" />
<glyph horiz-adv-x="999" d="M92 0l25 98l108 883l-98 16l10 86h479q59 0 111.5 -16t91.5 -47t61.5 -77t22.5 -105q0 -111 -44 -176.5t-122 -100.5v-10q61 -33 93 -93.5t32 -125.5q0 -166 -96 -249t-256 -83h-418zM227 94h252q125 0 197 54.5t72 181.5q0 84 -54.5 130t-163.5 46h-251zM289 600h260 q111 0 175 56.5t64 172.5q0 160 -204 160h-246z" />
<glyph horiz-adv-x="868" d="M63 426q0 158 41 283t116 213t179.5 134t233.5 46q59 0 124.5 -11.5t110.5 -25.5l-41 -240h-86v164q-27 10 -61.5 14.5t-67.5 4.5q-102 0 -182 -40t-137 -114t-87 -179.5t-30 -238.5q0 -74 17.5 -139.5t51.5 -114.5t86 -77.5t122 -28.5q51 0 97 13t84 32.5t66.5 42 t44.5 41.5v-123q-8 -6 -32.5 -23.5t-63.5 -34t-92 -29.5t-121 -13q-88 0 -156.5 32.5t-116.5 91t-74 140.5t-26 180z" />
<glyph horiz-adv-x="868" d="M63 426q0 158 41 283t116 213t179.5 134t233.5 46q59 0 124.5 -11.5t110.5 -25.5l-41 -240h-86v164q-27 10 -61.5 14.5t-67.5 4.5q-102 0 -182 -40t-137 -114t-87 -179.5t-30 -238.5q0 -74 16.5 -139.5t49 -114.5t84 -77.5t120.5 -28.5q51 0 98.5 13t86.5 32.5t68.5 42 t45.5 41.5v-123q-8 -6 -29.5 -21.5t-56 -31t-83 -28.5t-105.5 -17l-10 -82q51 0 90 -29t39 -86q0 -39 -19.5 -66.5t-50.5 -45t-68.5 -25.5t-74.5 -8q-41 0 -74 6t-47 10l16 68q14 -4 44 -9.5t59 -5.5q45 0 76.5 14.5t31.5 53.5q0 25 -22.5 40t-57.5 15q-14 0 -24 -1t-27 -3 l39 154q-158 14 -243 134t-85 308z" />
<glyph horiz-adv-x="1054" d="M92 0l25 98l108 883l-98 16l10 86h432q205 0 300.5 -116.5t95.5 -333.5q0 -152 -35 -268.5t-96.5 -198.5t-147.5 -124t-190 -42h-404zM227 94h252q94 0 164 40t115 110.5t67.5 169t22.5 217.5q0 172 -69.5 265t-229.5 93h-211z" />
<glyph horiz-adv-x="878" d="M88 0l29 111l108 870l-98 16l10 86h713l-39 -233h-86v139h-387l-47 -389h448l-10 -94h-450l-52 -412h398l30 139h86v-233h-653z" />
<glyph horiz-adv-x="878" d="M88 0l29 111l108 870l-98 16l10 86h713l-39 -233h-86v139h-387l-47 -389h448l-10 -94h-450l-52 -412h398l30 139h86v-233h-653zM371 1214l354 222l57 -119l-370 -148z" />
<glyph horiz-adv-x="878" d="M88 0l29 111l108 870l-98 16l10 86h713l-39 -233h-86v139h-387l-47 -389h448l-10 -94h-450l-52 -412h398l30 139h86v-233h-653zM285 1227l235 186q16 14 31.5 18.5t26.5 4.5q10 0 24 -3t31 -20l186 -186l-45 -45l-213 131l-242 -131z" />
<glyph horiz-adv-x="878" d="M88 0l29 111l108 870l-98 16l10 86h713l-39 -233h-86v139h-387l-47 -389h448l-10 -94h-450l-52 -412h398l30 139h86v-233h-653zM410 1206l28 232h97l-29 -232h-96zM604 1206l29 232h92l-23 -232h-98z" />
<glyph horiz-adv-x="878" d="M88 0l29 111l108 870l-98 16l10 86h713l-39 -233h-86v139h-387l-47 -389h448l-10 -94h-450l-52 -412h398l30 139h86v-233h-653zM373 1321l78 115l299 -222l-45 -45z" />
<glyph horiz-adv-x="1054" d="M43 551l133 27l49 403l-98 16l10 86h432q205 0 300.5 -116.5t95.5 -333.5q0 -152 -35 -268.5t-96.5 -198.5t-147.5 -124t-190 -42h-404l25 98l49 402l-117 -25zM227 94h252q94 0 164 40t115 110.5t67.5 169t22.5 217.5q0 172 -69.5 265t-229.5 93h-211l-47 -387l233 49 l6 -73l-249 -54z" />
<glyph horiz-adv-x="821" d="M90 0l27 98l108 883l-98 16l10 86h697l-39 -233h-86v139h-371l-53 -418h444l-12 -94h-445l-43 -377l99 -14l-11 -86h-227z" />
<glyph horiz-adv-x="1011" d="M63 420q0 150 39 274.5t115 215.5t185.5 142.5t248.5 51.5q63 0 132 -11.5t128 -29.5l-41 -238h-86v164q-33 10 -68.5 14.5t-82.5 4.5q-104 0 -187.5 -41t-141.5 -116t-90 -181.5t-32 -235.5q0 -74 15.5 -139.5t50.5 -114.5t89 -77.5t134 -28.5q74 0 133.5 20.5 t95.5 42.5l41 334h-243l12 94h348l-61 -495q-49 -25 -135.5 -56.5t-215.5 -31.5q-86 0 -155.5 27.5t-120.5 82.5t-79 137t-28 191z" />
<glyph horiz-adv-x="1097" d="M92 0l25 100l108 881l-98 16l10 86h213l-57 -469h512l57 469h123l-22 -98l-109 -885l98 -14l-10 -86h-213l64 520h-512l-52 -420l99 -14l-11 -86h-225z" />
<glyph horiz-adv-x="464" d="M92 0l25 100l108 881l-98 16l10 86h213l-121 -983l99 -14l-11 -86h-225z" />
<glyph horiz-adv-x="464" d="M92 0l25 100l108 881l-98 16l10 86h213l-121 -983l99 -14l-11 -86h-225zM92 1214l354 222l58 -119l-371 -148z" />
<glyph horiz-adv-x="464" d="M20 1227l236 186q16 14 31.5 18.5t25.5 4.5t24.5 -3t31.5 -20l186 -186l-45 -45l-213 131l-242 -131zM92 0l25 100l108 881l-98 16l10 86h213l-121 -983l99 -14l-11 -86h-225z" />
<glyph horiz-adv-x="464" d="M92 0l25 100l108 881l-98 16l10 86h213l-121 -983l99 -14l-11 -86h-225zM133 1206l29 232h96l-29 -232h-96zM328 1206l28 232h99l-29 -232h-98z" />
<glyph horiz-adv-x="464" d="M92 0l25 100l108 881l-98 16l10 86h213l-121 -983l99 -14l-11 -86h-225zM92 1321l76 115l301 -222l-47 -45z" />
<glyph horiz-adv-x="581" d="M-33 -14v94q8 -2 28.5 -3t31.5 -1q113 0 172 63.5t73 179.5l82 670l-252 15l11 79h376l-22 -100l-84 -674q-20 -166 -114.5 -246.5t-227.5 -80.5q-10 0 -38 1t-36 3z" />
<glyph horiz-adv-x="980" d="M92 0l25 100l108 881l-98 16l10 86h213l-71 -573h8l30 61l476 512h141l-406 -436l271 -547l96 -14l-10 -86h-168l-268 553h-9l-180 -191l-31 -262l99 -14l-11 -86h-225z" />
<glyph horiz-adv-x="788" d="M92 0l25 98l108 883l-98 16l10 86h213l-123 -989h359l32 139h84v-233h-610z" />
<glyph horiz-adv-x="1409" d="M78 0l28 98l138 883l-97 16l11 86h284l201 -909l4 -59h10l17 59l428 909h188l-18 -98l-80 -885l98 -14l-10 -86h-211l96 993h-8l-22 -69l-437 -924h-123l-210 928l-5 67h-8l-131 -895l98 -14l-10 -86h-231z" />
<glyph horiz-adv-x="1112" d="M92 0l23 94l110 887l-98 16l10 86h279l338 -977h8v70l100 807l-94 14l10 86h221l-24 -98l-121 -985h-180l-338 977h-8v-70l-99 -809l95 -12l-11 -86h-221z" />
<glyph horiz-adv-x="1112" d="M90 0l25 94l110 887l-98 16l10 86h279l338 -977h8v70l100 807l-94 14l10 86h221l-24 -98l-121 -985h-180l-338 977h-8v-70l-99 -809l95 -12l-11 -86h-223zM344 1264l27 84q23 12 45 22q20 8 46.5 15.5t55.5 7.5q33 0 64.5 -6.5t63.5 -14.5t67 -14t73 -6q49 0 109 26 l-25 -84q-20 -14 -43 -22q-20 -10 -45.5 -16.5t-54.5 -6.5q-68 0 -133.5 20.5t-136.5 20.5q-53 0 -113 -26z" />
<glyph horiz-adv-x="1030" d="M66 416q0 156 34.5 282.5t101 217t161 138.5t212.5 48q92 0 161 -32t116 -90t70.5 -141t23.5 -184q0 -154 -36 -278.5t-103.5 -211.5t-162.5 -135t-214 -48q-182 0 -273 115.5t-91 318.5zM182 432q0 -74 14.5 -138.5t46 -113.5t81 -76.5t118.5 -27.5q92 0 164 45 t121 121.5t74.5 179t25.5 215.5q0 76 -15 143.5t-48 117.5t-84 80t-121 30q-98 0 -170 -49.5t-118 -131.5t-67.5 -185.5t-21.5 -209.5z" />
<glyph horiz-adv-x="1030" d="M66 416q0 156 34.5 282.5t101 217t161 138.5t212.5 48q92 0 161 -32t116 -90t70.5 -141t23.5 -184q0 -154 -36 -278.5t-103.5 -211.5t-162.5 -135t-214 -48q-182 0 -273 115.5t-91 318.5zM182 432q0 -74 14.5 -138.5t46 -113.5t81 -76.5t118.5 -27.5q92 0 164 45 t121 121.5t74.5 179t25.5 215.5q0 76 -15 143.5t-48 117.5t-84 80t-121 30q-98 0 -170 -49.5t-118 -131.5t-67.5 -185.5t-21.5 -209.5zM406 1214l354 222l57 -119l-371 -148z" />
<glyph horiz-adv-x="1030" d="M66 416q0 156 34.5 282.5t101 217t161 138.5t212.5 48q92 0 161 -32t116 -90t70.5 -141t23.5 -184q0 -154 -36 -278.5t-103.5 -211.5t-162.5 -135t-214 -48q-182 0 -273 115.5t-91 318.5zM182 432q0 -74 14.5 -138.5t46 -113.5t81 -76.5t118.5 -27.5q92 0 164 45 t121 121.5t74.5 179t25.5 215.5q0 76 -15 143.5t-48 117.5t-84 80t-121 30q-98 0 -170 -49.5t-118 -131.5t-67.5 -185.5t-21.5 -209.5zM326 1227l235 186q20 16 34.5 19.5t25.5 3.5q8 0 22 -3t31 -20l186 -186l-43 -45l-213 131l-242 -131z" />
<glyph horiz-adv-x="1030" d="M66 416q0 156 34.5 282.5t101 217t161 138.5t212.5 48q92 0 161 -32t116 -90t70.5 -141t23.5 -184q0 -154 -36 -278.5t-103.5 -211.5t-162.5 -135t-214 -48q-182 0 -273 115.5t-91 318.5zM182 432q0 -74 14.5 -138.5t46 -113.5t81 -76.5t118.5 -27.5q92 0 164 45 t121 121.5t74.5 179t25.5 215.5q0 76 -15 143.5t-48 117.5t-84 80t-121 30q-98 0 -170 -49.5t-118 -131.5t-67.5 -185.5t-21.5 -209.5zM438 1206l29 232h96l-28 -232h-97zM633 1206l29 232h98l-29 -232h-98z" />
<glyph horiz-adv-x="1454" d="M63 420q0 164 40 287.5t112 207.5t171 126t218 42h795l-39 -233h-86v139h-387l-47 -385h448l-10 -94h-451l-51 -416h398l30 139h86v-233h-839q-186 0 -287 107.5t-101 312.5zM180 426q0 -74 15.5 -135.5t51.5 -105.5t91 -68.5t135 -24.5h191l110 899h-158 q-111 0 -193.5 -40t-136 -113.5t-80 -178t-26.5 -233.5z" />
<glyph horiz-adv-x="1030" d="M66 416q0 156 34.5 282.5t101 217t161 138.5t212.5 48q92 0 161 -32t116 -90t70.5 -141t23.5 -184q0 -154 -36 -278.5t-103.5 -211.5t-162.5 -135t-214 -48q-182 0 -273 115.5t-91 318.5zM182 432q0 -74 14.5 -138.5t46 -113.5t81 -76.5t118.5 -27.5q92 0 164 45 t121 121.5t74.5 179t25.5 215.5q0 76 -15 143.5t-48 117.5t-84 80t-121 30q-98 0 -170 -49.5t-118 -131.5t-67.5 -185.5t-21.5 -209.5zM446 1321l78 115l301 -222l-47 -45z" />
<glyph horiz-adv-x="1030" d="M10 -82l137 193q-82 113 -81 305q0 156 34.5 282.5t101 217t161 138.5t212.5 48q133 0 222 -70l98 139h98l-139 -196q47 -59 69.5 -140t22.5 -180q0 -154 -36 -278.5t-103.5 -211.5t-162.5 -135t-214 -48q-139 0 -227 69l-94 -133h-99zM182 432q0 -61 9.5 -115.5 t29.5 -99.5l510 723q-68 68 -172 68q-98 0 -170 -49.5t-118 -131.5t-67.5 -185t-21.5 -210zM268 145q63 -70 174 -69q92 0 164 45t121 121.5t74.5 179t25.5 215.5q0 133 -47 231z" />
<glyph horiz-adv-x="1030" d="M66 416q0 156 34.5 282.5t101 217t161 138.5t212.5 48q92 0 161 -32t116 -90t70.5 -141t23.5 -184q0 -154 -36 -278.5t-103.5 -211.5t-162.5 -135t-214 -48q-182 0 -273 115.5t-91 318.5zM182 432q0 -74 14.5 -138.5t46 -113.5t81 -76.5t118.5 -27.5q92 0 164 45 t121 121.5t74.5 179t25.5 215.5q0 76 -15 143.5t-48 117.5t-84 80t-121 30q-98 0 -170 -49.5t-118 -131.5t-67.5 -185.5t-21.5 -209.5zM326 1264l24 84q20 12 45 22q20 8 47 15.5t56 7.5q33 0 64.5 -6.5t63 -14.5t66.5 -14t74 -6q51 0 108 26l-24 -84q-20 -14 -43 -22 q-20 -10 -45 -16.5t-53 -6.5q-68 0 -134.5 20.5t-138.5 20.5q-23 0 -53.5 -7t-56.5 -19z" />
<glyph horiz-adv-x="935" d="M94 0l23 98l108 883l-98 16l10 86h418q158 0 253 -68.5t95 -219.5q0 -96 -30.5 -162t-84 -107t-125 -59t-153.5 -18h-238l-43 -349l99 -14l-11 -86h-223zM283 543h215q131 0 202.5 43t83.5 166q2 10 2 18v18q0 109 -69.5 155t-184.5 46h-194z" />
<glyph horiz-adv-x="1030" d="M70 418q0 156 35.5 282.5t101 216t158 137.5t206.5 48q86 0 155 -32t117 -90t73.5 -139t25.5 -179q0 -262 -93 -433.5t-265 -224.5l53 -203h-102l-48 185q-14 -2 -28.5 -3t-28.5 -1q-170 0 -265 118.5t-95 317.5zM184 440q0 -78 15.5 -144.5t47.5 -115.5t81 -76.5 t116 -27.5h19l-47 188h102l43 -168q66 25 116 78t83 124t49 157t16 178q0 80 -15 148.5t-48 118.5t-83 79t-118 29q-100 0 -172 -49.5t-117 -130t-66.5 -182t-21.5 -206.5z" />
<glyph horiz-adv-x="993" d="M92 0l25 98l108 883l-98 16l10 86h457q143 0 233.5 -67.5t90.5 -206.5q0 -66 -18.5 -115t-49.5 -85t-71 -58.5t-81 -36.5l-2 -6q25 -14 41.5 -31.5t27.5 -44t18.5 -65.5t15.5 -95l24 -176l66 -10l-10 -86h-162l-41 297q-8 61 -23.5 97t-42 54.5t-67.5 23.5t-99 5h-170 l-45 -377l99 -14l-11 -86h-225zM287 571h243q49 0 98.5 13.5t87.5 42t61.5 71.5t23.5 105q0 88 -57.5 137t-161.5 49h-244z" />
<glyph horiz-adv-x="874" d="M27 14l43 246h86v-168q20 -4 65 -9t92 -5q53 0 106.5 10t96.5 33.5t69.5 62.5t26.5 99q0 55 -34.5 94t-87 70.5t-114 60.5t-113.5 66.5t-87 89t-35 124.5q0 88 36 148.5t96.5 97.5t136 53.5t155.5 16.5q55 0 126 -9.5t124 -23.5l-43 -246h-86v166q-25 4 -66.5 8.5 t-76.5 4.5q-53 0 -103.5 -9.5t-90.5 -33t-64.5 -61.5t-24.5 -93q0 -57 35 -96t88 -71t114.5 -60.5t115 -65.5t88 -88t34.5 -125q0 -90 -40 -151.5t-103.5 -98.5t-143 -53t-159.5 -16q-49 0 -122 8t-140 24z" />
<glyph horiz-adv-x="778" d="M70 850v233h755l-37 -233h-83v139h-205l-121 -989h-125l25 100l108 889h-205l-26 -139h-86z" />
<glyph horiz-adv-x="935" d="M92 0l25 98l108 883l-98 16l10 86h213l-22 -178h207q158 0 253 -68.5t95 -220.5q0 -96 -31 -161.5t-83 -106.5t-123 -59.5t-152 -18.5h-244l-21 -170l99 -14l-11 -86h-225zM262 365h217q63 0 116.5 12t91.5 40.5t58.5 78t20.5 120.5q0 53 -19.5 90t-53.5 61t-81 34 t-104 10h-193z" />
<glyph horiz-adv-x="1067" d="M117 997l10 86h213l-88 -706q-2 -18 -3 -33.5t-1 -32.5q0 -117 57 -176t182 -59q145 0 209 81t82 226l74 600l-92 14l10 86h207l-88 -714q-25 -199 -121 -293t-289 -94q-166 0 -256 80.5t-90 230.5v33.5t4 35.5l78 619z" />
<glyph horiz-adv-x="1067" d="M117 997l10 86h213l-88 -706q-2 -18 -3 -33.5t-1 -32.5q0 -117 57 -176t182 -59q145 0 209 81t82 226l74 600l-92 14l10 86h207l-88 -714q-25 -199 -121 -293t-289 -94q-166 0 -256 80.5t-90 230.5v33.5t4 35.5l78 619zM428 1214l354 222l49 -115l-368 -152z" />
<glyph horiz-adv-x="1067" d="M117 997l10 86h213l-88 -706q-2 -18 -3 -33.5t-1 -32.5q0 -117 57 -176t182 -59q145 0 209 81t82 226l74 600l-92 14l10 86h207l-88 -714q-25 -199 -121 -293t-289 -94q-166 0 -256 80.5t-90 230.5v33.5t4 35.5l78 619zM326 1227l235 186q20 16 36.5 19.5t23.5 3.5 q4 0 20 -3t33 -20l186 -186l-43 -45l-213 131l-242 -131z" />
<glyph horiz-adv-x="1067" d="M117 997l10 86h213l-88 -706q-2 -18 -3 -33.5t-1 -32.5q0 -117 57 -176t182 -59q145 0 209 81t82 226l74 600l-92 14l10 86h207l-88 -714q-25 -199 -121 -293t-289 -94q-166 0 -256 80.5t-90 230.5v33.5t4 35.5l78 619zM463 1206l29 232h96l-29 -232h-96zM657 1206 l29 232h98l-28 -232h-99z" />
<glyph horiz-adv-x="1067" d="M117 997l10 86h213l-88 -706q-2 -18 -3 -33.5t-1 -32.5q0 -117 57 -176t182 -59q145 0 209 81t82 226l74 600l-92 14l10 86h207l-88 -714q-25 -199 -121 -293t-289 -94q-166 0 -256 80.5t-90 230.5v33.5t4 35.5l78 619zM408 1321l75 115l301 -222l-47 -45z" />
<glyph horiz-adv-x="868" d="M53 997l10 86h154l133 -909l4 -68h8l21 68l354 809l-71 14l10 86h227l-481 -1083h-150l-161 987z" />
<glyph horiz-adv-x="1445" d="M53 997l10 86h154l127 -968h10l6 63l302 797l26 108h182l101 -905l-6 -63h8l346 868l-78 14l10 86h228l-441 -1083h-149l-111 920v75h-8l-20 -75l-351 -920h-149l-144 987z" />
<glyph horiz-adv-x="915" d="M-51 0l407 561l-198 422l-88 14l10 86h160l188 -401l14 -66h9l30 64l224 313l49 90h145l-377 -522l228 -463l88 -12l-11 -86h-157l-215 440l-17 72h-8l-31 -72l-245 -342l88 -12l-11 -86h-282z" />
<glyph horiz-adv-x="839" d="M53 997l10 86h154l166 -503l8 -68h10l25 70l258 403l-66 12l11 86h243l-430 -667l-51 -416h-201l11 86l88 12l39 318l-197 569z" />
<glyph horiz-adv-x="839" d="M53 997l10 86h154l166 -503l8 -68h10l25 70l258 403l-66 12l11 86h243l-430 -667l-51 -416h-201l11 86l88 12l39 318l-197 569zM319 1214l355 222l57 -119l-371 -148z" />
<glyph horiz-adv-x="839" d="M53 997l10 86h154l166 -503l8 -68h10l25 70l258 403l-66 12l11 86h243l-430 -667l-51 -416h-201l11 86l88 12l39 318l-197 569zM336 1206l29 232h96l-29 -232h-96zM530 1206l29 232h98l-28 -232h-99z" />
<glyph horiz-adv-x="841" d="M-6 0l14 121l635 819l53 39v10h-456l-27 -139h-86v233h682l-14 -118l-635 -820l-51 -43v-8h491l27 139h86v-233h-719z" />
<glyph horiz-adv-x="598" d="M63 805q0 88 25 161.5t71 126t112.5 81t148.5 28.5q47 0 94 -3t64 -7l-19 -74l-57 -461l61 -8l-6 -53q-6 -4 -23.5 -8t-35.5 -4q-55 0 -62 59v43h-8q-4 -6 -17.5 -22.5t-36 -34t-56 -31.5t-76.5 -14q-86 0 -132.5 62.5t-46.5 158.5zM135 811q0 -33 6 -62.5t19.5 -53 t36 -38t55.5 -14.5q55 0 94 29.5t65.5 82t43 122t24.5 147.5l17 115q-12 0 -27 2q-12 2 -26.5 3t-28.5 1q-129 0 -204 -90t-75 -244z" />
<glyph horiz-adv-x="608" d="M86 596l18 68l95 770l137 12l-6 -51l-72 -19l-35 -276h8q4 6 17.5 23.5t36 35t55.5 30.5t76 13q90 0 137 -60.5t47 -156.5q0 -90 -21.5 -163.5t-66.5 -127t-114.5 -82t-166.5 -28.5q-33 0 -77.5 4t-67.5 8zM170 651q10 -4 33.5 -7t44.5 -3q141 0 212.5 93t71.5 247 q0 66 -28.5 115t-95.5 49q-98 0 -150.5 -99.5t-73.5 -259.5z" />
<glyph horiz-adv-x="503" d="M66 831q0 82 22.5 150t64.5 117t101 76.5t133 27.5q33 0 69 -5t68 -13l-30 -152h-50v105q-16 4 -31.5 6t-33.5 2q-59 0 -104.5 -23.5t-77 -65.5t-48 -98.5t-16.5 -119.5q0 -78 40 -137.5t120 -59.5q59 0 101 23.5t69 50.5v-76q-10 -10 -56.5 -32.5t-119.5 -22.5 q-104 0 -162.5 68.5t-58.5 178.5z" />
<glyph horiz-adv-x="593" d="M66 805q0 80 21.5 151.5t66.5 127t110.5 88t155.5 32.5h84l20 170l-67 6l6 54l145 12l-16 -70l-88 -719l61 -8l-6 -53q-10 -4 -26.5 -8t-32.5 -4q-55 0 -60 59l-4 45h-8q-4 -6 -17.5 -23.5t-35 -35t-54 -30.5t-77.5 -13q-86 0 -132 60.5t-46 158.5zM135 813 q0 -66 26.5 -118t92.5 -52q53 0 92 29.5t65.5 81t43 120t26.5 148.5l15 119q-10 0 -23 2q-10 2 -23.5 3t-27.5 1q-137 0 -212 -91t-75 -243z" />
<glyph horiz-adv-x="559" d="M66 827q0 86 25.5 155t67.5 117t97 74.5t115 26.5q74 0 127 -39t53 -106q0 -59 -32 -97t-81 -61t-109.5 -35t-117.5 -18l-72 -8v-9q0 -86 43 -135t140 -49q25 0 55.5 5t46.5 11l18 95h50v-140q-16 -6 -40 -11t-49.5 -10t-50 -7t-43.5 -2q-123 0 -183 65.5t-60 177.5z M145 893l58 6q45 6 93 14.5t88 25.5t64.5 44t24.5 68q0 43 -29.5 68.5t-78.5 25.5q-43 0 -80 -19.5t-67 -53.5t-48 -80t-25 -99z" />
<glyph horiz-adv-x="260" d="M102 1133l7 55l129 12l-68 -545l61 -8l-8 -53q-8 -4 -23.5 -8t-35.5 -4q-35 0 -47.5 19.5t-12.5 53.5q0 6 2.5 31t6.5 59.5t8 76.5t10 85q12 98 29 221zM156 1393l69 61l54 -61l-68 -70z" />
<glyph horiz-adv-x="258" d="M104 659q0 6 3.5 41t9.5 87.5t14 116t16 128.5q20 154 46 342l-58 8l8 52l125 12l-96 -789l59 -8l-6 -53q-8 -4 -23.5 -8t-35.5 -4q-35 0 -48.5 20.5t-13.5 54.5z" />
<glyph horiz-adv-x="942" d="M74 594l65 536l-61 9l8 53q8 4 23.5 8t33.5 4q57 0 62 -61l2 -35h8q27 39 69 67.5t103 28.5q59 0 100 -28.5t52 -71.5h8q29 41 74 70.5t104 29.5q72 0 117 -38t45 -113v-15.5t-2 -23.5l-43 -359l59 -8l-6 -53q-8 -4 -23.5 -8t-35.5 -4q-35 0 -48.5 20.5t-13.5 54.5 q0 14 6 68.5t15 114.5q8 70 20 153q2 10 3 24.5t1 22.5q0 106 -104 107q-86 0 -131 -69.5t-60 -184.5l-37 -299h-67l49 399q2 10 3 23.5t1 21.5q0 49 -24.5 79t-75.5 30q-88 0 -134 -69.5t-61 -184.5l-37 -299h-67z" />
<glyph horiz-adv-x="575" d="M66 825q0 172 74.5 273.5t211.5 101.5q106 0 160.5 -65.5t54.5 -176.5q0 -172 -74.5 -272t-213.5 -100q-106 0 -159.5 64t-53.5 175zM133 831q0 -80 34 -134t118 -54q55 0 95 24.5t66.5 66.5t40 98.5t13.5 117.5q0 80 -36 136.5t-120 56.5q-55 0 -94 -25.5t-65.5 -68.5 t-39 -100t-12.5 -118z" />
<glyph horiz-adv-x="403" d="M86 594l66 536l-62 9l8 53q8 4 23.5 8t34.5 4q57 0 61 -61l2 -37h8q45 59 95.5 78.5t111.5 19.5v-74q-10 2 -23.5 3.5t-19.5 1.5q-49 0 -85 -18.5t-59.5 -51.5t-36.5 -77t-20 -93l-28 -238l57 -10l-6 -53h-127z" />
<glyph horiz-adv-x="473" d="M39 608l29 148h49v-99q10 -4 37.5 -9t56.5 -5q61 0 113.5 24.5t52.5 86.5q0 43 -44 69.5t-97.5 52t-97.5 61.5t-44 97q0 45 20.5 76t53.5 51.5t75 29.5t87 9q14 0 36.5 -2t46 -5t45 -6t36.5 -7l-29 -148h-47v96q-10 4 -38 9.5t-56 5.5q-27 0 -54.5 -5t-51 -16.5t-38 -31 t-14.5 -46.5q0 -45 44 -71.5t96 -52t96 -60.5t44 -98q0 -47 -19 -80t-53 -54.5t-78 -31.5t-93 -10q-45 0 -95.5 8t-68.5 14z" />
<glyph horiz-adv-x="317" d="M72 1133l6 47l76 12l26 133l68 61l-23 -194h135l-6 -59h-135l-45 -355q-2 -8 -3 -24.5t-1 -24.5q0 -47 26.5 -67.5t79.5 -20.5h17.5t15.5 2l-16 -55q-6 -2 -20.5 -4t-26.5 -2q-59 0 -101.5 32.5t-42.5 104.5v21.5t2 23.5l48 369h-80z" />
<glyph horiz-adv-x="546" d="M-25 -12q0 172 75 275.5t198 103.5q92 0 142 -65.5t50 -176.5q0 -174 -74.5 -274.5t-197.5 -100.5q-92 0 -142.5 63.5t-50.5 174.5zM39 -10q0 -78 32.5 -133.5t106.5 -55.5q47 0 85 29t63.5 74t39 101t13.5 112q0 86 -32 142t-109 56q-49 0 -87 -29.5t-63 -76.5 t-37 -105.5t-12 -113.5z" />
<glyph horiz-adv-x="493" d="M-27 -240l7 54h159l64 465h-10l-19 -33q-37 -31 -76 -48.5t-80 -31.5l-8 61q49 14 99.5 44t95.5 83h74l-78 -540h145l-6 -54h-367z" />
<glyph horiz-adv-x="505" d="M-47 -240l10 80q92 57 158.5 100.5t109.5 82t64.5 75.5t21.5 82q0 59 -40.5 94t-114.5 35q-16 0 -36 -2t-36 -6l-16 -98h-47v145q39 10 79.5 14.5t67.5 4.5q90 0 148.5 -48.5t58.5 -134.5q0 -51 -20.5 -94t-62.5 -84t-108.5 -86t-158.5 -100l2 -6h278l64 6l-8 -60h-414z " />
<glyph horiz-adv-x="516" d="M-43 -172q25 -6 51 -12q23 -4 49.5 -8.5t51.5 -4.5q37 0 71.5 5.5t62 18.5t44 35.5t16.5 59.5q0 31 -14.5 52.5t-38 35t-54 19.5t-61.5 6h-74l7 51h73q33 0 66 5t57.5 19.5t39.5 37t15 59.5q0 53 -39.5 78.5t-103.5 25.5q-20 0 -46 -3t-46 -9l-16 -96h-48v143 q23 4 70 11.5t94 7.5q84 0 142.5 -36t58.5 -118q0 -104 -109 -148v-8q41 -16 66 -49t25 -82t-24 -83t-60.5 -54t-83.5 -29.5t-95 -9.5q-43 0 -87 7t-60 12v61z" />
<glyph horiz-adv-x="540" d="M-31 -117l8 68l324 401h90l-53 -413h72l-7 -56h-69l-15 -125h-61l14 125h-303zM33 -53v-8h243l41 323l15 33h-8l-265 -334z" />
<glyph horiz-adv-x="495" d="M-45 -236l18 150h54v-98q31 -6 69 -6q37 0 72 6t62.5 21.5t44 41t16.5 64.5q0 35 -20.5 58.5t-53.5 36.5t-70.5 18t-70.5 5h-56l37 293h328l-8 -65l-53 4h-205l-21 -172q51 0 99.5 -8.5t85 -29t59.5 -52t23 -78.5q0 -53 -21.5 -92t-58.5 -63.5t-85 -37t-100 -12.5 q-47 0 -88 5t-57 11z" />
<glyph horiz-adv-x="520" d="M-25 -6q0 166 78 268.5t232 102.5q37 0 73.5 -5.5t65.5 -13.5l-29 -145h-45v104q-25 6 -69 6q-96 0 -154.5 -55t-75.5 -152q41 4 67.5 6.5t53.5 2.5q100 0 162.5 -40t62.5 -126q0 -98 -62.5 -148.5t-160.5 -50.5q-106 0 -152.5 69.5t-46.5 176.5zM39 -4 q0 -82 31.5 -137.5t115.5 -55.5q66 0 108 36t42 102t-49 93t-127 27q-33 0 -61.5 -2t-55.5 -6q-4 -23 -4 -33v-24z" />
<glyph horiz-adv-x="446" d="M-23 197v153h410l-10 -74q-86 -72 -137.5 -137t-79 -126.5t-37.5 -120t-17 -111.5l-2 -25h-71l2 25q6 53 17 111.5t38 121t74 130t125 139.5l35 8v8h-275l-18 -102h-54z" />
<glyph horiz-adv-x="550" d="M-23 -106q0 63 38 103t98 64v9q-84 39 -84 123q0 41 18.5 72.5t49 53t70.5 32.5t85 11q78 0 133 -37.5t55 -107.5q0 -53 -33.5 -90t-95.5 -66v-8q47 -25 72 -56.5t25 -76.5t-19.5 -77.5t-52.5 -54t-74 -32t-86 -10.5q-86 0 -142.5 40t-56.5 108zM43 -98q0 -47 38 -75 t97 -28q66 0 114 27t48 86q0 47 -36 73.5t-93 43.5l-27 6q-55 -16 -98 -46t-43 -87zM96 201q0 -49 35 -69.5t82 -37.5l29 -8q20 6 43.5 16.5t44 25.5t33 35.5t12.5 49.5q0 45 -38 70.5t-93 25.5q-53 0 -100.5 -25.5t-47.5 -82.5z" />
<glyph horiz-adv-x="520" d="M-43 -231l29 145h45v-104q25 -6 69 -7q96 0 154.5 55.5t75.5 151.5q-41 -4 -67.5 -6t-53.5 -2q-100 0 -162.5 40t-62.5 126q0 98 62.5 148.5t160.5 50.5q106 0 152.5 -70t46.5 -176q0 -166 -78 -268.5t-232 -102.5q-37 0 -73.5 5t-65.5 14zM45 174q0 -66 49 -93.5 t127 -27.5q33 0 61.5 2t55.5 6q4 23 4 33v25q0 82 -31.5 137t-115.5 55q-66 0 -108 -35.5t-42 -101.5z" />
<glyph horiz-adv-x="350" d="M25 111q0 74 12 138t36.5 122.5t59.5 115t80 113.5l47 -33q-33 -45 -63.5 -92t-55 -102.5t-39 -120t-14.5 -143.5q0 -96 23.5 -173t52.5 -145l-55 -33q-33 70 -58.5 159t-25.5 194z" />
<glyph horiz-adv-x="350" d="M-16 -209q33 45 63.5 92t55 102.5t39 120t14.5 144.5q0 96 -23.5 173t-52.5 144l55 33q33 -70 58.5 -159t25.5 -193q0 -74 -12 -138.5t-37 -123t-59.5 -114.5t-79.5 -114z" />
<glyph horiz-adv-x="960" d="M49 416q0 156 36 281.5t100.5 216t155.5 139.5t202 49q168 0 259 -118t91 -318q0 -158 -36 -284t-101.5 -215t-156.5 -137t-200 -48q-168 0 -259 114.5t-91 319.5zM164 420q0 -72 14.5 -134.5t45 -109.5t78.5 -73.5t116 -26.5q86 0 152.5 51t113.5 133t71.5 185.5 t24.5 205.5q0 76 -14 140.5t-45 112.5t-79 76t-118 28q-90 0 -157.5 -54.5t-112.5 -139.5t-67.5 -189.5t-22.5 -204.5z" />
<glyph horiz-adv-x="813" d="M14 0l11 96h294l115 848h-10l-43 -59q-70 -53 -138.5 -87t-146.5 -59l-14 115q92 23 183 79t173 150h137l-143 -987h266l-10 -96h-674z" />
<glyph horiz-adv-x="890" d="M10 0l19 147q168 102 288.5 181.5t199.5 149t117 138t38 150.5q0 104 -72 166.5t-207 62.5q-33 0 -68.5 -3t-64.5 -9l-31 -178h-84v262q68 16 145 25.5t126 9.5q80 0 148.5 -22.5t117.5 -64.5t77.5 -103.5t28.5 -139.5q0 -94 -36.5 -172t-113.5 -152.5t-196.5 -156.5 t-287.5 -182l2 -11h508l114 11l-14 -109h-754z" />
<glyph horiz-adv-x="903" d="M25 16v111q43 -14 88 -25q39 -10 86 -16t92 -6q68 0 131 9t112.5 33.5t80 67.5t30.5 111q0 55 -26.5 94t-69.5 62.5t-97.5 34t-111.5 10.5h-133l10 94h135q61 0 119.5 9t105 34t74 67t27.5 107q0 100 -73 146.5t-189 46.5q-39 0 -86 -5.5t-82 -15.5l-31 -180h-84v262 q20 4 52 10t72 11.5t84 9.5t87 4q76 0 143.5 -15.5t117.5 -49t79 -86t29 -126.5q0 -193 -197 -272v-8q72 -33 117 -93.5t45 -148.5q0 -92 -42 -153.5t-109.5 -98.5t-153.5 -53t-172 -16q-39 0 -80 4t-76 9t-62.5 11t-41.5 10z" />
<glyph horiz-adv-x="909" d="M-8 229l14 121l592 733h162l-94 -755h129l-13 -99h-127l-26 -229h-111l27 229h-553zM104 328h449l74 592l20 59h-8l-483 -610l-50 -31z" />
<glyph horiz-adv-x="872" d="M4 10l49 266h84v-184q29 -6 67 -9t72 -3q68 0 134.5 13t119 44t84 79t31.5 118t-38 114t-96 68.5t-128 33.5t-131 9h-102l65 524h588l-15 -108l-110 12h-363l-41 -330q100 0 189.5 -16t155 -53t104.5 -97.5t39 -148.5q0 -96 -40 -164.5t-106.5 -111.5t-153.5 -63.5 t-181 -20.5q-63 0 -134 6t-143 22z" />
<glyph horiz-adv-x="925" d="M55 426q0 152 30 275.5t93.5 213t162.5 138.5t237 49q68 0 145.5 -13.5t128.5 -29.5l-51 -260h-84v190q-23 6 -67 10.5t-79 4.5q-172 0 -261 -102.5t-117 -276.5q51 10 113.5 17t109.5 7q88 0 163.5 -19.5t130 -58.5t85 -96t30.5 -133q0 -90 -29.5 -156.5t-81.5 -112.5 t-124 -68.5t-158 -22.5q-94 0 -164.5 33.5t-118 94t-71 141.5t-23.5 175zM172 428q0 -74 14.5 -137.5t48 -110.5t87 -73.5t131.5 -26.5q119 0 188.5 64.5t69.5 187.5q0 119 -89.5 171t-228.5 52q-59 0 -113.5 -8t-101.5 -19q-6 -55 -6 -100z" />
<glyph horiz-adv-x="776" d="M86 805v278h709l-17 -135q-141 -129 -231 -255t-144.5 -245.5t-79 -230.5t-36.5 -209v-8h-113v8q12 96 38 208t77 232.5t136 249.5t214 258l55 23l2 10h-495l-31 -184h-84z" />
<glyph horiz-adv-x="960" d="M53 250q0 115 70 186.5t176 116.5v8q-72 35 -112 96.5t-40 137.5t33 133t89.5 96t130 58.5t153.5 19.5q70 0 132.5 -18.5t108.5 -52.5t72.5 -83t26.5 -110q0 -98 -60.5 -167t-170.5 -120v-8q82 -45 128 -104.5t46 -141.5t-36 -141.5t-94.5 -98.5t-134 -57t-155.5 -18 q-78 0 -144.5 18t-114.5 54t-76 85t-28 111zM172 266q0 -86 69.5 -137t178.5 -51q57 0 110.5 12t93.5 37t64.5 63.5t24.5 94.5q0 86 -65.5 133t-168.5 76l-51 14q-49 -16 -95 -36.5t-82 -49.5t-57.5 -67t-21.5 -89zM268 807q0 -43 17.5 -74t46 -52.5t67.5 -36.5t82 -30 l51 -16q39 12 82 31.5t79 47.5t59.5 65.5t23.5 88.5q0 80 -68.5 127.5t-168.5 47.5q-49 0 -98.5 -11.5t-87.5 -36t-61.5 -62.5t-23.5 -89z" />
<glyph horiz-adv-x="925" d="M53 25l51 260h84v-191q23 -6 67 -10t79 -4q172 0 261 102.5t118 276.5q-51 -10 -113.5 -17.5t-110.5 -7.5q-90 0 -164.5 19.5t-129 58.5t-85 96.5t-30.5 132.5q0 88 29.5 156t82 114t124 68.5t157.5 22.5q94 0 165 -35t118 -94.5t70.5 -140t23.5 -175.5 q0 -152 -29.5 -275.5t-93 -212.5t-163 -138t-236.5 -49q-68 0 -146 13t-129 30zM195 752q0 -119 89 -171.5t228 -52.5q59 0 113.5 8.5t101.5 18.5q6 55 6 100q0 74 -14 137.5t-48 110.5t-87.5 74t-130.5 27q-119 0 -188.5 -64.5t-69.5 -187.5z" />
<glyph horiz-adv-x="546" d="M-25 172q0 172 75 275.5t198 103.5q92 0 142 -65.5t50 -176.5q0 -174 -74.5 -274.5t-197.5 -100.5q-92 0 -142.5 63.5t-50.5 174.5zM39 174q0 -78 32.5 -133t106.5 -55q47 0 85 28.5t63.5 73.5t39 101.5t13.5 111.5q0 86 -32 142.5t-109 56.5q-49 0 -87 -30t-63 -77 t-37 -105.5t-12 -113.5z" />
<glyph horiz-adv-x="493" d="M-27 -55l7 53h159l64 465h-10l-19 -33q-37 -31 -76 -48t-80 -32l-8 62q49 14 99.5 43.5t95.5 83.5h74l-78 -541h145l-6 -53h-367z" />
<glyph horiz-adv-x="505" d="M-47 -55l10 80q92 57 158.5 100t109.5 82t64.5 75.5t21.5 82.5q0 59 -40.5 94t-114.5 35q-16 0 -36 -2.5t-36 -6.5l-16 -98h-47v145q39 10 79.5 14.5t67.5 4.5q90 0 148.5 -48t58.5 -134q0 -51 -20.5 -94.5t-62.5 -84t-108.5 -86t-158.5 -100.5l2 -6h278l64 6l-8 -59 h-414z" />
<glyph horiz-adv-x="516" d="M-43 12q25 -6 51 -12q23 -4 49.5 -8t51.5 -4q37 0 71.5 5t62 18.5t44 36t16.5 58.5q0 31 -14.5 52.5t-38 35t-54 19.5t-61.5 6h-74l7 51h73q33 0 66 5.5t57.5 19.5t39.5 36.5t15 59.5q0 53 -39.5 79t-103.5 26q-20 0 -46 -3.5t-46 -9.5l-16 -96h-48v143q23 4 70 11.5 t94 7.5q84 0 142.5 -36t58.5 -118q0 -104 -109 -147v-8q41 -16 66 -49t25 -82t-24 -83t-60.5 -54.5t-83.5 -30t-95 -9.5q-43 0 -87 7.5t-60 11.5v61z" />
<glyph horiz-adv-x="540" d="M-31 68l8 67l324 402h90l-53 -414h72l-7 -55h-69l-15 -125h-61l14 125h-303zM33 123h243l41 323l15 33h-8l-265 -334l-26 -14v-8z" />
<glyph horiz-adv-x="495" d="M-45 -51l18 149h54v-98q31 -6 69 -6q37 0 72 6t62.5 21.5t44 41t16.5 64.5q0 35 -20.5 58.5t-53.5 37t-70.5 18.5t-70.5 5h-56l37 293h328l-8 -66l-53 4h-205l-21 -172q51 0 99.5 -8t85 -28.5t59.5 -52.5t23 -79q0 -53 -21.5 -92t-58.5 -63.5t-85 -37t-100 -12.5 q-47 0 -88 5.5t-57 11.5z" />
<glyph horiz-adv-x="520" d="M-25 178q0 166 78 268.5t232 102.5q37 0 73.5 -5t65.5 -14l-29 -145h-45v104q-25 6 -69 7q-96 0 -154.5 -55.5t-75.5 -151.5q41 4 67.5 6t53.5 2q100 0 162.5 -40t62.5 -126q0 -98 -62.5 -148.5t-160.5 -50.5q-106 0 -152.5 70t-46.5 176zM39 180q0 -82 31.5 -137 t115.5 -55q66 0 108 35.5t42 101.5t-49 93.5t-127 27.5q-33 0 -61.5 -2t-55.5 -6q-4 -23 -4 -33v-25z" />
<glyph horiz-adv-x="446" d="M-23 381v154h410l-10 -74q-86 -72 -137.5 -137.5t-79 -127t-37.5 -120t-17 -111.5l-2 -24h-71l2 24q6 53 17 111.5t38 121t74 130t125 139.5l35 8v8h-275l-18 -102h-54z" />
<glyph horiz-adv-x="550" d="M-23 78q0 63 38 103t98 65v8q-84 39 -84 123q0 41 18.5 72.5t49 53t70.5 33t85 11.5q78 0 133 -38t55 -108q0 -53 -33.5 -90t-95.5 -65v-8q47 -25 72 -56.5t25 -77.5q0 -45 -19.5 -77.5t-52.5 -54t-74 -32t-86 -10.5q-86 0 -142.5 40t-56.5 108zM43 86q0 -47 38 -74.5 t97 -27.5q66 0 114 26.5t48 85.5q0 47 -36 74t-93 43l-27 6q-55 -16 -98 -46t-43 -87zM96 385q0 -49 35 -69.5t82 -36.5l29 -9q20 6 43.5 16.5t44 26t33 36t12.5 48.5q0 45 -38 71t-93 26q-53 0 -100.5 -26t-47.5 -83z" />
<glyph horiz-adv-x="520" d="M-43 -47l29 145h45v-104q25 -6 69 -6q96 0 154.5 55t75.5 152q-41 -4 -67.5 -6.5t-53.5 -2.5q-100 0 -162.5 40t-62.5 126q0 98 62.5 148.5t160.5 50.5q106 0 152.5 -69.5t46.5 -176.5q0 -166 -78 -268.5t-232 -102.5q-37 0 -73.5 5.5t-65.5 13.5zM45 358q0 -66 49 -93 t127 -27q33 0 61.5 2t55.5 6q4 23 4 33v24q0 82 -31.5 137.5t-115.5 55.5q-66 0 -108 -36t-42 -102z" />
<glyph horiz-adv-x="546" d="M74 821q0 172 74.5 275.5t197.5 103.5q92 0 142.5 -65.5t50.5 -176.5q0 -174 -75 -274t-198 -100q-92 0 -142 63t-50 174zM137 823q0 -78 33 -133t106 -55q47 0 85 28.5t64 73.5t39 101.5t13 111.5q0 86 -31.5 142.5t-109.5 56.5q-49 0 -87 -29.5t-62.5 -77t-37 -106 t-12.5 -113.5z" />
<glyph horiz-adv-x="493" d="M76 596l6 53h160l63 465h-10l-19 -33q-37 -31 -75.5 -48t-79.5 -32l-8 62q49 14 99 44t95 83h74l-78 -541h146l-5 -53h-368z" />
<glyph horiz-adv-x="505" d="M53 594l10 80q92 57 159 100t110 82t64.5 76t21.5 82q0 59 -41 94t-115 35q-16 0 -35.5 -2t-36.5 -6l-16 -99h-47v146q39 10 80 14t67 4q90 0 148.5 -48t58.5 -134q0 -51 -20.5 -94t-62.5 -84t-108.5 -86t-158.5 -101l2 -6h279l63 6l-8 -59h-414z" />
<glyph horiz-adv-x="516" d="M59 602v62q25 -6 52 -13q23 -4 49 -8t51 -4q37 0 71.5 5t62.5 18.5t44.5 36t16.5 59.5q0 31 -14.5 52t-38 34.5t-54.5 19.5t-61 6h-74l6 52h74q33 0 65.5 5t57 19.5t40 37t15.5 58.5q0 53 -40 79t-103 26q-20 0 -46 -3t-47 -9l-16 -97h-47v144q23 4 70 11t94 7 q84 0 142 -36t58 -117q0 -104 -108 -148v-8q41 -16 65.5 -49t24.5 -82t-23.5 -83t-60.5 -54.5t-84 -29.5t-94 -9q-43 0 -87 7t-61 11z" />
<glyph horiz-adv-x="540" d="M70 721l8 67l323 402h91l-54 -414h72l-6 -55h-70l-14 -125h-62l15 125h-303zM133 776h244l41 324l14 33h-8l-264 -334l-27 -15v-8z" />
<glyph horiz-adv-x="495" d="M47 602l27 146h47v-101q16 -4 36.5 -6t39.5 -2q37 0 73.5 7t65.5 23.5t46 43t17 65.5t-20.5 62.5t-53 38t-70.5 19.5t-73 5h-55l35 287h323l-8 -60l-61 7h-199l-22 -181q55 0 104 -9t85 -29.5t57.5 -53.5t21.5 -80q0 -53 -21.5 -91t-58.5 -61.5t-85 -34.5t-99 -11 q-35 0 -73 3t-79 13z" />
<glyph horiz-adv-x="520" d="M78 829q0 166 77.5 268.5t231.5 102.5q37 0 74 -5t65 -13l-28 -146h-45v105q-25 6 -70 6q-96 0 -154.5 -55.5t-74.5 -151.5q41 4 67.5 6t52.5 2q100 0 163 -40t63 -126q0 -98 -62.5 -148t-161.5 -50q-106 0 -152 69.5t-46 175.5zM141 831q0 -82 32 -137t116 -55 q66 0 107.5 35.5t41.5 101.5t-49 93.5t-127 27.5q-33 0 -61.5 -2t-55.5 -6q-4 -23 -4 -33v-25z" />
<glyph horiz-adv-x="446" d="M80 1036v154h409l-10 -74q-86 -72 -137 -137.5t-78.5 -126.5t-38 -119.5t-16.5 -111.5l-2 -25h-72l2 25q6 53 17.5 111.5t38 120.5t73.5 130t125 139l35 8v9h-274l-19 -103h-53z" />
<glyph horiz-adv-x="550" d="M78 731q0 63 38 103t97 65v8q-84 39 -84 123q0 41 18.5 73t49 53.5t70.5 32.5t85 11q78 0 133.5 -38t55.5 -107q0 -53 -34 -90t-95 -66v-8q47 -25 71.5 -56.5t24.5 -76.5t-19.5 -78t-52.5 -54.5t-73.5 -31.5t-86.5 -10q-86 0 -142 40t-56 107zM143 739q0 -47 38 -74.5 t98 -27.5q66 0 113.5 26.5t47.5 86.5q0 47 -35.5 73.5t-93.5 42.5l-26 6q-55 -16 -98.5 -45.5t-43.5 -87.5zM197 1038q0 -49 34.5 -69.5t81.5 -36.5l29 -8q20 6 44 16t44.5 25.5t32.5 36t12 49.5q0 45 -38 70.5t-93 25.5q-53 0 -100 -25.5t-47 -83.5z" />
<glyph horiz-adv-x="520" d="M59 602l29 146h45v-105q25 -6 70 -6q96 0 154.5 55.5t74.5 151.5q-41 -4 -67.5 -6t-53.5 -2q-100 0 -162.5 39.5t-62.5 125.5q0 98 62.5 148.5t160.5 50.5q106 0 152.5 -69.5t46.5 -176.5q0 -166 -78 -268t-231 -102q-37 0 -74 5t-66 13zM147 1008q0 -66 49.5 -93.5 t127.5 -27.5q33 0 61.5 2t54.5 6q4 23 4 33v24q0 82 -31.5 137.5t-115.5 55.5q-66 0 -108 -35.5t-42 -101.5z" />
<glyph horiz-adv-x="360" d="M197 1225q0 43 21.5 66.5t53.5 23.5q29 0 45.5 -19.5t16.5 -50.5q0 -37 -16.5 -64.5t-57.5 -27.5q-29 0 -46 19.5t-17 52.5z" />
<glyph horiz-adv-x="1150" d="M61 281q0 111 51.5 190.5t135.5 138.5q-29 47 -42 96.5t-13 92.5q0 66 22.5 121t63 96t100 63.5t131.5 22.5q104 0 173 -52.5t69 -158.5h329l109 8l-27 -98h-207q-20 -164 -58 -316.5t-114 -275.5q45 -35 100.5 -66.5t96.5 -52.5l-39 -108q-39 16 -101.5 52t-127.5 83 q-59 -61 -145.5 -98t-190.5 -37q-68 0 -125 21.5t-99 61t-67 94t-25 122.5zM172 293q0 -45 15.5 -85t44 -68.5t68.5 -46t89 -17.5q138 0 242 98q-45 35 -94.5 80t-94.5 93t-82.5 95t-62.5 84q-57 -41 -91 -100t-34 -133zM303 819q0 -53 32 -122.5t87 -143.5t128 -147.5 t152 -137.5q31 49 54.5 111.5t40 131.5t29 142.5t20.5 147.5h-213q4 16 7 37.5t3 40.5q0 59 -40 94t-107 35q-78 0 -135.5 -48.5t-57.5 -140.5z" />
</font>
</defs>
</svg>
