<?xml version="1.0" standalone="no"?>
<!DOCTYPE svg PUBLIC "-//W3C//DTD SVG 1.1//EN" "http://www.w3.org/Graphics/SVG/1.1/DTD/svg11.dtd" >
<svg xmlns="http://www.w3.org/2000/svg">
<metadata></metadata>
<defs>
<font id="distefanoslabregular" horiz-adv-x="1003" >
<font-face units-per-em="2048" ascent="1536" descent="-512" />
<missing-glyph horiz-adv-x="380" />
<glyph unicode="&#xfb00;" horiz-adv-x="1136" d="M35 815v148l125 16v98q0 154 92 239t250 85h24.5t32.5 -2l25 -166q-10 2 -25.5 3t-28.5 1q-80 0 -125 -39t-45 -119q0 -23 2.5 -41t6.5 -32q4 -16 10 -29h334v100q0 154 92 239t250 85h24.5t32.5 -2l25 -166q-10 2 -25.5 3t-28.5 1q-80 0 -125 -39t-45 -119 q0 -23 2.5 -41t6.5 -32q4 -16 10 -29h180v-162h-194v-657l94 -13v-145h-314l15 145v670h-348v-657l94 -13v-145h-314l15 145v670h-125z" />
<glyph unicode="&#xfb01;" horiz-adv-x="1050" d="M35 815v148l125 16v98q0 154 92 239t250 85h24.5t32.5 -2l25 -166q-10 2 -25.5 3t-28.5 1q-80 0 -125 -39t-45 -119q0 -23 2.5 -41t6.5 -32q4 -16 10 -29h536v-977h-217l19 145v670h-352v-657l94 -13v-145h-314l15 145v670h-125zM653 1253l146 150l149 -150l-149 -151z " />
<glyph unicode="&#xfb02;" horiz-adv-x="1056" d="M35 815v146l125 16v106q0 86 28.5 146.5t81 98.5t125 55.5t158.5 17.5q47 0 102.5 -4t106.5 -9.5t93 -11.5t63 -8v-1368h-218l15 145v1082q-23 2 -76 6t-92 4q-84 0 -135.5 -34t-51.5 -124q0 -23 2.5 -40t6.5 -31q4 -16 10 -31h153v-162h-167v-657l96 -13v-145h-314 l13 145v670h-125z" />
<glyph unicode="&#xfb03;" horiz-adv-x="1622" d="M35 815v148l125 16v98q0 154 92 239t250 85h24.5t32.5 -2l25 -166q-10 2 -25.5 3t-28.5 1q-80 0 -125 -39t-45 -119q0 -23 2.5 -41t6.5 -32q4 -16 10 -29h334v100q0 154 92 239t250 85h24.5t32.5 -2l25 -166q-10 2 -25.5 3t-28.5 1q-80 0 -125 -39t-45 -119 q0 -23 2.5 -41t6.5 -32q4 -16 10 -29h553v-977h-221l20 145v670h-366v-657l94 -13v-145h-314l15 145v670h-348v-657l94 -13v-145h-314l15 145v670h-125zM1225 1253l145 150l150 -150l-150 -151z" />
<glyph unicode="&#xfb04;" horiz-adv-x="1619" d="M35 815v148l125 16v98q0 154 92 239t250 85h24.5t32.5 -2l25 -166q-10 2 -25.5 3t-28.5 1q-80 0 -125 -39t-45 -119q0 -23 2.5 -41t6.5 -32q4 -16 10 -29h336v106q0 88 30.5 148.5t84 98.5t128 54.5t160.5 16.5q41 0 96.5 -5t108.5 -11.5t97 -12.5t61 -8v-1364h-217 l14 135v1092q-12 2 -33.5 5t-47.5 5t-51.5 3t-41.5 1q-84 0 -136.5 -35t-52.5 -125q0 -47 7 -73q4 -16 8 -31h157v-162h-167v-657l96 -13v-145h-314l13 143v672h-350v-657l94 -13v-145h-314l15 145v670h-125z" />
<glyph horiz-adv-x="0" />
<glyph unicode="&#xd;" horiz-adv-x="380" />
<glyph unicode=" "  horiz-adv-x="380" />
<glyph unicode="&#x09;" horiz-adv-x="380" />
<glyph unicode="&#xa0;" horiz-adv-x="380" />
<glyph unicode="!" horiz-adv-x="493" d="M143 90q0 51 31 81t80 30t76.5 -29t27.5 -80t-29.5 -80.5t-78.5 -29.5t-78 28.5t-29 79.5zM170 328l25 968h211l-62 -968h-174z" />
<glyph unicode="&#x22;" horiz-adv-x="575" d="M100 731v459h119v-459h-119zM358 731v459h119v-459h-119z" />
<glyph unicode="#" d="M63 289v110h173l69 346h-203v111h224l63 334h123l-63 -334h202l66 334h123l-66 -334h166v-111h-186l-68 -346h217v-110h-235l-56 -289h-125l56 289h-203l-55 -289h-123l55 289h-154zM360 399h203l68 346h-203z" />
<glyph unicode="$" d="M135 12v289h160q6 -41 13 -79t16 -79q23 -2 47 -4t51 -2q45 0 87 8.5t74.5 25.5t53 45t20.5 67q0 51 -37.5 85.5t-95 63.5t-123 56.5t-123 66.5t-95.5 93t-38 136q0 68 25 121t68 91t101 61.5t126 34.5v204h108v-194q80 0 144.5 -7.5t142.5 -23.5v-293h-158l-30 160 q-12 2 -39 5t-64 3q-86 0 -146.5 -32.5t-60.5 -110.5q0 -51 38 -86t95.5 -62.5t124 -55.5t124 -65.5t95.5 -93t38 -137.5q0 -68 -24 -120t-66 -90t-98 -61.5t-120 -35.5v-209h-108v195h-39q-76 0 -150.5 9t-136.5 21z" />
<glyph unicode="%" horiz-adv-x="1140" d="M43 893q0 141 67.5 224t192.5 83q123 0 181.5 -81t58.5 -222q0 -143 -70 -227t-192 -84q-123 0 -180.5 83t-57.5 224zM164 0l702 1190h111l-703 -1190h-110zM172 893q0 -41 5 -78t18.5 -65.5t36 -46t57.5 -17.5q33 0 56.5 17.5t38.5 47t22.5 66.5t7.5 78q0 39 -6.5 76 t-19.5 65.5t-35.5 46t-55.5 17.5q-35 0 -59.5 -17.5t-39 -46t-20.5 -66.5t-6 -77zM596 299q0 141 67.5 223t190.5 82t182.5 -81t59.5 -222t-70 -226t-192 -85q-123 0 -180.5 83t-57.5 226zM723 299q0 -41 5 -78t19.5 -66.5t36 -47t56.5 -17.5q33 0 57.5 17.5t39.5 47 t22.5 67.5t7.5 79q0 39 -6.5 76t-19.5 64.5t-35.5 45t-55.5 17.5q-35 0 -59.5 -17.5t-40 -46t-21.5 -65.5t-6 -76z" />
<glyph unicode="&#x26;" horiz-adv-x="1294" d="M70 346q0 106 43 183t118 143q-47 61 -66.5 116.5t-19.5 110.5q0 68 26 124t72 97t110.5 64.5t144.5 23.5q63 0 119.5 -13t98.5 -42t66.5 -72t26.5 -104h358l138 8l-33 -164h-213q0 -154 -18.5 -290t-71.5 -246q68 -41 126 -66.5t109 -48.5l-41 -188q-25 8 -59.5 22 t-74.5 33.5t-83 42t-82 45.5q-63 -66 -156.5 -104.5t-215.5 -38.5q-88 0 -165 24.5t-134.5 71.5t-90 114.5t-32.5 153.5zM268 354q0 -45 17.5 -83t47 -66.5t69.5 -45t85 -16.5q121 0 203 84q-43 29 -91 67t-94 79t-86 82t-69 75q-82 -70 -82 -176zM350 889q0 -51 39 -114.5 t101.5 -131.5t141.5 -134.5t161 -123.5q37 78 51 188.5t14 247.5h-231q6 16 11 41t5 47q0 131 -137 131q-66 0 -111 -39.5t-45 -111.5z" />
<glyph unicode="'" horiz-adv-x="313" d="M96 731v459h119v-459h-119z" />
<glyph unicode="(" horiz-adv-x="466" d="M82 492q0 104 18.5 200t48 184.5t68.5 167t82 146.5l90 -60q-37 -61 -70.5 -130.5t-59.5 -149.5t-42 -170t-16 -188q0 -102 16 -192.5t42 -170.5t59.5 -148.5t70.5 -130.5l-90 -59q-86 139 -151.5 315.5t-65.5 385.5z" />
<glyph unicode=")" horiz-adv-x="466" d="M78 -150q37 61 70.5 130t59 149t42 170t16.5 193q0 98 -16.5 188t-42 170t-59 149.5t-70.5 130.5l90 60q43 -68 82 -146.5t68.5 -167t48 -184.5t18.5 -200q0 -209 -65.5 -385.5t-151.5 -315.5z" />
<glyph unicode="*" horiz-adv-x="757" d="M66 799l219 110l-219 113l59 98l203 -131l-15 244h123l-12 -244l203 131l57 -100l-219 -111l219 -110l-57 -99l-203 127l12 -237h-123l15 239l-203 -129z" />
<glyph unicode="+" d="M98 537v112h342v342h121v-342h346v-112h-346v-357h-121v357h-342z" />
<glyph unicode="," horiz-adv-x="391" d="M94 98q0 51 30 83t81 32q49 0 76.5 -29.5t27.5 -81.5q0 -72 -43 -139l-82 -135l-80 8l62 164q-31 10 -51.5 33.5t-20.5 64.5z" />
<glyph unicode="-" horiz-adv-x="677" d="M104 436v113h469v-113h-469z" />
<glyph unicode="." horiz-adv-x="393" d="M96 90q0 51 31 81t80 30t76.5 -29t27.5 -80t-29.5 -80.5t-78.5 -29.5t-78 28.5t-29 79.5z" />
<glyph unicode="/" horiz-adv-x="663" d="M18 0l498 1190h131l-497 -1190h-132z" />
<glyph unicode="0" d="M53 586q0 137 30 250.5t89 196.5t146.5 129t203.5 46q115 0 196 -43t133 -121.5t75.5 -189.5t23.5 -248q0 -139 -29.5 -253.5t-89 -196.5t-146.5 -128t-202 -46t-195.5 43t-133 120.5t-77 189.5t-24.5 251zM262 586q0 -90 11.5 -169t37 -138.5t69.5 -94t112 -34.5 q66 0 112.5 37.5t77.5 101t46 145.5t15 172q0 88 -11 167t-38.5 138.5t-73 94t-110.5 34.5q-68 0 -115 -37.5t-76.5 -101t-43 -145.5t-13.5 -170z" />
<glyph unicode="1" d="M106 967q90 20 185.5 75.5t163.5 147.5h211l-29 -1022h274v-168h-778v168h295l23 799q-2 0 -5.5 1t-5.5 1l-39 -68q-53 -43 -117.5 -71.5t-131.5 -47.5z" />
<glyph unicode="2" d="M90 0v199q150 102 256.5 188t174 160t99 139.5t31.5 130.5q0 104 -70.5 161.5t-207.5 57.5h-40t-40 -4l-33 -190h-162v323q70 20 149 31.5t156 11.5q98 0 182.5 -23.5t145 -71.5t95 -119.5t34.5 -168.5q0 -84 -29.5 -160.5t-90 -154.5t-152.5 -159t-219 -173q0 -2 1 -6 t1 -6h413l136 14v-180h-830z" />
<glyph unicode="3" d="M92 205q6 -2 32 -11.5t65.5 -18.5t91 -17t108.5 -8q55 0 108.5 10t94.5 33.5t65.5 59.5t24.5 89q0 51 -24.5 86t-65.5 56.5t-92 29.5t-105 8h-149v160h135q51 0 101 8t89 29.5t62.5 55.5t23.5 87q0 96 -69.5 137t-175.5 41q-31 0 -62 -2t-59 -6q-6 -41 -12.5 -80 t-14.5 -80h-162v299q66 14 148 25.5t174 11.5q90 0 171 -18.5t141.5 -58t96 -103t35.5 -154.5q0 -88 -46 -157.5t-132 -104.5v-8q86 -33 144.5 -100.5t58.5 -177.5q0 -94 -43 -160t-112.5 -107t-157.5 -59t-179 -18q-90 0 -162.5 10t-111.5 20z" />
<glyph unicode="4" d="M66 225v195l473 770h266v-803h125v-162h-125v-225h-201v225h-538zM227 397l2 -10h377v537l21 73h-13l-340 -567z" />
<glyph unicode="5" d="M106 16v303h162q6 -41 12.5 -81.5t14.5 -81.5q45 -6 96 -6q59 0 111.5 12t90.5 37.5t60.5 64.5t22.5 92q0 63 -34 105.5t-89 67t-126 33.5t-142 9h-121v619h663v-180l-135 12h-321v-291q98 0 190 -20.5t165 -65.5t117 -115.5t44 -171.5q0 -96 -37 -166.5t-101.5 -116.5 t-149.5 -69.5t-179 -23.5q-92 0 -169 9t-145 25z" />
<glyph unicode="6" d="M76 578q0 135 30.5 250.5t96 199.5t168 132t247.5 48q72 0 139.5 -11t121.5 -26v-297h-162l-25 160q-14 2 -40.5 3t-43.5 1q-154 0 -229.5 -84t-85.5 -243q100 12 168 12q100 0 187 -19.5t151.5 -61.5t101.5 -109.5t37 -165.5q0 -84 -29.5 -155t-84 -122t-130.5 -79.5 t-166 -28.5q-123 0 -210 44t-140 123.5t-77.5 189.5t-24.5 239zM283 557q2 -78 12 -151.5t37.5 -131t77 -92.5t127.5 -35q43 0 79.5 16.5t62.5 45.5t41 67.5t15 83.5q0 57 -22.5 97.5t-61.5 65t-91 35.5t-111 11q-45 0 -88.5 -4t-77.5 -8z" />
<glyph unicode="7" d="M88 854v336h807v-203q-121 -125 -193.5 -256t-110.5 -258t-49.5 -243.5t-11.5 -213.5v-16h-208v18q0 111 13 229t49 240.5t98.5 246.5t158.5 245l55 33v10h-415l-31 -168h-162z" />
<glyph unicode="8" d="M76 303q0 98 56 173t142 122v10q-74 39 -123 106.5t-49 157.5q0 82 34 144.5t91.5 105.5t134 64.5t160.5 21.5q82 0 156 -19.5t129 -59t87 -99t32 -141.5q0 -96 -55.5 -165t-127.5 -108v-8q88 -47 140.5 -117.5t52.5 -168.5q0 -86 -37 -149.5t-97.5 -105.5t-140 -63.5 t-165.5 -21.5q-88 0 -165 19t-133.5 58t-89 99.5t-32.5 144.5zM266 317q0 -84 64.5 -127t156.5 -43q47 0 90.5 11.5t77 33t53 54.5t19.5 76q0 39 -18.5 68.5t-49 52t-72.5 39t-89 30.5l-47 14q-80 -31 -132.5 -84t-52.5 -125zM309 885q0 -41 17.5 -70t45 -50.5t63.5 -35.5 t75 -27l47 -14q31 8 61.5 26.5t57 43t43 54.5t16.5 65q0 80 -61.5 123.5t-149.5 43.5q-41 0 -78.5 -10t-68.5 -29.5t-49.5 -50t-18.5 -69.5z" />
<glyph unicode="9" d="M61 823q0 84 30 155t84 122t130 79.5t166 28.5q123 0 210 -44t140 -123.5t78 -189.5t25 -239q0 -135 -31 -250.5t-96.5 -199.5t-169 -132t-246.5 -48q-72 0 -139.5 11t-120.5 25v297h162l24 -159q14 -2 41 -3t43 -1q154 0 229.5 83.5t86.5 243.5q-102 -12 -168 -12 q-100 0 -187.5 19.5t-152 61.5t-101.5 109.5t-37 165.5zM264 829q0 -59 22.5 -99t61.5 -64.5t91.5 -34.5t111.5 -10q45 0 88 4t78 8q-2 78 -12.5 151.5t-38 131t-76.5 92t-127 34.5q-43 0 -80 -16t-62.5 -45t-41 -68t-15.5 -84z" />
<glyph unicode=":" horiz-adv-x="393" d="M96 90q0 51 31 81t80 30t76.5 -29t27.5 -80t-29.5 -80.5t-78.5 -29.5t-78 28.5t-29 79.5zM96 756q0 51 30 80.5t81 29.5q47 0 75.5 -27.5t28.5 -80.5q0 -49 -30.5 -80t-77.5 -31q-51 0 -79 29t-28 80z" />
<glyph unicode=";" horiz-adv-x="391" d="M94 98q0 51 30 83t81 32q49 0 76.5 -29.5t27.5 -81.5q0 -72 -43 -139l-82 -135l-80 8l62 164q-31 10 -51.5 33.5t-20.5 64.5zM94 758q0 49 31 79.5t80 30.5t76.5 -28.5t27.5 -79.5t-29.5 -82t-76.5 -31q-51 0 -80 29t-29 82z" />
<glyph unicode="&#x3c;" d="M184 600l598 461l68 -100l-469 -361l473 -358l-72 -101z" />
<glyph unicode="=" d="M98 369v114h807v-114h-807zM98 672v112h807v-112h-807z" />
<glyph unicode="&#x3e;" d="M158 242l473 358l-469 361l67 100l598 -461l-598 -459z" />
<glyph unicode="?" horiz-adv-x="866" d="M80 950v320q47 14 123 29.5t164 15.5q96 0 178 -24.5t141 -73t93 -121t34 -166.5q0 -78 -28.5 -145.5t-79 -122t-118 -93.5t-143.5 -59l-14 -182h-168v297q66 10 126.5 33.5t107.5 60.5t75.5 86t28.5 115q0 109 -67.5 166t-178.5 57q-20 0 -43.5 -2t-40.5 -6l-30 -185 h-160zM229 90q0 51 31 81t80 30t76.5 -29t27.5 -80t-29.5 -80.5t-76.5 -29.5q-51 0 -80 28.5t-29 79.5z" />
<glyph unicode="@" horiz-adv-x="1187" d="M61 346q0 135 40 254t115 207t181.5 138t239.5 50q119 0 211 -37.5t155.5 -106.5t96.5 -163t33 -207q0 -90 -24 -174t-71 -150.5t-116.5 -107.5t-161.5 -47l-31 109h-8q-6 -18 -18.5 -38t-33 -36.5t-50 -26.5t-68.5 -10q-49 0 -90 23.5t-68.5 63.5t-43 92t-15.5 112 q0 86 21.5 160.5t63.5 128t104.5 84t146.5 30.5q53 0 90 -3t65 -7l-12 -123v-340l18 -98q94 35 138.5 130t44.5 224q0 193 -92.5 302.5t-286.5 109.5q-113 0 -198 -43t-142 -118t-86 -174t-29 -212q0 -109 23.5 -206t76 -172t135.5 -119t199 -44q117 0 207 29t162 64v-115 q-72 -35 -165 -58.5t-210 -23.5q-139 0 -241.5 49t-170 137t-101.5 206t-34 257zM453 299q0 -86 29.5 -141.5t86.5 -55.5q80 0 105.5 82t25.5 222v184q-6 0 -14 2q-8 0 -17.5 1t-19.5 1q-51 0 -88 -24.5t-61.5 -65.5t-35.5 -94.5t-11 -110.5z" />
<glyph unicode="A" horiz-adv-x="1179" d="M29 0l368 1116l-104 19v161h487l295 -1124l82 -12v-160h-315v141l-47 197h-422l-51 -164l81 -12v-162h-374zM424 514h336l-135 545l-11 82h-8l-16 -82z" />
<glyph unicode="B" horiz-adv-x="1142" d="M57 1139v157h605q82 0 152.5 -20.5t122.5 -62.5t81 -106.5t29 -150.5q0 -98 -43 -170.5t-119 -107.5v-8q90 -41 139 -118t49 -192q0 -174 -106.5 -267t-292.5 -93h-531l19 143v975zM383 176h227q119 0 177.5 46t58.5 153q0 98 -58.5 152.5t-175.5 54.5h-229v-406z M383 735h240q98 0 148 51.5t50 141.5q0 92 -51 141t-156 49h-231v-383z" />
<glyph unicode="C" horiz-adv-x="1040" d="M66 600q0 162 40.5 293t118.5 225t194 145.5t263 51.5q78 0 159 -13.5t140 -29.5v-320h-166l-27 170q-14 4 -48.5 6t-57.5 2q-100 0 -173 -38.5t-120 -107.5t-69.5 -163t-22.5 -205q0 -92 21.5 -173t63.5 -141t105.5 -96t147.5 -36q57 0 107.5 14.5t90 38t69.5 51 t48 54.5l49 -219q-16 -16 -48.5 -38t-80 -42.5t-112 -33.5t-146.5 -13q-125 0 -225 44t-172 123.5t-110.5 194.5t-38.5 256z" />
<glyph unicode="D" horiz-adv-x="1214" d="M57 1139v157h504q301 0 444.5 -167.5t143.5 -499.5q0 -299 -146.5 -464t-420.5 -165h-439l21 143v975zM383 180h188q92 0 158 33t108 92.5t62.5 142t20.5 185.5q0 240 -79 360.5t-266 120.5h-192v-934z" />
<glyph unicode="E" horiz-adv-x="1075" d="M57 1139v157h918v-344h-166l-27 162h-399v-364h528v-172h-528v-398h408l28 164h166v-344h-842l19 143v975z" />
<glyph unicode="F" horiz-adv-x="989" d="M57 1139v157h863v-344h-166q-6 41 -12.5 81t-14.5 81h-344v-387h483v-172h-483v-381q29 -4 56.5 -8t56.5 -8v-158h-353l17 143q0 246 1 488.5t1 486.5z" />
<glyph unicode="G" horiz-adv-x="1165" d="M66 616q0 154 38.5 282t117.5 221t197 144.5t277 51.5q78 0 167 -13.5t173 -37.5v-312h-166l-28 166q-35 10 -74 14.5t-80 4.5q-104 0 -180 -39t-124 -107.5t-70.5 -163t-22.5 -204.5q0 -94 16.5 -178.5t56 -148t104 -101t161.5 -37.5q49 0 106.5 13t91.5 34v321h-235 v166h450v-606q-78 -41 -189.5 -72.5t-246.5 -31.5q-117 0 -216 36.5t-172 114.5t-112.5 198t-39.5 285z" />
<glyph unicode="H" horiz-adv-x="1241" d="M57 1139v157h326v-534h475v534h238l-17 -143v-979l105 -16v-158h-326v586h-475v-408l90 -16v-162h-330l19 143v975q-23 6 -51.5 10.5t-53.5 10.5z" />
<glyph unicode="I" horiz-adv-x="538" d="M57 1139v157h326v-1118l98 -16v-162h-338l19 143v975z" />
<glyph unicode="J" horiz-adv-x="704" d="M16 172q23 -4 48.5 -5t37.5 -1q240 0 240 240v706l-281 18v166h519l-17 -145v-748q0 -215 -114.5 -317t-309.5 -102h-19.5t-28.5 1t-28.5 2t-19.5 1z" />
<glyph unicode="K" horiz-adv-x="1105" d="M57 1139v157h328v-551h10l31 80l354 471h267l-402 -514l354 -608l93 -16v-158h-256l-336 604h-8l-107 -131v-297l88 -14v-162h-328l19 145v973q-25 6 -53.5 10.5t-53.5 10.5z" />
<glyph unicode="L" horiz-adv-x="921" d="M57 1139v157h328v-1116h324l26 162h166v-342h-756l17 143v975q-23 4 -51.5 9.5t-53.5 11.5z" />
<glyph unicode="M" horiz-adv-x="1650" d="M96 1139v157h473l254 -929l8 -70h13l10 70l276 929h371l-14 -145l16 -975l94 -14v-162h-317v1106h-10l-13 -76l-311 -1030h-219l-293 1032l-10 76h-10l-43 -930l94 -16v-162h-340l20 143l58 975z" />
<glyph unicode="N" horiz-adv-x="1251" d="M57 1139v157h398l440 -1030h10l-10 82l-16 770l-93 17v161h326l-20 -143v-1153h-289l-438 1040h-13l13 -86l18 -776l90 -16v-162h-328l21 139v979z" />
<glyph unicode="O" horiz-adv-x="1210" d="M66 637q0 154 36.5 278.5t108.5 214t177.5 137.5t240.5 48q131 0 228 -46t160.5 -132t95.5 -208t32 -272q0 -154 -37 -278.5t-108.5 -212.5t-177 -136t-242.5 -48q-258 0 -386 174t-128 481zM299 637q0 -92 15.5 -177t49 -151.5t89 -106.5t137.5 -40q84 0 144.5 42 t100 110.5t58 157.5t18.5 185q0 92 -16 178.5t-51 152t-91.5 105.5t-136.5 40q-86 0 -146 -43t-98 -113t-55.5 -159t-17.5 -181z" />
<glyph unicode="P" horiz-adv-x="1101" d="M57 1139v157h543q104 0 188 -24.5t143.5 -73.5t91.5 -125t32 -178t-33 -176t-93.5 -122t-142 -71.5t-180.5 -23.5h-221v-324l115 -20v-158h-357l17 143v975q-23 6 -50.5 10.5t-52.5 10.5zM385 682h180q125 0 194.5 50t69.5 167q0 59 -19 101t-55 68t-85 37t-109 11h-176 v-434z" />
<glyph unicode="Q" horiz-adv-x="1210" d="M66 637q0 154 36.5 278.5t108.5 214t177.5 137.5t240.5 48q131 0 228 -46t160.5 -132t95.5 -208t32 -272q0 -236 -84 -398.5t-246 -231.5l92 -260h-196l-78 217q-14 0 -26.5 -1t-26.5 -1q-258 0 -386 174t-128 481zM299 637q0 -88 13.5 -171t45 -149.5t84 -107.5 t127.5 -47l-69 196h196l52 -145q84 63 123.5 184t39.5 260q0 92 -16 178.5t-51 152t-91.5 105.5t-136.5 40q-86 0 -146 -43t-98 -113t-55.5 -159t-17.5 -181z" />
<glyph unicode="R" horiz-adv-x="1177" d="M57 1139v157h574q96 0 176 -20.5t136 -64.5t88 -112.5t32 -162.5q0 -125 -57.5 -206t-155.5 -109v-9q33 -14 56.5 -33.5t41 -50t30.5 -74.5t28 -106l41 -174l96 -16v-158h-289l-84 350q-14 61 -32.5 99t-45 59.5t-66.5 29t-98 7.5h-141v-369l94 -14v-162h-334l19 143v975 zM387 705h209q117 0 176 57t59 156q0 100 -58 149t-169 49h-217v-411z" />
<glyph unicode="S" horiz-adv-x="1038" d="M100 18v324h166l29 -170q29 -4 62.5 -7t68.5 -3q51 0 101.5 10t90 31.5t64.5 55.5t25 79q0 66 -44.5 108.5t-112 77.5t-144 68t-144 77t-112 107.5t-44.5 159.5q0 98 40 170t111 118t164 68.5t202 22.5q84 0 169 -13.5t126 -25.5v-324h-166l-29 176q-27 4 -58.5 5.5 t-60.5 1.5q-51 0 -99 -9.5t-86 -30t-60.5 -53t-22.5 -79.5q0 -61 45 -102.5t111.5 -75t144.5 -66.5t144.5 -79t111.5 -112.5t45 -167.5q0 -102 -44 -173.5t-116.5 -117.5t-168 -66.5t-199.5 -20.5q-80 0 -165 10t-145 26z" />
<glyph unicode="T" horiz-adv-x="958" d="M29 952v344h901v-344h-166l-27 162h-147v-1114h-238l17 143v971h-148l-26 -162h-166z" />
<glyph unicode="U" horiz-adv-x="1204" d="M49 1139v157h320v-841q0 -141 47 -214t182 -73t195.5 72.5t60.5 214.5v663l-96 17v161h319v-852q0 -233 -125 -347.5t-362 -114.5q-236 0 -340 114q-103 112 -103 339v9v676z" />
<glyph unicode="V" horiz-adv-x="1093" d="M6 1139v157h281l231 -1015l10 -93h13l10 93l233 839l-90 15v161h371l-379 -1296h-303l-293 1122z" />
<glyph unicode="W" horiz-adv-x="1767" d="M12 1139v157h297l209 -1106h12v91l181 864v151h346l174 -1013v-90h12l217 927l-90 15v161h369l-332 -1296h-322l-176 1010l-8 92h-12l-8 -92l-207 -1010h-320l-254 1122z" />
<glyph unicode="X" horiz-adv-x="1122" d="M20 0l369 678l-248 440l-106 21v157h274l217 -424l23 -77h12l21 75l157 287l47 139h279l-346 -618l278 -504l105 -16v-158h-275l-245 485l-21 78h-10l-23 -78l-161 -311l88 -12v-162h-435z" />
<glyph unicode="Y" horiz-adv-x="1036" d="M6 1139v157h258l223 -561l13 -73h10l14 75l172 383l-84 15v161h396l-390 -821v-475h-317v162l90 14v299l-293 645z" />
<glyph unicode="Z" horiz-adv-x="1024" d="M61 0v213l598 850l56 39l-2 12h-439l-28 -162h-166v344h864v-211l-598 -852l-57 -40q0 -4 1 -6.5t1 -6.5h479l27 162h166v-342h-902z" />
<glyph unicode="[" horiz-adv-x="483" d="M141 -211v1401h293v-113h-172v-1177h172v-111h-293z" />
<glyph unicode="\" horiz-adv-x="634" d="M12 1190h125l488 -1190h-129z" />
<glyph unicode="]" horiz-adv-x="483" d="M49 -100h172v1177h-172v113h293v-1401h-293v111z" />
<glyph unicode="^" d="M43 369l461 639l459 -639l-101 -74l-358 514l-359 -510z" />
<glyph unicode="_" horiz-adv-x="1120" d="M0 -246h1120v-112h-1120v112z" />
<glyph unicode="`" horiz-adv-x="1034" d="M295 1241l82 150l362 -224l-63 -69z" />
<glyph unicode="a" horiz-adv-x="1013" d="M80 266q0 111 49 177.5t132 103.5t190.5 48t224.5 11q0 127 -52.5 179.5t-179.5 52.5q-23 0 -57.5 -2t-58.5 -7l-27 -149h-158v274q23 6 61 13.5t82 13.5t87 10t76 4q111 0 191.5 -20.5t133.5 -67.5t79 -124.5t26 -192.5v-432l94 -13v-145h-238l-39 135h-10 q-49 -70 -119.5 -111.5t-175.5 -41.5q-135 0 -223 74.5t-88 209.5zM281 287q0 -70 42 -109t109 -39q131 0 186.5 91t57.5 245q-72 0 -142.5 -5t-127 -23.5t-91 -56.5t-34.5 -103z" />
<glyph unicode="b" horiz-adv-x="1024" d="M127 4l14 143v1235h322v-145l-119 -18v-355h10q6 12 24.5 34t50.5 43.5t78 37.5t107 16q84 0 149.5 -30.5t111 -86t69 -132t23.5 -171.5q0 -133 -33 -242.5t-101.5 -187t-177 -120.5t-260.5 -43q-29 0 -64.5 2t-72.5 5t-71.5 7t-59.5 8zM338 306.5q0 -23.5 1 -51.5 t2 -54.5t1 -46.5q14 -2 29 -4q12 -2 27.5 -3.5t31.5 -1.5q90 0 153.5 32t102.5 87t56.5 130t17.5 161q0 57 -10.5 107.5t-33 88t-58 59t-87.5 21.5q-68 0 -112.5 -37.5t-71.5 -103t-38 -155t-11 -193.5v-35.5z" />
<glyph unicode="c" horiz-adv-x="833" d="M59 461q0 119 33 217t95.5 169t154.5 109.5t213 38.5q84 0 148.5 -13t93.5 -19v-283h-158l-25 145q-10 4 -29.5 5t-37.5 1q-74 -2 -128 -30.5t-88 -77.5t-50.5 -115.5t-16.5 -142.5q0 -68 15.5 -126t46 -101t75.5 -69t107 -26q45 0 86 11.5t74.5 30t59.5 40t42 41.5 l43 -186q-12 -10 -40 -26.5t-69.5 -33t-95 -27.5t-114.5 -11q-102 0 -183.5 33.5t-136.5 96t-85 150.5t-30 199z" />
<glyph unicode="d" horiz-adv-x="1019" d="M59 412q0 133 35 240.5t104.5 184t173 117.5t242.5 41h70v224l-113 18v145h326l-10 -157v-1067l94 -13v-145h-229l-37 133h-8q-12 -16 -35 -41.5t-58.5 -50.5t-86 -42t-115.5 -17q-84 0 -149.5 31.5t-111 89t-69 136t-23.5 173.5zM266 430q0 -55 10.5 -106.5t32 -91 t56 -63.5t84.5 -24q72 0 118.5 38t74.5 103.5t38 154.5t10 194q0 37 -2 94t-4 94q-12 0 -25 2q-10 2 -25.5 3t-31.5 1q-90 0 -153.5 -29.5t-103.5 -82.5t-59.5 -126t-19.5 -161z" />
<glyph unicode="e" horiz-adv-x="960" d="M59 479q0 111 30 205t87 162.5t142 108.5t194 40t184.5 -35.5t121.5 -99t66.5 -150.5t20.5 -188v-78h-635q2 -154 76 -226.5t221 -72.5q45 0 74 6.5t45 10.5l23 121h155v-248q-49 -18 -138 -35.5t-189 -17.5q-238 0 -358 134t-120 363zM272 575h424l9 11 q0 113 -45.5 182.5t-149.5 69.5q-102 0 -161.5 -71t-76.5 -192z" />
<glyph unicode="f" horiz-adv-x="583" d="M35 815v148l125 16v98q0 154 92 239t250 85h24.5t32.5 -2l25 -166q-10 2 -25.5 3t-28.5 1q-80 0 -125 -39t-45 -119q0 -23 2.5 -41t6.5 -32q4 -16 10 -29h180v-162h-194v-657l94 -13v-145h-314l15 145v670h-125z" />
<glyph unicode="g" horiz-adv-x="1024" d="M78 -96q0 98 75.5 161.5t208.5 104.5v125q-117 29 -189.5 104.5t-72.5 214.5q0 186 119 283.5t342 97.5q49 0 110.5 -3l123 -6t114 -7t82.5 -6v-144l-133 -12v-16q29 -29 47.5 -76t18.5 -111q0 -78 -27 -136t-75 -99t-114.5 -64.5t-144.5 -27.5v-78l117 -35 q123 -37 198.5 -95.5t75.5 -162.5q0 -74 -36.5 -125t-99 -85t-144.5 -49t-170 -15q-84 0 -161 14t-136.5 46t-94 81t-34.5 121zM281 -76q0 -66 65.5 -94.5t157.5 -28.5q45 0 88 7.5t76.5 21.5t55 36.5t21.5 53.5q0 45 -37.5 72.5t-119.5 50.5l-170 45q-137 -70 -137 -164z M305 623q0 -76 50.5 -129.5t154.5 -53.5q39 0 78 11.5t67.5 34t47 58.5t18.5 83q0 104 -50 153t-149 49q-113 0 -165 -52t-52 -154z" />
<glyph unicode="h" horiz-adv-x="1054" d="M145 0v1382h328v-145l-125 -23v-335h10q41 53 113 84.5t160 31.5q147 0 222 -91q71 -86 71 -221v-15v-510l98 -13v-145h-301v655q0 78 -34 125t-112 47q-63 0 -106 -25.5t-69.5 -68.5t-39 -101.5t-12.5 -125.5v-506h-203z" />
<glyph unicode="i" horiz-adv-x="485" d="M43 831v146h305v-977h-221l20 145v670zM88 1253l145 150l150 -150l-150 -151z" />
<glyph unicode="j" horiz-adv-x="540" d="M-14 -193q14 -2 28.5 -3t24.5 -1q88 0 124 48.5t36 136.5v817l-179 26v146h400l-19 -148v-843q0 -166 -74.5 -257t-238.5 -91q-16 0 -39.5 1t-34.5 3zM133 1253l146 150l149 -150l-149 -151z" />
<glyph unicode="k" horiz-adv-x="991" d="M43 1237v145h305v-761l12 -3l23 56l287 303h260l-324 -342l275 -475l94 -15v-145h-244l-266 498h-10l-107 -113v-227l84 -13v-145h-301l21 145v1076z" />
<glyph unicode="l" horiz-adv-x="487" d="M43 1237v145h305v-1382h-219l21 145v1076z" />
<glyph unicode="m" horiz-adv-x="1597" d="M43 829v148h246l35 -129h10q35 59 105.5 103t174.5 44q98 0 166 -42t97 -109h8q43 61 112.5 106t173.5 45q141 -1 215 -77q70 -73 70 -209v-15v-540l100 -15v-139h-301v657q0 84 -33.5 129t-111.5 45q-115 0 -161 -84.5t-46 -224.5v-522h-203v657q0 80 -32.5 127 t-112.5 47q-115 0 -161 -84.5t-46 -224.5v-522h-201v815z" />
<glyph unicode="n" horiz-adv-x="1067" d="M43 831v146h244l30 -133h9q41 61 116.5 106t182.5 45q153 0 227 -87q70 -83 70 -224v-16v-510l104 -15v-143h-307v657q0 78 -36 126t-114 48q-61 0 -103 -24.5t-68.5 -67.5t-39 -100t-12.5 -121v-518h-199v817z" />
<glyph unicode="o" horiz-adv-x="997" d="M59 477q0 113 30 208t88.5 164t143.5 107.5t195 38.5q111 0 189.5 -35.5t131 -100t77 -157t24.5 -204.5q0 -113 -30.5 -208t-90 -164t-144.5 -106.5t-196 -37.5t-189.5 34.5t-128.5 99t-75 156.5t-25 205zM264 481q0 -70 10.5 -131t36 -107t67.5 -73t107 -27q68 0 115 28 t77 75t43 110.5t13 137.5q0 70 -11 131t-37 107t-70 72.5t-109 26.5q-68 0 -114 -28.5t-74.5 -75.5t-41 -111.5t-12.5 -134.5z" />
<glyph unicode="p" horiz-adv-x="1019" d="M43 831v146h227l39 -135h10q10 18 32 44.5t56.5 51.5t83 41t113.5 16q84 0 150.5 -31.5t112.5 -88t71 -134t25 -170.5q0 -270 -137.5 -420.5t-417.5 -150.5h-70v-178l111 -19v-143h-328l18 145v1012zM332 298q0 -24 1 -48.5t2 -48t1 -39.5q10 -2 24 -4q10 -2 25.5 -2 h32.5q88 0 152.5 29.5t105.5 81.5t60.5 125t19.5 161q0 55 -10.5 105.5t-34 89t-59.5 61t-85 22.5q-74 0 -119 -39.5t-71.5 -107.5t-35.5 -157t-9 -187v-42z" />
<glyph unicode="q" horiz-adv-x="1026" d="M59 399q0 133 32 243t101.5 188.5t178 121.5t260.5 43q41 0 82 -2t77.5 -5t65.5 -7t47 -6l-18 -141v-1176h-316v145l111 17v282h-10q-4 -8 -21.5 -28.5t-48.5 -41t-77 -35.5t-107 -15q-84 0 -149.5 29.5t-111.5 85t-71 132t-25 170.5zM264 420q0 -57 10.5 -107.5 t33 -87.5t58 -58.5t87.5 -21.5q68 0 113.5 37t72.5 102.5t38 154.5t11 194v37.5t-1 53.5t-2 55.5t-1 43.5q-14 0 -29 2q-12 2 -27.5 3t-31.5 1q-90 0 -152.5 -31.5t-102.5 -87t-58.5 -130t-18.5 -160.5z" />
<glyph unicode="r" horiz-adv-x="675" d="M43 831v146h240l30 -133h9q47 76 123.5 113.5t177.5 37.5l26 -198q-16 4 -36.5 6t-34.5 2q-74 0 -120 -24.5t-73 -67.5t-36 -102.5t-9 -131.5v-323l88 -11v-145h-289v817z" />
<glyph unicode="s" horiz-adv-x="886" d="M90 27v278h158l28 -153q16 -6 49 -9.5t56 -3.5q41 0 80 5.5t68.5 18.5t47 36.5t17.5 58.5q0 27 -17.5 49.5t-47 41t-67.5 35.5t-79 34q-59 25 -112.5 49.5t-93.5 57t-63.5 76.5t-23.5 106q0 76 34 130t91 90t132 52t157 16q72 0 146.5 -9t131.5 -23v-279h-157l-29 143 q-16 4 -49 7.5t-49 3.5q-37 0 -73 -5.5t-63.5 -18.5t-45 -34.5t-17.5 -54.5q0 -55 54.5 -87t142.5 -67q53 -20 108 -43.5t99.5 -56.5t73 -78t28.5 -108q0 -84 -36 -141.5t-97.5 -93.5t-141 -52t-165.5 -16q-39 0 -80 4t-79 11t-67.5 15t-48.5 15z" />
<glyph unicode="t" horiz-adv-x="606" d="M23 815v148l124 16l29 213l180 104v-319h213v-162h-211v-504q0 -88 40 -129t128 -41q10 0 32 1t36 5l-31 -159q-8 -2 -28.5 -4t-42.5 -2q-158 0 -249 74.5t-91 244.5v514h-129z" />
<glyph unicode="u" horiz-adv-x="1052" d="M41 829v148h299v-658q0 -72 34 -123t118 -51q63 0 105 26t67.5 71t37 106.5t11.5 130.5v334l-90 16v148h297v-819l90 -13v-145h-238l-29 131h-8q-41 -59 -113.5 -104t-179.5 -45q-154 0 -230 87q-73 83 -73 225v15v506z" />
<glyph unicode="v" horiz-adv-x="940" d="M6 831v146h246l186 -698l15 -78h8l16 75l174 545l-73 10v146h335l-335 -977h-244l-252 819z" />
<glyph unicode="w" horiz-adv-x="1525" d="M6 831v146h250l182 -782h11l10 75l162 566l10 141h248l174 -707l6 -75h8l176 626l-78 10v146h334l-297 -977h-254l-168 700q-2 18 -4 37t-6 37h-8q-4 -18 -6 -36.5t-4 -37.5l-193 -700h-254l-223 819z" />
<glyph unicode="x" horiz-adv-x="944" d="M16 0l312 522l-191 291l-102 18v146h241l170 -295l21 -61h10l21 61l98 160l61 135h248l-287 -455l205 -362l105 -15v-145h-246l-184 360l-23 64h-10l-25 -64l-110 -204l80 -11v-145h-394z" />
<glyph unicode="y" horiz-adv-x="931" d="M6 831v146h238l223 -729h10l10 80l152 493l-74 10v146h340l-332 -957q-35 -100 -72.5 -170.5t-85.5 -116.5t-110.5 -67.5t-146.5 -21.5q-16 0 -42 1t-36 3l-27 164q10 -2 29.5 -4.5t42.5 -2.5q51 0 86 11.5t59.5 35t43 60.5t36.5 88l8 27l-276 792z" />
<glyph unicode="z" horiz-adv-x="874" d="M61 0v172l476 596l47 37v8h-326l-25 -129h-157v293h727v-180l-471 -590l-47 -33q0 -6 2 -8h342l26 129h158v-295h-752z" />
<glyph unicode="{" horiz-adv-x="479" d="M43 485v9l70 75q29 31 34 49.5t5 51.5v358q0 82 43 122t122 40h113v-113h-84q-43 0 -58.5 -17.5t-15.5 -58.5v-348q0 -39 -5 -59.5t-34 -52.5l-47 -52l47 -53q29 -33 34 -53.5t5 -58.5v-349q0 -41 15.5 -58t58.5 -17h84v-111h-113q-80 0 -122.5 39t-42.5 121v358 q0 33 -5.5 52.5t-33.5 50.5z" />
<glyph unicode="|" horiz-adv-x="387" d="M131 -264v1454h121v-1454h-121z" />
<glyph unicode="}" horiz-adv-x="479" d="M49 -100h82q45 0 60.5 17t15.5 58v349q0 39 5 59t34 53l47 53l-47 52q-29 33 -34 53t-5 59v348q0 41 -15.5 58.5t-60.5 17.5h-82v113h111q168 0 168 -162v-358q0 -33 5 -51.5t32 -49.5l69 -75v-9l-69 -75q-29 -31 -33 -50.5t-4 -52.5v-358q0 -160 -168 -160h-111v111z " />
<glyph unicode="~" d="M113 518v119q4 2 21.5 12t44 20.5t61 18.5t75.5 8q47 0 95.5 -14t97.5 -31.5t96 -32t94 -14.5q53 0 106.5 19.5t88.5 42.5v-119q-4 -4 -21.5 -13.5t-44 -19.5t-62.5 -17.5t-75 -7.5q-47 0 -95 14.5t-97 31t-97.5 31t-95.5 14.5q-53 0 -106.5 -19.5t-85.5 -42.5z" />
<glyph unicode="&#xa1;" horiz-adv-x="493" d="M88 -319l62 966h174l-25 -966h-211zM135 883q0 51 30 81.5t79 30.5t77.5 -28.5t28.5 -79.5t-30.5 -82t-79.5 -31t-77 28.5t-28 80.5z" />
<glyph unicode="&#xa2;" d="M121 508q0 240 107.5 395.5t312.5 188.5v204h108v-194q33 0 69 -4t70.5 -10.5t66.5 -13.5t56 -15v-283h-157l-27 152q-18 4 -40.5 5t-43.5 1q-80 0 -139.5 -32t-97 -87t-56 -132t-18.5 -167q0 -78 18.5 -144.5t56 -115.5t93 -77.5t129.5 -28.5q43 0 84 11t75.5 29.5 t60 40t42.5 41.5l41 -186q-29 -25 -98.5 -60.5t-188.5 -41.5v-197h-108v197q-92 8 -169 48t-132.5 106.5t-85 159.5t-29.5 210z" />
<glyph unicode="&#xa3;" d="M72 500l14 102h150v125q0 197 109.5 286t309.5 89q80 0 146.5 -10.5t126.5 -22.5v-299h-158l-27 156q-14 4 -40.5 6t-40.5 2q-121 0 -169.5 -49t-48.5 -156v-127h418l-14 -102h-404v-334h332l160 14v-180h-838l11 139l127 29v332h-164z" />
<glyph unicode="&#xa4;" d="M111 897l82 82l122 -125q41 33 89.5 47t101.5 14q47 0 97 -15t91 -44l125 125l78 -78l-127 -123q33 -41 49.5 -91t16.5 -101q0 -49 -16.5 -97.5t-45.5 -89.5l119 -120l-84 -82l-117 120q-41 -31 -89 -45t-97 -14q-51 0 -101.5 15.5t-91.5 46.5l-118 -121l-80 80l123 120 q-61 82 -62 187q0 49 15.5 97t44.5 89zM293 590q0 -43 16.5 -83t45 -68.5t67.5 -46t84 -17.5t84 16.5t67.5 46t45 68.5t16.5 84q0 43 -16.5 82t-46 67.5t-68.5 45t-82 16.5q-45 0 -84 -16.5t-67.5 -45t-45 -67.5t-16.5 -82z" />
<glyph unicode="&#xa5;" d="M63 1083h220l196 -446l15 -59h10l14 61l139 303l41 141h236l-172 -352h164l-17 -102h-194l-86 -176h297l-17 -103h-305v-350h-211v350h-325l12 103h289l-88 176h-213l12 102h153z" />
<glyph unicode="&#xa6;" horiz-adv-x="387" d="M131 -264v612h121v-612h-121zM131 580v610h121v-610h-121z" />
<glyph unicode="&#xa7;" horiz-adv-x="763" d="M68 530q0 78 42 143.5t95 112.5q-35 35 -55.5 78t-20.5 92q0 63 26.5 111.5t72.5 79.5t106.5 46t128.5 15q61 0 109.5 -6t95.5 -16v-240h-101l-24 154q-16 2 -39 4t-39 2q-90 0 -145.5 -33t-55.5 -104q0 -59 41 -104.5t133 -98.5q57 -35 105.5 -65.5t82 -66.5t52 -80 t18.5 -101q0 -80 -41 -146.5t-94 -113.5q35 -35 54.5 -77t19.5 -91q0 -61 -26.5 -108.5t-71.5 -79.5t-104.5 -48t-123.5 -16q-70 0 -121 6t-79 14v240h102l20 -152q31 -6 68 -6q41 0 77 7t63.5 24.5t44 44t16.5 65.5q0 63 -39 103.5t-131 93.5q-57 33 -105.5 64.5 t-83.5 68.5t-54 81t-19 103zM193 535q0 -35 11 -63t35.5 -53.5t62.5 -52t91 -59.5l80 -49q45 41 72.5 86t27.5 102q0 33 -10 61t-33.5 53.5t-61.5 51t-91 58.5l-86 51q-47 -41 -72.5 -85t-25.5 -101z" />
<glyph unicode="&#xa8;" horiz-adv-x="1034" d="M326 1133v253h141v-253h-141zM571 1133v253h140v-253h-140z" />
<glyph unicode="&#xa9;" horiz-adv-x="1097" d="M55 899q0 104 39 195.5t105.5 159t157 106.5t192.5 39t192 -39t157 -106.5t105.5 -158.5t38.5 -196q0 -104 -38.5 -194.5t-105.5 -158t-157 -106.5t-192 -39t-192.5 39t-157 106.5t-105.5 158t-39 194.5zM139 899q0 -86 32 -161.5t87 -132t130 -88.5t161 -32t160.5 32 t130 88.5t87 132t31.5 161.5t-31.5 162t-87 132t-130 89t-160.5 33t-161 -33t-130 -89t-87 -132t-32 -162zM326 874q0 139 68.5 221.5t197.5 82.5q31 0 62.5 -4.5t68.5 -12.5v-157h-72l-20 86q-8 2 -15.5 3t-17.5 1q-86 0 -126 -58.5t-40 -152.5q0 -78 37 -130.5t109 -52.5 q47 0 82.5 19.5t52.5 40.5l18 -92q-14 -12 -57 -33t-111 -21q-104 0 -170.5 69t-66.5 191z" />
<glyph unicode="&#xaa;" horiz-adv-x="610" d="M39 758q0 57 24.5 96t65.5 63.5t95.5 35t113.5 10.5h59q0 80 -30.5 109.5t-110.5 29.5q-14 0 -32.5 -2t-28.5 -4l-19 -86h-98v170q33 8 84 15t94 7q137 0 202.5 -54t65.5 -194v-260l54 -6v-92h-142q-6 23 -10 42t-8 42h-8q-29 -45 -76 -70.5t-113 -25.5q-82 0 -132 46 t-50 128zM166 770q0 -41 24.5 -62.5t61.5 -21.5q80 0 112.5 51t32.5 144h-47q-74 0 -129 -21.5t-55 -89.5z" />
<glyph unicode="&#xab;" horiz-adv-x="1052" d="M86 553l414 448l86 -83l-338 -365l340 -371l-90 -82zM473 553l414 448l88 -83l-340 -365l340 -371l-88 -84z" />
<glyph unicode="&#xac;" d="M80 680v115h774v-418h-119v303h-655z" />
<glyph unicode="&#xad;" horiz-adv-x="677" d="M104 436v113h469v-113h-469z" />
<glyph unicode="&#xae;" horiz-adv-x="1097" d="M55 899q0 104 39 195.5t105.5 159t157 106.5t192.5 39t192 -39t157 -106.5t105.5 -158.5t38.5 -196q0 -104 -38.5 -194.5t-105.5 -158t-157 -106.5t-192 -39t-192.5 39t-157 106.5t-105.5 158t-39 194.5zM139 899q0 -86 32 -161.5t87 -132t130 -88.5t161 -32t160.5 32 t130 88.5t87 132t31.5 161.5t-31.5 162t-87 132t-130 89t-160.5 33t-161 -33t-130 -89t-87 -132t-32 -162zM324 1096v73h249q78 0 129.5 -36.5t51.5 -114.5q0 -53 -24.5 -86t-65.5 -47v-8q29 -14 41 -33t24 -70l19 -72l36 -4v-69h-122l-35 145q-10 47 -31 61.5t-70 14.5h-57 v-221h-104l6 59v399zM469 924h86q94 0 94 84q0 82 -90 82h-90v-166z" />
<glyph unicode="&#xaf;" horiz-adv-x="1034" d="M254 1210v140h524v-140h-524z" />
<glyph unicode="&#xb0;" horiz-adv-x="540" d="M29 930q0 121 64.5 196.5t182.5 75.5q121 0 178.5 -75.5t57.5 -196.5q0 -123 -64.5 -197t-187.5 -74q-121 0 -176 74t-55 197zM143 930q0 -35 6.5 -68t19.5 -58.5t35.5 -40.5t57.5 -15q72 0 102.5 53t30.5 129q0 35 -6 67.5t-19.5 57t-37 40t-58.5 15.5q-72 0 -101.5 -53 t-29.5 -127zM162 498l102 108l107 -108l-107 -105z" />
<glyph unicode="&#xb1;" d="M102 0v113h801v-113h-801zM102 629v114h338v332h121v-332h340v-114h-340v-348h-121v348h-338z" />
<glyph unicode="&#xb2;" horiz-adv-x="528" d="M45 594v111q82 51 140.5 90t95 71.5t53 62t16.5 64.5q0 55 -41 85t-108 30q-10 0 -21.5 -1t-21.5 -3l-21 -105h-88v181q39 10 83 16t79 6q49 0 95 -13t82 -39t56.5 -63.5t20.5 -87.5q0 -45 -14.5 -81.5t-46 -72.5t-82 -73t-119.5 -80l2 -6h213l82 6v-98h-455z" />
<glyph unicode="&#xb3;" horiz-adv-x="534" d="M45 702q18 -6 69.5 -17t100.5 -11q23 0 50.5 3t51 12t40 26.5t16.5 46.5q0 57 -48.5 74.5t-109.5 17.5h-84v80h84q59 0 102 17.5t43 70.5q0 49 -42 69.5t-95 20.5q-14 0 -32.5 -2t-32.5 -6l-17 -86h-88v162q33 8 81 14t97 6t92.5 -9t77 -28.5t53 -51.5t19.5 -77 q0 -96 -86 -133v-8q41 -18 71.5 -50t30.5 -87q0 -47 -23.5 -80t-62 -54.5t-87 -30.5t-99.5 -9q-43 0 -88 6t-68 12z" />
<glyph unicode="&#xb4;" horiz-adv-x="1034" d="M295 1167l362 224l82 -150l-381 -143z" />
<glyph unicode="&#xb5;" horiz-adv-x="1054" d="M43 831v146h299v-660q0 -78 38 -125t114 -47q63 0 106 25t68.5 68t36 101t10.5 128v510h200v-819l97 -13v-145h-238l-29 131h-10q-33 -59 -97.5 -103t-156.5 -44q-43 0 -79.5 6t-63.5 22v-354h-219l20 145v1012z" />
<glyph unicode="&#xb6;" horiz-adv-x="968" d="M70 805q0 76 25.5 139.5t74.5 108.5t118.5 69.5t157.5 24.5h472v-98l-111 -15v-1392h-117v1392h-164v-1392h-229v96l113 16v717q-174 0 -257 87t-83 247z" />
<glyph unicode="&#xb7;" horiz-adv-x="407" d="M96 573q0 51 31 82t80 31t76.5 -28.5t27.5 -79.5t-29.5 -82t-78.5 -31t-78 28.5t-29 79.5z" />
<glyph unicode="&#xb8;" horiz-adv-x="1034" d="M342 -342l16 84q16 -4 44 -8t57 -4q41 0 68.5 13t27.5 48q0 29 -22.5 41t-59.5 12q-16 0 -32.5 -2t-28.5 -4l24 162h105v-82q59 0 105 -34t46 -97q0 -37 -17.5 -63.5t-46 -45t-66.5 -27.5t-81 -9q-53 0 -88 6t-51 10z" />
<glyph unicode="&#xb9;" horiz-adv-x="509" d="M49 1067q49 10 100.5 41t90.5 82h112l-12 -504h135v-90h-409v90h159l11 379l-7 2l-20 -37q-29 -23 -67 -38t-74 -25z" />
<glyph unicode="&#xba;" horiz-adv-x="600" d="M33 887q0 137 71.5 225t206.5 88t195.5 -82t60.5 -221q0 -141 -71.5 -226t-208.5 -85q-135 0 -194.5 82t-59.5 219zM160 889q0 -41 7 -77t22.5 -63.5t41 -44t62.5 -16.5q76 0 110.5 61.5t34.5 145.5q0 41 -7 78t-22.5 64.5t-41 44t-62.5 16.5q-39 0 -66.5 -17.5t-45 -46 t-25.5 -66.5t-8 -79z" />
<glyph unicode="&#xbb;" horiz-adv-x="1052" d="M74 182l342 371l-340 365l88 83l411 -448l-413 -455zM463 182l340 371l-338 365l84 83l416 -448l-412 -453z" />
<glyph unicode="&#xbc;" horiz-adv-x="1179" d="M49 1067q49 10 100.5 41t90.5 82h112l-12 -504h135v-90h-409v90h159l11 379l-7 2l-20 -37q-29 -23 -67 -38t-74 -25zM184 0l703 1190h106l-704 -1190h-105zM633 115v108l250 371h159v-391h68v-88h-68v-115h-110v115h-299zM721 203h211v272l12 35h-8l-188 -287l-27 -14v-6 z" />
<glyph unicode="&#xbd;" horiz-adv-x="1193" d="M49 1067q49 10 100.5 41t90.5 82h112l-12 -504h135v-90h-409v90h159l11 379l-7 2l-20 -37q-29 -23 -67 -38t-74 -25zM184 0l703 1190h106l-704 -1190h-105zM694 0v111q82 51 140.5 90t95.5 71.5t53 62.5t16 64q0 55 -40.5 85t-108.5 30q-10 0 -21.5 -1t-21.5 -3l-21 -104 h-88v180q39 10 83 16t79 6q49 0 95 -13t82 -39t56.5 -63.5t20.5 -86.5q0 -45 -14.5 -82t-46 -73t-81.5 -73t-120 -80l2 -6h213l82 6v-98h-455z" />
<glyph unicode="&#xbe;" horiz-adv-x="1122" d="M45 702q18 -6 69.5 -17t100.5 -11q23 0 50.5 3t51 12t40 26.5t16.5 46.5q0 57 -48.5 74.5t-109.5 17.5h-84v80h84q59 0 102 17.5t43 70.5q0 49 -42 69.5t-95 20.5q-14 0 -32.5 -2t-32.5 -6l-17 -86h-88v162q33 8 81 14t97 6t92.5 -9t77 -28.5t53 -51.5t19.5 -77 q0 -96 -86 -133v-8q41 -18 71.5 -50t30.5 -87q0 -47 -23.5 -80t-62 -54.5t-87 -30.5t-99.5 -9q-43 0 -88 6t-68 12zM176 0l703 1190h106l-704 -1190h-105zM598 115v108l250 371h160v-391h67v-88h-67v-115h-111v115h-299zM686 203h211v272l12 35h-8l-188 -287l-27 -14v-6z " />
<glyph unicode="&#xbf;" horiz-adv-x="866" d="M53 47q0 78 29 145.5t79 122t116.5 93t144.5 59.5l14 182h168v-297q-66 -10 -126 -33.5t-107 -60.5t-76 -87t-29 -114q0 -109 67.5 -166t178.5 -57q20 0 45 2t39 6l31 185h159v-320q-47 -14 -122.5 -29.5t-163.5 -15.5q-96 0 -178 24.5t-141.5 72.5t-93.5 120t-34 168z M422 885q0 51 29.5 80.5t76.5 29.5q51 0 80 -28.5t29 -79.5t-31 -81t-80 -30t-76.5 29t-27.5 80z" />
<glyph unicode="&#xc0;" horiz-adv-x="1163" d="M29 0l368 1116l-104 19v161h487l295 -1124l82 -12v-160h-315v141l-47 197h-422l-51 -164l81 -12v-162h-374zM340 1518l82 149l362 -223l-63 -70zM424 514h336l-135 545l-11 82h-8l-16 -82z" />
<glyph unicode="&#xc1;" horiz-adv-x="1163" d="M29 0l368 1116l-104 19v161h487l295 -1124l82 -12v-160h-315v141l-47 197h-422l-51 -164l81 -12v-162h-374zM360 1444l363 223l82 -149l-381 -144zM424 514h336l-135 545l-11 82h-8l-16 -82z" />
<glyph unicode="&#xc2;" horiz-adv-x="1155" d="M29 0l368 1116l-104 19v161h487l295 -1124l74 -12v-160h-307v141l-47 197h-422l-51 -164l73 -12v-162h-366zM293 1462l213 172q18 16 35.5 20.5t29.5 4.5t29.5 -4t36.5 -21l213 -172l-64 -69l-215 94l-215 -94zM424 514h336l-135 545l-11 82h-8l-16 -82z" />
<glyph unicode="&#xc3;" horiz-adv-x="1163" d="M29 0l368 1116l-104 19v161h487l295 -1124l82 -12v-160h-315v141l-47 197h-422l-51 -164l81 -12v-162h-374zM260 1470l19 129q2 2 16 9.5t36.5 15.5t52.5 14.5t65 6.5q63 0 135.5 -18.5t146.5 -18.5q45 0 80 7t63 17l-16 -125q-8 -6 -54 -25.5t-114 -19.5 q-66 0 -139.5 17.5t-144.5 17.5q-47 0 -80 -8t-66 -19zM424 514h336l-135 545l-11 82h-8l-16 -82z" />
<glyph unicode="&#xc4;" horiz-adv-x="1163" d="M29 0l368 1116l-104 19v161h487l295 -1124l82 -12v-160h-315v141l-47 197h-422l-51 -164l81 -12v-162h-374zM391 1411v254h141v-254h-141zM424 514h336l-135 545l-11 82h-8l-16 -82zM637 1411v254h139v-254h-139z" />
<glyph unicode="&#xc5;" horiz-adv-x="1163" d="M29 0l368 1116l-104 19v161h487l295 -1124l82 -12v-160h-315v141l-47 197h-422l-51 -164l81 -12v-162h-374zM373 1522q0 86 57 129t152 43q92 0 149 -41t57 -127q0 -84 -58 -125t-152 -41q-92 0 -148.5 41t-56.5 121zM424 514h336l-135 545l-11 82h-8l-16 -82zM508 1524 q0 -70 72 -70q35 0 54 18.5t19 51.5q0 76 -73 75q-72 1 -72 -75z" />
<glyph unicode="&#xc6;" horiz-adv-x="1658" d="M29 0l340 1122l-107 17v157h1247l29 -344h-166l-39 162h-387l29 -352h516l14 -172h-516l35 -410h395l15 164h165l31 -344h-821v131l-14 215h-428l-48 -168l109 -16v-162h-399zM416 522h364l-45 549v43h-157l-7 -43z" />
<glyph unicode="&#xc7;" horiz-adv-x="1040" d="M66 600q0 162 40.5 293t118.5 225t194 145.5t263 51.5q78 0 159 -13.5t140 -29.5v-320h-166l-27 166q-14 4 -48.5 8t-57.5 4q-100 0 -173 -38.5t-120 -107.5t-69.5 -163t-22.5 -205q0 -92 21.5 -173t63.5 -141t105.5 -96t147.5 -36q57 0 107.5 15.5t90 39t69.5 52 t48 55.5l49 -219q-16 -16 -45.5 -37t-72.5 -40.5t-100.5 -33.5t-129.5 -18v-66q59 0 105.5 -34t46.5 -97q0 -37 -17.5 -63.5t-46 -45t-66.5 -27.5t-81 -9q-53 0 -88 6t-51 10l16 84q16 -4 44 -8t56 -4q41 0 69 13t28 48q0 29 -22.5 41t-59.5 12q-16 0 -32.5 -2t-29.5 -4 l23 148q-111 12 -199 60t-150.5 127t-96 187.5t-33.5 239.5z" />
<glyph unicode="&#xc8;" horiz-adv-x="1075" d="M57 1139v157h918v-344h-166l-27 162h-399v-364h528v-172h-528v-398h408l28 164h166v-344h-842l19 143v975zM342 1518l82 149l362 -223l-63 -70z" />
<glyph unicode="&#xc9;" horiz-adv-x="1075" d="M57 1139v157h918v-344h-166l-27 162h-399v-364h528v-172h-528v-398h408l28 164h166v-344h-842l19 143v975zM352 1444l363 223l82 -149l-381 -144z" />
<glyph unicode="&#xca;" horiz-adv-x="1075" d="M57 1139v157h918v-344h-166l-27 162h-399v-364h528v-172h-528v-398h408l28 164h166v-344h-842l19 143v975zM270 1462l213 172q18 16 36 20.5t30 4.5t29.5 -4t35.5 -21l213 -172l-63 -69l-215 94l-215 -94z" />
<glyph unicode="&#xcb;" horiz-adv-x="1075" d="M57 1139v157h918v-344h-166l-27 162h-399v-364h528v-172h-528v-398h408l28 164h166v-344h-842l19 143v975zM369 1411v254h141v-254h-141zM614 1411v254h140v-254h-140z" />
<glyph unicode="&#xcc;" horiz-adv-x="538" d="M25 1518l81 149l363 -223l-63 -70zM57 1139v157h326v-1118l98 -16v-162h-338l19 143v975z" />
<glyph unicode="&#xcd;" horiz-adv-x="538" d="M29 1444l362 223l82 -149l-381 -144zM57 1139v157h326v-1118l98 -16v-162h-338l19 143v975z" />
<glyph unicode="&#xce;" horiz-adv-x="538" d="M-35 1462l213 172q18 16 35.5 20.5t30.5 4.5q12 0 29.5 -4t35.5 -21l213 -172l-63 -69l-215 94l-215 -94zM57 1139v157h326v-1118l98 -16v-162h-338l19 143v975z" />
<glyph unicode="&#xcf;" horiz-adv-x="538" d="M47 1411v254h141v-254h-141zM57 1139v157h326v-1118l98 -16v-162h-338l19 143v975zM293 1411v254h139v-254h-139z" />
<glyph unicode="&#xd0;" horiz-adv-x="1216" d="M25 639l137 27q0 115 1 226.5t1 225.5q-25 6 -53.5 10.5t-53.5 10.5v157h504q299 0 444.5 -167.5t145.5 -499.5q0 -299 -148.5 -464t-422.5 -165h-437l19 143v398l-111 -23zM383 180h188q92 0 158 33t108 92.5t62.5 143t20.5 186.5q0 238 -80 358.5t-265 120.5h-192v-403 l215 47l27 -119q-61 -12 -122 -24.5t-120 -26.5v-408z" />
<glyph unicode="&#xd1;" horiz-adv-x="1251" d="M57 1139v157h398l434 -1009h10l-10 82l-10 749l-93 17v161h326l-20 -143v-1153h-289l-430 1020h-13l13 -86l10 -756l90 -16v-162h-328l21 139v979zM301 1470l18 129q2 2 16.5 9.5t37 15.5t52.5 14.5t64 6.5q63 0 136 -18.5t147 -18.5q45 0 80 7t63 17l-16 -125 q-8 -6 -54 -25.5t-114 -19.5q-66 0 -139.5 17.5t-145.5 17.5q-47 0 -79.5 -8t-65.5 -19z" />
<glyph unicode="&#xd2;" horiz-adv-x="1210" d="M66 637q0 154 36.5 278.5t108.5 214t177.5 137.5t240.5 48q131 0 228 -46t160.5 -132t95.5 -208t32 -272q0 -154 -37 -278.5t-108.5 -212.5t-177 -136t-242.5 -48q-258 0 -386 174t-128 481zM299 637q0 -92 15.5 -177t49 -151.5t89 -106.5t137.5 -40q84 0 144.5 42 t100 110.5t58 157.5t18.5 185q0 92 -16 178.5t-51 152t-91.5 105.5t-136.5 40q-86 0 -146 -43t-98 -113t-55.5 -159t-17.5 -181zM381 1518l82 149l362 -223l-63 -70z" />
<glyph unicode="&#xd3;" horiz-adv-x="1210" d="M66 637q0 154 36.5 278.5t108.5 214t177.5 137.5t240.5 48q131 0 228 -46t160.5 -132t95.5 -208t32 -272q0 -154 -37 -278.5t-108.5 -212.5t-177 -136t-242.5 -48q-258 0 -386 174t-128 481zM299 637q0 -92 15.5 -177t49 -151.5t89 -106.5t137.5 -40q84 0 144.5 42 t100 110.5t58 157.5t18.5 185q0 92 -16 178.5t-51 152t-91.5 105.5t-136.5 40q-86 0 -146 -43t-98 -113t-55.5 -159t-17.5 -181zM395 1444l363 223l82 -149l-381 -144z" />
<glyph unicode="&#xd4;" horiz-adv-x="1210" d="M66 637q0 154 36.5 278.5t108.5 214t177.5 137.5t240.5 48q131 0 228 -46t160.5 -132t95.5 -208t32 -272q0 -154 -37 -278.5t-108.5 -212.5t-177 -136t-242.5 -48q-258 0 -386 174t-128 481zM299 637q0 -92 15.5 -177t49 -151.5t89 -106.5t137.5 -40q84 0 144.5 42 t100 110.5t58 157.5t18.5 185q0 92 -16 178.5t-51 152t-91.5 105.5t-136.5 40q-86 0 -146 -43t-98 -113t-55.5 -159t-17.5 -181zM330 1462l213 172q18 16 35.5 20.5t29.5 4.5t29.5 -4t36.5 -21l213 -172l-64 -69l-215 94l-215 -94z" />
<glyph unicode="&#xd5;" horiz-adv-x="1210" d="M66 637q0 154 36.5 278.5t108.5 214t177.5 137.5t240.5 48q131 0 228 -46t160.5 -132t95.5 -208t32 -272q0 -154 -37 -278.5t-108.5 -212.5t-177 -136t-242.5 -48q-258 0 -386 174t-128 481zM299 637q0 -92 15.5 -177t49 -151.5t89 -106.5t137.5 -40q84 0 144.5 42 t100 110.5t58 157.5t18.5 185q0 92 -16 178.5t-51 152t-91.5 105.5t-136.5 40q-86 0 -146 -43t-98 -113t-55.5 -159t-17.5 -181zM322 1487l16 115q4 4 49 22t111 18q59 0 126.5 -17t137.5 -17q41 0 72.5 7t60.5 17l-14 -112q-8 -4 -51.5 -22.5t-106.5 -18.5q-59 0 -130 16 t-136 16q-43 0 -75 -7t-60 -17z" />
<glyph unicode="&#xd6;" horiz-adv-x="1210" d="M66 637q0 154 36.5 278.5t108.5 214t177.5 137.5t240.5 48q131 0 228 -46t160.5 -132t95.5 -208t32 -272q0 -154 -37 -278.5t-108.5 -212.5t-177 -136t-242.5 -48q-258 0 -386 174t-128 481zM299 637q0 -92 15.5 -177t49 -151.5t89 -106.5t137.5 -40q84 0 144.5 42 t100 110.5t58 157.5t18.5 185q0 92 -16 178.5t-51 152t-91.5 105.5t-136.5 40q-86 0 -146 -43t-98 -113t-55.5 -159t-17.5 -181zM422 1411v254h141v-254h-141zM668 1411v254h139v-254h-139z" />
<glyph unicode="&#xd7;" d="M137 309l281 283l-281 280l86 84l281 -282l282 287l82 -84l-284 -281l288 -289l-84 -88l-288 289l-283 -283z" />
<glyph unicode="&#xd8;" horiz-adv-x="1210" d="M66 637q0 154 36.5 278.5t108.5 214t177.5 137.5t240.5 48q78 0 144.5 -17.5t119.5 -48.5l65 111h113l-102 -170q90 -86 133 -220t43 -313q0 -154 -37 -278.5t-108.5 -212.5t-177 -136t-242.5 -48q-172 0 -287 77l-84 -141h-111l123 205q-156 168 -155 514zM299 637 q0 -82 11.5 -159t37.5 -140l436 729q-33 31 -73.5 48.5t-94.5 17.5q-86 0 -146 -43t-98 -113t-55.5 -159t-17.5 -181zM403 246q72 -84 187 -84q84 0 144.5 42t100 110.5t58 157.5t18.5 185q0 92 -15 176.5t-50 149.5z" />
<glyph unicode="&#xd9;" horiz-adv-x="1204" d="M49 1139v157h320v-841q0 -141 47 -214t182 -73t195.5 72.5t60.5 214.5v663l-96 17v161h319v-852q0 -233 -125 -347.5t-362 -114.5q-236 0 -340.5 114.5t-102.5 347.5v676zM379 1518l82 149l362 -223l-63 -70z" />
<glyph unicode="&#xda;" horiz-adv-x="1204" d="M49 1139v157h320v-841q0 -141 47 -214t182 -73t195.5 72.5t60.5 214.5v663l-96 17v161h319v-852q0 -233 -125 -347.5t-362 -114.5q-236 0 -340.5 114.5t-102.5 347.5v676zM383 1444l362 223l82 -149l-381 -144z" />
<glyph unicode="&#xdb;" horiz-adv-x="1204" d="M49 1139v157h320v-841q0 -141 47 -214t182 -73t195.5 72.5t60.5 214.5v663l-96 17v161h319v-852q0 -233 -125 -347.5t-362 -114.5q-236 0 -340.5 114.5t-102.5 347.5v676zM315 1462l213 172q18 16 36 20.5t30 4.5t29.5 -4t35.5 -21l213 -172l-63 -69l-215 94l-215 -94z " />
<glyph unicode="&#xdc;" horiz-adv-x="1204" d="M49 1139v157h320v-841q0 -141 47 -214t182 -73t195.5 72.5t60.5 214.5v663l-96 17v161h319v-852q0 -233 -125 -347.5t-362 -114.5q-236 0 -340.5 114.5t-102.5 347.5v676zM406 1411v254h141v-254h-141zM651 1411v254h140v-254h-140z" />
<glyph unicode="&#xdd;" horiz-adv-x="1036" d="M6 1139v157h258l223 -561l13 -73h10l14 75l172 383l-84 15v161h396l-390 -821v-475h-317v162l90 14v299l-293 645zM303 1444l363 223l82 -149l-381 -144z" />
<glyph unicode="&#xde;" horiz-adv-x="1101" d="M57 1139v157h328v-192h209q104 0 189 -24.5t145.5 -74t93.5 -125t33 -180.5q0 -102 -33 -174.5t-93.5 -121t-142 -71t-180.5 -22.5h-221v-131l113 -18v-162h-355l21 145v973zM385 492h188q125 0 190.5 48t65.5 165q0 123 -72.5 171t-193.5 48h-178v-432z" />
<glyph unicode="&#xdf;" horiz-adv-x="1085" d="M35 815v146l125 16v47q0 184 104.5 280.5t290.5 96.5q80 0 147.5 -21.5t117.5 -61.5t79 -100.5t29 -136.5q0 -84 -34 -140t-87 -110l-55 -55v-10l79 -86q39 -43 74 -85t62.5 -86t44 -90t16.5 -97q0 -84 -28.5 -147.5t-80 -106.5t-122 -64.5t-152.5 -21.5q-20 0 -45 1 t-49.5 4t-47 6t-36.5 7l33 166q16 -6 55 -11t68 -5q80 0 137 37.5t57 131.5q0 41 -19.5 82t-51 81t-69.5 79t-75 78q-29 31 -48 57.5t-19 61.5t18 59.5t53 59.5q55 57 85 100t30 100q0 72 -48 118t-122 46q-186 0 -186 -227v-1014h-220l15 145v670h-125z" />
<glyph unicode="&#xe0;" horiz-adv-x="1013" d="M80 266q0 111 49 177.5t132 103.5t190.5 48t224.5 11q0 127 -52.5 179.5t-179.5 52.5q-23 0 -57.5 -2t-58.5 -7l-27 -149h-158v274q23 6 61 13.5t82 13.5t87 10t76 4q111 0 191.5 -20.5t133.5 -67.5t79 -124.5t26 -192.5v-432l94 -13v-145h-238l-39 135h-10 q-49 -70 -119.5 -111.5t-175.5 -41.5q-135 0 -223 74.5t-88 209.5zM281 287q0 -70 42 -109t109 -39q131 0 186.5 91t57.5 245q-72 0 -142.5 -5t-127 -23.5t-91 -56.5t-34.5 -103zM291 1241l82 150l362 -224l-63 -69z" />
<glyph unicode="&#xe1;" horiz-adv-x="1013" d="M80 266q0 111 49 177.5t132 103.5t190.5 48t224.5 11q0 127 -52.5 179.5t-179.5 52.5q-23 0 -57.5 -2t-58.5 -7l-27 -149h-158v274q23 6 61 13.5t82 13.5t87 10t76 4q111 0 191.5 -20.5t133.5 -67.5t79 -124.5t26 -192.5v-432l94 -13v-145h-238l-39 135h-10 q-49 -70 -119.5 -111.5t-175.5 -41.5q-135 0 -223 74.5t-88 209.5zM281 287q0 -70 42 -109t109 -39q131 0 186.5 91t57.5 245q-72 0 -142.5 -5t-127 -23.5t-91 -56.5t-34.5 -103zM293 1167l362 224l82 -150l-381 -143z" />
<glyph unicode="&#xe2;" horiz-adv-x="1013" d="M80 266q0 111 49 177.5t132 103.5t190.5 48t224.5 11q0 127 -52.5 179.5t-179.5 52.5q-23 0 -57.5 -2t-58.5 -7l-27 -149h-158v274q23 6 61 13.5t82 13.5t87 10t76 4q111 0 191.5 -20.5t133.5 -67.5t79 -124.5t26 -192.5v-432l94 -13v-145h-238l-39 135h-10 q-49 -70 -119.5 -111.5t-175.5 -41.5q-135 0 -223 74.5t-88 209.5zM227 1194l213 172q18 16 36 20.5t30 4.5t29.5 -4.5t35.5 -20.5l213 -172l-63 -70l-215 95l-215 -95zM281 287q0 -70 42 -109t109 -39q131 0 186.5 91t57.5 245q-72 0 -142.5 -5t-127 -23.5t-91 -56.5 t-34.5 -103z" />
<glyph unicode="&#xe3;" horiz-adv-x="1013" d="M80 266q0 111 49 177.5t132 103.5t190.5 48t224.5 11q0 127 -52.5 179.5t-179.5 52.5q-23 0 -57.5 -2t-58.5 -7l-27 -149h-158v274q23 6 61 13.5t82 13.5t87 10t76 4q111 0 191.5 -20.5t133.5 -67.5t79 -124.5t26 -192.5v-432l94 -13v-145h-238l-39 135h-10 q-49 -70 -119.5 -111.5t-175.5 -41.5q-135 0 -223 74.5t-88 209.5zM184 1190l19 129q2 2 16 9t37 15.5t52.5 14.5t64.5 6q63 0 136 -18.5t146 -18.5q45 0 80 7t64 18l-17 -125q-8 -6 -54 -25.5t-114 -19.5q-66 0 -139.5 17.5t-144.5 17.5q-47 0 -80 -8.5t-66 -18.5zM281 287 q0 -70 42 -109t109 -39q131 0 186.5 91t57.5 245q-72 0 -142.5 -5t-127 -23.5t-91 -56.5t-34.5 -103z" />
<glyph unicode="&#xe4;" horiz-adv-x="1013" d="M80 266q0 111 49 177.5t132 103.5t190.5 48t224.5 11q0 127 -52.5 179.5t-179.5 52.5q-23 0 -57.5 -2t-58.5 -7l-27 -149h-158v274q23 6 61 13.5t82 13.5t87 10t76 4q111 0 191.5 -20.5t133.5 -67.5t79 -124.5t26 -192.5v-432l94 -13v-145h-238l-39 135h-10 q-49 -70 -119.5 -111.5t-175.5 -41.5q-135 0 -223 74.5t-88 209.5zM281 287q0 -70 42 -109t109 -39q131 0 186.5 91t57.5 245q-72 0 -142.5 -5t-127 -23.5t-91 -56.5t-34.5 -103zM324 1133v253h141v-253h-141zM569 1133v253h140v-253h-140z" />
<glyph unicode="&#xe5;" horiz-adv-x="1013" d="M80 266q0 111 49 177.5t132 103.5t190.5 48t224.5 11q0 127 -52.5 179.5t-179.5 52.5q-23 0 -57.5 -2t-58.5 -7l-27 -149h-158v274q23 6 61 13.5t82 13.5t87 10t76 4q111 0 191.5 -20.5t133.5 -67.5t79 -124.5t26 -192.5v-432l94 -13v-145h-238l-39 135h-10 q-49 -70 -119.5 -111.5t-175.5 -41.5q-135 0 -223 74.5t-88 209.5zM281 287q0 -70 42 -109t109 -39q131 0 186.5 91t57.5 245q-72 0 -142.5 -5t-127 -23.5t-91 -56.5t-34.5 -103zM303 1237q0 86 57.5 129t151.5 43q92 0 149.5 -41t57.5 -127q0 -84 -58.5 -125t-152.5 -41 q-92 0 -148.5 41t-56.5 121zM438 1239q0 -70 72 -70q35 0 54.5 18.5t19.5 51.5q0 76 -74 76q-72 0 -72 -76z" />
<glyph unicode="&#xe6;" horiz-adv-x="1536" d="M80 270q0 94 41 156.5t108.5 100.5t156.5 53.5t187 15.5h103q-2 135 -63.5 188.5t-192.5 53.5q-23 0 -48.5 -2t-43.5 -7l-27 -149h-158v278q8 2 40 8.5t74 12.5t89 11t90 5q139 0 233.5 -41t137.5 -125h14q55 80 138 123t196 43q145 0 235.5 -77.5t90.5 -210.5 q0 -109 -51.5 -174.5t-134.5 -99.5t-190.5 -44t-219.5 -10q2 -131 66.5 -186.5t195.5 -55.5q23 0 46.5 2t39.5 6l27 152h157v-262q-12 -6 -43 -15.5t-71.5 -17.5t-87 -14t-91.5 -6q-276 0 -370 165h-13q-113 -166 -335 -165q-145 0 -235.5 76.5t-90.5 211.5zM281 287 q0 -66 44 -107t113 -41q63 0 108.5 24.5t74 70t42 105.5t13.5 132q-70 0 -140.5 -3t-127 -21.5t-92 -55.5t-35.5 -104zM885 506h76q61 0 118.5 7t101.5 26.5t71.5 55.5t27.5 93q0 68 -44 109t-114 41q-66 0 -109.5 -26t-72.5 -70t-42 -105.5t-13 -130.5z" />
<glyph unicode="&#xe7;" horiz-adv-x="833" d="M59 461q0 119 33 217t95.5 169t154.5 109.5t213 38.5q84 0 148.5 -10t93.5 -16v-289h-158l-25 145q-31 6 -67 6q-74 -2 -128 -30.5t-88 -77.5t-50.5 -115.5t-16.5 -142.5q0 -66 17.5 -123t50.5 -102t81 -71t111 -26q90 0 153.5 37t100.5 84l35 -178q-8 -8 -31.5 -24.5 t-60.5 -33t-85 -29.5t-108 -15v-66q59 0 105.5 -34t46.5 -97q0 -37 -17.5 -63.5t-46 -45t-66.5 -27.5t-81 -9q-53 0 -88 6t-51 10l16 84q16 -4 44 -8t56 -4q41 0 69 13t28 48q0 29 -22.5 41t-59.5 12q-16 0 -32.5 -2t-29.5 -4l23 148q-174 23 -268.5 148.5t-94.5 326.5z" />
<glyph unicode="&#xe8;" horiz-adv-x="960" d="M59 479q0 111 30 205t87 162.5t142 108.5t194 40t184.5 -35.5t121.5 -99t66.5 -150.5t20.5 -188v-78h-635q2 -154 76 -226.5t221 -72.5q45 0 74 6.5t45 10.5l23 121h155v-248q-49 -18 -138 -35.5t-189 -17.5q-238 0 -358 134t-120 363zM272 575h424l9 11 q0 113 -45.5 182.5t-149.5 69.5q-102 0 -161.5 -71t-76.5 -192zM291 1241l82 150l362 -224l-63 -69z" />
<glyph unicode="&#xe9;" horiz-adv-x="960" d="M59 479q0 111 30 205t87 162.5t142 108.5t194 40t184.5 -35.5t121.5 -99t66.5 -150.5t20.5 -188v-78h-635q2 -154 76 -226.5t221 -72.5q45 0 74 6.5t45 10.5l23 121h155v-248q-49 -18 -138 -35.5t-189 -17.5q-238 0 -358 134t-120 363zM272 575h424l9 11 q0 113 -45.5 182.5t-149.5 69.5q-102 0 -161.5 -71t-76.5 -192zM293 1167l362 224l82 -150l-381 -143z" />
<glyph unicode="&#xea;" horiz-adv-x="960" d="M59 479q0 111 30 205t87 162.5t142 108.5t194 40t184.5 -35.5t121.5 -99t66.5 -150.5t20.5 -188v-78h-635q2 -154 76 -226.5t221 -72.5q45 0 74 6.5t45 10.5l23 121h155v-248q-49 -18 -138 -35.5t-189 -17.5q-238 0 -358 134t-120 363zM227 1194l213 172q18 16 36 20.5 t30 4.5t29.5 -4.5t35.5 -20.5l213 -172l-63 -70l-215 95l-215 -95zM272 575h424l9 11q0 113 -45.5 182.5t-149.5 69.5q-102 0 -161.5 -71t-76.5 -192z" />
<glyph unicode="&#xeb;" horiz-adv-x="960" d="M59 479q0 111 30 205t87 162.5t142 108.5t194 40t184.5 -35.5t121.5 -99t66.5 -150.5t20.5 -188v-78h-635q2 -154 76 -226.5t221 -72.5q45 0 74 6.5t45 10.5l23 121h155v-248q-49 -18 -138 -35.5t-189 -17.5q-238 0 -358 134t-120 363zM272 575h424l9 11 q0 113 -45.5 182.5t-149.5 69.5q-102 0 -161.5 -71t-76.5 -192zM309 1133v253h142v-253h-142zM555 1133v253h139v-253h-139z" />
<glyph unicode="&#xec;" horiz-adv-x="485" d="M-2 1241l82 150l362 -224l-63 -69zM43 831v146h305v-977h-221l20 145v670z" />
<glyph unicode="&#xed;" horiz-adv-x="485" d="M6 1167l363 224l82 -150l-381 -143zM43 831v146h305v-977h-221l20 145v670z" />
<glyph unicode="&#xee;" horiz-adv-x="485" d="M-55 1194l213 172q18 16 35.5 20.5t29.5 4.5t29.5 -4.5t36.5 -20.5l213 -172l-64 -70l-215 95l-215 -95zM43 831v146h305v-977h-221l20 145v670z" />
<glyph unicode="&#xef;" horiz-adv-x="485" d="M27 1133v253h141v-253h-141zM43 831v146h305v-977h-221l20 145v670zM272 1133v253h140v-253h-140z" />
<glyph unicode="&#xf0;" horiz-adv-x="1001" d="M59 436q0 98 29 180t81 143.5t126 96.5t164 39h33.5t27.5 -2l39 -19l4 7l-125 186l-174 -39l-28 121l131 29l-115 176l209 47l119 -178l174 39l24 -119l-133 -31q8 -12 40 -63.5t71 -113t74.5 -121.5t50.5 -93q25 -59 43 -126t18 -151q0 -211 -116.5 -336.5 t-336.5 -125.5q-106 0 -187 33.5t-134 95t-81 144.5t-28 181zM264 436q0 -57 13.5 -110.5t43 -93t74.5 -64.5t109 -25q63 0 108 23.5t72 63.5t39 93.5t12 112.5t-11 113.5t-38 95.5t-72 64.5t-110 23.5q-66 0 -111 -23.5t-73.5 -63.5t-42 -94.5t-13.5 -115.5z" />
<glyph unicode="&#xf1;" horiz-adv-x="1067" d="M43 831v146h244l30 -133h9q41 61 116.5 106t182.5 45q154 0 227.5 -87t69.5 -240v-510l104 -15v-143h-307v657q0 78 -36 126t-114 48q-63 0 -106 -26.5t-68.5 -72.5t-37 -106.5t-11.5 -127.5v-498h-199v817zM227 1190l19 129q2 2 16 9t37 15.5t52.5 14.5t64.5 6 q63 0 136 -18.5t146 -18.5q45 0 80 7t64 18l-17 -125q-8 -6 -54 -25.5t-114 -19.5q-66 0 -139.5 17.5t-144.5 17.5q-47 0 -80 -8.5t-66 -18.5z" />
<glyph unicode="&#xf2;" horiz-adv-x="997" d="M59 477q0 113 30 208t88.5 164t143.5 107.5t195 38.5q111 0 189.5 -35.5t131 -100t77 -157t24.5 -204.5q0 -113 -30.5 -208t-90 -164t-144.5 -106.5t-196 -37.5t-189.5 34.5t-128.5 99t-75 156.5t-25 205zM264 481q0 -70 10.5 -131t36 -107t67.5 -73t107 -27q68 0 115 28 t77 75t43 110.5t13 137.5q0 70 -11 131t-37 107t-70 72.5t-109 26.5q-68 0 -114 -28.5t-74.5 -75.5t-41 -111.5t-12.5 -134.5zM291 1241l82 150l362 -224l-63 -69z" />
<glyph unicode="&#xf3;" horiz-adv-x="997" d="M59 477q0 113 30 208t88.5 164t143.5 107.5t195 38.5q111 0 189.5 -35.5t131 -100t77 -157t24.5 -204.5q0 -113 -30.5 -208t-90 -164t-144.5 -106.5t-196 -37.5t-189.5 34.5t-128.5 99t-75 156.5t-25 205zM264 481q0 -70 10.5 -131t36 -107t67.5 -73t107 -27q68 0 115 28 t77 75t43 110.5t13 137.5q0 70 -11 131t-37 107t-70 72.5t-109 26.5q-68 0 -114 -28.5t-74.5 -75.5t-41 -111.5t-12.5 -134.5zM281 1167l362 224l82 -150l-381 -143z" />
<glyph unicode="&#xf4;" horiz-adv-x="997" d="M59 477q0 113 30 208t88.5 164t143.5 107.5t195 38.5q111 0 189.5 -35.5t131 -100t77 -157t24.5 -204.5q0 -113 -30.5 -208t-90 -164t-144.5 -106.5t-196 -37.5t-189.5 34.5t-128.5 99t-75 156.5t-25 205zM236 1194l213 172q18 16 35.5 20.5t29.5 4.5t29.5 -4.5 t36.5 -20.5l213 -172l-64 -70l-215 95l-215 -95zM264 481q0 -70 10.5 -131t36 -107t67.5 -73t107 -27q68 0 115 28t77 75t43 110.5t13 137.5q0 70 -11 131t-37 107t-70 72.5t-109 26.5q-68 0 -114 -28.5t-74.5 -75.5t-41 -111.5t-12.5 -134.5z" />
<glyph unicode="&#xf5;" horiz-adv-x="997" d="M59 477q0 113 30 208t88.5 164t143.5 107.5t195 38.5q111 0 189.5 -35.5t131 -100t77 -157t24.5 -204.5q0 -113 -30.5 -208t-90 -164t-144.5 -106.5t-196 -37.5t-189.5 34.5t-128.5 99t-75 156.5t-25 205zM203 1190l18 129q2 2 16.5 9t37 15.5t52 14.5t64.5 6 q63 0 136 -18.5t147 -18.5q45 0 79.5 7t63.5 18l-16 -125q-8 -6 -54.5 -25.5t-113.5 -19.5q-66 0 -139.5 17.5t-145.5 17.5q-47 0 -79.5 -8.5t-65.5 -18.5zM264 481q0 -70 10.5 -131t36 -107t67.5 -73t107 -27q68 0 115 28t77 75t43 110.5t13 137.5q0 70 -11 131t-37 107 t-70 72.5t-109 26.5q-68 0 -114 -28.5t-74.5 -75.5t-41 -111.5t-12.5 -134.5z" />
<glyph unicode="&#xf6;" horiz-adv-x="997" d="M59 477q0 113 30 208t88.5 164t143.5 107.5t195 38.5q111 0 189.5 -35.5t131 -100t77 -157t24.5 -204.5q0 -113 -30.5 -208t-90 -164t-144.5 -106.5t-196 -37.5t-189.5 34.5t-128.5 99t-75 156.5t-25 205zM264 481q0 -70 10.5 -131t36 -107t67.5 -73t107 -27q68 0 115 28 t77 75t43 110.5t13 137.5q0 70 -11 131t-37 107t-70 72.5t-109 26.5q-68 0 -114 -28.5t-74.5 -75.5t-41 -111.5t-12.5 -134.5zM313 1133v253h142v-253h-142zM559 1133v253h139v-253h-139z" />
<glyph unicode="&#xf7;" d="M96 522v115h811v-115h-811zM393 244q0 51 31 80.5t80 29.5q104 0 104 -106q0 -51 -28.5 -82t-79.5 -31q-49 0 -78 29t-29 80zM393 901q0 51 31 81t80 30q51 0 77.5 -29t26.5 -80t-28.5 -80.5t-79.5 -29.5q-49 0 -78 28.5t-29 79.5z" />
<glyph unicode="&#xf8;" horiz-adv-x="997" d="M59 477q0 113 30 208t88.5 164t143.5 107.5t195 38.5q113 0 199 -41l65 109h103l-92 -156q76 -63 111.5 -168.5t35.5 -240.5q0 -113 -30.5 -208t-90 -164t-144.5 -106.5t-196 -37.5q-123 0 -213 45l-67 -109h-103l99 160q-70 66 -102 167t-32 232zM264 481 q0 -63 8.5 -119.5t28.5 -101.5l322 539q-49 33 -117 32q-68 0 -114 -28.5t-74.5 -75.5t-41 -111.5t-12.5 -134.5zM358 184q47 -41 127 -41q68 0 115 28t77 75t43 110.5t13 137.5q0 70 -11 130t-38 107z" />
<glyph unicode="&#xf9;" horiz-adv-x="1052" d="M41 829v148h299v-658q0 -72 34 -123t118 -51q63 0 105 26t67.5 71t37 106.5t11.5 130.5v334l-90 16v148h297v-819l90 -13v-145h-238l-29 131h-8q-41 -59 -113.5 -104t-179.5 -45q-154 0 -230.5 87t-72.5 240v506zM295 1241l82 150l362 -224l-63 -69z" />
<glyph unicode="&#xfa;" horiz-adv-x="1052" d="M41 829v148h299v-658q0 -72 34 -123t118 -51q63 0 105 26t67.5 71t37 106.5t11.5 130.5v334l-90 16v148h297v-819l90 -13v-145h-238l-29 131h-8q-41 -59 -113.5 -104t-179.5 -45q-154 0 -230.5 87t-72.5 240v506zM305 1167l363 224l82 -150l-381 -143z" />
<glyph unicode="&#xfb;" horiz-adv-x="1052" d="M41 829v148h299v-658q0 -72 34 -123t118 -51q63 0 105 26t67.5 71t37 106.5t11.5 130.5v334l-90 16v148h297v-819l90 -13v-145h-238l-29 131h-8q-41 -59 -113.5 -104t-179.5 -45q-154 0 -230.5 87t-72.5 240v506zM233 1194l213 172q18 16 36 20.5t30 4.5t29.5 -4.5 t36.5 -20.5l213 -172l-64 -70l-215 95l-215 -95z" />
<glyph unicode="&#xfc;" horiz-adv-x="1052" d="M41 829v148h299v-658q0 -72 34 -123t118 -51q63 0 105 26t67.5 71t37 106.5t11.5 130.5v334l-90 16v148h297v-819l90 -13v-145h-238l-29 131h-8q-41 -59 -113.5 -104t-179.5 -45q-154 0 -230.5 87t-72.5 240v506zM317 1133v253h142v-253h-142zM563 1133v253h139v-253 h-139z" />
<glyph unicode="&#xfd;" horiz-adv-x="915" d="M6 831v146h238l223 -729h10l10 80l152 493l-74 10v146h340l-332 -957q-35 -100 -72.5 -170.5t-85.5 -116.5t-110.5 -67.5t-146.5 -21.5q-16 0 -42 1t-36 3l-27 164q10 -2 29.5 -4.5t42.5 -2.5q51 0 86 11.5t59.5 35t43 60.5t36.5 88l8 27l-276 792zM250 1167l362 224 l82 -150l-381 -143z" />
<glyph unicode="&#xfe;" horiz-adv-x="1019" d="M37 1237v145h301v-518l8 -2q10 12 30.5 35t52.5 44.5t78 37.5t105 16q84 0 149.5 -31.5t109.5 -88t68 -134t24 -170.5q0 -268 -137.5 -419.5t-417.5 -151.5h-70v-178l113 -19v-143h-330l20 145v1418zM332 340q0 -18 1 -43t1 -49.5t1 -48t1 -37.5q10 -2 24 -4 q10 -2 25.5 -2h32.5q88 0 152.5 29.5t105.5 81.5t60.5 125t19.5 161q0 55 -10.5 105.5t-34 89t-58.5 61t-84 22.5q-74 0 -120 -39.5t-71.5 -107.5t-35.5 -157t-10 -187z" />
<glyph unicode="&#xff;" horiz-adv-x="915" d="M6 831v146h238l223 -729h10l10 80l152 493l-74 10v146h340l-332 -957q-35 -100 -72.5 -170.5t-85.5 -116.5t-110.5 -67.5t-146.5 -21.5q-16 0 -42 1t-36 3l-27 164q10 -2 29.5 -4.5t42.5 -2.5q51 0 86 11.5t59.5 35t43 60.5t36.5 88l8 27l-276 792zM264 1133v253h142 v-253h-142zM510 1133v253h139v-253h-139z" />
<glyph unicode="&#x152;" horiz-adv-x="1708" d="M66 629q0 324 154.5 495.5t441.5 171.5h946v-344h-166l-27 162h-387v-371h516v-172h-516v-391h395q8 41 15.5 82t13.5 82h166v-344h-1016q-274 0 -405 158.5t-131 470.5zM297 631q0 -98 15.5 -182t53 -143.5t100 -93.5t155.5 -34h184v940h-137q-104 0 -175 -37 t-115 -101.5t-62.5 -153.5t-18.5 -195z" />
<glyph unicode="&#x153;" horiz-adv-x="1589" d="M59 477q0 113 30 208t88.5 164t143.5 107.5t195 38.5q113 0 194 -44t132 -124h12q57 82 144 125t200 43q72 0 133.5 -20.5t106.5 -58t70.5 -91t25.5 -118.5q0 -111 -52 -175.5t-137 -98.5t-194 -44t-221 -10q4 -125 71.5 -183.5t196.5 -58.5q25 0 50.5 2t41.5 6l25 152 h158v-262q-16 -6 -49 -15.5t-74 -17.5t-87 -14t-87 -6q-260 0 -359 149h-12q-55 -70 -135 -109.5t-191 -39.5t-190.5 34.5t-129.5 99t-75 157t-25 204.5zM266 481q0 -68 10.5 -129t36 -107t67.5 -74t107 -28q68 0 114 27t76 75t43 111.5t13 137.5q0 68 -11 129t-37 107 t-70 73.5t-107 27.5q-68 0 -114 -27.5t-74.5 -75.5t-41 -111.5t-12.5 -135.5zM930 506h78q59 0 117.5 7t104.5 26.5t74.5 55.5t28.5 93q0 68 -48 109t-118 41q-61 0 -105 -26t-74 -71t-44 -105.5t-14 -129.5z" />
<glyph unicode="&#x178;" horiz-adv-x="1036" d="M6 1139v157h258l223 -561l13 -73h10l14 75l172 383l-84 15v161h396l-390 -821v-475h-317v162l90 14v299l-293 645zM307 1411v254h142v-254h-142zM553 1411v254h139v-254h-139z" />
<glyph unicode="&#x2c6;" horiz-adv-x="1034" d="M240 1194l213 172q18 16 35.5 20.5t29.5 4.5t29.5 -4.5t36.5 -20.5l213 -172l-64 -70l-215 95l-215 -95z" />
<glyph unicode="&#x2dc;" horiz-adv-x="1034" d="M209 1190l18 129q2 2 16.5 9t37 15.5t52 14.5t64.5 6q63 0 136 -18.5t147 -18.5q45 0 80 7t63 18l-16 -125q-8 -6 -54 -25.5t-114 -19.5q-66 0 -139.5 17.5t-145.5 17.5q-47 0 -79.5 -8.5t-65.5 -18.5z" />
<glyph unicode="&#x2000;" horiz-adv-x="847" />
<glyph unicode="&#x2001;" horiz-adv-x="1694" />
<glyph unicode="&#x2002;" horiz-adv-x="847" />
<glyph unicode="&#x2003;" horiz-adv-x="1694" />
<glyph unicode="&#x2004;" horiz-adv-x="564" />
<glyph unicode="&#x2005;" horiz-adv-x="423" />
<glyph unicode="&#x2006;" horiz-adv-x="282" />
<glyph unicode="&#x2007;" horiz-adv-x="282" />
<glyph unicode="&#x2008;" horiz-adv-x="211" />
<glyph unicode="&#x2009;" horiz-adv-x="338" />
<glyph unicode="&#x200a;" horiz-adv-x="94" />
<glyph unicode="&#x2010;" horiz-adv-x="677" d="M104 436v113h469v-113h-469z" />
<glyph unicode="&#x2011;" horiz-adv-x="677" d="M104 436v113h469v-113h-469z" />
<glyph unicode="&#x2012;" horiz-adv-x="677" d="M104 436v113h469v-113h-469z" />
<glyph unicode="&#x2013;" horiz-adv-x="1024" d="M0 436v115h1024v-115h-1024z" />
<glyph unicode="&#x2014;" horiz-adv-x="2048" d="M0 436v115h2048v-115h-2048z" />
<glyph unicode="&#x2018;" horiz-adv-x="391" d="M84 1067q0 72 43 139l82 135l80 -8l-62 -164q31 -10 51.5 -33.5t20.5 -64.5q0 -51 -29.5 -83t-81.5 -32q-49 0 -76.5 30t-27.5 81z" />
<glyph unicode="&#x2019;" horiz-adv-x="391" d="M94 1083q0 51 30 83t81 32q49 0 76.5 -29.5t27.5 -81.5q0 -72 -43 -139l-82 -135l-80 8l62 164q-31 10 -51.5 33.5t-20.5 64.5z" />
<glyph unicode="&#x201a;" horiz-adv-x="391" d="M94 98q0 51 30 83t81 32q49 0 76.5 -29.5t27.5 -81.5q0 -72 -43 -139l-82 -135l-80 8l62 164q-31 10 -51.5 33.5t-20.5 64.5z" />
<glyph unicode="&#x201c;" horiz-adv-x="727" d="M84 1067q0 72 43 139l82 135l80 -8l-62 -164q31 -10 51.5 -33.5t20.5 -64.5q0 -51 -29.5 -83t-81.5 -32q-49 0 -76.5 30t-27.5 81zM420 1067q0 72 43 139l82 135l80 -8l-62 -164q31 -10 51.5 -33.5t20.5 -64.5q0 -51 -30 -83t-81 -32q-49 0 -76.5 30t-27.5 81z" />
<glyph unicode="&#x201d;" horiz-adv-x="727" d="M94 1083q0 51 30 83t81 32q49 0 76.5 -29.5t27.5 -81.5q0 -72 -43 -139l-82 -135l-80 8l62 164q-31 10 -51.5 33.5t-20.5 64.5zM430 1083q0 51 29.5 83t81.5 32q49 0 76.5 -29.5t27.5 -81.5q0 -72 -43 -139l-82 -135l-80 8l62 164q-31 10 -51.5 33.5t-20.5 64.5z" />
<glyph unicode="&#x201e;" horiz-adv-x="727" d="M94 98q0 51 30 83t81 32q49 0 76.5 -29.5t27.5 -81.5q0 -72 -43 -139l-82 -135l-80 8l62 164q-31 10 -51.5 33.5t-20.5 64.5zM430 98q0 51 29.5 83t81.5 32q49 0 76.5 -29.5t27.5 -81.5q0 -72 -43 -139l-82 -135l-80 8l62 164q-31 10 -51.5 33.5t-20.5 64.5z" />
<glyph unicode="&#x2022;" horiz-adv-x="602" d="M113 565q0 86 52 138.5t138 52.5t136 -50.5t50 -138.5q0 -86 -52 -136t-138 -50t-136 49t-50 135z" />
<glyph unicode="&#x2026;" horiz-adv-x="1062" d="M96 90q0 51 31 81t80 30t76.5 -29t27.5 -80t-29.5 -80.5t-78.5 -29.5t-78 28.5t-29 79.5zM432 90q0 51 30 81t81 30q47 0 74.5 -29t27.5 -80t-28.5 -80.5t-77.5 -29.5t-78 28.5t-29 79.5zM768 90q0 51 29.5 81t81.5 30q47 0 74.5 -29t27.5 -80t-30 -80.5t-77 -29.5 q-51 0 -78.5 28.5t-27.5 79.5z" />
<glyph unicode="&#x202f;" horiz-adv-x="338" />
<glyph unicode="&#x2039;" horiz-adv-x="663" d="M86 553l414 448l86 -83l-338 -365l340 -371l-90 -82z" />
<glyph unicode="&#x203a;" horiz-adv-x="663" d="M74 182l342 371l-340 365l88 83l411 -448l-413 -455z" />
<glyph unicode="&#x2044;" horiz-adv-x="325" d="M-199 0l674 1190h109l-674 -1190h-109z" />
<glyph unicode="&#x205f;" horiz-adv-x="423" />
<glyph unicode="&#x2070;" horiz-adv-x="571" d="M39 889q0 141 65.5 226t188.5 85t180 -80t57 -221t-67.5 -227t-190.5 -86q-121 0 -177 81t-56 222zM152 889q0 -43 6 -81t21.5 -67.5t39 -47t60.5 -17.5q35 0 60.5 19.5t42.5 50t25.5 70.5t8.5 83q0 41 -6.5 79t-21.5 67.5t-39.5 47t-59.5 17.5q-37 0 -63.5 -19.5 t-43 -50t-23.5 -70.5t-7 -81z" />
<glyph unicode="&#x2074;" horiz-adv-x="557" d="M43 711v108l250 371h160v-391h67v-88h-67v-115h-111v115h-299zM131 799h211v272l12 35h-8l-188 -287l-27 -14v-6z" />
<glyph unicode="&#x2075;" horiz-adv-x="512" d="M49 602v166h90l13 -86q10 -2 23 -3t24 -1q66 0 112.5 23.5t46.5 76.5q0 33 -18 54.5t-48 34t-68 16.5t-77 4h-65v303h362v-98l-84 6h-170v-131q55 0 107.5 -11.5t91.5 -35t62.5 -60.5t23.5 -90q0 -49 -21.5 -85t-57.5 -57.5t-83 -31.5t-96 -10q-41 0 -82 4t-86 12z" />
<glyph unicode="&#x2076;" horiz-adv-x="548" d="M41 889q0 135 70.5 223t222.5 88q37 0 76 -5t73 -13v-164h-90l-14 88q-6 0 -18.5 1t-20.5 1q-168 0 -180 -158q16 2 43.5 4t44.5 2q57 0 105 -11t84 -33.5t56.5 -57.5t20.5 -84q0 -86 -63.5 -135t-161.5 -49q-133 0 -190.5 86t-57.5 217zM156 877q0 -43 6 -80t21.5 -64.5 t42 -43t67.5 -15.5q47 0 77.5 26.5t30.5 69.5q0 63 -47 88t-116 25q-43 0 -82 -6z" />
<glyph unicode="&#x2077;" horiz-adv-x="471" d="M23 1006v184h415v-107q-61 -59 -98 -123.5t-56.5 -128t-25.5 -122t-6 -105.5v-8h-117v8q0 55 7.5 113.5t25.5 119t51 122t84 120.5l27 13v8h-203l-16 -94h-88z" />
<glyph unicode="&#x2078;" horiz-adv-x="569" d="M49 748q0 49 30 87.5t77 59.5v8q-41 18 -67 51t-26 76t19.5 75t51.5 53.5t74 32.5t87 11q92 0 156.5 -41t64.5 -121q0 -47 -28.5 -81.5t-69.5 -53.5v-8q49 -25 75.5 -57.5t26.5 -79.5q0 -43 -20.5 -76t-53 -54.5t-76.5 -31.5t-89 -10q-98 0 -165 39t-67 121zM154 760 q0 -43 35.5 -64.5t86.5 -21.5q49 0 88 21.5t39 64.5q0 41 -37.5 60.5t-84.5 33.5l-27 8q-41 -16 -70.5 -38.5t-29.5 -63.5zM178 1038q0 -41 34 -58t81 -34l24 -8q35 10 65 34.5t30 61.5q0 41 -34 62.5t-81 21.5q-45 0 -82 -19.5t-37 -60.5z" />
<glyph unicode="&#x2079;" horiz-adv-x="548" d="M33 1016q0 86 63.5 135t163.5 49q66 0 113 -22.5t76.5 -63.5t44 -96t14.5 -121q0 -139 -70.5 -226t-222.5 -87q-41 0 -80 5t-74 13v164h91l14 -88q16 -4 43 -4q82 0 127 41t51 119q-29 -4 -50.5 -5.5t-39.5 -1.5q-113 0 -188.5 45.5t-75.5 143.5zM143 1014 q0 -63 48.5 -87t115.5 -24q45 0 86 6q-2 43 -8 80t-21.5 64.5t-42 43t-67.5 15.5q-49 0 -80 -26.5t-31 -71.5z" />
<glyph unicode="&#x207d;" horiz-adv-x="337" d="M68 895q0 125 38.5 232.5t92.5 193.5l69 -45q-43 -74 -76.5 -166t-33.5 -215q0 -121 33.5 -212t76.5 -167l-69 -43q-53 84 -92 191.5t-39 230.5z" />
<glyph unicode="&#x207e;" horiz-adv-x="337" d="M68 516q43 76 75.5 167t32.5 212q0 123 -32.5 215t-75.5 166l67 45q53 -86 93 -193.5t40 -232.5q0 -123 -39 -230.5t-92 -191.5z" />
<glyph unicode="&#x207f;" horiz-adv-x="638" d="M27 1102v88h143l14 -82h9q27 39 72.5 66.5t109.5 27.5q94 0 139 -53t45 -145l-4 -312l59 -8v-88h-180v399q0 49 -24.5 78t-71.5 29q-68 0 -99.5 -53.5t-31.5 -130.5v-322h-121v496z" />
<glyph unicode="&#x20ac;" d="M45 358l23 99h90q-2 10 -2 25.5v35.5q0 29 2 54.5t6 54.5h-119l23 98h114q47 178 176 277.5t334 99.5q86 0 147.5 -11.5t92.5 -21.5l-39 -154q-35 14 -82 23.5t-96 9.5q-252 0 -322 -223h418q-6 -25 -12 -49.5t-11 -48.5h-419q-4 -20 -6.5 -45t-2.5 -54q0 -39 7 -71h444 l-23 -99h-401q25 -98 93.5 -160.5t185.5 -62.5q90 0 157.5 29t102.5 61l41 -157q-16 -10 -44 -24.5t-70 -28t-96.5 -23.5t-121.5 -10q-178 0 -302 98t-161 278h-127z" />
<glyph unicode="&#x2122;" horiz-adv-x="1077" d="M20 1327v76h336v-76h-120v-469h-101l6 60v409h-121zM410 856l10 62l14 485h156l110 -393l2 -29h9l2 29l112 393h156l-4 -62l18 -485h-94l-12 459h-8l-2 -31l-127 -428h-93l-124 428l-3 33h-8l-12 -461h-102z" />
<glyph unicode="&#x2153;" horiz-adv-x="1181" d="M49 1067q49 10 100.5 41t90.5 82h112l-12 -504h135v-90h-409v90h159l11 379l-7 2l-20 -37q-29 -23 -67 -38t-74 -25zM182 0l703 1190h106l-702 -1190h-107zM686 113q18 -6 69.5 -17.5t100.5 -11.5q23 0 50.5 3t51 12.5t40 26.5t16.5 46q0 57 -48 74.5t-110 17.5h-84v80 h84q59 0 102 17.5t43 70.5q0 49 -41.5 69.5t-95.5 20.5q-14 0 -32.5 -2t-32.5 -6l-17 -86h-88v162q33 8 81 14t97 6t92.5 -9t77 -28.5t53 -51.5t19.5 -77q0 -96 -86 -133v-8q41 -18 71.5 -50t30.5 -87q0 -47 -23.5 -80t-62 -54.5t-87 -30.5t-99.5 -9q-43 0 -88 6t-68 12z " />
<glyph unicode="&#x2154;" horiz-adv-x="1193" d="M45 594v111q82 51 140.5 90t95 71.5t53 62t16.5 64.5q0 55 -41 85t-108 30q-10 0 -21.5 -1t-21.5 -3l-21 -105h-88v181q39 10 83 16t79 6q49 0 95 -13t82 -39t56.5 -63.5t20.5 -87.5q0 -45 -14.5 -81.5t-46 -72.5t-82 -73t-119.5 -80l2 -6h213l82 6v-98h-455zM199 0 l702 1190h107l-705 -1190h-104zM686 113q18 -6 69.5 -17.5t100.5 -11.5q23 0 50.5 3t51 12.5t40 26.5t16.5 46q0 57 -48 74.5t-110 17.5h-84v80h84q59 0 102 17.5t43 70.5q0 49 -41.5 69.5t-95.5 20.5q-14 0 -32.5 -2t-32.5 -6l-17 -86h-88v162q33 8 81 14t97 6t92.5 -9 t77 -28.5t53 -51.5t19.5 -77q0 -96 -86 -133v-8q41 -18 71.5 -50t30.5 -87q0 -47 -23.5 -80t-62 -54.5t-87 -30.5t-99.5 -9q-43 0 -88 6t-68 12z" />
<glyph unicode="&#x215b;" horiz-adv-x="1181" d="M49 1067q49 10 100.5 41t90.5 82h112l-12 -504h135v-90h-409v90h159l11 379l-7 2l-20 -37q-29 -23 -67 -38t-74 -25zM184 0l703 1190h106l-704 -1190h-105zM649 152q0 49 30 88t77 59v8q-41 18 -66.5 51t-25.5 76t19 75t51 53.5t74 32.5t87 11q92 0 156.5 -41t64.5 -121 q0 -47 -28.5 -81.5t-69.5 -53.5v-8q49 -25 75.5 -57.5t26.5 -79.5q0 -43 -20.5 -76t-53 -54.5t-76.5 -31.5t-89 -10q-98 0 -165 39t-67 121zM754 164q0 -43 35.5 -64.5t87.5 -21.5q49 0 88 21.5t39 64.5q0 41 -38 60.5t-85 33.5l-27 8q-41 -16 -70.5 -38.5t-29.5 -63.5z M778 442q0 -41 34 -58t81 -34l25 -8q35 10 64.5 34.5t29.5 61.5q0 41 -34 62.5t-81 21.5q-45 0 -82 -19.5t-37 -60.5z" />
<glyph unicode="&#x215c;" horiz-adv-x="1173" d="M45 702q18 -6 69.5 -17t100.5 -11q23 0 50.5 3t51 12t40 26.5t16.5 46.5q0 57 -48.5 74.5t-109.5 17.5h-84v80h84q59 0 102 17.5t43 70.5q0 49 -42 69.5t-95 20.5q-14 0 -32.5 -2t-32.5 -6l-17 -86h-88v162q33 8 81 14t97 6t92.5 -9t77 -28.5t53 -51.5t19.5 -77 q0 -96 -86 -133v-8q41 -18 71.5 -50t30.5 -87q0 -47 -23.5 -80t-62 -54.5t-87 -30.5t-99.5 -9q-43 0 -88 6t-68 12zM176 0l703 1190h106l-704 -1190h-105zM639 152q0 49 29.5 88t76.5 59v8q-41 18 -66.5 51t-25.5 76t19.5 75t51.5 53.5t74 32.5t87 11q92 0 156.5 -41 t64.5 -121q0 -47 -28.5 -81.5t-69.5 -53.5v-8q49 -25 75.5 -57.5t26.5 -79.5q0 -43 -20.5 -76t-53 -54.5t-77 -31.5t-89.5 -10q-98 0 -164.5 39t-66.5 121zM743 164q0 -43 36 -64.5t87 -21.5q49 0 88 21.5t39 64.5q0 41 -37.5 60.5t-85.5 33.5l-26 8q-41 -16 -71 -38.5 t-30 -63.5zM768 442q0 -41 34 -58t81 -34l24 -8q35 10 64.5 34.5t29.5 61.5q0 41 -33.5 62.5t-80.5 21.5q-45 0 -82 -19.5t-37 -60.5z" />
<glyph unicode="&#x215d;" horiz-adv-x="1169" d="M49 602v166h90l13 -86q10 -2 23 -3t24 -1q66 0 112.5 23.5t46.5 76.5q0 33 -18 54.5t-48 34t-68 16.5t-77 4h-65v303h362v-98l-84 6h-170v-131q55 0 107.5 -11.5t91.5 -35t62.5 -60.5t23.5 -90q0 -49 -21.5 -85t-57.5 -57.5t-83 -31.5t-96 -10q-41 0 -82 4t-86 12zM170 0 l704 1190h105l-703 -1190h-106zM641 152q0 49 29.5 88t77.5 59v8q-41 18 -67 51t-26 76t19.5 75t51.5 53.5t74 32.5t87 11q92 0 156.5 -41t64.5 -121q0 -47 -28.5 -81.5t-69.5 -53.5v-8q49 -25 75.5 -57.5t26.5 -79.5q0 -43 -20.5 -76t-53 -54.5t-76.5 -31.5t-90 -10 q-98 0 -164.5 39t-66.5 121zM745 164q0 -43 36 -64.5t87 -21.5q49 0 88 21.5t39 64.5q0 41 -37.5 60.5t-85.5 33.5l-26 8q-41 -16 -71 -38.5t-30 -63.5zM770 442q0 -41 34 -58t81 -34l24 -8q35 10 65 34.5t30 61.5q0 41 -34 62.5t-81 21.5q-45 0 -82 -19.5t-37 -60.5z" />
<glyph unicode="&#x215e;" horiz-adv-x="1079" d="M23 1006v184h415v-107q-61 -59 -98 -123.5t-56.5 -128t-25.5 -122t-6 -105.5v-8h-117v8q0 55 7.5 113.5t25.5 119t51 122t84 120.5l27 13v8h-203l-16 -94h-88zM59 0l703 1190h106l-704 -1190h-105zM557 152q0 49 29.5 88t77.5 59v8q-41 18 -67 51t-26 76t19.5 75 t51.5 53.5t74 32.5t87 11q92 0 156.5 -41t64.5 -121q0 -47 -28.5 -81.5t-69.5 -53.5v-8q49 -25 75.5 -57.5t26.5 -79.5q0 -43 -20.5 -76t-53 -54.5t-76.5 -31.5t-90 -10q-98 0 -164.5 39t-66.5 121zM662 164q0 -43 35.5 -64.5t86.5 -21.5q49 0 88 21.5t39 64.5 q0 41 -37.5 60.5t-85.5 33.5l-26 8q-41 -16 -70.5 -38.5t-29.5 -63.5zM686 442q0 -41 34 -58t81 -34l24 -8q35 10 65 34.5t30 61.5q0 41 -34 62.5t-81 21.5q-45 0 -82 -19.5t-37 -60.5z" />
<glyph unicode="&#x2160;" horiz-adv-x="514" d="M-6 0v61h145l8 76v885h-153v61h524v-61h-162v-961h162v-61h-524z" />
<glyph unicode="&#x2164;" horiz-adv-x="962" d="M-4 0v61h319l-272 961h-47v61h971v-61h-49l-277 -961h326v-61h-971zM262 1022l203 -786l10 -70h8l11 70l186 712l8 74h-426z" />
<glyph unicode="&#x2169;" horiz-adv-x="1001" d="M-4 0v61h59l285 496l-258 465h-86v61h1010v-61h-91l-258 -465l287 -496h62v-61h-1010zM297 61h414l-187 330l-20 66h-8l-21 -66l-160 -276zM311 1022l162 -307l23 -66h8l20 64l140 258l14 51h-367z" />
<glyph unicode="&#x216c;" horiz-adv-x="768" d="M-4 0v61h135l8 64v897h-143v61h776v-61h-424v-856h361v-105h63v-61h-776z" />
<glyph unicode="&#x216d;" horiz-adv-x="897" d="M-4 0v61h272q-98 53 -155.5 170t-57.5 271q0 182 66.5 318t187.5 202h-313v61h905v-61h-82l-37 -145q-39 16 -88 28.5t-106 12.5q-84 0 -143.5 -31t-99.5 -85t-58.5 -127t-18.5 -159q0 -72 16.5 -135.5t51.5 -111.5t88 -76.5t125 -28.5q49 0 91 11t75 29.5t57.5 41 t40.5 43.5l47 -176q-10 -8 -33.5 -24.5t-50.5 -27.5h125v-61h-905z" />
<glyph unicode="&#x216e;" horiz-adv-x="1177" d="M-4 0v61h203l10 74v785l-100 18v84h-113v61h1182v-61h-320q223 -125 223 -496q0 -168 -54 -285.5t-157 -179.5h308v-61h-1182zM418 162h178q145 0 207.5 98t62.5 268q0 199 -65.5 296.5t-227.5 97.5h-155v-760z" />
<glyph unicode="&#x216f;" horiz-adv-x="1464" d="M-4 0v61h110l13 64l53 897h-176v61h1472v-61h-176v-66l56 -895h120v-61h-1472zM324 61h301l-246 799l-8 64h-11zM516 1022l201 -700l8 -58h10l8 58l203 700h-430zM838 61h301l-37 861h-8l-9 -64z" />
<glyph unicode="&#x25fc;" horiz-adv-x="972" d="M0 0v973h973v-973h-973z" />
<glyph horiz-adv-x="2109" d="M66 633q0 150 36.5 275.5t111.5 215.5t186.5 140.5t263.5 50.5q78 0 149.5 -12.5t108.5 -24.5v-360h-166l-31 198q-45 10 -88 10q-92 0 -156.5 -36.5t-106.5 -101t-60.5 -149.5t-18.5 -182q0 -104 24.5 -194t74.5 -155.5t128 -103.5t185 -38q90 0 174 16.5t149 42.5v1071 h223v-534h476v534h237l-18 -143v-983l104 -18v-152h-323v586h-476v-504q-117 -35 -263 -67.5t-320 -32.5q-145 0 -257 45t-190 130t-117.5 204.5t-39.5 271.5z" />
<glyph horiz-adv-x="1941" d="M66 633q0 150 36.5 274.5t110.5 214.5t185.5 141.5t260.5 51.5q78 0 146.5 -11.5t116.5 -27.5v-356h-166l-31 196q-45 10 -88 10q-88 0 -152.5 -36.5t-106.5 -101t-62.5 -149.5t-20.5 -182q0 -106 24.5 -196t75.5 -155.5t129 -102.5t185 -37q94 0 175 16.5t148 44.5v1155 h328v-145l-125 -23v-335h10q43 53 111.5 84.5t161.5 31.5q145 0 221 -90t71 -237v-510l99 -13v-145h-301v657q0 33 -7.5 64t-24.5 54.5t-45 37.5t-69 14q-117 0 -171 -84t-54 -237v-426q-117 -37 -253 -67.5t-312 -30.5q-291 0 -448.5 172t-157.5 479z" />
<glyph horiz-adv-x="1777" d="M59 485q0 115 31 209t92.5 161t150.5 103.5t206 36.5q66 0 125 -10t98 -20v-285h-158q-6 35 -12 70.5t-10 70.5q-16 4 -31.5 6t-34.5 2q-66 0 -113 -25.5t-77.5 -71.5t-45 -107.5t-14.5 -132.5q0 -158 78 -253.5t242 -95.5q78 0 153.5 13.5t128.5 36.5v1189h328v-145 l-125 -23v-337h10q35 49 109 83.5t164 34.5q145 0 221 -90t72 -237v-510l98 -13v-145h-299v657q0 78 -35 124t-113 46q-61 0 -105 -25.5t-70.5 -67.5t-39 -96t-12.5 -114v-456q-27 -8 -78 -22.5t-117.5 -29t-145.5 -24.5t-161 -10q-248 0 -379 128t-131 375z" />
<glyph horiz-adv-x="1996" d="M66 633q0 150 36.5 274.5t110.5 214.5t185.5 141.5t260.5 51.5q72 0 142.5 -11.5t120.5 -27.5v-356h-166l-31 194q-45 10 -84 10q-90 0 -154.5 -37.5t-107.5 -102t-63.5 -150.5t-20.5 -183q0 -104 27.5 -193t81 -153.5t133 -101.5t182.5 -37q94 0 171 18.5t134 40.5v858 h211v-442h399v442h224l-17 -143v-784l98 -17v-139h-305v485h-399v-407q-119 -37 -251 -66.5t-302 -29.5q-145 0 -260 45t-193.5 129t-120.5 204.5t-42 272.5z" />
<glyph horiz-adv-x="1886" d="M66 532q0 274 132 422t388 148q63 0 122.5 -10.5t100.5 -20.5v-293h-158q-6 37 -11 73t-9 73q-35 6 -68 6q-147 0 -215.5 -102.5t-68.5 -280.5q0 -86 21.5 -159t64.5 -127t106.5 -84t149.5 -30q78 0 155.5 14.5t136.5 37.5v884h209v-442h402v442h223l-16 -133v-794 l98 -19v-137h-305v485h-402v-407q-102 -37 -233 -65.5t-293 -28.5q-127 0 -225.5 38.5t-166 110.5t-103 173.5t-35.5 225.5z" />
<glyph horiz-adv-x="1038" d="M29 0l311 920l-90 18v145h446l258 -925l78 -13v-145h-289v133l-43 172h-356l-47 -147l78 -13v-145h-346zM393 461h269l-109 418l-10 67h-11l-10 -67z" />
<glyph horiz-adv-x="1038" d="M29 0l311 920l-90 18v145h446l258 -925l78 -13v-145h-289v133l-43 172h-356l-47 -147l78 -13v-145h-346zM264 1237l363 223l82 -149l-381 -144zM393 461h269l-109 418l-10 67h-11l-10 -67z" />
<glyph horiz-adv-x="1038" d="M29 0l311 920l-90 18v145h446l258 -925l78 -13v-145h-289v133l-43 172h-356l-47 -147l78 -13v-145h-346zM221 1276l213 172q18 16 35.5 20.5t30.5 4.5q12 0 29.5 -4.5t35.5 -20.5l213 -172l-63 -70l-215 94l-215 -94zM393 461h269l-109 418l-10 67h-11l-10 -67z" />
<glyph horiz-adv-x="1038" d="M29 0l311 920l-90 18v145h446l258 -925l78 -13v-145h-289v133l-43 172h-356l-47 -147l78 -13v-145h-346zM305 1196v254h141v-254h-141zM393 461h269l-109 418l-10 67h-11l-10 -67zM551 1196v254h139v-254h-139z" />
<glyph horiz-adv-x="1437" d="M29 0l288 915l-96 17v151h1077l23 -280h-154l-28 123h-291l26 -293h433l14 -152h-434l28 -323h306l10 116h149l23 -274h-694v119l-13 155h-366l-35 -116l80 -13v-145h-346zM375 430h309l-39 471v43h-129l-4 -43q-39 -127 -69.5 -235.5t-67.5 -235.5z" />
<glyph horiz-adv-x="1038" d="M29 0l311 920l-90 18v145h446l258 -925l78 -13v-145h-289v133l-43 172h-356l-47 -147l78 -13v-145h-346zM272 1311l82 149l363 -223l-64 -70zM393 461h269l-109 418l-10 67h-11l-10 -67z" />
<glyph horiz-adv-x="1038" d="M29 0l311 920l-90 18v145h446l258 -925l78 -13v-145h-289v133l-43 172h-356l-47 -147l78 -13v-145h-346zM313 1319q0 86 57.5 129t151.5 43q92 0 149.5 -41t57.5 -127q0 -84 -58.5 -125t-152.5 -41q-92 0 -148.5 41t-56.5 121zM393 461h269l-109 418l-10 67h-11l-10 -67z M449 1321q0 -70 71 -70q35 0 54.5 18.5t19.5 51.5q0 76 -74 76q-71 0 -71 -76z" />
<glyph horiz-adv-x="1021" d="M29 0l311 920l-90 18v145h446l258 -925l78 -13v-145h-289v133l-43 172h-356l-47 -147l78 -13v-145h-346zM190 1255l19 129q2 2 16.5 9.5t37 15.5t52 14.5t64.5 6.5q63 0 136 -18.5t147 -18.5q45 0 79.5 7t63.5 17l-17 -125q-8 -6 -54 -25.5t-113 -19.5q-66 0 -139.5 17.5 t-145.5 17.5q-47 0 -80 -8t-66 -19zM393 461h269l-109 418l-10 67h-11l-10 -67z" />
<glyph horiz-adv-x="1038" d="M57 938v145h553q70 0 131.5 -16t107.5 -51t72.5 -88.5t26.5 -124.5q0 -86 -35.5 -146.5t-101.5 -89.5v-8q72 -33 115 -102.5t43 -161.5q0 -147 -91.5 -221t-246.5 -74h-490l17 135v785zM365 618h196q82 0 126 40t44 116q0 154 -178 154h-188v-310zM367 158h188 q98 0 147.5 35.5t49.5 123.5q0 80 -48.5 125t-144.5 45h-192v-329z" />
<glyph horiz-adv-x="909" d="M66 512q0 135 34.5 244.5t102 186.5t167 118t226.5 41q66 0 129 -9.5t123 -25.5v-291h-160l-22 152q-16 4 -36 5t-38 1q-80 0 -139.5 -32t-97.5 -88t-57 -133t-19 -167q0 -76 17 -142.5t52 -115.5t90.5 -77.5t128.5 -28.5q49 0 90 12t73 30.5t56.5 40t38.5 41.5l43 -188 q-16 -12 -43.5 -29.5t-69.5 -35t-96.5 -28.5t-121.5 -11q-104 0 -190.5 35.5t-149 103t-97 166t-34.5 225.5z" />
<glyph horiz-adv-x="909" d="M66 512q0 135 34.5 244.5t102 186.5t167 118t226.5 41q123 0 252 -35v-291h-160l-22 148q-37 10 -72 10q-82 0 -141.5 -32t-98.5 -88t-57 -133t-18 -167q0 -76 17 -142.5t52 -115.5t90.5 -77.5t128.5 -28.5q49 0 90 12t73 30.5t56.5 40t38.5 41.5l43 -188 q-16 -12 -40.5 -27.5t-60.5 -31t-84 -27.5t-108 -16v-64q59 0 106.5 -30.5t47.5 -94.5q0 -37 -18.5 -64.5t-48 -46t-67.5 -27.5t-79 -9q-53 0 -88 7t-51 11l16 82q16 -4 44 -8t57 -4q41 0 69.5 13t28.5 48q0 29 -23.5 40t-60.5 11q-16 0 -31.5 -1t-30.5 -3q4 37 11.5 71 t11.5 71q-182 18 -292.5 155.5t-110.5 370.5z" />
<glyph horiz-adv-x="1095" d="M57 938v145h475q498 0 498 -557q0 -252 -118.5 -389t-336.5 -137h-434l17 135v785zM367 162h178q145 0 207.5 98t62.5 268q0 199 -65.5 296.5t-227.5 97.5h-155v-760z" />
<glyph horiz-adv-x="948" d="M57 938v145h789v-278h-154l-18 121h-309v-293h452v-156h-452v-319h325l19 118h149v-276h-717l17 143v777z" />
<glyph horiz-adv-x="948" d="M57 938v145h789v-278h-154l-18 121h-309v-293h452v-156h-452v-319h325l19 118h149v-276h-717l17 143v777zM264 1237l363 223l82 -149l-381 -144z" />
<glyph horiz-adv-x="948" d="M57 938v145h789v-278h-154l-18 121h-309v-293h452v-156h-452v-319h325l19 118h149v-276h-717l17 143v777zM215 1276l213 172q18 16 35.5 20.5t30.5 4.5q12 0 29.5 -4.5t35.5 -20.5l213 -172l-63 -70l-215 94l-215 -94z" />
<glyph horiz-adv-x="948" d="M57 938v145h789v-278h-154l-18 121h-309v-293h452v-156h-452v-319h325l19 118h149v-276h-717l17 143v777zM299 1196v254h141v-254h-141zM545 1196v254h139v-254h-139z" />
<glyph horiz-adv-x="948" d="M57 938v145h789v-278h-154l-18 121h-309v-293h452v-156h-452v-319h325l19 118h149v-276h-717l17 143v777zM264 1311l82 149l363 -223l-64 -70z" />
<glyph horiz-adv-x="1095" d="M27 549l129 24v347l-99 16v147h475q498 0 498 -559q0 -250 -118.5 -387t-336.5 -137h-434l15 125v328l-105 -23zM365 162h180q147 0 208.5 101.5t61.5 266.5q0 193 -65.5 291.5t-225.5 100.5h-159v-304l182 37l26 -114l-208 -45v-334z" />
<glyph horiz-adv-x="894" d="M57 938v145h768v-278h-157l-19 121h-284v-328h421v-156h-421v-280l92 -17v-145h-316l13 135v785z" />
<glyph horiz-adv-x="1052" d="M66 516q0 129 35.5 236.5t106.5 185.5t175 121t244 43q66 0 145.5 -10.5t149.5 -32.5v-273h-154l-25 138q-23 6 -55.5 10t-66.5 4q-92 0 -157 -32t-107 -88t-60 -133t-18 -165q0 -78 12 -147.5t44 -121.5t86 -83t138 -31q49 0 97.5 10.5t80.5 24.5v266h-194v146h387v-523 q-66 -31 -161 -55t-228 -24q-102 0 -189.5 30.5t-151 96t-99 167t-35.5 240.5z" />
<glyph horiz-adv-x="1126" d="M57 938v145h308v-444h399v444h223l-16 -137v-784l98 -17v-145h-305v483h-399v-321l90 -17v-145h-314l17 137v783z" />
<glyph horiz-adv-x="501" d="M57 936v147h308v-925l79 -13v-145h-303l17 137v783z" />
<glyph horiz-adv-x="501" d="M18 1237l363 223l82 -149l-381 -144zM57 936v147h308v-925l79 -13v-145h-303l17 137v783z" />
<glyph horiz-adv-x="501" d="M-45 1276l213 172q18 16 35.5 20.5t29.5 4.5t30 -4.5t36 -20.5l213 -172l-63 -70l-216 94l-215 -94zM57 936v147h308v-925l79 -13v-145h-303l17 137v783z" />
<glyph horiz-adv-x="501" d="M33 1196v254h141v-254h-141zM57 936v147h308v-925l79 -13v-145h-303l17 137v783zM279 1196v254h139v-254h-139z" />
<glyph horiz-adv-x="501" d="M6 1311l82 149l363 -223l-64 -70zM57 936v147h308v-925l79 -13v-145h-303l17 137v783z" />
<glyph horiz-adv-x="634" d="M16 145q10 -2 33 -3t31 -1q106 0 157.5 49.5t51.5 155.5v578l-236 16v143h457l-12 -127v-624q0 -180 -107.5 -265t-279.5 -85q-10 0 -37 1t-33 3z" />
<glyph horiz-adv-x="1011" d="M57 938v145h308v-452h8l20 61l305 391h256l-344 -415l295 -506l92 -17v-145h-235l-287 504h-8l-102 -127v-215l90 -17v-145h-314l17 137v783z" />
<glyph horiz-adv-x="800" d="M57 938v145h308v-925h247l19 145h149v-303h-639l13 135v785z" />
<glyph horiz-adv-x="1486" d="M90 938v145h436l211 -786l8 -59h11l8 59l227 786h342l-12 -137l16 -786l97 -15v-145h-306v920h-10l-10 -62l-266 -858h-185l-254 860l-8 62h-10l-27 -760l88 -17v-145h-315l16 135l39 785z" />
<glyph horiz-adv-x="1138" d="M57 942v141h371l371 -860h8l-8 70l-17 629l-90 16v145h307l-14 -135v-948h-266l-375 870h-10l8 -69l16 -639l93 -17v-145h-310l17 133v791z" />
<glyph horiz-adv-x="1138" d="M57 942v141h371l371 -860h8l-8 70l-17 629l-90 16v145h307l-14 -135v-948h-266l-375 870h-10l8 -69l16 -639l93 -17v-145h-310l17 133v791zM254 1255l18 129q2 2 16.5 9.5t37 15.5t52.5 14.5t64 6.5q63 0 136 -18.5t147 -18.5q45 0 80 7t63 17l-16 -125q-8 -6 -54 -25.5 t-114 -19.5q-66 0 -139.5 17.5t-145.5 17.5q-47 0 -79.5 -8t-65.5 -19z" />
<glyph horiz-adv-x="1077" d="M66 530q0 129 31.5 234.5t94 180.5t154.5 116t211 41q113 0 199 -38t142 -109.5t85 -174t29 -229.5q0 -129 -33 -234.5t-95.5 -179.5t-154.5 -114.5t-211 -40.5q-227 0 -339.5 144t-112.5 404zM281 532q0 -78 12 -147.5t40.5 -122.5t75 -85t115.5 -32q74 0 125 34 t84 89.5t48.5 129t15.5 153.5q0 76 -13.5 146.5t-43 123.5t-77 85t-116.5 32q-74 0 -125 -34t-82 -91t-45 -130t-14 -151z" />
<glyph horiz-adv-x="1077" d="M66 535q0 129 31.5 234t94 179t154.5 114t211 40q113 0 199 -39t142 -110.5t85 -174t29 -231.5t-33 -233.5t-95.5 -178.5t-154.5 -113.5t-211 -39.5q-227 0 -339.5 146.5t-112.5 406.5zM281 535q0 -78 12 -148t39.5 -124t75 -86t116.5 -32q74 0 126 33t84 89.5t47.5 129 t15.5 152.5q0 76 -13.5 146.5t-42 124.5t-77 86t-117.5 32q-76 0 -127 -34t-82 -90t-44 -128.5t-13 -150.5zM315 1237l363 223l82 -149l-381 -144z" />
<glyph horiz-adv-x="1077" d="M66 535q0 129 31.5 234t94 179t154.5 114t211 40q113 0 199 -39t142 -110.5t85 -174t29 -231.5t-33 -233.5t-95.5 -178.5t-154.5 -113.5t-211 -39.5q-227 0 -339.5 146.5t-112.5 406.5zM262 1276l213 172q18 16 35.5 20.5t30.5 4.5q12 0 29.5 -4.5t35.5 -20.5l213 -172 l-63 -70l-215 94l-215 -94zM281 535q0 -78 12 -148t39.5 -124t75 -86t116.5 -32q74 0 126 33t84 89.5t47.5 129t15.5 152.5q0 76 -13.5 146.5t-42 124.5t-77 86t-117.5 32q-76 0 -127 -34t-82 -90t-44 -128.5t-13 -150.5z" />
<glyph horiz-adv-x="1077" d="M66 535q0 129 31.5 234t94 179t154.5 114t211 40q113 0 199 -39t142 -110.5t85 -174t29 -231.5t-33 -233.5t-95.5 -178.5t-154.5 -113.5t-211 -39.5q-227 0 -339.5 146.5t-112.5 406.5zM281 535q0 -78 12 -148t39.5 -124t75 -86t116.5 -32q74 0 126 33t84 89.5t47.5 129 t15.5 152.5q0 76 -13.5 146.5t-42 124.5t-77 86t-117.5 32q-76 0 -127 -34t-82 -90t-44 -128.5t-13 -150.5zM350 1196v254h142v-254h-142zM596 1196v254h139v-254h-139z" />
<glyph horiz-adv-x="1503" d="M66 526q0 268 133 412.5t374 144.5h828v-278h-154l-16 121h-320v-293h457v-158h-457v-317h334l19 118h149v-276h-893q-227 0 -340.5 134t-113.5 392zM279 530q0 -82 13 -150.5t45 -117.5t84 -76.5t132 -27.5h149v768h-114q-86 0 -145.5 -30t-96.5 -82t-52 -125t-15 -159z " />
<glyph horiz-adv-x="1077" d="M66 535q0 129 31.5 234t94 179t154.5 114t211 40q113 0 199 -39t142 -110.5t85 -174t29 -231.5t-33 -233.5t-95.5 -178.5t-154.5 -113.5t-211 -39.5q-227 0 -339.5 146.5t-112.5 406.5zM281 535q0 -78 12 -148t39.5 -124t75 -86t116.5 -32q74 0 126 33t84 89.5t47.5 129 t15.5 152.5q0 76 -13.5 146.5t-42 124.5t-77 86t-117.5 32q-76 0 -127 -34t-82 -90t-44 -128.5t-13 -150.5zM342 1311l82 149l362 -223l-63 -70z" />
<glyph horiz-adv-x="1077" d="M66 530q0 129 31.5 234.5t94 180.5t154.5 116t211 41q121 0 215 -53l72 122h108l-50 -86t-52 -86q82 -70 122 -183.5t40 -264.5q0 -129 -33 -234.5t-95.5 -179.5t-154.5 -114.5t-211 -40.5q-143 0 -242 61l-73 -125h-109l111 182q-139 143 -139 430zM283 573 q0 -80 8 -147.5t35 -124.5l352 590q-53 47 -131 47q-70 0 -120 -29.5t-82 -81t-47 -117t-15 -137.5zM375 205q29 -29 64.5 -44.5t84.5 -15.5q74 0 125 34t84 89.5t48.5 129t15.5 153.5q0 76 -13.5 144.5t-44.5 121.5z" />
<glyph horiz-adv-x="1077" d="M66 535q0 129 31.5 234t94 179t154.5 114t211 40q113 0 199 -39t142 -110.5t85 -174t29 -231.5t-33 -233.5t-95.5 -178.5t-154.5 -113.5t-211 -39.5q-227 0 -339.5 146.5t-112.5 406.5zM240 1255l18 129q2 2 16.5 9.5t37 15.5t52 14.5t64.5 6.5q63 0 136 -18.5t147 -18.5 q45 0 80.5 7t62.5 17l-16 -125q-8 -6 -54.5 -25.5t-113.5 -19.5q-66 0 -139.5 17.5t-145.5 17.5q-47 0 -80 -8t-65 -19zM281 535q0 -78 12 -148t39.5 -124t75 -86t116.5 -32q74 0 126 33t84 89.5t47.5 129t15.5 152.5q0 76 -13.5 146.5t-42 124.5t-77 86t-117.5 32 q-76 0 -127 -34t-82 -90t-44 -128.5t-13 -150.5z" />
<glyph horiz-adv-x="995" d="M57 938v145h504q180 0 283.5 -84t103.5 -260q0 -84 -27.5 -146.5t-77.5 -103t-119 -60t-151 -19.5h-211v-246l111 -21v-143h-330l15 135v785zM362 565h158q102 0 156.5 41t54.5 139q0 102 -57.5 142.5t-157.5 40.5h-154v-363z" />
<glyph horiz-adv-x="1077" d="M66 530q0 129 31.5 234.5t94 180.5t154.5 116t211 41q113 0 199 -38t142 -109.5t85 -174t29 -229.5q0 -199 -75 -336t-216 -197l80 -217h-176l-66 183q-10 0 -20.5 -1t-20.5 -1q-227 0 -339.5 144t-112.5 404zM281 532q0 -74 11 -141t36.5 -119.5t67.5 -86t104 -40.5 l-56 154h177l41 -113q72 51 103.5 149.5t31.5 215.5q0 76 -13.5 146.5t-43 123.5t-77 85t-116.5 32q-74 0 -125 -34t-82 -91t-45 -130t-14 -151z" />
<glyph horiz-adv-x="1052" d="M57 938v145h539q80 0 146.5 -17t114.5 -54t74.5 -94.5t26.5 -137.5q0 -111 -51 -175t-131 -91v-8q29 -12 48.5 -27.5t33.5 -39t25.5 -58.5t23.5 -86l33 -137l78 -13v-145h-258l-68 289q-12 49 -27.5 79.5t-38 47t-55 21.5t-79.5 5h-132v-284l84 -13v-145h-303l17 135v785 zM360 592h185q96 0 147 43t51 125q0 84 -49 126t-141 42h-193v-336z" />
<glyph horiz-adv-x="940" d="M100 12v287h158l25 -154q23 -4 54.5 -6t57.5 -2q45 0 86 8.5t72 26.5t49.5 46t18.5 69q0 51 -38 85t-95.5 61.5t-123 55t-123 65.5t-95 92t-37.5 136t37.5 142.5t101 100.5t143.5 58.5t166 18.5q66 0 136.5 -9.5t131.5 -23.5v-289h-159l-27 162q-12 2 -33.5 3t-44.5 1 q-43 0 -85 -7t-74.5 -24.5t-53 -45t-20.5 -68.5q0 -51 37.5 -85t95 -61.5t123 -54.5t123 -64.5t95.5 -93t38 -137.5q0 -84 -37 -145.5t-98.5 -101.5t-142.5 -58t-171 -18q-66 0 -145.5 7t-145.5 23z" />
<glyph horiz-adv-x="858" d="M29 780v303h800v-303h-153l-19 146h-122v-926h-222l11 137v789h-123l-19 -146h-153z" />
<glyph horiz-adv-x="995" d="M57 938v145h305v-161h197q88 0 160 -20.5t123 -61.5t78.5 -105.5t27.5 -152.5q0 -86 -27.5 -148.5t-77.5 -103.5t-119 -61.5t-151 -20.5h-211v-86l97 -17v-145h-320l17 92v828zM362 406h160q104 0 157.5 40.5t53.5 139.5q0 102 -59.5 142t-159.5 40h-152v-362z" />
<glyph horiz-adv-x="1095" d="M49 938v145h303v-698q0 -119 41 -180.5t154 -61.5q117 0 165 63.5t48 182.5v533l-94 16v145h303v-708q0 -197 -115 -295t-313 -98q-401 0 -396 389v549z" />
<glyph horiz-adv-x="1095" d="M49 938v145h303v-698q0 -119 41 -180.5t154 -61.5q117 0 165 63.5t48 182.5v533l-94 16v145h303v-708q0 -197 -115 -295t-313 -98q-401 0 -396 389v549zM326 1237l362 223l82 -149l-381 -144z" />
<glyph horiz-adv-x="1095" d="M49 938v145h303v-698q0 -119 41 -180.5t154 -61.5q117 0 165 63.5t48 182.5v533l-94 16v145h303v-708q0 -197 -115 -295t-313 -98q-401 0 -396 389v549zM254 1276l213 172q18 16 35.5 20.5t29.5 4.5t30 -4.5t36 -20.5l213 -172l-63 -70l-216 94l-215 -94z" />
<glyph horiz-adv-x="1095" d="M49 938v145h303v-698q0 -119 41 -180.5t154 -61.5q117 0 165 63.5t48 182.5v533l-94 16v145h303v-708q0 -197 -115 -295t-313 -98q-401 0 -396 389v549zM358 1196v254h142v-254h-142zM604 1196v254h139v-254h-139z" />
<glyph horiz-adv-x="1095" d="M49 938v145h303v-698q0 -119 41 -180.5t154 -61.5q117 0 165 63.5t48 182.5v533l-94 16v145h303v-708q0 -197 -115 -295t-313 -98q-401 0 -396 389v549zM315 1311l82 149l363 -223l-64 -70z" />
<glyph horiz-adv-x="958" d="M6 938v145h250l195 -858l8 -67h8l10 69l195 699l-72 12v145h330l-320 -1083h-295l-239 926z" />
<glyph horiz-adv-x="1538" d="M12 938v145h258l172 -921h11v69l170 709v143h280l164 -852v-69h10l180 764l-69 12v145h321l-278 -1083h-293l-152 813l-8 76h-10l-8 -76l-185 -813h-290l-207 926z" />
<glyph horiz-adv-x="964" d="M20 0l308 578l-197 340l-104 20v145h254l180 -348l22 -65h9l20 63l131 219l45 131h250l-293 -505l213 -418l103 -17v-143h-254l-195 410l-20 65h-9l-20 -65l-131 -252l82 -13v-145h-394z" />
<glyph horiz-adv-x="923" d="M6 938v145h244l176 -462l14 -68h9l12 68l151 305l-73 12v145h356l-350 -688v-395h-289v145l78 13v237l-230 525z" />
<glyph horiz-adv-x="923" d="M6 938v145h244l176 -462l14 -68h9l12 68l151 305l-73 12v145h356l-350 -688v-395h-289v145l78 13v237l-230 525zM225 1237l363 223l82 -149l-381 -144z" />
<glyph horiz-adv-x="923" d="M6 938v145h244l176 -462l14 -68h9l12 68l151 305l-73 12v145h356l-350 -688v-395h-289v145l78 13v237l-230 525zM242 1196v254h141v-254h-141zM487 1196v254h140v-254h-140z" />
<glyph horiz-adv-x="894" d="M61 0v182l496 701l47 32l-2 11h-352l-21 -121h-151v278h741v-180l-495 -702l-52 -33l2 -10h388l22 118h150v-276h-773z" />
<glyph horiz-adv-x="600" d="M39 758q0 57 23.5 96t64.5 63.5t95 35t114 10.5h61q0 80 -33.5 109.5t-113.5 29.5q-27 0 -57 -6l-17 -86h-98v170q35 8 85 16t101 8q137 0 198.5 -55t61.5 -195v-260l54 -6v-92h-142l-20 84h-8q-29 -45 -75 -70.5t-112 -25.5q-82 0 -132 46t-50 128zM166 770 q0 -41 24.5 -62.5t61.5 -21.5q80 0 112.5 51t32.5 144h-47q-74 0 -129 -21.5t-55 -89.5z" />
<glyph horiz-adv-x="598" d="M61 596l9 88v752h194v-93l-67 -10v-211h8q2 4 12 17.5t28.5 27t46 23.5t64.5 10q104 0 159.5 -69.5t55.5 -184.5q0 -162 -81.5 -261t-264.5 -99q-37 0 -80 3t-84 7zM193 807q0 -14 1 -51t1 -62q8 -2 16 -2q8 -2 16.5 -2h18.5q55 0 92 19.5t59.5 52.5t33.5 77t11 95 q0 66 -25.5 114t-84.5 48q-41 0 -67.5 -22.5t-42 -60.5t-22.5 -91.5t-7 -114.5z" />
<glyph horiz-adv-x="497" d="M29 877q0 145 77.5 235t225.5 90q53 0 94 -6t51 -10v-180h-96l-14 90q-16 4 -41 4q-88 -4 -128 -66.5t-40 -154.5q0 -80 37.5 -135.5t115.5 -55.5q53 0 93 21.5t63 50.5l20 -111q-6 -6 -21 -16t-40 -20.5t-58.5 -18.5t-72.5 -8q-127 0 -196.5 77.5t-69.5 213.5z" />
<glyph horiz-adv-x="606" d="M29 842q0 162 83 260t248 98h43v137l-65 11v90h197l-7 -97v-647l56 -8v-90h-135l-27 82h-8q-6 -10 -20.5 -25.5t-36 -31t-52.5 -25.5t-69 -10q-102 0 -154.5 70.5t-52.5 185.5zM158 854q0 -66 23.5 -116t80.5 -50q43 0 70.5 22.5t45 60.5t24 91t6.5 115q0 23 -1 57.5 t-1 57.5q-8 0 -17 2q-8 0 -15 1t-16 1q-109 0 -154.5 -70t-45.5 -172z" />
<glyph horiz-adv-x="569" d="M29 883q0 68 18.5 126t53 101t86 67.5t116.5 24.5q66 0 112 -21.5t73.5 -60.5t40 -91t12.5 -114v-47h-381q2 -98 50 -139t142 -41h27.5t28.5 4l14 74h94v-160q-35 -8 -87 -15t-95 -7q-150 0 -227.5 76.5t-77.5 222.5zM164 948h246l6 6q0 68 -25.5 108t-85.5 40 q-61 0 -97 -40t-44 -114z" />
<glyph horiz-adv-x="278" d="M27 1100v92h188v-596h-139l8 90l4 406zM55 1378l86 86l84 -86l-84 -88z" />
<glyph horiz-adv-x="282" d="M27 1348v90h186v-840h-137l14 88v651z" />
<glyph horiz-adv-x="968" d="M27 1100v90h147l23 -78h8q23 35 64.5 62.5t105.5 27.5q59 0 99 -25.5t56 -66.5h9q27 37 67.5 64.5t104.5 27.5q86 0 132 -46t42 -138v-326l59 -8v-88h-186v397q0 104 -86 105q-66 0 -93.5 -49.5t-27.5 -128.5v-324h-129v397q0 49 -20.5 77t-65.5 28q-66 0 -93.5 -49.5 t-27.5 -128.5v-324h-127v494z" />
<glyph horiz-adv-x="589" d="M27 891q0 137 71.5 224t206.5 87t196.5 -83t61.5 -222q0 -141 -70.5 -226t-209.5 -85q-135 0 -195.5 84t-60.5 221zM158 891q0 -80 28.5 -140.5t102.5 -60.5q37 0 64.5 16.5t44 45t24.5 66.5t8 79q0 39 -6 76t-21.5 64.5t-41 44t-62.5 16.5q-39 0 -65.5 -17.5t-44 -46 t-24.5 -65.5t-7 -78z" />
<glyph horiz-adv-x="411" d="M27 1100v90h141l14 -82h8q29 47 80.5 69.5t110.5 22.5l22 -119q-10 4 -24 5t-25 1q-90 0 -120.5 -56t-30.5 -144v-197l47 -6v-88h-170v496z" />
<glyph horiz-adv-x="495" d="M37 1026q0 45 21.5 79t58.5 54.5t83 30.5t95 10q43 0 83 -5t71 -11v-172h-99l-16 88q-14 2 -24.5 2h-18.5q-45 0 -84 -13.5t-39 -54.5q0 -37 46 -57.5t101.5 -45t101.5 -61t46 -104.5q0 -51 -22.5 -85t-60.5 -55.5t-87 -30.5t-100 -9q-41 0 -87.5 8t-66.5 14v168h96 l19 -90q10 -2 18 -2h18q25 0 50.5 3t45 11.5t33 23.5t13.5 38q0 25 -21.5 42t-54.5 32.5t-72 31t-71.5 37t-54 51t-21.5 72.5z" />
<glyph horiz-adv-x="358" d="M14 1092v88l72 12l16 129l111 63v-194h129v-98h-129v-306q0 -104 102 -104h19.5t21.5 4l-18 -96q-4 -2 -16.5 -4t-26.5 -2q-98 0 -153.5 45t-55.5 151v312h-72z" />
<glyph horiz-adv-x="571" d="M39 53q0 141 65.5 226.5t188.5 85.5t180 -80t57 -222q0 -141 -67.5 -227t-190.5 -86q-121 0 -177 81t-56 222zM152 53q0 -43 6 -81t21.5 -67.5t39 -47t60.5 -17.5q35 0 60.5 19.5t42.5 50.5t25.5 70.5t8.5 82.5q0 41 -6.5 79t-21.5 68t-39.5 47t-59.5 17q-37 0 -63.5 -19 t-43 -50t-23.5 -71t-7 -81z" />
<glyph horiz-adv-x="509" d="M49 231q49 10 100.5 41t90.5 82h112l-12 -504h135v-90h-409v90h159l11 379l-7 2l-20 -36q-29 -23 -67 -38.5t-74 -25.5z" />
<glyph horiz-adv-x="528" d="M45 -129q82 51 140.5 90t95 72t53 62.5t16.5 64.5q0 55 -41 84.5t-108 29.5q-10 0 -21.5 -1t-21.5 -3l-21 -104h-88v180q39 10 83 16.5t79 6.5q49 0 95 -13.5t82 -39t56.5 -63.5t20.5 -87q0 -45 -14.5 -82t-46 -73t-82 -72.5t-119.5 -79.5l2 -6h213l82 6v-99h-455v111z " />
<glyph horiz-adv-x="534" d="M41 -131q18 -6 69.5 -17.5t100.5 -11.5q23 0 50.5 3t51 12.5t40 27t16.5 45.5q0 57 -48.5 74.5t-109.5 17.5h-84v80h84q59 0 102 17.5t43 70.5q0 49 -42 70t-95 21q-14 0 -32.5 -2.5t-32.5 -6.5l-17 -86h-88v162q33 8 81 14.5t97 6.5t92 -9.5t77 -29t53.5 -51t19.5 -76.5 q0 -96 -86 -133v-9q41 -18 71.5 -50t30.5 -87q0 -47 -23.5 -79.5t-62.5 -54t-87 -31t-99 -9.5q-43 0 -88 6t-68 13z" />
<glyph horiz-adv-x="557" d="M43 -18l250 370h160v-391h67v-88h-67v-115h-111v115h-299v109zM131 -33v-6h211v272l12 35h-8l-188 -286z" />
<glyph horiz-adv-x="512" d="M49 -68h90l13 -86q10 -2 23 -3t24 -1q66 0 112.5 23.5t46.5 77.5q0 33 -18 54t-48 33.5t-68 16.5t-77 4h-65v303h362v-98l-84 6h-170v-131q55 0 107.5 -11t91.5 -35t62.5 -60.5t23.5 -90.5q0 -49 -21.5 -84.5t-57.5 -57t-83 -32t-96 -10.5q-41 0 -82 4t-86 13v165z" />
<glyph horiz-adv-x="548" d="M41 53q0 135 70.5 223.5t222.5 88.5q37 0 76 -5.5t73 -13.5v-164h-90l-14 88q-6 0 -18.5 1t-20.5 1q-168 0 -180 -157q16 2 43.5 4t44.5 2q57 0 105 -11.5t84 -34t56.5 -57t20.5 -84.5q0 -86 -63.5 -135t-161.5 -49q-133 0 -190.5 86t-57.5 217zM156 41q0 -43 6 -80 t21.5 -64.5t42 -43t67.5 -15.5q47 0 77.5 26.5t30.5 69.5q0 63 -47 88t-116 25q-43 0 -82 -6z" />
<glyph horiz-adv-x="471" d="M23 170v184h415v-106q-61 -59 -98 -124t-56.5 -128.5t-25.5 -121.5t-6 -105v-9h-117v9q0 55 7.5 113.5t25.5 118.5t51 121.5t84 121.5l27 12v8h-203l-16 -94h-88z" />
<glyph horiz-adv-x="569" d="M49 -90q0 49 30 88t77 59v9q-41 18 -67 51t-26 76t19.5 74.5t51.5 53t74 33t87 11.5q92 0 156.5 -41t64.5 -121q0 -47 -28.5 -82t-69.5 -53v-9q49 -25 75.5 -57.5t26.5 -79.5q0 -43 -20.5 -75.5t-53 -54t-76.5 -32t-89 -10.5q-98 0 -165 39t-67 121zM154 -78 q0 -43 35.5 -64.5t86.5 -21.5q49 0 88 21.5t39 64.5q0 41 -37.5 60.5t-84.5 33.5l-27 9q-41 -16 -70.5 -39t-29.5 -64zM178 201q0 -41 34 -58.5t81 -33.5l24 -9q35 10 65 35t30 62q0 41 -34 62.5t-81 21.5q-45 0 -82 -19.5t-37 -60.5z" />
<glyph horiz-adv-x="548" d="M33 182q0 86 63.5 135.5t163.5 49.5q66 0 113 -22.5t76.5 -63.5t44 -96.5t14.5 -121.5q0 -139 -70.5 -226t-222.5 -87q-41 0 -80 5t-74 14v163h91l14 -88q16 -4 43 -4q82 0 127 41t51 119q-29 -4 -50.5 -5t-39.5 -1q-113 0 -188.5 45t-75.5 143zM143 180 q0 -63 48.5 -86.5t115.5 -23.5q45 0 86 6q-2 43 -8 80t-21.5 64.5t-42 43t-67.5 15.5q-49 0 -80 -27t-31 -72z" />
<glyph horiz-adv-x="337" d="M68 176q0 125 39.5 231.5t93.5 192.5l67 -43q-43 -74 -75.5 -167t-32.5 -214q0 -123 32.5 -214t75.5 -165l-69 -45q-53 86 -92 193.5t-39 230.5z" />
<glyph horiz-adv-x="337" d="M68 -203q43 74 75.5 165t32.5 214q0 121 -32.5 214t-75.5 167l67 43q53 -86 93 -192.5t40 -231.5q0 -123 -39 -230.5t-92 -193.5z" />
<glyph horiz-adv-x="1011" d="M57 532q0 129 31 233.5t90.5 179.5t146.5 116t197 41q111 0 192 -38t134 -108.5t79.5 -173t26.5 -229.5q0 -129 -31.5 -233.5t-93 -180.5t-148.5 -116.5t-198 -40.5t-190.5 37.5t-131.5 109.5t-78 173t-26 230zM264 535q0 -78 11.5 -148t38 -124t71.5 -86t111 -32 q63 0 110 35t78 91.5t46 129t15 150.5q0 76 -12 145.5t-39.5 122.5t-71.5 85t-110 32q-68 0 -115 -34t-76.5 -90t-43 -128.5t-13.5 -148.5z" />
<glyph horiz-adv-x="868" d="M53 860q90 20 183.5 75.5t162.5 147.5h209l-26 -917h247v-166h-747v166h291l18 690l-10 2l-35 -63q-53 -43 -123.5 -72t-136.5 -47z" />
<glyph horiz-adv-x="940" d="M74 0v199q150 92 255 162.5t171.5 130t96.5 116t30 117.5q0 98 -74 151.5t-197 53.5q-16 0 -39.5 -1t-40.5 -5l-34 -189h-162v328q72 18 153.5 28.5t141.5 10.5q92 0 175 -23.5t146.5 -69.5t101.5 -115t38 -159q0 -82 -27 -149.5t-83 -132t-146.5 -130t-219.5 -145.5 l5 -12h387l145 12v-178h-823z" />
<glyph horiz-adv-x="935" d="M63 197q16 -6 50 -14.5t76 -15.5t90.5 -13.5t93.5 -6.5q39 0 88 6.5t92 23t72.5 48t29.5 84.5q0 49 -23.5 81t-62.5 50.5t-90 24.5t-104 6h-154v152h152q51 0 98 7t83 24.5t57.5 47t21.5 76.5t-22.5 79t-58.5 50.5t-81 25.5t-92 7q-29 0 -56.5 -4t-56.5 -8l-26 -158h-162 v295q63 14 148 25.5t171 11.5q88 0 169 -16.5t142.5 -52.5t97.5 -94t36 -142q0 -82 -40 -143.5t-122 -96.5v-8q80 -29 133 -90.5t53 -159.5q0 -86 -42 -146.5t-110.5 -98.5t-156.5 -55t-178 -17q-84 0 -164 11t-119 21z" />
<glyph horiz-adv-x="970" d="M39 211v197l455 675h288v-712h125v-160h-125v-211h-200v211h-543zM199 379l2 -8h381v495l20 64h-12l-342 -522z" />
<glyph horiz-adv-x="909" d="M76 12v305h162l24 -161q39 -6 86 -6q59 0 112.5 10t93.5 32.5t63.5 57.5t23.5 86q0 59 -34 97t-88 60.5t-123.5 30.5t-143.5 8h-117v551h658v-178l-146 13h-313v-242q100 0 193.5 -19.5t166 -61.5t115.5 -109.5t43 -163.5q0 -92 -39 -157t-104.5 -106t-150.5 -59 t-179 -18q-141 0 -303 30z" />
<glyph horiz-adv-x="968" d="M57 532q0 125 32 229.5t97.5 180.5t166 118t237.5 42q72 0 141.5 -10.5t132.5 -24.5v-297h-162l-26 160q-12 2 -36 4t-40 2q-150 0 -232.5 -74t-93.5 -215q47 4 88 7t76 3q102 0 190.5 -20.5t153 -61t101.5 -105t37 -153.5q0 -78 -31 -140t-85 -105t-130 -66.5 t-166 -23.5q-121 0 -206 40.5t-139 114.5t-80 175.5t-26 219.5zM264 510q2 -76 13.5 -143.5t39 -117.5t75.5 -79t124 -29q90 0 144.5 48.5t54.5 132.5q0 55 -23.5 93t-63.5 61.5t-93.5 33.5t-114.5 10q-45 0 -82 -3t-74 -7z" />
<glyph horiz-adv-x="825" d="M31 748v335h760v-192q-115 -111 -182.5 -228.5t-102.5 -233.5t-46 -221.5t-11 -191.5v-16h-211v16q0 98 12 206t46 218.5t93.5 222t151.5 220.5l51 26v11h-371l-28 -172h-162z" />
<glyph horiz-adv-x="1001" d="M74 274q0 90 54 160t140 111v8q-74 35 -121 96.5t-47 141.5q0 78 35 136t93.5 97t134 58.5t159.5 19.5q82 0 155 -18.5t128 -55.5t87 -92t32 -129q0 -86 -51.5 -149.5t-127.5 -96.5v-8q90 -45 138.5 -106.5t48.5 -153.5q0 -80 -37 -138.5t-97.5 -96.5t-139 -57 t-164.5 -19q-88 0 -165 17t-133.5 54t-89 92.5t-32.5 128.5zM264 295q0 -78 64.5 -117t158.5 -39q45 0 87 9.5t75 29t52.5 48t19.5 67.5q0 37 -18.5 63.5t-50 47t-72.5 36t-86 29.5l-48 14q-74 -29 -128 -72.5t-54 -115.5zM309 801q0 -37 17.5 -63.5t46 -45t66.5 -32 t79 -25.5l45 -14q31 8 61.5 24.5t54 39t39 50t15.5 62.5q0 76 -62.5 113.5t-146.5 37.5q-41 0 -78.5 -9t-68.5 -27.5t-49.5 -46t-18.5 -64.5z" />
<glyph horiz-adv-x="968" d="M49 766q0 76 31 138.5t85 106.5t130 67.5t166 23.5q119 0 205 -42t140 -116t79.5 -174t25.5 -219q0 -125 -31.5 -229.5t-97 -180t-166 -117.5t-237.5 -42q-72 0 -144.5 9t-132.5 23v299h162l27 -161q12 -2 35.5 -4.5t42.5 -2.5q150 0 231.5 75t91.5 216q-53 -6 -91 -8 t-73 -2q-102 0 -189 19.5t-151.5 61.5t-101.5 105.5t-37 153.5zM252 762q0 -55 23.5 -94t63.5 -62.5t93 -34t115 -10.5q84 0 158 12q-2 76 -14.5 143.5t-40 118t-76 79t-121.5 28.5q-90 0 -145.5 -49t-55.5 -131z" />
<glyph horiz-adv-x="571" d="M39 238q0 141 65.5 226t188.5 85t180 -80t57 -221t-67.5 -227.5t-190.5 -86.5q-121 0 -177 81.5t-56 222.5zM152 238q0 -43 6 -81t21.5 -68t39 -47t60.5 -17q35 0 60.5 19t42.5 50t25.5 71t8.5 83q0 41 -6.5 79t-21.5 67.5t-39.5 47t-59.5 17.5q-37 0 -63.5 -19.5 t-43 -50.5t-23.5 -70.5t-7 -80.5z" />
<glyph horiz-adv-x="509" d="M49 416q49 10 100.5 40.5t90.5 82.5h112l-12 -504h135v-90h-409v90h159l11 379l-7 2l-20 -37q-29 -23 -67 -38t-74 -26z" />
<glyph horiz-adv-x="528" d="M45 -55v110q82 51 140.5 90t95 72t53 62.5t16.5 64.5q0 55 -41 85t-108 30q-10 0 -21.5 -1t-21.5 -3l-21 -105h-88v180q39 10 83 16.5t79 6.5q49 0 95 -13.5t82 -39t56.5 -63.5t20.5 -87q0 -45 -14.5 -82t-46 -72.5t-82 -72.5t-119.5 -80l2 -6h213l82 6v-98h-455z" />
<glyph horiz-adv-x="534" d="M41 53q18 -6 69.5 -17t100.5 -11q23 0 50.5 3t51 12t40 26.5t16.5 46.5q0 57 -48.5 74.5t-109.5 17.5h-84v80h84q59 0 102 17t43 71q0 49 -42 69.5t-95 20.5q-14 0 -32.5 -2t-32.5 -6l-17 -86h-88v161q33 8 81 14.5t97 6.5t92 -9.5t77 -28.5t53.5 -51t19.5 -77 q0 -96 -86 -133v-8q41 -18 71.5 -50t30.5 -88q0 -47 -23.5 -79.5t-62.5 -54t-87 -31t-99 -9.5q-43 0 -88 6.5t-68 12.5z" />
<glyph horiz-adv-x="557" d="M43 57v109l250 371h160v-392h67v-88h-67v-114h-111v114h-299zM131 145h211v273l12 35h-8l-188 -287l-27 -14v-7z" />
<glyph horiz-adv-x="512" d="M49 -49v166h90l13 -86q10 -2 23 -3t24 -1q66 0 112.5 23.5t46.5 76.5q0 33 -18 54.5t-48 33.5t-68 16.5t-77 4.5h-65v303h362v-99l-84 6h-170v-131q55 0 107.5 -11t91.5 -34.5t62.5 -60.5t23.5 -90q0 -49 -21.5 -85t-57.5 -57.5t-83 -32t-96 -10.5q-41 0 -82 4.5 t-86 12.5z" />
<glyph horiz-adv-x="548" d="M41 238q0 135 70.5 223t222.5 88q37 0 76 -5t73 -14v-163h-90l-14 88q-6 0 -18.5 1t-20.5 1q-168 0 -180 -158q16 2 43.5 4t44.5 2q57 0 105 -11t84 -33.5t56.5 -57.5t20.5 -84q0 -86 -63.5 -135.5t-161.5 -49.5q-133 0 -190.5 86t-57.5 218zM156 225q0 -43 6 -79.5 t21.5 -64.5t42 -43t67.5 -15q47 0 77.5 26.5t30.5 69.5q0 63 -47 87.5t-116 24.5q-43 0 -82 -6z" />
<glyph horiz-adv-x="471" d="M23 354v185h415v-107q-61 -59 -98 -123.5t-56.5 -128t-25.5 -122t-6 -105.5v-8h-117v8q0 55 7.5 113.5t25.5 119t51 122t84 120.5l27 12v9h-203l-16 -95h-88z" />
<glyph horiz-adv-x="569" d="M49 94q0 49 30 88t77 60v8q-41 18 -67 51t-26 76t19.5 74.5t51.5 53t74 33t87 11.5q92 0 156.5 -41t64.5 -121q0 -47 -28.5 -82t-69.5 -53v-8q49 -25 75.5 -57.5t26.5 -80.5q0 -43 -20.5 -75.5t-53 -54t-76.5 -32t-89 -10.5q-98 0 -165 39t-67 121zM154 106 q0 -43 35.5 -64.5t86.5 -21.5q49 0 88 21.5t39 64.5q0 41 -37.5 60.5t-84.5 34.5l-27 8q-41 -16 -70.5 -39t-29.5 -64zM178 385q0 -41 34 -58.5t81 -33.5l24 -8q35 10 65 34.5t30 61.5q0 41 -34 62.5t-81 21.5q-45 0 -82 -19.5t-37 -60.5z" />
<glyph horiz-adv-x="548" d="M33 367q0 86 63.5 135t163.5 49q66 0 113 -22.5t76.5 -63.5t44 -96.5t14.5 -120.5q0 -139 -70.5 -226.5t-222.5 -87.5q-41 0 -80 5.5t-74 13.5v164h91l14 -88q16 -4 43 -4q82 0 127 40.5t51 118.5q-29 -4 -50.5 -5t-39.5 -1q-113 0 -188.5 45t-75.5 144zM143 365 q0 -63 48.5 -87t115.5 -24q45 0 86 6q-2 43 -8 80t-21.5 64.5t-42 43t-67.5 15.5q-49 0 -80 -26.5t-31 -71.5z" />
<glyph horiz-adv-x="571" d="M39 889q0 141 65.5 226t188.5 85t180 -80t57 -221t-67.5 -227t-190.5 -86q-121 0 -177 81t-56 222zM152 889q0 -43 6 -81t21.5 -67.5t39 -47t60.5 -17.5q35 0 60.5 19.5t42.5 50t25.5 70.5t8.5 83q0 41 -6.5 79t-21.5 67.5t-39.5 47t-59.5 17.5q-37 0 -63.5 -19.5 t-43 -50t-23.5 -70.5t-7 -81z" />
<glyph horiz-adv-x="509" d="M49 1067q49 10 100.5 41t90.5 82h112l-12 -504h135v-90h-409v90h159l11 379l-7 2l-20 -37q-29 -23 -67 -38t-74 -25z" />
<glyph horiz-adv-x="528" d="M45 594v111q82 51 140.5 90t95 71.5t53 62t16.5 64.5q0 55 -41 85t-108 30q-10 0 -21.5 -1t-21.5 -3l-21 -105h-88v181q39 10 83 16t79 6q49 0 95 -13t82 -39t56.5 -63.5t20.5 -87.5q0 -45 -14.5 -81.5t-46 -72.5t-82 -73t-119.5 -80l2 -6h213l82 6v-98h-455z" />
<glyph horiz-adv-x="534" d="M45 702q18 -6 69.5 -17t100.5 -11q23 0 50.5 3t51 12t40 26.5t16.5 46.5q0 57 -48.5 74.5t-109.5 17.5h-84v80h84q59 0 102 17.5t43 70.5q0 49 -42 69.5t-95 20.5q-14 0 -32.5 -2t-32.5 -6l-17 -86h-88v162q33 8 81 14t97 6t92.5 -9t77 -28.5t53 -51.5t19.5 -77 q0 -96 -86 -133v-8q41 -18 71.5 -50t30.5 -87q0 -47 -23.5 -80t-62 -54.5t-87 -30.5t-99.5 -9q-43 0 -88 6t-68 12z" />
<glyph horiz-adv-x="557" d="M43 711v108l250 371h160v-391h67v-88h-67v-115h-111v115h-299zM131 799h211v272l12 35h-8l-188 -287l-27 -14v-6z" />
<glyph horiz-adv-x="512" d="M49 602v166h90l13 -86q10 -2 23 -3t24 -1q66 0 112.5 23.5t46.5 76.5q0 33 -18 54.5t-48 34t-68 16.5t-77 4h-65v303h362v-98l-84 6h-170v-131q55 0 107.5 -11.5t91.5 -35t62.5 -60.5t23.5 -90q0 -49 -21.5 -85t-57.5 -57.5t-83 -31.5t-96 -10q-41 0 -82 4t-86 12z" />
<glyph horiz-adv-x="548" d="M41 889q0 135 70.5 223t222.5 88q37 0 76 -5t73 -13v-164h-90l-14 88q-6 0 -18.5 1t-20.5 1q-168 0 -180 -158q16 2 43.5 4t44.5 2q57 0 105 -11t84 -33.5t56.5 -57.5t20.5 -84q0 -86 -63.5 -135t-161.5 -49q-133 0 -190.5 86t-57.5 217zM156 877q0 -43 6 -80t21.5 -64.5 t42 -43t67.5 -15.5q47 0 77.5 26.5t30.5 69.5q0 63 -47 88t-116 25q-43 0 -82 -6z" />
<glyph horiz-adv-x="471" d="M23 1006v184h415v-107q-61 -59 -98 -123.5t-56.5 -128t-25.5 -122t-6 -105.5v-8h-117v8q0 55 7.5 113.5t25.5 119t51 122t84 120.5l27 13v8h-203l-16 -94h-88z" />
<glyph horiz-adv-x="569" d="M49 748q0 49 30 87.5t77 59.5v8q-41 18 -67 51t-26 76t19.5 75t51.5 53.5t74 32.5t87 11q92 0 156.5 -41t64.5 -121q0 -47 -28.5 -81.5t-69.5 -53.5v-8q49 -25 75.5 -57.5t26.5 -79.5q0 -43 -20.5 -76t-53 -54.5t-76.5 -31.5t-89 -10q-98 0 -165 39t-67 121zM154 760 q0 -43 35.5 -64.5t86.5 -21.5q49 0 88 21.5t39 64.5q0 41 -37.5 60.5t-84.5 33.5l-27 8q-41 -16 -70.5 -38.5t-29.5 -63.5zM178 1038q0 -41 34 -58t81 -34l24 -8q35 10 65 34.5t30 61.5q0 41 -34 62.5t-81 21.5q-45 0 -82 -19.5t-37 -60.5z" />
<glyph horiz-adv-x="548" d="M33 1016q0 86 63.5 135t163.5 49q66 0 113 -22.5t76.5 -63.5t44 -96t14.5 -121q0 -139 -70.5 -226t-222.5 -87q-41 0 -80 5t-74 13v164h91l14 -88q16 -4 43 -4q82 0 127 41t51 119q-29 -4 -50.5 -5.5t-39.5 -1.5q-113 0 -188.5 45.5t-75.5 143.5zM143 1014 q0 -63 48.5 -87t115.5 -24q45 0 86 6q-2 43 -8 80t-21.5 64.5t-42 43t-67.5 15.5q-49 0 -80 -26.5t-31 -71.5z" />
<glyph horiz-adv-x="393" d="M96 1202q0 51 31 82t80 31t76.5 -30t27.5 -79q0 -53 -29.5 -82.5t-78.5 -29.5t-78 28.5t-29 79.5z" />
<glyph horiz-adv-x="1187" d="M70 315q0 96 38.5 167t108.5 130q-43 57 -60.5 106.5t-17.5 102.5q0 59 23.5 110.5t65.5 89.5t101.5 59.5t133.5 21.5q57 0 108.5 -12.5t90 -38t61 -65.5t25.5 -95h307l143 8l-24 -149h-199q0 -135 -17.5 -263.5t-64.5 -228.5q47 -29 106.5 -57.5t106.5 -48.5l-35 -170 q-23 8 -55.5 21t-69.5 30.5t-74.5 37t-74.5 42.5q-59 -59 -145.5 -95t-196.5 -36q-80 0 -151 22.5t-123 65.5t-81.5 104.5t-29.5 140.5zM250 324q0 -84 59.5 -138.5t143.5 -54.5q110 0 184 74q-41 27 -84 61.5t-85 72.5t-79 76t-63 68q-76 -59 -76 -159zM328 811 q0 -47 35.5 -105.5t94 -120t132.5 -123t147 -114.5q37 74 46.5 173.5t9.5 228.5h-215q14 39 14 79q0 119 -123 119q-59 0 -100 -35.5t-41 -101.5z" />
</font>
</defs>
</svg>
